  0
SECTION
  2
HEADER
  9
$ACADVER
  1
AC1015
  9
$ACADMAINTVER
 70
     6
  9
$DWGCODEPAGE
  3
ANSI_1252
  9
$INSBASE
 10
0.0
 20
0.0
 30
0.0
  9
$EXTMIN
 10
0.0
 20
0.0
 30
0.0
  9
$EXTMAX
 10
210.0
 20
297.0
 30
0.0
  9
$LIMMIN
 10
0.0
 20
0.0
  9
$LIMMAX
 10
210.0
 20
297.0
  9
$ORTHOMODE
 70
     0
  9
$REGENMODE
 70
     1
  9
$FILLMODE
 70
     1
  9
$QTEXTMODE
 70
     0
  9
$MIRRTEXT
 70
     1
  9
$LTSCALE
 40
1.0
  9
$ATTMODE
 70
     1
  9
$TEXTSIZE
 40
2.5
  9
$TRACEWID
 40
1.0
  9
$TEXTSTYLE
  7
Standard
  9
$CLAYER
  8
0
  9
$CELTYPE
  6
ByLayer
  9
$CECOLOR
 62
   256
  9
$CELTSCALE
 40
1.0
  9
$DISPSILH
 70
     0
  9
$DIMSCALE
 40
1.0
  9
$DIMASZ
 40
2.5
  9
$DIMEXO
 40
0.625
  9
$DIMDLI
 40
3.75
  9
$DIMRND
 40
0.0
  9
$DIMDLE
 40
0.0
  9
$DIMEXE
 40
1.25
  9
$DIMTP
 40
0.0
  9
$DIMTM
 40
0.0
  9
$DIMTXT
 40
2.5
  9
$DIMCEN
 40
2.5
  9
$DIMTSZ
 40
0.0
  9
$DIMTOL
 70
     0
  9
$DIMLIM
 70
     0
  9
$DIMTIH
 70
     0
  9
$DIMTOH
 70
     0
  9
$DIMSE1
 70
     0
  9
$DIMSE2
 70
     0
  9
$DIMTAD
 70
     1
  9
$DIMZIN
 70
     8
  9
$DIMBLK
  1

  9
$DIMASO
 70
     1
  9
$DIMSHO
 70
     1
  9
$DIMPOST
  1

  9
$DIMAPOST
  1

  9
$DIMALT
 70
     0
  9
$DIMALTD
 70
     3
  9
$DIMALTF
 40
0.0393700787
  9
$DIMLFAC
 40
1.0
  9
$DIMTOFL
 70
     1
  9
$DIMTVP
 40
0.0
  9
$DIMTIX
 70
     0
  9
$DIMSOXD
 70
     0
  9
$DIMSAH
 70
     0
  9
$DIMBLK1
  1

  9
$DIMBLK2
  1

  9
$DIMSTYLE
  2
ISO-25
  9
$DIMCLRD
 70
     0
  9
$DIMCLRE
 70
     0
  9
$DIMCLRT
 70
     0
  9
$DIMTFAC
 40
1.0
  9
$DIMGAP
 40
0.625
  9
$DIMJUST
 70
     0
  9
$DIMSD1
 70
     0
  9
$DIMSD2
 70
     0
  9
$DIMTOLJ
 70
     0
  9
$DIMTZIN
 70
     8
  9
$DIMALTZ
 70
     0
  9
$DIMALTTZ
 70
     0
  9
$DIMUPT
 70
     0
  9
$DIMDEC
 70
     2
  9
$DIMTDEC
 70
     2
  9
$DIMALTU
 70
     2
  9
$DIMALTTD
 70
     3
  9
$DIMTXSTY
  7
Standard
  9
$DIMAUNIT
 70
     0
  9
$DIMADEC
 70
     0
  9
$DIMALTRND
 40
0.0
  9
$DIMAZIN
 70
     0
  9
$DIMDSEP
 70
    44
  9
$DIMATFIT
 70
     3
  9
$DIMFRAC
 70
     0
  9
$DIMLDRBLK
  1

  9
$DIMLUNIT
 70
     2
  9
$DIMLWD
 70
    -2
  9
$DIMLWE
 70
    -2
  9
$DIMTMOVE
 70
     0
  9
$LUNITS
 70
     2
  9
$LUPREC
 70
     4
  9
$SKETCHINC
 40
1.0
  9
$FILLETRAD
 40
10.0
  9
$AUNITS
 70
     0
  9
$AUPREC
 70
     0
  9
$MENU
  1
.
  9
$ELEVATION
 40
0.0
  9
$PELEVATION
 40
0.0
  9
$THICKNESS
 40
0.0
  9
$LIMCHECK
 70
     0
  9
$CHAMFERA
 40
10.0
  9
$CHAMFERB
 40
10.0
  9
$CHAMFERC
 40
20.0
  9
$CHAMFERD
 40
0.0
  9
$SKPOLY
 70
     0
  9
$TDCREATE
 40
2456205.40770169
  9
$TDUCREATE
 40
2456205.324368356
  9
$TDUPDATE
 40
2456205.407701701
  9
$TDUUPDATE
 40
2456205.324368368
  9
$TDINDWG
 40
0.0000000116
  9
$TDUSRTIMER
 40
0.0000000116
  9
$USRTIMER
 70
     1
  9
$ANGBASE
 50
0.0
  9
$ANGDIR
 70
     0
  9
$PDMODE
 70
     0
  9
$PDSIZE
 40
0.0
  9
$PLINEWID
 40
0.0
  9
$SPLFRAME
 70
     0
  9
$SPLINETYPE
 70
     6
  9
$SPLINESEGS
 70
     8
  9
$HANDSEED
  5
3DA
  9
$SURFTAB1
 70
     6
  9
$SURFTAB2
 70
     6
  9
$SURFTYPE
 70
     6
  9
$SURFU
 70
     6
  9
$SURFV
 70
     6
  9
$UCSBASE
  2

  9
$UCSNAME
  2

  9
$UCSORG
 10
0.0
 20
0.0
 30
0.0
  9
$UCSXDIR
 10
1.0
 20
0.0
 30
0.0
  9
$UCSYDIR
 10
0.0
 20
1.0
 30
0.0
  9
$UCSORTHOREF
  2

  9
$UCSORTHOVIEW
 70
     0
  9
$UCSORGTOP
 10
0.0
 20
0.0
 30
0.0
  9
$UCSORGBOTTOM
 10
0.0
 20
0.0
 30
0.0
  9
$UCSORGLEFT
 10
0.0
 20
0.0
 30
0.0
  9
$UCSORGRIGHT
 10
0.0
 20
0.0
 30
0.0
  9
$UCSORGFRONT
 10
0.0
 20
0.0
 30
0.0
  9
$UCSORGBACK
 10
0.0
 20
0.0
 30
0.0
  9
$PUCSBASE
  2

  9
$PUCSNAME
  2

  9
$PUCSORG
 10
0.0
 20
0.0
 30
0.0
  9
$PUCSXDIR
 10
1.0
 20
0.0
 30
0.0
  9
$PUCSYDIR
 10
0.0
 20
1.0
 30
0.0
  9
$PUCSORTHOREF
  2

  9
$PUCSORTHOVIEW
 70
     0
  9
$PUCSORGTOP
 10
0.0
 20
0.0
 30
0.0
  9
$PUCSORGBOTTOM
 10
0.0
 20
0.0
 30
0.0
  9
$PUCSORGLEFT
 10
0.0
 20
0.0
 30
0.0
  9
$PUCSORGRIGHT
 10
0.0
 20
0.0
 30
0.0
  9
$PUCSORGFRONT
 10
0.0
 20
0.0
 30
0.0
  9
$PUCSORGBACK
 10
0.0
 20
0.0
 30
0.0
  9
$USERI1
 70
     0
  9
$USERI2
 70
     0
  9
$USERI3
 70
     0
  9
$USERI4
 70
     0
  9
$USERI5
 70
     0
  9
$USERR1
 40
0.0
  9
$USERR2
 40
0.0
  9
$USERR3
 40
0.0
  9
$USERR4
 40
0.0
  9
$USERR5
 40
0.0
  9
$WORLDVIEW
 70
     1
  9
$SHADEDGE
 70
     3
  9
$SHADEDIF
 70
    70
  9
$TILEMODE
 70
     1
  9
$MAXACTVP
 70
    64
  9
$PINSBASE
 10
0.0
 20
0.0
 30
0.0
  9
$PLIMCHECK
 70
     0
  9
$PEXTMIN
 10
0.0
 20
0.0
 30
0.0
  9
$PEXTMAX
 10
210.0
 20
297.0
 30
0.0
  9
$PLIMMIN
 10
0.0
 20
0.0
  9
$PLIMMAX
 10
210.0
 20
297.0
  9
$UNITMODE
 70
     0
  9
$VISRETAIN
 70
     1
  9
$PLINEGEN
 70
     0
  9
$PSLTSCALE
 70
     1
  9
$TREEDEPTH
 70
  3020
  9
$CMLSTYLE
  2
Standard
  9
$CMLJUST
 70
     0
  9
$CMLSCALE
 40
20.0
  9
$PROXYGRAPHICS
 70
     1
  9
$MEASUREMENT
 70
     1
  9
$CELWEIGHT
370
    -1
  9
$ENDCAPS
280
     0
  9
$JOINSTYLE
280
     0
  9
$LWDISPLAY
290
     0
  9
$INSUNITS
 70
     4
  9
$HYPERLINKBASE
  1

  9
$STYLESHEET
  1

  9
$XEDIT
290
     1
  9
$CEPSNTYPE
380
     0
  9
$PSTYLEMODE
290
     1
  9
$FINGERPRINTGUID
  2
{AA9F1919-0F9F-4F8E-AE8F-E96523221718}
  9
$VERSIONGUID
  2
{FAEB1C32-E019-11D5-929B-00C0DF256EC4}
  9
$EXTNAMES
290
     1
  9
$PSVPSCALE
 40
0.0
  9
$OLESTARTUP
290
     0
  0
ENDSEC
  0
SECTION
  2
CLASSES
  0
CLASS
  1
ACDBDICTIONARYWDFLT
  2
AcDbDictionaryWithDefault
  3
ObjectDBX Classes
 90
        0
280
     0
281
     0
  0
CLASS
  1
VISUALSTYLE
  2
AcDbVisualStyle
  3
ObjectDBX Classes
 90
     4095
280
     0
281
     0
  0
CLASS
  1
MATERIAL
  2
AcDbMaterial
  3
ObjectDBX Classes
 90
     1153
280
     0
281
     0
  0
CLASS
  1
DICTIONARYVAR
  2
AcDbDictionaryVar
  3
ObjectDBX Classes
 90
        0
280
     0
281
     0
  0
CLASS
  1
ACDBPLACEHOLDER
  2
AcDbPlaceHolder
  3
ObjectDBX Classes
 90
        0
280
     0
281
     0
  0
CLASS
  1
LAYOUT
  2
AcDbLayout
  3
ObjectDBX Classes
 90
        0
280
     0
281
     0
  0
ENDSEC
  0
SECTION
  2
TABLES
  0
TABLE
  2
VPORT
  5
8
330
0
100
AcDbSymbolTable
 70
     1
  0
VPORT
  5
29
330
8
100
AcDbSymbolTableRecord
100
AcDbViewportTableRecord
  2
*Active
 70
     0
 10
0.0
 20
0.0
 11
1.0
 21
1.0
 12
344.1869158879
 22
148.5
 13
0.0
 23
0.0
 14
10.0
 24
10.0
 15
10.0
 25
10.0
 16
0.0
 26
0.0
 36
1.0
 17
0.0
 27
0.0
 37
0.0
 40
297.0
 41
1.9729729729
 42
50.0
 43
0.0
 44
0.0
 50
0.0
 51
0.0
 71
     0
 72
   100
 73
     1
 74
     3
 75
     0
 76
     0
 77
     0
 78
     0
281
     0
 65
     1
110
0.0
120
0.0
130
0.0
111
1.0
121
0.0
131
0.0
112
0.0
122
1.0
132
0.0
 79
     0
146
0.0
  0
ENDTAB
  0
TABLE
  2
LTYPE
  5
5
330
0
100
AcDbSymbolTable
 70
     1
  0
LTYPE
  5
14
330
5
100
AcDbSymbolTableRecord
100
AcDbLinetypeTableRecord
  2
ByBlock
 70
     0
  3

 72
    65
 73
     0
 40
0.0
  0
LTYPE
  5
15
330
5
100
AcDbSymbolTableRecord
100
AcDbLinetypeTableRecord
  2
ByLayer
 70
     0
  3

 72
    65
 73
     0
 40
0.0
  0
LTYPE
  5
16
330
5
100
AcDbSymbolTableRecord
100
AcDbLinetypeTableRecord
  2
Continuous
 70
     0
  3
Solid line
 72
    65
 73
     0
 40
0.0
  0
ENDTAB
  0
TABLE
  2
LAYER
  5
2
330
0
100
AcDbSymbolTable
 70
    11
  0
LAYER
  5
10
330
2
100
AcDbSymbolTableRecord
100
AcDbLayerTableRecord
  2
0
 70
     0
 62
     7
  6
Continuous
370
    -3
390
F
  0
LAYER
  5
3F
330
2
100
AcDbSymbolTableRecord
100
AcDbLayerTableRecord
  2
encadrement
 70
     1
 62
    -7
  6
Continuous
370
    -3
390
F
  0
LAYER
  5
45
330
2
100
AcDbSymbolTableRecord
100
AcDbLayerTableRecord
  2
Défaut
 70
     0
 62
     7
  6
Continuous
370
    -3
390
F
  0
LAYER
  5
5B
330
2
100
AcDbSymbolTableRecord
100
AcDbLayerTableRecord
  2
Cartouche
 70
     0
 62
     7
  6
Continuous
370
    -3
390
F
  0
LAYER
  5
5E
330
2
100
AcDbSymbolTableRecord
100
AcDbLayerTableRecord
  2
F116
 70
     0
 62
     7
  6
Continuous
370
    -3
390
F
  0
LAYER
  5
8B
330
2
100
AcDbSymbolTableRecord
100
AcDbLayerTableRecord
  2
K1027
 70
     0
 62
     7
  6
Continuous
370
    -3
390
F
  0
LAYER
  5
8D
330
2
100
AcDbSymbolTableRecord
100
AcDbLayerTableRecord
  2
K113
 70
     0
 62
     7
  6
Continuous
370
    -3
390
F
  0
LAYER
  5
139
330
2
100
AcDbSymbolTableRecord
100
AcDbLayerTableRecord
  2
K132
 70
     0
 62
     7
  6
Continuous
370
    -3
390
F
  0
LAYER
  5
14F
330
2
100
AcDbSymbolTableRecord
100
AcDbLayerTableRecord
  2
U102
 70
     0
 62
     7
  6
Continuous
370
    -3
390
F
  0
LAYER
  5
16C
330
2
100
AcDbSymbolTableRecord
100
AcDbLayerTableRecord
  2
F114
 70
     0
 62
     7
  6
Continuous
370
    -3
390
F
  0
LAYER
  5
346
330
2
100
AcDbSymbolTableRecord
100
AcDbLayerTableRecord
  2
U200
 70
     0
 62
     7
  6
Continuous
370
    -3
390
F
  0
ENDTAB
  0
TABLE
  2
STYLE
  5
3
330
0
100
AcDbSymbolTable
 70
     4
  0
STYLE
  5
11
330
3
100
AcDbSymbolTableRecord
100
AcDbTextStyleTableRecord
  2
Standard
 70
     0
 40
0.0
 41
1.0
 50
0.0
 71
     0
 42
2.5
  3
txt
  4

  0
STYLE
  5
48
330
3
100
AcDbSymbolTableRecord
100
AcDbTextStyleTableRecord
  2
SEACAD_ArialB
 70
     0
 40
0.0
 41
1.0
 50
0.0
 71
     0
 42
0.2
  3
ARIALBD.TTF
  4

1001
ACAD
1000
Arial
1071
 33554432
  0
STYLE
  5
377
330
3
100
AcDbSymbolTableRecord
100
AcDbTextStyleTableRecord
  2
SEACAD_Arial
 70
     0
 40
0.0
 41
1.0
 50
0.0
 71
     0
 42
0.2
  3

  4

1001
ACAD
1000
Arial
1071
        0
  0
STYLE
  5
3A8
330
3
100
AcDbSymbolTableRecord
100
AcDbTextStyleTableRecord
  2
SEACAD_Solid_Edge_ANSI1_SymbolsB
 70
     0
 40
0.0
 41
1.0
 50
0.0
 71
     0
 42
0.2
  3
semeca1.ttf
  4

1001
ACAD
1000
Solid Edge ANSI1 Symbols
1071
 33554432
  0
ENDTAB
  0
TABLE
  2
VIEW
  5
6
330
0
100
AcDbSymbolTable
 70
     0
  0
ENDTAB
  0
TABLE
  2
UCS
  5
7
330
0
100
AcDbSymbolTable
 70
     0
  0
ENDTAB
  0
TABLE
  2
APPID
  5
9
330
0
100
AcDbSymbolTable
 70
     1
  0
APPID
  5
12
330
9
100
AcDbSymbolTableRecord
100
AcDbRegAppTableRecord
  2
ACAD
 70
     0
  0
ENDTAB
  0
TABLE
  2
DIMSTYLE
  5
A
330
0
100
AcDbSymbolTable
 70
     3
100
AcDbDimStyleTable
  0
DIMSTYLE
105
27
330
A
100
AcDbSymbolTableRecord
100
AcDbDimStyleTableRecord
  2
ISO-25
 70
     0
 41
2.5
 42
0.625
 43
3.75
 44
1.25
 73
     0
 74
     0
 77
     1
 78
     8
140
2.5
141
2.5
143
0.0393700787
147
0.625
171
     3
172
     1
178
     0
271
     2
272
     2
274
     3
278
    44
283
     0
284
     8
340
11
  0
DIMSTYLE
105
365
330
A
100
AcDbSymbolTableRecord
100
AcDbDimStyleTableRecord
  2
Standard
 70
     0
178
     0
340
11
  0
DIMSTYLE
105
378
102
{ACAD_REACTORS
330
379
330
383
330
38D
330
397
102
}
330
A
100
AcDbSymbolTableRecord
100
AcDbDimStyleTableRecord
  2
presto
 70
     0
 41
12.0
 42
2.4
 44
1.6
 73
     0
 74
     0
 77
     1
 78
     8
140
8.0
141
0.0
147
4.0
172
     1
173
     1
178
     0
271
     0
272
     0
278
    44
284
     8
340
377
343
372
344
372
  0
ENDTAB
  0
TABLE
  2
BLOCK_RECORD
  5
1
330
0
100
AcDbSymbolTable
 70
    16
  0
BLOCK_RECORD
  5
1F
330
1
100
AcDbSymbolTableRecord
100
AcDbBlockTableRecord
  2
*Model_Space
340
22
  0
BLOCK_RECORD
  5
1B
330
1
100
AcDbSymbolTableRecord
100
AcDbBlockTableRecord
  2
*Paper_Space
340
1E
  0
BLOCK_RECORD
  5
46
330
1
100
AcDbSymbolTableRecord
100
AcDbBlockTableRecord
  2
SEANNOT_GROUP
340
0
102
{BLKREFS
331
47
102
}
  0
BLOCK_RECORD
  5
4C
330
1
100
AcDbSymbolTableRecord
100
AcDbBlockTableRecord
  2
SEANNOT_GROUP1
340
0
102
{BLKREFS
331
4D
102
}
  0
BLOCK_RECORD
  5
51
330
1
100
AcDbSymbolTableRecord
100
AcDbBlockTableRecord
  2
SEANNOT_GROUP2
340
0
102
{BLKREFS
331
52
102
}
  0
BLOCK_RECORD
  5
56
330
1
100
AcDbSymbolTableRecord
100
AcDbBlockTableRecord
  2
SEANNOT_GROUP3
340
0
102
{BLKREFS
331
57
102
}
  0
BLOCK_RECORD
  5
5C
330
1
100
AcDbSymbolTableRecord
100
AcDbBlockTableRecord
  2
SE
340
0
102
{BLKREFS
331
5D
102
}
  0
BLOCK_RECORD
  5
17C
330
1
100
AcDbSymbolTableRecord
100
AcDbBlockTableRecord
  2
SE1
340
0
102
{BLKREFS
331
17D
102
}
  0
BLOCK_RECORD
  5
26C
330
1
100
AcDbSymbolTableRecord
100
AcDbBlockTableRecord
  2
SE2
340
0
102
{BLKREFS
331
26D
102
}
  0
BLOCK_RECORD
  5
366
330
1
100
AcDbSymbolTableRecord
100
AcDbBlockTableRecord
  2
_OBLIQUE
340
0
  0
BLOCK_RECORD
  5
36A
330
1
100
AcDbSymbolTableRecord
100
AcDbBlockTableRecord
  2
_DOT
340
0
  0
BLOCK_RECORD
  5
372
330
1
100
AcDbSymbolTableRecord
100
AcDbBlockTableRecord
  2
_SE_FILLED
340
0
  0
BLOCK_RECORD
  5
37A
330
1
100
AcDbSymbolTableRecord
100
AcDbBlockTableRecord
  2
DMBLK5
340
0
  0
BLOCK_RECORD
  5
384
330
1
100
AcDbSymbolTableRecord
100
AcDbBlockTableRecord
  2
DMBLK6
340
0
  0
BLOCK_RECORD
  5
38E
330
1
100
AcDbSymbolTableRecord
100
AcDbBlockTableRecord
  2
DMBLK7
340
0
  0
BLOCK_RECORD
  5
398
330
1
100
AcDbSymbolTableRecord
100
AcDbBlockTableRecord
  2
DMBLK8
340
0
  0
BLOCK_RECORD
  5
3A1
330
1
100
AcDbSymbolTableRecord
100
AcDbBlockTableRecord
  2
GDimGGroup
340
0
102
{BLKREFS
331
3A2
102
}
  0
ENDTAB
  0
ENDSEC
  0
SECTION
  2
BLOCKS
  0
BLOCK
  5
20
330
1F
100
AcDbEntity
  8
0
100
AcDbBlockBegin
  2
*Model_Space
 70
     0
 10
0.0
 20
0.0
 30
0.0
  3
*Model_Space
  1

  0
ENDBLK
  5
21
330
1F
100
AcDbEntity
  8
0
100
AcDbBlockEnd
  0
BLOCK
  5
1C
330
1B
100
AcDbEntity
 67
     1
  8
0
100
AcDbBlockBegin
  2
*Paper_Space
 70
     0
 10
0.0
 20
0.0
 30
0.0
  3
*Paper_Space
  1

  0
ENDBLK
  5
1D
330
1B
100
AcDbEntity
 67
     1
  8
0
100
AcDbBlockEnd
  0
BLOCK
  5
4A
330
46
100
AcDbEntity
  8
0
100
AcDbBlockBegin
  2
SEANNOT_GROUP
 70
     0
 10
0.0
 20
0.0
 30
0.0
  3
SEANNOT_GROUP
  1

  0
TEXT
  5
49
330
46
100
AcDbEntity
  8
Défaut
  6
Continuous
 62
     7
100
AcDbText
 10
40.4973880795
 20
26.658892213
 30
0.0
 40
3.0
  1
P12 raccord 12x14
  7
SEACAD_ArialB
 11
40.4973880795
 21
29.658892213
 31
0.0
100
AcDbText
 73
     3
  0
ENDBLK
  5
4B
330
46
100
AcDbEntity
  8
0
100
AcDbBlockEnd
  0
BLOCK
  5
4F
330
4C
100
AcDbEntity
  8
0
100
AcDbBlockBegin
  2
SEANNOT_GROUP1
 70
     0
 10
0.0
 20
0.0
 30
0.0
  3
SEANNOT_GROUP1
  1

  0
TEXT
  5
4E
330
4C
100
AcDbEntity
  8
Défaut
  6
Continuous
 62
     7
100
AcDbText
 10
19.3291911396
 20
25.658892213
 30
0.0
 40
5.0
  1
31001
  7
SEACAD_ArialB
 11
19.3291911396
 21
30.658892213
 31
0.0
100
AcDbText
 73
     3
  0
ENDBLK
  5
50
330
4C
100
AcDbEntity
  8
0
100
AcDbBlockEnd
  0
BLOCK
  5
54
330
51
100
AcDbEntity
  8
0
100
AcDbBlockBegin
  2
SEANNOT_GROUP2
 70
     0
 10
0.0
 20
0.0
 30
0.0
  3
SEANNOT_GROUP2
  1

  0
TEXT
  5
53
330
51
100
AcDbEntity
  8
Défaut
  6
Continuous
 62
     7
100
AcDbText
 10
19.7071946564
 20
12.6727620919
 30
0.0
 40
3.0
  1
\\Srvpresto04\Recherche\Std presto\Std\_DOC\31001c\31001.asm
  7
SEACAD_ArialB
 11
19.7071946564
 21
15.6727620919
 31
0.0
100
AcDbText
 73
     3
  0
ENDBLK
  5
55
330
51
100
AcDbEntity
  8
0
100
AcDbBlockEnd
  0
BLOCK
  5
59
330
56
100
AcDbEntity
  8
0
100
AcDbBlockBegin
  2
SEANNOT_GROUP3
 70
     0
 10
0.0
 20
0.0
 30
0.0
  3
SEANNOT_GROUP3
  1

  0
TEXT
  5
58
330
56
100
AcDbEntity
  8
Défaut
  6
Continuous
 62
     7
100
AcDbText
 10
20.0851981732
 20
19.0988218773
 30
0.0
 40
3.0
  1
\\Srvpresto04\Recherche\Std presto\Std\_DOC\31001c\31001_W_1.dft
  7
SEACAD_ArialB
 11
20.0851981732
 21
22.0988218773
 31
0.0
100
AcDbText
 73
     3
  0
ENDBLK
  5
5A
330
56
100
AcDbEntity
  8
0
100
AcDbBlockEnd
  0
BLOCK
  5
17A
330
5C
100
AcDbEntity
  8
0
100
AcDbBlockBegin
  2
SE
 70
     0
 10
0.0
 20
0.0
 30
0.0
  3
SE
  1

  0
LINE
  5
5F
330
5C
100
AcDbEntity
  8
F116
  6
Continuous
 62
     7
100
AcDbLine
 10
112.3033218511
 20
187.5439827795
 30
0.0
 11
112.3033218511
 21
195.5439827795
 31
0.0
  0
LINE
  5
60
330
5C
100
AcDbEntity
  8
F116
  6
Continuous
 62
     7
100
AcDbLine
 10
111.3033218511
 20
186.5439827795
 30
0.0
 11
111.3033218511
 21
196.5439827795
 31
0.0
  0
ARC
  5
61
330
5C
100
AcDbEntity
  8
F116
  6
Continuous
 62
     7
100
AcDbCircle
 10
78.3033205889
 20
232.0504210067
 30
0.0
 40
25.77615296093036
100
AcDbArc
 50
240.8267450378
 51
299.1732652086
  0
ARC
  5
62
330
5C
100
AcDbEntity
  8
F116
  6
Continuous
 62
     7
100
AcDbCircle
 10
78.3033214447
 20
227.3637680968
 30
0.0
 40
19.45724113850921
100
AcDbArc
 50
236.9077571962
 51
303.0922469096
  0
LINE
  5
63
330
5C
100
AcDbEntity
  8
F116
  6
Continuous
 62
     7
100
AcDbLine
 10
68.8033218511
 20
167.4946761701
 30
0.0
 11
87.8033218511
 21
167.4946761701
 31
0.0
  0
LINE
  5
64
330
5C
100
AcDbEntity
  8
F116
  6
Continuous
 62
     7
100
AcDbLine
 10
88.8033218511
 20
166.4946761701
 30
0.0
 11
67.8033218511
 21
166.4946761701
 31
0.0
  0
LINE
  5
65
330
5C
100
AcDbEntity
  8
F116
  6
Continuous
 62
     7
100
AcDbLine
 10
88.8033218511
 20
162.5439827795
 30
0.0
 11
67.8033218511
 21
162.5439827795
 31
0.0
  0
LINE
  5
66
330
5C
100
AcDbEntity
  8
F116
  6
Continuous
 62
     7
100
AcDbLine
 10
87.3033218511
 20
161.0439827795
 30
0.0
 11
69.3033218511
 21
161.0439827795
 31
0.0
  0
LINE
  5
67
330
5C
100
AcDbEntity
  8
F116
  6
Continuous
 62
     7
100
AcDbLine
 10
87.3033218511
 20
159.5439827795
 30
0.0
 11
69.3033218511
 21
159.5439827795
 31
0.0
  0
ARC
  5
68
330
5C
100
AcDbEntity
  8
F116
  6
Continuous
 62
     7
100
AcDbCircle
 10
78.3033231133
 20
151.0375445523
 30
0.0
 40
25.77615296093037
100
AcDbArc
 50
60.8267450378
 51
119.1732652086
  0
ARC
  5
69
330
5C
100
AcDbEntity
  8
F116
  6
Continuous
 62
     7
100
AcDbCircle
 10
78.3033222575
 20
155.7241974622
 30
0.0
 40
19.45724113850912
100
AcDbArc
 50
56.9077571962
 51
123.0922469096
  0
LINE
  5
6A
330
5C
100
AcDbEntity
  8
F116
  6
Continuous
 62
     7
100
AcDbLine
 10
61.3033218511
 20
173.5439827795
 30
0.0
 11
61.3033218511
 21
209.5439827795
 31
0.0
  0
LINE
  5
6B
330
5C
100
AcDbEntity
  8
F116
  6
Continuous
 62
     7
100
AcDbLine
 10
59.3089547836
 20
175.3939827795
 30
0.0
 11
59.3089547836
 21
207.6939827795
 31
0.0
  0
LINE
  5
6C
330
5C
100
AcDbEntity
  8
F116
  6
Continuous
 62
     7
100
AcDbLine
 10
78.3033218511
 20
188.0439827795
 30
0.0
 11
74.8033218511
 21
195.0439827795
 31
0.0
  0
LINE
  5
6D
330
5C
100
AcDbEntity
  8
F116
  6
Continuous
 62
     7
100
AcDbLine
 10
74.8033218511
 20
195.0439827795
 30
0.0
 11
81.8033218511
 21
195.0439827795
 31
0.0
  0
LINE
  5
6E
330
5C
100
AcDbEntity
  8
F116
  6
Continuous
 62
     7
100
AcDbLine
 10
81.8033218511
 20
195.0439827795
 30
0.0
 11
78.3033218511
 21
188.0439827795
 31
0.0
  0
LINE
  5
6F
330
5C
100
AcDbEntity
  8
F116
  6
Continuous
 62
     7
100
AcDbLine
 10
111.3033218511
 20
186.5439827795
 30
0.0
 11
112.3033218511
 21
187.5439827795
 31
0.0
  0
LINE
  5
70
330
5C
100
AcDbEntity
  8
F116
  6
Continuous
 62
     7
100
AcDbLine
 10
112.3033218511
 20
195.5439827795
 30
0.0
 11
111.3033218511
 21
196.5439827795
 31
0.0
  0
LINE
  5
71
330
5C
100
AcDbEntity
  8
F116
  6
Continuous
 62
     7
100
AcDbLine
 10
111.3033218511
 20
196.5439827795
 30
0.0
 11
105.4033218511
 21
196.5439827795
 31
0.0
  0
LINE
  5
72
330
5C
100
AcDbEntity
  8
F116
  6
Continuous
 62
     7
100
AcDbLine
 10
105.4033218511
 20
186.5439827795
 30
0.0
 11
111.3033218511
 21
186.5439827795
 31
0.0
  0
LINE
  5
73
330
5C
100
AcDbEntity
  8
F116
  6
Continuous
 62
     7
100
AcDbLine
 10
88.926753264
 20
211.0626353416
 30
0.0
 11
87.8033218511
 21
215.5932893889
 31
0.0
  0
LINE
  5
74
330
5C
100
AcDbEntity
  8
F116
  6
Continuous
 62
     7
100
AcDbLine
 10
68.8033218511
 20
215.5932893889
 30
0.0
 11
67.6789937967
 21
211.0590193017
 31
0.0
  0
ARC
  5
75
330
5C
100
AcDbEntity
  8
F116
  6
Continuous
 62
     7
100
AcDbCircle
 10
90.8574987732
 20
211.5281859304
 30
0.0
 40
1.981259150834301
100
AcDbArc
 50
193.5552064295
 51
270.2960811469
  0
ARC
  5
76
330
5C
100
AcDbEntity
  8
F116
  6
Continuous
 62
     7
100
AcDbCircle
 10
65.7455746177
 20
211.5323751945
 30
0.0
 40
1.988482234017795
100
AcDbArc
 50
269.940045702
 51
346.2329788238
  0
LINE
  5
77
330
5C
100
AcDbEntity
  8
F116
  6
Continuous
 62
     7
100
AcDbLine
 10
67.6798904382
 20
172.0253302174
 30
0.0
 11
68.8033218511
 21
167.4946761701
 31
0.0
  0
LINE
  5
78
330
5C
100
AcDbEntity
  8
F116
  6
Continuous
 62
     7
100
AcDbLine
 10
87.8033218511
 20
167.4946761701
 30
0.0
 11
88.9276499055
 21
172.0289462573
 31
0.0
  0
LINE
  5
79
330
5C
100
AcDbEntity
  8
F116
  6
Continuous
 62
     7
100
AcDbLine
 10
88.8033218511
 20
166.4946761701
 30
0.0
 11
87.8033218511
 21
167.4946761701
 31
0.0
  0
LINE
  5
7A
330
5C
100
AcDbEntity
  8
F116
  6
Continuous
 62
     7
100
AcDbLine
 10
68.8033218511
 20
167.4946761701
 30
0.0
 11
67.8033218511
 21
166.4946761701
 31
0.0
  0
LINE
  5
7B
330
5C
100
AcDbEntity
  8
F116
  6
Continuous
 62
     7
100
AcDbLine
 10
67.8033218511
 20
166.4946761701
 30
0.0
 11
67.8033218511
 21
162.5439827795
 31
0.0
  0
LINE
  5
7C
330
5C
100
AcDbEntity
  8
F116
  6
Continuous
 62
     7
100
AcDbLine
 10
88.8033218511
 20
162.5439827795
 30
0.0
 11
88.8033218511
 21
166.4946761701
 31
0.0
  0
LINE
  5
7D
330
5C
100
AcDbEntity
  8
F116
  6
Continuous
 62
     7
100
AcDbLine
 10
67.8033218511
 20
162.5439827795
 30
0.0
 11
69.3033218511
 21
161.0439827795
 31
0.0
  0
LINE
  5
7E
330
5C
100
AcDbEntity
  8
F116
  6
Continuous
 62
     7
100
AcDbLine
 10
87.3033218511
 20
161.0439827795
 30
0.0
 11
88.8033218511
 21
162.5439827795
 31
0.0
  0
LINE
  5
7F
330
5C
100
AcDbEntity
  8
F116
  6
Continuous
 62
     7
100
AcDbLine
 10
69.3033218511
 20
161.0439827795
 30
0.0
 11
69.3033218511
 21
159.5439827795
 31
0.0
  0
LINE
  5
80
330
5C
100
AcDbEntity
  8
F116
  6
Continuous
 62
     7
100
AcDbLine
 10
87.3033218511
 20
159.5439827795
 30
0.0
 11
87.3033218511
 21
161.0439827795
 31
0.0
  0
ARC
  5
81
330
5C
100
AcDbEntity
  8
F116
  6
Continuous
 62
     7
100
AcDbCircle
 10
65.749144929
 20
171.5597796286
 30
0.0
 40
1.981259150829078
100
AcDbArc
 50
13.5552064293
 51
90.2960811469
  0
ARC
  5
82
330
5C
100
AcDbEntity
  8
F116
  6
Continuous
 62
     7
100
AcDbCircle
 10
90.8610690845
 20
171.5555903645
 30
0.0
 40
1.988482234016022
100
AcDbArc
 50
89.9400457019
 51
166.2329788237
  0
ARC
  5
83
330
5C
100
AcDbEntity
  8
F116
  6
Continuous
 62
     7
100
AcDbCircle
 10
61.3033218511
 20
207.5439827795
 30
0.0
 40
2.000000000000002
100
AcDbArc
 50
90.0
 51
175.6987776953
  0
ARC
  5
84
330
5C
100
AcDbEntity
  8
F116
  6
Continuous
 62
     7
100
AcDbCircle
 10
61.3033218511
 20
175.5439827795
 30
0.0
 40
1.999999999999999
100
AcDbArc
 50
184.3012223047
 51
270.0
  0
LINE
  5
85
330
5C
100
AcDbEntity
  8
F116
  6
Continuous
 62
     7
100
AcDbLine
 10
65.7431133725
 20
209.5439827795
 30
0.0
 11
61.3033218511
 21
209.5439827795
 31
0.0
  0
LINE
  5
86
330
5C
100
AcDbEntity
  8
F116
  6
Continuous
 62
     7
100
AcDbLine
 10
95.3033218511
 20
209.5439827795
 30
0.0
 11
90.8679654224
 21
209.5439827795
 31
0.0
  0
LINE
  5
87
330
5C
100
AcDbEntity
  8
F116
  6
Continuous
 62
     7
100
AcDbLine
 10
90.8635303297
 20
173.5439827795
 30
0.0
 11
95.3033218511
 21
173.5439827795
 31
0.0
  0
LINE
  5
88
330
5C
100
AcDbEntity
  8
F116
  6
Continuous
 62
     7
100
AcDbLine
 10
61.3033218511
 20
173.5439827795
 30
0.0
 11
65.7386782798
 21
173.5439827795
 31
0.0
  0
LINE
  5
89
330
5C
100
AcDbEntity
  8
F116
  6
Continuous
 62
     7
100
AcDbLine
 10
68.9878218511
 20
161.3594827795
 30
0.0
 11
68.9878218511
 21
167.4946761701
 31
0.0
  0
LINE
  5
8A
330
5C
100
AcDbEntity
  8
F116
  6
Continuous
 62
     7
100
AcDbLine
 10
87.6188218511
 20
161.3594827795
 30
0.0
 11
87.6188218511
 21
167.4946761701
 31
0.0
  0
ARC
  5
8C
330
5C
100
AcDbEntity
  8
K1027
  6
Continuous
 62
     7
100
AcDbCircle
 10
31.5274190149
 20
191.5439827795
 30
0.0
 40
3.624930728728352
100
AcDbArc
 50
148.1688977762
 51
211.8311022238
  0
LINE
  5
8E
330
5C
100
AcDbEntity
  8
K113
  6
Continuous
 62
     7
100
AcDbLine
 10
45.404155416
 20
207.0439827795
 30
0.0
 11
45.404155416
 21
176.0439827795
 31
0.0
  0
LINE
  5
8F
330
5C
100
AcDbEntity
  8
K113
  6
Continuous
 62
     7
100
AcDbLine
 10
28.4476542437
 20
193.5439827795
 30
0.0
 11
28.4476542437
 21
189.5439827795
 31
0.0
  0
LINE
  5
90
330
5C
100
AcDbEntity
  8
K113
  6
Continuous
 62
     7
100
AcDbLine
 10
31.8129258082
 20
208.9217605573
 30
0.0
 11
31.8129258082
 21
174.1662050017
 31
0.0
  0
LINE
  5
91
330
5C
100
AcDbEntity
  8
K113
  6
Continuous
 62
     7
100
AcDbLine
 10
32.9339351021
 20
209.5247635491
 30
0.0
 11
32.9339351021
 21
173.5632020099
 31
0.0
  0
ELLIPSE
  5
92
330
5C
100
AcDbEntity
  8
K113
  6
Continuous
 62
     7
100
AcDbEllipse
 10
74.4041950157
 20
192.0057318878
 30
0.0
 11
-45.9963073831675
 21
-8.131470313223461E-6
 31
0.0
210
0.0
220
0.0
230
1.0
 40
0.6156612277
 41
0.2038056715464304
 42
0.2131389588466792
  0
ARC
  5
93
330
5C
100
AcDbEntity
  8
K113
  6
Continuous
 62
     7
100
AcDbCircle
 10
57.3304155092
 20
185.8124562584
 30
0.0
 40
27.97437131951144
100
AcDbArc
 50
179.0542414739
 51
180.7973936851
  0
SPLINE
  5
94
330
5C
100
AcDbEntity
  8
K113
  6
Continuous
 62
     7
100
AcDbSpline
210
0.0
220
0.0
230
1.0
 70
     8
 71
     3
 72
    35
 73
    31
 74
     0
 42
0.0000000226987264
 43
0.0000000001
 40
0.0
 40
0.0
 40
0.0
 40
0.0
 40
0.1038574849161999
 40
0.1038574849161999
 40
0.1038574849161999
 40
0.208145099708326
 40
0.208145099708326
 40
0.208145099708326
 40
0.3132794528734433
 40
0.3132794528734433
 40
0.3132794528734433
 40
0.4205320405917958
 40
0.4205320405917958
 40
0.4205320405917958
 40
0.5300109781850706
 40
0.5300109781850706
 40
0.5300109781850706
 40
0.6408664358498115
 40
0.6408664358498115
 40
0.6408664358498115
 40
0.7515856970907178
 40
0.7515856970907178
 40
0.7515856970907178
 40
0.8606725104240859
 40
0.8606725104240859
 40
0.8606725104240859
 40
0.9673908401217257
 40
0.9673908401217257
 40
0.9673908401217257
 40
1.0
 40
1.0
 40
1.0
 40
1.0
 10
29.44760045794411
 20
185.1645676178599
 30
0.0
 10
29.4478530033549
 20
185.1464582272469
 30
0.0
 10
29.44728678105374
 20
185.1304849948795
 30
0.0
 10
29.44595236033734
 20
185.1179525250415
 30
0.0
 10
29.44461210620933
 20
185.1053652695917
 30
0.0
 10
29.4424613922022
 20
185.0959029493456
 30
0.0
 10
29.43968725650221
 20
185.0902789822711
 30
0.0
 10
29.43689018489358
 20
185.0846085175451
 30
0.0
 10
29.43338549619749
 20
185.0826805704993
 30
0.0
 10
29.4294641198653
 20
185.0845698843624
 30
0.0
 10
29.42546442490618
 20
185.0864969320349
 30
0.0
 10
29.42092456200682
 20
185.0924419649058
 30
0.0
 10
29.41621184589743
 20
185.1018696834365
 30
0.0
 10
29.41140295033862
 20
185.1114898075262
 30
0.0
 10
29.40628360337742
 20
185.1249963554183
 30
0.0
 10
29.40126842860592
 20
185.1412796025396
 30
0.0
 10
29.39619214311201
 20
185.1577612636825
 30
0.0
 10
29.39108210206749
 20
185.1775465675084
 30
0.0
 10
29.38636445702113
 20
185.1990131076441
 30
0.0
 10
29.38165382525512
 20
185.2204477354883
 30
0.0
 10
29.37720214107359
 20
185.2441664157902
 30
0.0
 10
29.37339779787866
 20
185.2681692762577
 30
0.0
 10
29.36964952884162
 20
185.2918183463023
 30
0.0
 10
29.36642409106346
 20
185.316417008442
 30
0.0
 10
29.36401412533804
 20
185.3398350107865
 30
0.0
 10
29.36165582113091
 20
185.362751010325
 30
0.0
 10
29.36001246479898
 20
185.3851837425248
 30
0.0
 10
29.35923531157536
 20
185.4051868457305
 30
0.0
 10
29.35899462383001
 20
185.4113818940993
 30
0.0
 10
29.35883345184403
 20
185.4173852339632
 30
0.0
 10
29.35875328107877
 20
185.4231454374967
 30
0.0
  0
ARC
  5
95
330
5C
100
AcDbEntity
  8
K113
  6
Continuous
 62
     7
100
AcDbCircle
 10
57.3640925069
 20
185.5538784513
 30
0.0
 40
27.91920639655713
100
AcDbArc
 50
179.0523726299
 51
180.7989693619
  0
SPLINE
  5
96
330
5C
100
AcDbEntity
  8
K113
  6
Continuous
 62
     7
100
AcDbSpline
210
0.0
220
0.0
230
1.0
 70
     8
 71
     3
 72
    35
 73
    31
 74
     0
 42
0.0000000047362878
 43
0.0000000001
 40
0.0
 40
0.0
 40
0.0
 40
0.0
 40
0.1046230373314494
 40
0.1046230373314494
 40
0.1046230373314494
 40
0.2092531589315407
 40
0.2092531589315407
 40
0.2092531589315407
 40
0.3149943894629096
 40
0.3149943894629096
 40
0.3149943894629096
 40
0.4229767152587905
 40
0.4229767152587905
 40
0.4229767152587905
 40
0.5330101085775001
 40
0.5330101085775001
 40
0.5330101085775001
 40
0.6439992374802515
 40
0.6439992374802515
 40
0.6439992374802515
 40
0.754352610785646
 40
0.754352610785646
 40
0.754352610785646
 40
0.8627271122790608
 40
0.8627271122790608
 40
0.8627271122790608
 40
0.9687093418799605
 40
0.9687093418799605
 40
0.9687093418799605
 40
1.0
 40
1.0
 40
1.0
 40
1.0
 10
29.20155835526184
 20
185.9131882563321
 30
0.0
 10
29.20277037580205
 20
185.8258016851573
 30
0.0
 10
29.20797406932543
 20
185.7256254949226
 30
0.0
 10
29.21670621003811
 20
185.6210805790765
 30
0.0
 10
29.22544154160207
 20
185.516497460997
 30
0.0
 10
29.23793963696515
 20
185.4047047389025
 30
0.0
 10
29.2531357357446
 20
185.2948081445656
 30
0.0
 10
29.26849467298755
 20
185.1837339195207
 30
0.0
 10
29.28701696133584
 20
185.0716143258754
 30
0.0
 10
29.30719081923856
 20
184.9672868603852
 30
0.0
 10
29.3277874368737
 20
184.8607731273199
 30
0.0
 10
29.35065791347798
 20
184.7595102766758
 30
0.0
 10
29.37396386070225
 20
184.6714555036378
 30
0.0
 10
29.39770374109395
 20
184.5817612397779
 30
0.0
 10
29.42254371950208
 20
184.5033238527185
 30
0.0
 10
29.44645976569991
 20
184.4425221595718
 30
0.0
 10
29.47057478828917
 20
184.3812146093368
 30
0.0
 10
29.4944213439218
 20
184.33614968175
 30
0.0
 10
29.5159774657531
 20
184.3113399174004
 30
0.0
 10
29.53740603108028
 20
184.2866769627058
 30
0.0
 10
29.55717394415869
 20
184.2813684558252
 30
0.0
 10
29.57352033587962
 20
184.2962865503242
 30
0.0
 10
29.58957513614761
 20
184.3109385317308
 30
0.0
 10
29.60278030746823
 20
184.345552290282
 30
0.0
 10
29.61191695359555
 20
184.3974965824169
 30
0.0
 10
29.6208550257009
 20
184.4483119277956
 30
0.0
 10
29.62614838005685
 20
184.5171556574309
 30
0.0
 10
29.62730547834287
 20
184.598284456541
 30
0.0
 10
29.62765174448662
 20
184.6225625639019
 30
0.0
 10
29.62763943040729
 20
184.6480427712444
 30
0.0
 10
29.62726864211722
 20
184.6745247990245
 30
0.0
  0
ARC
  5
97
330
5C
100
AcDbEntity
  8
K113
  6
Continuous
 62
     7
100
AcDbCircle
 10
57.2708317054
 20
186.3024990554
 30
0.0
 40
28.07197292559698
100
AcDbArc
 50
179.0575299755
 51
180.7946210536
  0
ELLIPSE
  5
98
330
5C
100
AcDbEntity
  8
K113
  6
Continuous
 62
     7
100
AcDbEllipse
 10
74.4041548582
 20
192.0057266662
 30
0.0
 11
-45.99626721613981
 21
9.588435194484227E-8
 31
0.0
210
0.0
220
0.0
230
1.0
 40
0.6156614789
 41
0.1637880390886975
 42
0.1861664705650697
  0
ELLIPSE
  5
99
330
5C
100
AcDbEntity
  8
K113
  6
Continuous
 62
     7
100
AcDbEllipse
 10
74.4041555173
 20
186.926521712
 30
0.0
 11
-45.3844688102875
 21
6.665257755444910E-9
 31
0.0
210
0.0
220
0.0
230
1.0
 40
0.7880107527
 41
6.250128332812031
 42
6.270273891201796
  0
ELLIPSE
  5
9A
330
5C
100
AcDbEntity
  8
K113
  6
Continuous
 62
     7
100
AcDbEllipse
 10
74.4041554362
 20
192.7259989124
 30
0.0
 11
-45.97553699359808
 21
-3.914964923426578E-9
 31
0.0
210
0.0
220
0.0
230
1.0
 40
0.6156614752
 41
0.1638625583263149
 42
0.2309857043449481
  0
ELLIPSE
  5
9B
330
5C
100
AcDbEntity
  8
K113
  6
Continuous
 62
     7
100
AcDbEllipse
 10
74.4041553899
 20
185.0638324661
 30
0.0
 11
44.77961211178241
 21
7.935362436595206E-10
 31
0.0
210
0.0
220
0.0
230
1.0
 40
0.7880107538
 41
3.108088998915084
 42
3.15262554376569
  0
LINE
  5
9C
330
5C
100
AcDbEntity
  8
K113
  6
Continuous
 62
     7
100
AcDbLine
 10
29.6247257468
 20
185.1645676179
 30
0.0
 11
29.4476004579
 21
185.1645676179
 31
0.0
  0
LINE
  5
9D
330
5C
100
AcDbEntity
  8
K113
  6
Continuous
 62
     7
100
AcDbLine
 10
29.5641177632
 20
186.2741970514
 30
0.0
 11
29.3598552583
 21
186.2741970514
 31
0.0
  0
ELLIPSE
  5
9E
330
5C
100
AcDbEntity
  8
K113
  6
Continuous
 62
     7
100
AcDbEllipse
 10
74.4041523278
 20
186.9265217708
 30
0.0
 11
-45.18174101268205
 21
-1.484070427312800E-7
 31
0.0
210
0.0
220
0.0
230
1.0
 40
0.7880107805
 41
-0.0153104083704845
 42
-0.0129693542248397
  0
LINE
  5
9F
330
5C
100
AcDbEntity
  8
K113
  6
Continuous
 62
     7
100
AcDbLine
 10
29.2262111385
 20
187.3882656617
 30
0.0
 11
29.0234695558
 21
187.3882656617
 31
0.0
  0
ELLIPSE
  5
A0
330
5C
100
AcDbEntity
  8
K113
  6
Continuous
 62
     7
100
AcDbEllipse
 10
74.4041560814
 20
192.0057267992
 30
0.0
 11
-45.79625214029777
 21
-1.151255803470870E-7
 31
0.0
210
0.0
220
0.0
230
1.0
 40
0.6156614711
 41
0.164509891808295
 42
0.1869891412771819
  0
LINE
  5
A1
330
5C
100
AcDbEntity
  8
K113
  6
Continuous
 62
     7
100
AcDbLine
 10
29.4062054156
 20
186.7642398702
 30
0.0
 11
29.2026565002
 21
186.7642398702
 31
0.0
  0
ARC
  5
A2
330
5C
100
AcDbEntity
  8
K113
  6
Continuous
 62
     7
100
AcDbCircle
 10
57.3479838322
 20
186.3024990838
 30
0.0
 40
27.94559331334001
100
AcDbArc
 50
179.0532674722
 51
180.0580265825
  0
LINE
  5
A3
330
5C
100
AcDbEntity
  8
K113
  6
Continuous
 62
     7
100
AcDbLine
 10
29.3562255431
 20
185.9131882563
 30
0.0
 11
29.2015583553
 21
185.9131882563
 31
0.0
  0
SPLINE
  5
A4
330
5C
100
AcDbEntity
  8
K113
  6
Continuous
 62
     7
100
AcDbSpline
210
0.0
220
0.0
230
1.0
 70
     8
 71
     3
 72
    14
 73
    10
 74
     0
 42
0.0000000036922912
 43
0.0000000001
 40
0.2774417589199033
 40
0.2774417589199033
 40
0.2774417589199033
 40
0.2774417589199033
 40
0.3150131519985424
 40
0.3150131519985424
 40
0.3150131519985424
 40
0.4230015581905978
 40
0.4230015581905978
 40
0.4230015581905978
 40
0.4895590731376654
 40
0.4895590731376654
 40
0.4895590731376654
 40
0.4895590731376654
 10
29.49032632829812
 20
185.0809451770124
 30
0.0
 10
29.49704026767606
 20
185.0423069452416
 30
0.0
 10
29.50403167706233
 20
185.0042566074185
 30
0.0
 10
29.51123241966319
 20
184.9671904999335
 30
0.0
 10
29.5319240578103
 20
184.8606794737636
 30
0.0
 10
29.55489897075207
 20
184.7594248703553
 30
0.0
 10
29.57831085699054
 20
184.6713795289077
 30
0.0
 10
29.59273516394779
 20
184.6171338770085
 30
0.0
 10
29.60756352333618
 20
184.5670072328004
 30
0.0
 10
29.62234623747212
 20
184.5224101921775
 30
0.0
  0
ELLIPSE
  5
A5
330
5C
100
AcDbEntity
  8
K113
  6
Continuous
 62
     7
100
AcDbEllipse
 10
74.404158491
 20
192.0057271285
 30
0.0
 11
-45.79625455051735
 21
-6.331391491274339E-7
 31
0.0
210
0.0
220
0.0
230
1.0
 40
0.615661456
 41
0.2047085963916691
 42
0.212908717641984
  0
LINE
  5
A6
330
5C
100
AcDbEntity
  8
K113
  6
Continuous
 62
     7
100
AcDbLine
 10
29.6408356279
 20
186.0156192318
 30
0.0
 11
29.448704613
 21
186.0156192318
 31
0.0
  0
ELLIPSE
  5
A7
330
5C
100
AcDbEntity
  8
K113
  6
Continuous
 62
     7
100
AcDbEllipse
 10
74.404153893
 20
185.183641724
 30
0.0
 11
-45.38447101480605
 21
-2.384468664184958E-8
 31
0.0
210
0.0
220
0.0
230
1.0
 40
0.5299192731
 41
6.251654935733311
 42
6.271157146060686
  0
ELLIPSE
  5
A8
330
5C
100
AcDbEntity
  8
K113
  6
Continuous
 62
     7
100
AcDbEllipse
 10
74.4041578861
 20
191.833254715
 30
0.0
 11
-45.99676340622276
 21
-1.293789093546015E-6
 31
0.0
210
0.0
220
0.0
230
1.0
 40
0.8480480744
 41
0.1637857260967953
 42
0.1847130776968029
  0
ELLIPSE
  5
A9
330
5C
100
AcDbEntity
  8
K113
  6
Continuous
 62
     7
100
AcDbEllipse
 10
74.4041599956
 20
184.3796950298
 30
0.0
 11
45.21760895785007
 21
-7.380844199711412E-9
 31
0.0
210
0.0
220
0.0
230
1.0
 40
0.5299192374
 41
3.129520103540825
 42
3.148800925395921
  0
SPLINE
  5
AA
330
5C
100
AcDbEntity
  8
K113
  6
Continuous
 62
     7
100
AcDbSpline
210
0.0
220
0.0
230
1.0
 70
     8
 71
     3
 72
    10
 73
     6
 74
     0
 42
0.0000000626110046
 43
0.0000000001
 40
0.0
 40
0.0
 40
0.0
 40
0.0
 40
0.5
 40
0.5
 40
1.0
 40
1.0
 40
1.0
 40
1.0
 10
29.14898196509576
 20
184.2775490685603
 30
0.0
 10
29.15953967728142
 20
184.228292633277
 30
0.0
 10
29.16972825450098
 20
184.1924501322697
 30
0.0
 10
29.18410181872049
 20
184.1658974206879
 30
0.0
 10
29.18815152443256
 20
184.1756750722722
 30
0.0
 10
29.18772576766698
 20
184.206974224368
 30
0.0
  0
ELLIPSE
  5
AB
330
5C
100
AcDbEntity
  8
K113
  6
Continuous
 62
     7
100
AcDbEllipse
 10
74.4041527376
 20
191.2537023785
 30
0.0
 11
-45.99673563335041
 21
1.385693221300256E-6
 31
0.0
210
0.0
220
0.0
230
1.0
 40
0.8480481197
 41
0.1637858658965738
 42
0.1798089630620882
  0
ELLIPSE
  5
AC
330
5C
100
AcDbEntity
  8
K113
  6
Continuous
 62
     7
100
AcDbEllipse
 10
74.4041556209
 20
185.1836417089
 30
0.0
 11
-45.38447274263543
 21
-2.871971757634206E-9
 31
0.0
210
0.0
220
0.0
230
1.0
 40
0.529919263
 41
0.0120700943906667
 42
0.0315303705339639
  0
ELLIPSE
  5
AD
330
5C
100
AcDbEntity
  8
K113
  6
Continuous
 62
     7
100
AcDbEllipse
 10
74.4041540687
 20
190.7857994537
 30
0.0
 11
-45.97774270648414
 21
7.064076674957384E-7
 31
0.0
210
0.0
220
0.0
230
1.0
 40
0.848048108
 41
0.1638541259732142
 42
0.1835539756601201
  0
SPLINE
  5
AE
330
5C
100
AcDbEntity
  8
K113
  6
Continuous
 62
     7
100
AcDbSpline
210
0.0
220
0.0
230
1.0
 70
     8
 71
     3
 72
    10
 73
     6
 74
     0
 42
0.0000000300792151
 43
0.0000000001
 40
0.0
 40
0.0
 40
0.0
 40
0.0
 40
0.5
 40
0.5
 40
1.0
 40
1.0
 40
1.0
 40
1.0
 10
29.27821286869689
 20
183.5057843770973
 30
0.0
 10
29.27984873270954
 20
183.4444587595509
 30
0.0
 10
29.27210708536868
 20
183.42803046036
 30
0.0
 10
29.24280950732706
 20
183.4887813972584
 30
0.0
 10
29.22145673059681
 20
183.5653226855455
 30
0.0
 10
29.19878151105314
 20
183.6689065454399
 30
0.0
  0
ARC
  5
AF
330
5C
100
AcDbEntity
  8
K113
  6
Continuous
 62
     7
100
AcDbCircle
 10
33.6172032767
 20
183.9000918113
 30
0.0
 40
4.356869990468545
100
AcDbArc
 50
185.1925136609
 51
193.872049936
  0
ELLIPSE
  5
B0
330
5C
100
AcDbEntity
  8
K113
  6
Continuous
 62
     7
100
AcDbEllipse
 10
74.4041586401
 20
190.7858002439
 30
0.0
 11
-45.97774727886091
 21
-2.049771204658789E-6
 31
0.0
210
0.0
220
0.0
230
1.0
 40
0.8480480684
 41
0.2048147828951474
 42
0.216157246572928
  0
SPLINE
  5
B1
330
5C
100
AcDbEntity
  8
K113
  6
Continuous
 62
     7
100
AcDbSpline
210
0.0
220
0.0
230
1.0
 70
     8
 71
     3
 72
    12
 73
     8
 74
     0
 42
0.0000000218147863
 43
0.0000000001
 40
0.0
 40
0.0
 40
0.0
 40
0.0
 40
0.2500000000000004
 40
0.2500000000000004
 40
0.5000000000000008
 40
0.5000000000000008
 40
1.0
 40
1.0
 40
1.0
 40
1.0
 10
29.63207746462335
 20
182.210264501678
 30
0.0
 10
29.63359672225178
 20
182.1629601659758
 30
0.0
 10
29.63116032161854
 20
182.1315923444548
 30
0.0
 10
29.61891034117113
 20
182.103160699423
 30
0.0
 10
29.60906468600248
 20
182.1065438504997
 30
0.0
 10
29.57126379390623
 20
182.1667906621094
 30
0.0
 10
29.53464091746426
 20
182.2752044683236
 30
0.0
 10
29.49636704099825
 20
182.4230180463247
 30
0.0
  0
ELLIPSE
  5
B2
330
5C
100
AcDbEntity
  8
K113
  6
Continuous
 62
     7
100
AcDbEllipse
 10
74.4041554669
 20
182.6140559752
 30
0.0
 11
44.77856175113315
 21
-3.414768467990825E-10
 31
0.0
210
0.0
220
0.0
230
1.0
 40
0.5299192639
 41
3.109635492667326
 42
3.158610251530046
  0
ELLIPSE
  5
B3
330
5C
100
AcDbEntity
  8
K113
  6
Continuous
 62
     7
100
AcDbEllipse
 10
74.4041554254
 20
192.3021659054
 30
0.0
 11
-45.97774406336608
 21
-5.471837935012991E-9
 31
0.0
210
0.0
220
0.0
230
1.0
 40
0.8480480961
 41
0.1638541104406274
 42
0.2310742438028434
  0
ELLIPSE
  5
B4
330
5C
100
AcDbEntity
  8
K113
  6
Continuous
 62
     7
100
AcDbEllipse
 10
74.4041541394
 20
183.7091251554
 30
0.0
 11
45.06269412070314
 21
5.651382140037243E-11
 31
0.0
210
0.0
220
0.0
230
1.0
 40
0.5299192717
 41
3.129478599652676
 42
3.152114221088831
  0
SPLINE
  5
B5
330
5C
100
AcDbEntity
  8
K113
  6
Continuous
 62
     7
100
AcDbSpline
210
0.0
220
0.0
230
1.0
 70
    12
 71
     2
 72
     6
 73
     3
 74
     0
 42
0.0000000324698621
 43
0.0000000001
 40
0.0
 40
0.0
 40
0.0
 40
1.0
 40
1.0
 40
1.0
 10
29.34476646025343
 20
183.9983967220124
 30
0.0
 41
1.0
 10
29.38094304954486
 20
183.8487653095171
 30
0.0
 41
1.0
 10
29.41850032128185
 20
183.6993787494708
 30
0.0
 41
1.0
  0
ELLIPSE
  5
B6
330
5C
100
AcDbEntity
  8
K113
  6
Continuous
 62
     7
100
AcDbEllipse
 10
74.4041541741
 20
183.410107183
 30
0.0
 11
44.98896571341623
 21
2.892980993651761E-10
 31
0.0
210
0.0
220
0.0
230
1.0
 40
0.5299192715
 41
3.129458746028014
 42
3.152131464586904
  0
SPLINE
  5
B7
330
5C
100
AcDbEntity
  8
K113
  6
Continuous
 62
     7
100
AcDbSpline
210
0.0
220
0.0
230
1.0
 70
     8
 71
     3
 72
    11
 73
     7
 74
     0
 42
0.0000000613365632
 43
0.0000000001
 40
0.0
 40
0.0
 40
0.0
 40
0.0
 40
0.103996273147646
 40
0.103996273147646
 40
0.103996273147646
 40
0.1764174590150384
 40
0.1764174590150384
 40
0.1764174590150384
 40
0.1764174590150384
 10
29.41768682187607
 20
183.1588610999485
 30
0.0
 10
29.41789037518175
 20
183.1486262806725
 30
0.0
 10
29.41741299391318
 20
183.1410183400096
 30
0.0
 10
29.4162972776104
 20
183.1366518522614
 30
0.0
 10
29.41552013729404
 20
183.1336104216919
 30
0.0
 10
29.41441899376346
 20
183.1320824512159
 30
0.0
 10
29.41304586915777
 20
183.132084754299
 30
0.0
  0
SPLINE
  5
B8
330
5C
100
AcDbEntity
  8
K113
  6
Continuous
 62
     7
100
AcDbSpline
210
0.0
220
0.0
230
1.0
 70
     8
 71
     3
 72
    29
 73
    25
 74
     0
 42
0.0000000237183178
 43
0.0000000001
 40
0.2083580280612773
 40
0.2083580280612773
 40
0.2083580280612773
 40
0.2083580280612773
 40
0.313553236105758
 40
0.313553236105758
 40
0.313553236105758
 40
0.4208230967543081
 40
0.4208230967543081
 40
0.4208230967543081
 40
0.5302670219467925
 40
0.5302670219467925
 40
0.5302670219467925
 40
0.6410482621497781
 40
0.6410482621497781
 40
0.6410482621497781
 40
0.7516865838949591
 40
0.7516865838949591
 40
0.7516865838949591
 40
0.8607231940352061
 40
0.8607231940352061
 40
0.8607231940352061
 40
0.9674443076475568
 40
0.9674443076475568
 40
0.9674443076475568
 40
1.0
 40
1.0
 40
1.0
 40
1.0
 10
29.41107481393757
 20
183.1329822293665
 30
0.0
 10
29.40874617176809
 20
183.1349512858429
 30
0.0
 10
29.405830395168
 20
183.1402124902204
 30
0.0
 10
29.40256942281039
 20
183.1482847853659
 30
0.0
 10
29.39924470206558
 20
183.1565148849146
 30
0.0
 10
29.39547241367181
 20
183.1678842978174
 30
0.0
 10
29.39155786414624
 20
183.1814446591254
 30
0.0
 10
29.38756531849764
 20
183.1952752062114
 30
0.0
 10
29.38331640992797
 20
183.2117598700015
 30
0.0
 10
29.37915545609582
 20
183.2295546921535
 30
0.0
 10
29.37494523687992
 20
183.2475602036756
 30
0.0
 10
29.37070854946411
 20
183.2674068480142
 30
0.0
 10
29.36679876352074
 20
183.2874537853097
 30
0.0
 10
29.36289500197858
 20
183.3074698332433
 30
0.0
 10
29.35920755245004
 20
183.3282505352274
 30
0.0
 10
29.35605788832751
 20
183.348020638432
 30
0.0
 10
29.35295380257076
 20
183.367504651133
 30
0.0
 10
29.35028467198507
 20
183.3865595975982
 30
0.0
 10
29.34829226538227
 20
183.4035128615108
 30
0.0
 10
29.34634163140665
 20
183.4201106847358
 30
0.0
 10
29.34498512496335
 20
183.4351613792108
 30
0.0
 10
29.34434734480974
 20
183.447345014038
 30
0.0
 10
29.34415015735929
 20
183.4511119231762
 30
0.0
 10
29.34401873846362
 20
183.4546333434418
 30
0.0
 10
29.34395429201053
 20
183.4578790724888
 30
0.0
  0
LINE
  5
B9
330
5C
100
AcDbEntity
  8
K113
  6
Continuous
 62
     7
100
AcDbLine
 10
29.6270449139
 20
182.4230180463
 30
0.0
 11
29.496367041
 21
182.4230180463
 31
0.0
  0
LINE
  5
BA
330
5C
100
AcDbEntity
  8
K113
  6
Continuous
 62
     7
100
AcDbLine
 10
29.591795792
 20
182.8555127194
 30
0.0
 11
29.3874076984
 21
182.8555127194
 31
0.0
  0
LINE
  5
BB
330
5C
100
AcDbEntity
  8
K113
  6
Continuous
 62
     7
100
AcDbLine
 10
29.3430937862
 20
183.5057843771
 30
0.0
 11
29.2782128687
 21
183.5057843771
 31
0.0
  0
LINE
  5
BC
330
5C
100
AcDbEntity
  8
K113
  6
Continuous
 62
     7
100
AcDbLine
 10
29.3415239315
 20
183.6689065454
 30
0.0
 11
29.1987815111
 21
183.6689065454
 31
0.0
  0
LINE
  5
BD
330
5C
100
AcDbEntity
  8
K113
  6
Continuous
 62
     7
100
AcDbLine
 10
29.1176257271
 20
184.4254585825
 30
0.0
 11
29.0422408198
 21
184.4254585825
 31
0.0
  0
LINE
  5
BE
330
5C
100
AcDbEntity
  8
K113
  6
Continuous
 62
     7
100
AcDbLine
 10
29.3912071662
 20
184.2069742244
 30
0.0
 11
29.1877257677
 21
184.2069742244
 31
0.0
  0
LINE
  5
BF
330
5C
100
AcDbEntity
  8
K113
  6
Continuous
 62
     7
100
AcDbLine
 10
29.3160563244
 20
184.6689666017
 30
0.0
 11
29.1898461511
 21
184.6689666017
 31
0.0
  0
SPLINE
  5
C0
330
5C
100
AcDbEntity
  8
K113
  6
Continuous
 62
     7
100
AcDbSpline
210
0.0
220
0.0
230
1.0
 70
     8
 71
     3
 72
    11
 73
     7
 74
     0
 42
0.0000000613127375
 43
0.0000000001
 40
0.0
 40
0.0
 40
0.0
 40
0.0
 40
0.1043911307297574
 40
0.1043911307297574
 40
0.1043911307297574
 40
0.1763975192410471
 40
0.1763975192410471
 40
0.1763975192410471
 40
0.1763975192410471
 10
29.62221311142688
 20
183.1588610999485
 30
0.0
 10
29.62241839032817
 20
183.14858644238
 30
0.0
 10
29.62193413265038
 20
183.1409592377896
 30
0.0
 10
29.62080392226166
 20
183.1366003027848
 30
0.0
 10
29.62002415336194
 20
183.1335929317797
 30
0.0
 10
29.61892268352772
 20
183.1320825797845
 30
0.0
 10
29.61755105453876
 20
183.1320849189518
 30
0.0
  0
ELLIPSE
  5
C1
330
5C
100
AcDbEntity
  8
K113
  6
Continuous
 62
     7
100
AcDbEllipse
 10
74.4041568645
 20
183.4101071813
 30
0.0
 11
44.78445352407407
 21
-2.184847788799793E-9
 31
0.0
210
0.0
220
0.0
230
1.0
 40
0.5299192557
 41
3.138820542313696
 42
3.152179593145221
  0
LINE
  5
C2
330
5C
100
AcDbEntity
  8
K113
  6
Continuous
 62
     7
100
AcDbLine
 10
29.6222131114
 20
183.1588610999
 30
0.0
 11
29.4176868219
 21
183.1588610999
 31
0.0
  0
LINE
  5
C3
330
5C
100
AcDbEntity
  8
K113
  6
Continuous
 62
     7
100
AcDbLine
 10
29.5594485687
 20
183.6993787495
 30
0.0
 11
29.4185003213
 21
183.6993787495
 31
0.0
  0
LINE
  5
C4
330
5C
100
AcDbEntity
  8
K113
  6
Continuous
 62
     7
100
AcDbLine
 10
29.4811432445
 20
183.998396722
 30
0.0
 11
29.3447664603
 21
183.998396722
 31
0.0
  0
LINE
  5
C5
330
5C
100
AcDbEntity
  8
K113
  6
Continuous
 62
     7
100
AcDbLine
 10
29.1371295173
 20
185.4729132735
 30
0.0
 11
29.0229658753
 21
185.4729132735
 31
0.0
  0
ELLIPSE
  5
C6
330
5C
100
AcDbEntity
  8
K113
  6
Continuous
 62
     7
100
AcDbEllipse
 10
74.404174636
 20
190.7858031558
 30
0.0
 11
-45.77766604408062
 21
-1.218842384474988E-5
 31
0.0
210
0.0
220
0.0
230
1.0
 40
0.8480479301
 41
0.2057226367671185
 42
0.2093510331258967
  0
ARC
  5
C7
330
5C
100
AcDbEntity
  8
K113
  6
Continuous
 62
     7
100
AcDbCircle
 10
33.8028656532
 20
183.9002483195
 30
0.0
 40
4.338730442143748
100
AcDbArc
 50
190.1971117739
 51
193.9333442348
  0
ELLIPSE
  5
C8
330
5C
100
AcDbEntity
  8
K113
  6
Continuous
 62
     7
100
AcDbEllipse
 10
74.4041576657
 20
190.7857999925
 30
0.0
 11
-45.77764906916504
 21
-1.183415957242695E-6
 31
0.0
210
0.0
220
0.0
230
1.0
 40
0.8480480763
 41
0.1711656769282404
 42
0.1772316160260752
  0
SPLINE
  5
C9
330
5C
100
AcDbEntity
  8
K113
  6
Continuous
 62
     7
100
AcDbSpline
210
0.0
220
0.0
230
1.0
 70
     8
 71
     3
 72
     8
 73
     4
 74
     0
 42
0.0000000944912269
 43
0.0000000001
 40
0.647632593720745
 40
0.647632593720745
 40
0.647632593720745
 40
0.647632593720745
 40
1.0
 40
1.0
 40
1.0
 40
1.0
 10
29.38588315160012
 20
184.1734029684786
 30
0.0
 10
29.38957711545811
 20
184.1735448759644
 30
0.0
 10
29.39150862019554
 20
184.1849128122619
 30
0.0
 10
29.39120716616118
 20
184.206974224368
 30
0.0
  0
ELLIPSE
  5
CA
330
5C
100
AcDbEntity
  8
K113
  6
Continuous
 62
     7
100
AcDbEllipse
 10
74.4041511655
 20
184.3796950398
 30
0.0
 11
45.01412403943743
 21
6.488846786278923E-9
 31
0.0
210
0.0
220
0.0
230
1.0
 40
0.5299192893
 41
3.142370636812492
 42
3.148833509856147
  0
ELLIPSE
  5
CB
330
5C
100
AcDbEntity
  8
K113
  6
Continuous
 62
     7
100
AcDbEllipse
 10
74.4041553382
 20
191.3329766372
 30
0.0
 11
-45.98223072816089
 21
5.863397743136219E-7
 31
0.0
210
0.0
220
0.0
230
1.0
 40
0.9862856023
 41
0.2129316331923913
 42
0.2311147739561346
  0
ELLIPSE
  5
CC
330
5C
100
AcDbEntity
  8
K113
  6
Continuous
 62
     7
100
AcDbEllipse
 10
74.4041556547
 20
181.9599982192
 30
0.0
 11
44.96192898612426
 21
3.496647416056931E-10
 31
0.0
210
0.0
220
0.0
230
1.0
 40
0.1650476054
 41
3.132768134463937
 42
3.170030679095518
  0
ARC
  5
CD
330
5C
100
AcDbEntity
  8
K113
  6
Continuous
 62
     7
100
AcDbCircle
 10
73.2315811977
 20
191.6209004064
 30
0.0
 40
44.82662483955706
100
AcDbArc
 50
191.9764114762
 51
192.3601632656
  0
ELLIPSE
  5
CE
330
5C
100
AcDbEntity
  8
K113
  6
Continuous
 62
     7
100
AcDbEllipse
 10
74.4041556643
 20
182.2534888913
 30
0.0
 11
45.02521146649467
 21
2.971286411357354E-10
 31
0.0
210
0.0
220
0.0
230
1.0
 40
0.1650476054
 41
3.132780537557031
 42
3.167052298588638
  0
ELLIPSE
  5
CF
330
5C
100
AcDbEntity
  8
K113
  6
Continuous
 62
     7
100
AcDbEllipse
 10
74.4041561292
 20
191.3548050143
 30
0.0
 11
-45.98571828880961
 21
-5.083014290182229E-6
 31
0.0
210
0.0
220
0.0
230
1.0
 40
0.9862855943
 41
0.1879691857643494
 42
0.2062993441138644
  0
ELLIPSE
  5
D0
330
5C
100
AcDbEntity
  8
K113
  6
Continuous
 62
     7
100
AcDbEllipse
 10
74.4041550419
 20
183.0687407574
 30
0.0
 11
45.19025062540965
 21
-5.304905820180394E-10
 31
0.0
210
0.0
220
0.0
230
1.0
 40
0.1650476065
 41
3.132812721147786
 42
3.166959297349583
  0
ARC
  5
D1
330
5C
100
AcDbEntity
  8
K113
  6
Continuous
 62
     7
100
AcDbCircle
 10
73.2141851663
 20
191.6173718588
 30
0.0
 40
44.80887418473768
100
AcDbArc
 50
190.5734802198
 51
190.9130121875
  0
ELLIPSE
  5
D2
330
5C
100
AcDbEntity
  8
K113
  6
Continuous
 62
     7
100
AcDbEllipse
 10
74.4041554131
 20
183.3296213553
 30
0.0
 11
45.2397469723664
 21
-1.522913739560039E-11
 31
0.0
210
0.0
220
0.0
230
1.0
 40
0.1650476059
 41
3.132822327391119
 42
3.170587144778501
  0
ELLIPSE
  5
D3
330
5C
100
AcDbEntity
  8
K113
  6
Continuous
 62
     7
100
AcDbEllipse
 10
74.4041544652
 20
191.3275194351
 30
0.0
 11
-45.98129868358728
 21
5.928046574454893E-6
 31
0.0
210
0.0
220
0.0
230
1.0
 40
0.9862856113
 41
0.1638419652132501
 42
0.1821352461443047
  0
ELLIPSE
  5
D4
330
5C
100
AcDbEntity
  8
K113
  6
Continuous
 62
     7
100
AcDbEllipse
 10
74.4041554391
 20
184.146840768
 30
0.0
 11
45.38446873209761
 21
2.660198450410433E-12
 31
0.0
210
0.0
220
0.0
230
1.0
 40
0.1650476058
 41
3.112690645670625
 42
3.170494661508962
  0
ELLIPSE
  5
D5
330
5C
100
AcDbEntity
  8
K113
  6
Continuous
 62
     7
100
AcDbEllipse
 10
74.4041554337
 20
191.7604459638
 30
0.0
 11
-45.98129965308532
 21
-1.254794200131453E-7
 31
0.0
210
0.0
220
0.0
230
1.0
 40
0.9862856014
 41
0.1638418336518575
 42
0.2311195239235642
  0
ELLIPSE
  5
D6
330
5C
100
AcDbEntity
  8
K113
  6
Continuous
 62
     7
100
AcDbEllipse
 10
74.4041554368
 20
181.1556160935
 30
0.0
 11
44.77789351823237
 21
2.824129818890242E-12
 31
0.0
210
0.0
220
0.0
230
1.0
 40
0.1650476058
 41
3.112299018842847
 42
3.170147589961471
  0
LINE
  5
D7
330
5C
100
AcDbEntity
  8
K113
  6
Continuous
 62
     7
100
AcDbLine
 10
29.1133942314
 20
183.9303775871
 30
0.0
 11
29.0386408023
 21
183.9303775871
 31
0.0
  0
LINE
  5
D8
330
5C
100
AcDbEntity
  8
K113
  6
Continuous
 62
     7
100
AcDbLine
 10
29.2118845517
 20
183.3951060151
 30
0.0
 11
29.166148319
 21
183.3951060151
 31
0.0
  0
LINE
  5
D9
330
5C
100
AcDbEntity
  8
K113
  6
Continuous
 62
     7
100
AcDbLine
 10
29.2623295316
 20
183.1342254176
 30
0.0
 11
29.2156462006
 21
183.1342254176
 31
0.0
  0
LINE
  5
DA
330
5C
100
AcDbEntity
  8
K113
  6
Continuous
 62
     7
100
AcDbLine
 10
29.3131231689
 20
182.879562852
 30
0.0
 11
29.2284428457
 21
182.879562852
 31
0.0
  0
LINE
  5
DB
330
5C
100
AcDbEntity
  8
K113
  6
Continuous
 62
     7
100
AcDbLine
 10
29.4303603869
 20
182.3189735507
 30
0.0
 11
29.3806923666
 21
182.3189735507
 31
0.0
  0
LINE
  5
DC
330
5C
100
AcDbEntity
  8
K113
  6
Continuous
 62
     7
100
AcDbLine
 10
29.4947295962
 20
182.0254828786
 30
0.0
 11
29.443977298
 21
182.0254828786
 31
0.0
  0
LINE
  5
DD
330
5C
100
AcDbEntity
  8
K113
  6
Continuous
 62
     7
100
AcDbLine
 10
29.557261052
 20
181.748992093
 30
0.0
 11
29.4604062781
 21
181.748992093
 31
0.0
  0
ELLIPSE
  5
DE
330
5C
100
AcDbEntity
  8
K113
  6
Continuous
 62
     7
100
AcDbEllipse
 10
74.4041544685
 20
191.7604461234
 30
0.0
 11
-45.98129868634509
 21
-5.913728865462745E-6
 31
0.0
210
0.0
220
0.0
230
1.0
 40
0.9862856113
 41
6.111902818412174
 42
6.119343342279244
  0
ELLIPSE
  5
DF
330
5C
100
AcDbEntity
  8
K113
  6
Continuous
 62
     7
100
AcDbEllipse
 10
74.4041554395
 20
198.941124791
 30
0.0
 11
45.38446873244703
 21
-2.640249130436700E-12
 31
0.0
210
0.0
220
0.0
230
1.0
 40
0.1650476058
 41
-3.170494661508862
 42
-3.169250344166167
  0
ARC
  5
E0
330
5C
100
AcDbEntity
  8
K113
  6
Continuous
 62
     7
100
AcDbCircle
 10
45.5467932504
 20
197.8624496271
 30
0.0
 40
16.45575438073213
100
AcDbArc
 50
166.4326745664
 51
167.5297509679
  0
ARC
  5
E1
330
5C
100
AcDbEntity
  8
K113
  6
Continuous
 62
     7
100
AcDbCircle
 10
72.3912607592
 20
191.8700793011
 30
0.0
 40
43.96089627755264
100
AcDbArc
 50
167.4588454312
 51
167.7407134918
  0
ARC
  5
E2
330
5C
100
AcDbEntity
  8
K113
  6
Continuous
 62
     7
100
AcDbCircle
 10
43.8571596551
 20
197.8948405969
 30
0.0
 40
14.79918573054832
100
AcDbArc
 50
167.0769536256
 51
171.1861163396
  0
ELLIPSE
  5
E3
330
5C
100
AcDbEntity
  8
K113
  6
Continuous
 62
     7
100
AcDbEllipse
 10
74.4041556054
 20
199.9963418113
 30
0.0
 11
45.17794136900383
 21
-1.121516074453766E-10
 31
0.0
210
0.0
220
0.0
230
1.0
 40
0.2164387443
 41
3.124604311424314
 42
3.152793260450486
  0
ARC
  5
E4
330
5C
100
AcDbEntity
  8
K113
  6
Continuous
 62
     7
100
AcDbCircle
 10
27.7463890907
 20
199.9930616626
 30
0.0
 40
1.486460424510836
100
AcDbArc
 50
342.9084299943
 51
355.9014742235
  0
ELLIPSE
  5
E5
330
5C
100
AcDbEntity
  8
K113
  6
Continuous
 62
     7
100
AcDbEllipse
 10
74.4041526486
 20
199.6696341016
 30
0.0
 11
45.24078303353726
 21
-1.551831579904572E-10
 31
0.0
210
0.0
220
0.0
230
1.0
 40
0.2164396206
 41
3.131350405096269
 42
3.152777530852393
  0
ARC
  5
E6
330
5C
100
AcDbEntity
  8
K113
  6
Continuous
 62
     7
100
AcDbCircle
 10
32.8407836113
 20
199.2969382528
 30
0.0
 40
3.70535311500355
100
AcDbArc
 50
168.3496970813
 51
172.6662337233
  0
ELLIPSE
  5
E7
330
5C
100
AcDbEntity
  8
K113
  6
Continuous
 62
     7
100
AcDbEllipse
 10
74.4041551564
 20
199.8949489479
 30
0.0
 11
-45.19771885423557
 21
-1.520400125243349E-9
 31
0.0
210
0.0
220
0.0
230
1.0
 40
0.2164396146
 41
-0.0354261497873756
 42
-0.0153585610225813
  0
ARC
  5
E8
330
5C
100
AcDbEntity
  8
K113
  6
Continuous
 62
     7
100
AcDbCircle
 10
46.4947820705
 20
196.6863519467
 30
0.0
 40
17.62230877508361
100
AcDbArc
 50
168.3614082166
 51
172.5063399634
  0
ELLIPSE
  5
E9
330
5C
100
AcDbEntity
  8
K113
  6
Continuous
 62
     7
100
AcDbEllipse
 10
74.4041578313
 20
198.8661779924
 30
0.0
 11
45.38447532874602
 21
-1.038292715693778E-9
 31
0.0
210
0.0
220
0.0
230
1.0
 40
0.2164396082
 41
3.129537638829545
 42
3.149464621294286
  0
LINE
  5
EA
330
5C
100
AcDbEntity
  8
K113
  6
Continuous
 62
     7
100
AcDbLine
 10
29.042291531
 20
198.7454030931
 30
0.0
 11
29.021088685
 21
198.7888524686
 31
0.0
  0
ARC
  5
EB
330
5C
100
AcDbEntity
  8
K113
  6
Continuous
 62
     7
100
AcDbCircle
 10
25.2052483849
 20
200.0721791633
 30
0.0
 40
4.059955029983317
100
AcDbArc
 50
340.9255941742
 51
351.6794100236
  0
ARC
  5
EC
330
5C
100
AcDbEntity
  8
K113
  6
Continuous
 62
     7
100
AcDbCircle
 10
72.3625116586
 20
191.1830748147
 30
0.0
 40
43.93153351924271
100
AcDbArc
 50
168.8268693806
 51
169.1075330183
  0
ARC
  5
ED
330
5C
100
AcDbEntity
  8
K113
  6
Continuous
 62
     7
100
AcDbCircle
 10
23.7017528599
 20
200.9776484102
 30
0.0
 40
5.707682794407768
100
AcDbArc
 50
347.0224367032
 51
356.3183214547
  0
ELLIPSE
  5
EE
330
5C
100
AcDbEntity
  8
K113
  6
Continuous
 62
     7
100
AcDbEllipse
 10
74.4041555017
 20
200.7915383409
 30
0.0
 11
45.01421637395777
 21
-2.042983837657886E-11
 31
0.0
210
0.0
220
0.0
230
1.0
 40
0.2164396103
 41
3.128862186045549
 42
3.160109684266299
  0
ARC
  5
EF
330
5C
100
AcDbEntity
  8
K113
  6
Continuous
 62
     7
100
AcDbCircle
 10
31.6424808532
 20
200.6023896639
 30
0.0
 40
2.270595620762695
100
AcDbArc
 50
163.5620742477
 51
172.0720905867
  0
ELLIPSE
  5
F0
330
5C
100
AcDbEntity
  8
K113
  6
Continuous
 62
     7
100
AcDbEllipse
 10
74.4041566831
 20
201.1169606775
 30
0.0
 11
44.94278744908456
 21
-3.409720422675732E-10
 31
0.0
210
0.0
220
0.0
230
1.0
 40
0.2164396109
 41
3.128841951113617
 42
3.150411196334266
  0
ARC
  5
F1
330
5C
100
AcDbEntity
  8
K113
  6
Continuous
 62
     7
100
AcDbCircle
 10
27.1522457745
 20
201.2698370089
 30
0.0
 40
2.323162001112285
100
AcDbArc
 50
346.5223927696
 51
354.1036449464
  0
ELLIPSE
  5
F2
330
5C
100
AcDbEntity
  8
K113
  6
Continuous
 62
     7
100
AcDbEllipse
 10
74.4041540279
 20
200.8691149603
 30
0.0
 11
-44.99742129290249
 21
7.478469232768958E-9
 31
0.0
210
0.0
220
0.0
230
1.0
 40
0.2164396173
 41
0.014449953656442
 42
0.0333225893187238
  0
ARC
  5
F3
330
5C
100
AcDbEntity
  8
K113
  6
Continuous
 62
     7
100
AcDbCircle
 10
21.1556981403
 20
202.5749595586
 30
0.0
 40
8.52142136940807
100
AcDbArc
 50
346.2160856171
 51
354.6937672533
  0
ELLIPSE
  5
F4
330
5C
100
AcDbEntity
  8
K113
  6
Continuous
 62
     7
100
AcDbEllipse
 10
74.4041550638
 20
201.878257912
 30
0.0
 11
44.76554254304518
 21
4.150846333317305E-11
 31
0.0
210
0.0
220
0.0
230
1.0
 40
0.2164396148
 41
3.128438535868638
 42
3.151020981264674
  0
SPLINE
  5
F5
330
5C
100
AcDbEntity
  8
K113
  6
Continuous
 62
     7
100
AcDbSpline
210
0.0
220
0.0
230
1.0
 70
     8
 71
     3
 72
    14
 73
    10
 74
     0
 42
0.0000000282011065
 43
0.0000000001
 40
0.0
 40
0.0
 40
0.0
 40
0.0
 40
0.25
 40
0.25
 40
0.5
 40
0.5
 40
0.75
 40
0.75
 40
1.0
 40
1.0
 40
1.0
 40
1.0
 10
29.55023769823588
 20
201.7227686171937
 30
0.0
 10
29.56550121623783
 20
201.7854699749012
 30
0.0
 10
29.57910665917657
 20
201.8391982521385
 30
0.0
 10
29.60304803823663
 20
201.9290079640083
 30
0.0
 10
29.61334279767366
 20
201.9648289056238
 30
0.0
 10
29.62937467421642
 20
202.0141068861732
 30
0.0
 10
29.63534346288588
 20
202.0282980337524
 30
0.0
 10
29.6424694851117
 20
202.0337902500384
 30
0.0
 10
29.64368557984674
 20
202.0254521751881
 30
0.0
 10
29.64248537402965
 20
202.0057049669603
 30
0.0
  0
LINE
  5
F6
330
5C
100
AcDbEntity
  8
K113
  6
Continuous
 62
     7
100
AcDbLine
 10
29.6361992852
 20
201.7227686172
 30
0.0
 11
29.5502376982
 21
201.7227686172
 31
0.0
  0
LINE
  5
F7
330
5C
100
AcDbEntity
  8
K113
  6
Continuous
 62
     7
100
AcDbLine
 10
29.4700451432
 20
200.7283885205
 30
0.0
 11
29.4114304101
 21
200.7283885205
 31
0.0
  0
LINE
  5
F8
330
5C
100
AcDbEntity
  8
K113
  6
Continuous
 62
     7
100
AcDbLine
 10
29.5292694111
 20
201.031180302
 30
0.0
 11
29.4631167488
 21
201.031180302
 31
0.0
  0
LINE
  5
F9
330
5C
100
AcDbEntity
  8
K113
  6
Continuous
 62
     7
100
AcDbLine
 10
29.567326604
 20
201.240988493
 30
0.0
 11
29.465022593
 21
201.240988493
 31
0.0
  0
LINE
  5
FA
330
5C
100
AcDbEntity
  8
K113
  6
Continuous
 62
     7
100
AcDbLine
 10
29.0621552871
 20
198.7888524686
 30
0.0
 11
29.021088685
 21
198.7888524686
 31
0.0
  0
LINE
  5
FB
330
5C
100
AcDbEntity
  8
K113
  6
Continuous
 62
     7
100
AcDbLine
 10
29.1157911427
 20
198.9845915119
 30
0.0
 11
29.0229801753
 21
198.9845915119
 31
0.0
  0
LINE
  5
FC
330
5C
100
AcDbEntity
  8
K113
  6
Continuous
 62
     7
100
AcDbLine
 10
29.2998506214
 20
199.88682169
 30
0.0
 11
29.2290480743
 21
199.88682169
 31
0.0
  0
LINE
  5
FD
330
5C
100
AcDbEntity
  8
K113
  6
Continuous
 62
     7
100
AcDbLine
 10
29.3467970749
 20
200.1624501951
 30
0.0
 11
29.2327333417
 21
200.1624501951
 31
0.0
  0
LINE
  5
FE
330
5C
100
AcDbEntity
  8
K113
  6
Continuous
 62
     7
100
AcDbLine
 10
29.4524568099
 20
201.2045627725
 30
0.0
 11
29.4328178189
 21
201.2045627725
 31
0.0
  0
LINE
  5
FF
330
5C
100
AcDbEntity
  8
K113
  6
Continuous
 62
     7
100
AcDbLine
 10
29.5975638528
 20
201.4157841268
 30
0.0
 11
29.4792587111
 21
201.4157841268
 31
0.0
  0
ARC
  5
100
330
5C
100
AcDbEntity
  8
K113
  6
Continuous
 62
     7
100
AcDbCircle
 10
57.2561396485
 20
196.6593218921
 30
0.0
 40
28.09538927056724
100
AcDbArc
 50
179.214171244
 51
180.785828756
  0
SPLINE
  5
101
330
5C
100
AcDbEntity
  8
K113
  6
Continuous
 62
     7
100
AcDbSpline
210
0.0
220
0.0
230
1.0
 70
     8
 71
     3
 72
    10
 73
     6
 74
     0
 42
0.000000071158584
 43
0.0000000001
 40
0.0
 40
0.0
 40
0.0
 40
0.0
 40
0.5
 40
0.5
 40
1.0
 40
1.0
 40
1.0
 40
1.0
 10
29.20318717793502
 20
196.2395274486882
 30
0.0
 10
29.1933256586873
 20
196.2072743872295
 30
0.0
 10
29.18344367857757
 20
196.192391869415
 30
0.0
 10
29.16870147962536
 20
196.204624602241
 30
0.0
 10
29.16396931216002
 20
196.2319686424
 30
0.0
 10
29.16339284034164
 20
196.2739973043445
 30
0.0
  0
ELLIPSE
  5
102
330
5C
100
AcDbEntity
  8
K113
  6
Continuous
 62
     7
100
AcDbEllipse
 10
74.4041565453
 20
191.0010559018
 30
0.0
 11
-45.99484106998538
 21
2.198147520124718E-7
 31
0.0
210
0.0
220
0.0
230
1.0
 40
0.6156614682
 41
-0.2075348550534635
 42
-0.1860639504677888
  0
ARC
  5
103
330
5C
100
AcDbEntity
  8
K113
  6
Continuous
 62
     7
100
AcDbCircle
 10
28.4369762118
 20
197.1155301297
 30
0.0
 40
0.9992632480358458
100
AcDbArc
 50
343.7422240596
 51
0.0562716027
  0
ARC
  5
104
330
5C
100
AcDbEntity
  8
K113
  6
Continuous
 62
     7
100
AcDbCircle
 10
57.3595589899
 20
197.5018361184
 30
0.0
 40
27.92597850618839
100
AcDbArc
 50
179.2094037737
 51
180.7905962263
  0
SPLINE
  5
105
330
5C
100
AcDbEntity
  8
K113
  6
Continuous
 62
     7
100
AcDbSpline
210
0.0
220
0.0
230
1.0
 70
     8
 71
     3
 72
    10
 73
     6
 74
     0
 42
0.0000000708055572
 43
0.0000000001
 40
0.0
 40
0.0
 40
0.0
 40
0.0
 40
0.5
 40
0.5
 40
1.0
 40
1.0
 40
1.0
 40
1.0
 10
29.39628078954304
 20
197.9216305618226
 30
0.0
 10
29.40727340820437
 20
197.9537711283373
 30
0.0
 10
29.41784105451001
 20
197.968739937886
 30
0.0
 10
29.43269522313528
 20
197.9566111666852
 30
0.0
 10
29.43681948577201
 20
197.9292283717006
 30
0.0
 10
29.43623897794297
 20
197.8871607061663
 30
0.0
  0
ELLIPSE
  5
106
330
5C
100
AcDbEntity
  8
K113
  6
Continuous
 62
     7
100
AcDbEllipse
 10
74.4041565546
 20
192.0869093788
 30
0.0
 11
-45.99484107931905
 21
2.198307658953999E-7
 31
0.0
210
0.0
220
0.0
230
1.0
 40
0.6156614681
 41
-0.2075348550315059
 42
-0.1860639504479593
  0
ARC
  5
107
330
5C
100
AcDbEntity
  8
K113
  6
Continuous
 62
     7
100
AcDbCircle
 10
30.3782805271
 20
197.0156228182
 30
0.0
 40
1.215234324873535
100
AcDbArc
 50
165.232589976
 51
178.6314643883
  0
ARC
  5
108
330
5C
100
AcDbEntity
  8
K113
  6
Continuous
 62
     7
100
AcDbCircle
 10
26.1688288165
 20
197.264660922
 30
0.0
 40
3.455212109762326
100
AcDbArc
 50
343.1338436495
 51
0.8336177624
  0
ELLIPSE
  5
109
330
5C
100
AcDbEntity
  8
K113
  6
Continuous
 62
     7
100
AcDbEllipse
 10
74.4041555011
 20
190.2681781197
 30
0.0
 11
-45.97149969493598
 21
1.597680212954422E-8
 31
0.0
210
0.0
220
0.0
230
1.0
 40
0.6156614748
 41
-0.2133964131015924
 42
-0.1804359428602735
  0
SPLINE
  5
10A
330
5C
100
AcDbEntity
  8
K113
  6
Continuous
 62
     7
100
AcDbSpline
210
0.0
220
0.0
230
1.0
 70
     8
 71
     3
 72
    12
 73
     8
 74
     0
 42
0.0000000191292543
 43
0.0000000001
 40
0.0
 40
0.0
 40
0.0
 40
0.0
 40
0.2500000000000009
 40
0.2500000000000009
 40
0.5000000000000018
 40
0.5000000000000018
 40
1.0
 40
1.0
 40
1.0
 40
1.0
 10
29.02800319919459
 20
195.4766314735824
 30
0.0
 10
29.02991764498634
 20
195.397859188789
 30
0.0
 10
29.03541433545082
 20
195.3328452473399
 30
0.0
 10
29.05275192383559
 20
195.2361249890787
 30
0.0
 10
29.06458184298404
 20
195.2051832853474
 30
0.0
 10
29.10639776531049
 20
195.1705410430671
 30
0.0
 10
29.14310821677774
 20
195.2263111565088
 30
0.0
 10
29.17897769986916
 20
195.3473695148716
 30
0.0
  0
ARC
  5
10B
330
5C
100
AcDbEntity
  8
K113
  6
Continuous
 62
     7
100
AcDbCircle
 10
57.2048216873
 20
196.1614280581
 30
0.0
 40
28.18513875205948
100
AcDbArc
 50
178.607783494
 51
181.392216506
  0
ARC
  5
10C
330
5C
100
AcDbEntity
  8
K113
  6
Continuous
 62
     7
100
AcDbCircle
 10
33.7943340981
 20
196.6998921856
 30
0.0
 40
4.76857666664727
100
AcDbArc
 50
165.4363197708
 51
178.2414986242
  0
ELLIPSE
  5
10D
330
5C
100
AcDbEntity
  8
K113
  6
Continuous
 62
     7
100
AcDbEllipse
 10
74.4041554994
 20
192.8197874186
 30
0.0
 11
-45.97149969327422
 21
1.669869234208199E-8
 31
0.0
210
0.0
220
0.0
230
1.0
 40
0.6156614748
 41
-0.2133964130961985
 42
-0.1804359428543281
  0
SPLINE
  5
10E
330
5C
100
AcDbEntity
  8
K113
  6
Continuous
 62
     7
100
AcDbSpline
210
0.0
220
0.0
230
1.0
 70
     8
 71
     3
 72
    12
 73
     8
 74
     0
 42
0.0000000190484098
 43
0.0000000001
 40
0.0
 40
0.0
 40
0.0
 40
0.0
 40
0.2499999999999992
 40
0.2499999999999992
 40
0.4999999999999984
 40
0.4999999999999984
 40
1.0
 40
1.0
 40
1.0
 40
1.0
 10
29.62367522560823
 20
198.6845234928714
 30
0.0
 10
29.62561705892888
 20
198.7633738015899
 30
0.0
 10
29.62318014356649
 20
198.8285815455978
 30
0.0
 10
29.61010330772576
 20
198.9253712525821
 30
0.0
 10
29.59942611782622
 20
198.9562704356119
 30
0.0
 10
29.55812352112681
 20
198.9904594955468
 30
0.0
 10
29.5177809261164
 20
198.9341514806728
 30
0.0
 10
29.47541542653542
 20
198.8137854515823
 30
0.0
  0
ARC
  5
10F
330
5C
100
AcDbEntity
  8
K113
  6
Continuous
 62
     7
100
AcDbCircle
 10
57.4306046476
 20
197.9997269084
 30
0.0
 40
27.81536032916449
100
AcDbArc
 50
178.5892716001
 51
181.4107283999
  0
LINE
  5
110
330
5C
100
AcDbEntity
  8
K113
  6
Continuous
 62
     7
100
AcDbLine
 10
29.6154716333
 20
197.8871607062
 30
0.0
 11
29.4362389779
 21
197.8871607062
 31
0.0
  0
LINE
  5
111
330
5C
100
AcDbEntity
  8
K113
  6
Continuous
 62
     7
100
AcDbLine
 10
29.6408500334
 20
197.1165115307
 30
0.0
 11
29.4362389779
 21
197.1165115307
 31
0.0
  0
LINE
  5
112
330
5C
100
AcDbEntity
  8
K113
  6
Continuous
 62
     7
100
AcDbLine
 10
29.6007093611
 20
196.8357770849
 30
0.0
 11
29.3962807895
 21
196.8357770849
 31
0.0
  0
ELLIPSE
  5
113
330
5C
100
AcDbEntity
  8
K113
  6
Continuous
 62
     7
100
AcDbEllipse
 10
74.4041551183
 20
191.001056077
 30
0.0
 11
-45.79481710723256
 21
-5.687522338943679E-8
 31
0.0
210
0.0
220
0.0
230
1.0
 40
0.6156614772
 41
-0.2084546639289959
 42
-0.1868862207451301
  0
LINE
  5
114
330
5C
100
AcDbEntity
  8
K113
  6
Continuous
 62
     7
100
AcDbLine
 10
29.4067384939
 20
196.2395274487
 30
0.0
 11
29.2031871779
 21
196.2395274487
 31
0.0
  0
SPLINE
  5
115
330
5C
100
AcDbEntity
  8
K113
  6
Continuous
 62
     7
100
AcDbSpline
210
0.0
220
0.0
230
1.0
 70
     8
 71
     3
 72
     8
 73
     4
 74
     0
 42
0.0000000807152495
 43
0.0000000001
 40
0.0
 40
0.0
 40
0.0
 40
0.0
 40
0.4251469598494095
 40
0.4251469598494095
 40
0.4251469598494095
 40
0.4251469598494095
 10
29.40673849393018
 20
196.2395274486882
 30
0.0
 10
29.39831433805021
 20
196.2120994981376
 30
0.0
 10
29.38987849288606
 20
196.1972365648865
 30
0.0
 10
29.38298901994557
 20
196.1971603795743
 30
0.0
  0
LINE
  5
116
330
5C
100
AcDbEntity
  8
K113
  6
Continuous
 62
     7
100
AcDbLine
 10
29.6205006127
 20
198.8137854516
 30
0.0
 11
29.4754154265
 21
198.8137854516
 31
0.0
  0
ELLIPSE
  5
117
330
5C
100
AcDbEntity
  8
K113
  6
Continuous
 62
     7
100
AcDbEllipse
 10
74.4041550949
 20
192.8197874686
 30
0.0
 11
-45.77137475514596
 21
-6.227086489681011E-8
 31
0.0
210
0.0
220
0.0
230
1.0
 40
0.6156614774
 41
-0.208368307884764
 42
-0.1812335909673912
  0
LINE
  5
118
330
5C
100
AcDbEntity
  8
K113
  6
Continuous
 62
     7
100
AcDbLine
 10
29.3824195604
 20
197.8989788143
 30
0.0
 11
29.1789776999
 21
197.8989788143
 31
0.0
  0
ARC
  5
119
330
5C
100
AcDbEntity
  8
K113
  6
Continuous
 62
     7
100
AcDbCircle
 10
33.9771664721
 20
196.6997824878
 30
0.0
 40
4.748659917565038
100
AcDbArc
 50
165.3725098459
 51
166.3550869966
  0
LINE
  5
11A
330
5C
100
AcDbEntity
  8
K113
  6
Continuous
 62
     7
100
AcDbLine
 10
29.1613720365
 20
196.8462246426
 30
0.0
 11
29.0280031992
 21
196.8462246426
 31
0.0
  0
ARC
  5
11B
330
5C
100
AcDbEntity
  8
K113
  6
Continuous
 62
     7
100
AcDbCircle
 10
57.2816763771
 20
196.1614280581
 30
0.0
 40
28.05926884643414
100
AcDbArc
 50
179.9270990214
 51
181.3178599105
  0
LINE
  5
11C
330
5C
100
AcDbEntity
  8
K113
  6
Continuous
 62
     7
100
AcDbLine
 10
29.2177819069
 20
195.4766314736
 30
0.0
 11
29.0280031992
 21
195.4766314736
 31
0.0
  0
ELLIPSE
  5
11D
330
5C
100
AcDbEntity
  8
K113
  6
Continuous
 62
     7
100
AcDbEllipse
 10
74.4041566354
 20
199.758682071
 30
0.0
 11
-44.96854420584364
 21
-1.764345440580239E-8
 31
0.0
210
0.0
220
0.0
230
1.0
 40
0.5299192571
 41
0.0103927923295864
 42
0.0299605023837414
  0
ELLIPSE
  5
11E
330
5C
100
AcDbEntity
  8
K113
  6
Continuous
 62
     7
100
AcDbEllipse
 10
74.4041553509
 20
191.2963301455
 30
0.0
 11
-45.99762588462864
 21
-3.675626914379643E-8
 31
0.0
210
0.0
220
0.0
230
1.0
 40
0.8480480967
 41
6.071007831255739
 42
6.119402659999077
  0
ARC
  5
11F
330
5C
100
AcDbEntity
  8
K113
  6
Continuous
 62
     7
100
AcDbCircle
 10
41.766028051
 20
197.9043238521
 30
0.0
 40
12.74634500944973
100
AcDbArc
 50
178.8867126847
 51
181.1132873153
  0
ELLIPSE
  5
120
330
5C
100
AcDbEntity
  8
K113
  6
Continuous
 62
     7
100
AcDbEllipse
 10
74.4041553521
 20
191.7916354343
 30
0.0
 11
-45.99762588583494
 21
-3.607237154378690E-8
 31
0.0
210
0.0
220
0.0
230
1.0
 40
0.8480480967
 41
6.07100783127121
 42
6.119402660013878
  0
ELLIPSE
  5
121
330
5C
100
AcDbEntity
  8
K113
  6
Continuous
 62
     7
100
AcDbEllipse
 10
74.4041537776
 20
199.7586820767
 30
0.0
 11
-44.96854134806553
 21
-2.559408761315662E-8
 31
0.0
210
0.0
220
0.0
230
1.0
 40
0.5299192739
 41
6.253218980751626
 42
6.272792514010309
  0
ELLIPSE
  5
122
330
5C
100
AcDbEntity
  8
K113
  6
Continuous
 62
     7
100
AcDbEllipse
 10
74.4041605165
 20
192.2579633998
 30
0.0
 11
-45.9802690642332
 21
3.392901283061703E-6
 31
0.0
210
0.0
220
0.0
230
1.0
 40
0.8480480526
 41
-0.2307824176586291
 42
-0.2122587433779302
  0
ELLIPSE
  5
123
330
5C
100
AcDbEntity
  8
K113
  6
Continuous
 62
     7
100
AcDbEllipse
 10
74.4041554431
 20
200.4633246164
 30
0.0
 11
44.78149501461456
 21
-1.328451237903039E-11
 31
0.0
210
0.0
220
0.0
230
1.0
 40
0.5299192641
 41
3.111501123843467
 42
3.171678336411563
  0
ELLIPSE
  5
124
330
5C
100
AcDbEntity
  8
K113
  6
Continuous
 62
     7
100
AcDbEllipse
 10
74.4041556287
 20
190.8301398301
 30
0.0
 11
-45.9802718430012
 21
1.405288561299317E-7
 31
0.0
210
0.0
220
0.0
230
1.0
 40
0.8480480943
 41
-0.2307824506399374
 42
-0.2122587785959631
  0
LINE
  5
125
330
5C
100
AcDbEntity
  8
K113
  6
Continuous
 62
     7
100
AcDbLine
 10
29.6226638963
 20
200.4726636554
 30
0.0
 11
29.4558013599
 21
200.4726636554
 31
0.0
  0
LINE
  5
126
330
5C
100
AcDbEntity
  8
K113
  6
Continuous
 62
     7
100
AcDbLine
 10
29.6309647757
 20
200.0063347028
 30
0.0
 11
29.438040937
 21
200.0063347028
 31
0.0
  0
ELLIPSE
  5
127
330
5C
100
AcDbEntity
  8
K113
  6
Continuous
 62
     7
100
AcDbEllipse
 10
74.4041553477
 20
191.7916354351
 30
0.0
 11
-45.79761551388747
 21
-3.897308658521587E-8
 31
0.0
210
0.0
220
0.0
230
1.0
 40
0.8480480968
 41
-0.2120650366273678
 42
-0.2000882508631383
  0
LINE
  5
128
330
5C
100
AcDbEntity
  8
K113
  6
Continuous
 62
     7
100
AcDbLine
 10
29.1224808682
 20
198.1519764967
 30
0.0
 11
29.0220891282
 21
198.1519764967
 31
0.0
  0
LINE
  5
129
330
5C
100
AcDbEntity
  8
K113
  6
Continuous
 62
     7
100
AcDbLine
 10
29.5777883557
 20
199.5110294138
 30
0.0
 11
29.438040937
 21
199.5110294138
 31
0.0
  0
ARC
  5
12A
330
5C
100
AcDbEntity
  8
K113
  6
Continuous
 62
     7
100
AcDbCircle
 10
32.738822104
 20
208.5439827795
 30
0.0
 40
0.9999999999999996
100
AcDbArc
 50
78.7486752997
 51
157.8038991432
  0
ARC
  5
12B
330
5C
100
AcDbEntity
  8
K113
  6
Continuous
 62
     7
100
AcDbCircle
 10
32.738822104
 20
174.5439827795
 30
0.0
 40
1.0
100
AcDbArc
 50
202.1961008568
 51
281.2513247003
  0
LINE
  5
12C
330
5C
100
AcDbEntity
  8
K113
  6
Continuous
 62
     7
100
AcDbLine
 10
32.9339351021
 20
173.5632020099
 30
0.0
 11
45.404155416
 21
176.0439827795
 31
0.0
  0
LINE
  5
12D
330
5C
100
AcDbEntity
  8
K113
  6
Continuous
 62
     7
100
AcDbLine
 10
45.404155416
 20
207.0439827795
 30
0.0
 11
32.9339351021
 21
209.5247635491
 31
0.0
  0
LINE
  5
12E
330
5C
100
AcDbEntity
  8
K113
  6
Continuous
 62
     7
100
AcDbLine
 10
29.432006453
 20
185.0838565277
 30
0.0
 11
29.624550488
 21
185.0838565277
 31
0.0
  0
LINE
  5
12F
330
5C
100
AcDbEntity
  8
K113
  6
Continuous
 62
     7
100
AcDbLine
 10
29.1823742361
 20
184.1732646675
 30
0.0
 11
29.3858255713
 21
184.1732646675
 31
0.0
  0
LINE
  5
130
330
5C
100
AcDbEntity
  8
K113
  6
Continuous
 62
     7
100
AcDbLine
 10
29.412679149
 20
183.1320723185
 30
0.0
 11
29.6171803185
 21
183.1320723185
 31
0.0
  0
LINE
  5
131
330
5C
100
AcDbEntity
  8
K113
  6
Continuous
 62
     7
100
AcDbLine
 10
29.5680099947
 20
201.2449390413
 30
0.0
 11
29.4642025725
 21
201.2449390413
 31
0.0
  0
LINE
  5
132
330
5C
100
AcDbEntity
  8
K113
  6
Continuous
 62
     7
100
AcDbLine
 10
29.1677287859
 20
199.5561490717
 30
0.0
 11
29.2362868577
 21
199.5561490717
 31
0.0
  0
ARC
  5
133
330
5C
100
AcDbEntity
  8
K113
  6
Continuous
 62
     7
100
AcDbCircle
 10
74.404155416
 20
191.5439827795
 30
0.0
 40
45.99999999999999
100
AcDbArc
 50
170.4847208694
 51
177.508093631
  0
ARC
  5
134
330
5C
100
AcDbEntity
  8
K113
  6
Continuous
 62
     7
100
AcDbCircle
 10
74.404155416
 20
191.5439827795
 30
0.0
 40
46.00000000000001
100
AcDbArc
 50
157.8038991432
 51
170.0524900249
  0
ARC
  5
135
330
5C
100
AcDbEntity
  8
K113
  6
Continuous
 62
     7
100
AcDbCircle
 10
74.404155416
 20
191.5439827795
 30
0.0
 40
46.00000000000001
100
AcDbArc
 50
189.9475099751
 51
202.1961008568
  0
ARC
  5
136
330
5C
100
AcDbEntity
  8
K113
  6
Continuous
 62
     7
100
AcDbCircle
 10
74.404155416
 20
191.5439827795
 30
0.0
 40
46.00000000000001
100
AcDbArc
 50
182.491906369
 51
189.5152791306
  0
LINE
  5
137
330
5C
100
AcDbEntity
  8
K113
  6
Continuous
 62
     7
100
AcDbLine
 10
29.6152667446
 20
197.9640284111
 30
0.0
 11
29.4216714438
 21
197.9640284111
 31
0.0
  0
LINE
  5
138
330
5C
100
AcDbEntity
  8
K113
  6
Continuous
 62
     7
100
AcDbLine
 10
29.1796133203
 20
196.1971295994
 30
0.0
 11
29.3830616192
 21
196.1971295994
 31
0.0
  0
LINE
  5
13A
330
5C
100
AcDbEntity
  8
K132
  6
Continuous
 62
     7
100
AcDbLine
 10
56.9033218511
 20
176.5439827795
 30
0.0
 11
56.9033218511
 21
206.5439827795
 31
0.0
  0
LINE
  5
13B
330
5C
100
AcDbEntity
  8
K132
  6
Continuous
 62
     7
100
AcDbLine
 10
57.9033218511
 20
175.5439827795
 30
0.0
 11
57.9033218511
 21
207.5439827795
 31
0.0
  0
LINE
  5
13C
330
5C
100
AcDbEntity
  8
K132
  6
Continuous
 62
     7
100
AcDbLine
 10
56.7033218511
 20
204.4439827795
 30
0.0
 11
56.7033218511
 21
197.9432014818
 31
0.0
  0
ARC
  5
13D
330
5C
100
AcDbEntity
  8
K132
  6
Continuous
 62
     7
100
AcDbCircle
 10
55.9033218511
 20
205.0439827795
 30
0.0
 40
0.9999999999911778
100
AcDbArc
 50
269.9999999997
 51
323.1301023544
  0
ARC
  5
13E
330
5C
100
AcDbEntity
  8
K132
  6
Continuous
 62
     7
100
AcDbCircle
 10
55.9033218512
 20
205.0439827795
 30
0.0
 40
0.9999999999004869
100
AcDbArc
 50
323.1301023523
 51
0.0
  0
LINE
  5
13F
330
5C
100
AcDbEntity
  8
K132
  6
Continuous
 62
     7
100
AcDbLine
 10
45.404155416
 20
204.0439827795
 30
0.0
 11
55.9033218511
 21
204.0439827795
 31
0.0
  0
LINE
  5
140
330
5C
100
AcDbEntity
  8
K132
  6
Continuous
 62
     7
100
AcDbLine
 10
45.404155416
 20
179.0439827795
 30
0.0
 11
55.9033218511
 21
179.0439827795
 31
0.0
  0
ARC
  5
141
330
5C
100
AcDbEntity
  8
K132
  6
Continuous
 62
     7
100
AcDbCircle
 10
55.9033218511
 20
178.0439827795
 30
0.0
 40
0.9999999999911839
100
AcDbArc
 50
36.8698976456
 51
90.0000000003
  0
ARC
  5
142
330
5C
100
AcDbEntity
  8
K132
  6
Continuous
 62
     7
100
AcDbCircle
 10
55.9033218512
 20
178.0439827795
 30
0.0
 40
0.9999999999005169
100
AcDbArc
 50
0.0
 51
36.8698976477
  0
LINE
  5
143
330
5C
100
AcDbEntity
  8
K132
  6
Continuous
 62
     7
100
AcDbLine
 10
45.404155416
 20
198.6931086002
 30
0.0
 11
55.9033218511
 21
198.6931086002
 31
0.0
  0
LINE
  5
144
330
5C
100
AcDbEntity
  8
K132
  6
Continuous
 62
     7
100
AcDbLine
 10
55.9033218511
 20
198.6931086002
 30
0.0
 11
55.9033218511
 21
184.3948569588
 31
0.0
  0
SPLINE
  5
145
330
5C
100
AcDbEntity
  8
K132
  6
Continuous
 62
     7
100
AcDbSpline
210
0.0
220
0.0
230
1.0
 70
     8
 71
     3
 72
    12
 73
     8
 74
     0
 42
0.0000000085128033
 43
0.0000000001
 40
0.0
 40
0.0
 40
0.0
 40
0.0
 40
0.2500000000000002
 40
0.2500000000000002
 40
0.5000000000000004
 40
0.5000000000000004
 40
1.0
 40
1.0
 40
1.0
 40
1.0
 10
55.90332185109842
 20
198.6931086001758
 30
0.0
 10
56.00841389129099
 20
198.6931086001758
 30
0.0
 10
56.10972654120086
 20
198.6631815723579
 30
0.0
 10
56.28610229321093
 20
198.5667222404371
 30
0.0
 10
56.36051154475542
 20
198.5023201387459
 30
0.0
 10
56.55272392499093
 20
198.2867135482327
 30
0.0
 10
56.63777035999185
 20
198.1193926231697
 30
0.0
 10
56.70332185109842
 20
197.9432014818002
 30
0.0
  0
ARC
  5
146
330
5C
100
AcDbEntity
  8
K132
  6
Continuous
 62
     7
100
AcDbCircle
 10
54.6393573556
 20
197.0079198156
 30
0.0
 40
2.265987915699841
100
AcDbArc
 50
2.4214984393
 51
24.3775684454
  0
LINE
  5
147
330
5C
100
AcDbEntity
  8
K132
  6
Continuous
 62
     7
100
AcDbLine
 10
56.7033218511
 20
185.1447640772
 30
0.0
 11
56.7033218511
 21
178.6439827795
 31
0.0
  0
SPLINE
  5
148
330
5C
100
AcDbEntity
  8
K132
  6
Continuous
 62
     7
100
AcDbSpline
210
0.0
220
0.0
230
1.0
 70
     8
 71
     3
 72
    12
 73
     8
 74
     0
 42
0.0000000085128033
 43
0.0000000001
 40
0.0
 40
0.0
 40
0.0
 40
0.0
 40
0.2499999999999998
 40
0.2499999999999998
 40
0.4999999999999997
 40
0.4999999999999997
 40
1.0
 40
1.0
 40
1.0
 40
1.0
 10
55.90332185109842
 20
184.3948569588037
 30
0.0
 10
56.00841389129099
 20
184.3948569588037
 30
0.0
 10
56.10972654120086
 20
184.4247839866216
 30
0.0
 10
56.28610229321093
 20
184.5212433185424
 30
0.0
 10
56.36051154475542
 20
184.5856454202337
 30
0.0
 10
56.55272392499093
 20
184.8012520107469
 30
0.0
 10
56.63777035999185
 20
184.9685729358098
 30
0.0
 10
56.70332185109842
 20
185.1447640771793
 30
0.0
  0
ARC
  5
149
330
5C
100
AcDbEntity
  8
K132
  6
Continuous
 62
     7
100
AcDbCircle
 10
54.6393573556
 20
186.0800457434
 30
0.0
 40
2.265987915699931
100
AcDbArc
 50
335.6224315546
 51
357.5785015607
  0
LINE
  5
14A
330
5C
100
AcDbEntity
  8
K132
  6
Continuous
 62
     7
100
AcDbLine
 10
45.404155416
 20
184.3948569588
 30
0.0
 11
55.9033218511
 21
184.3948569588
 31
0.0
  0
ARC
  5
14B
330
5C
100
AcDbEntity
  8
K132
  6
Continuous
 62
     7
100
AcDbCircle
 10
57.9033218511
 20
206.5439827795
 30
0.0
 40
1.000000000000001
100
AcDbArc
 50
90.0
 51
180.0
  0
ARC
  5
14C
330
5C
100
AcDbEntity
  8
K132
  6
Continuous
 62
     7
100
AcDbCircle
 10
57.9033218511
 20
176.5439827795
 30
0.0
 40
1.000000000000001
100
AcDbArc
 50
180.0
 51
270.0
  0
LINE
  5
14D
330
5C
100
AcDbEntity
  8
K132
  6
Continuous
 62
     7
100
AcDbLine
 10
59.3089547836
 20
207.5439827795
 30
0.0
 11
57.9033218511
 21
207.5439827795
 31
0.0
  0
LINE
  5
14E
330
5C
100
AcDbEntity
  8
K132
  6
Continuous
 62
     7
100
AcDbLine
 10
57.9033218511
 20
175.5439827795
 30
0.0
 11
59.3089547836
 21
175.5439827795
 31
0.0
  0
LINE
  5
150
330
5C
100
AcDbEntity
  8
U102
  6
Continuous
 62
     7
100
AcDbLine
 10
67.2853726587
 20
227.0439827795
 30
0.0
 11
89.3212710435
 21
227.0439827795
 31
0.0
  0
LINE
  5
151
330
5C
100
AcDbEntity
  8
U102
  6
Continuous
 62
     7
100
AcDbLine
 10
65.5911902644
 20
226.0439827795
 30
0.0
 11
65.5533218511
 21
226.0439827795
 31
0.0
  0
LINE
  5
152
330
5C
100
AcDbEntity
  8
U102
  6
Continuous
 62
     7
100
AcDbLine
 10
65.5911902644
 20
216.5439827795
 30
0.0
 11
65.5533218511
 21
216.5439827795
 31
0.0
  0
LINE
  5
153
330
5C
100
AcDbEntity
  8
U102
  6
Continuous
 62
     7
100
AcDbLine
 10
67.2853726587
 20
215.5439827795
 30
0.0
 11
89.3212710435
 21
215.5439827795
 31
0.0
  0
LINE
  5
154
330
5C
100
AcDbEntity
  8
U102
  6
Continuous
 62
     7
100
AcDbLine
 10
71.0968691508
 20
226.0439827795
 30
0.0
 11
72.7976429647
 21
226.0439827795
 31
0.0
  0
LINE
  5
155
330
5C
100
AcDbEntity
  8
U102
  6
Continuous
 62
     7
100
AcDbLine
 10
83.8090007375
 20
226.0439827795
 30
0.0
 11
85.5097745514
 21
226.0439827795
 31
0.0
  0
LINE
  5
156
330
5C
100
AcDbEntity
  8
U102
  6
Continuous
 62
     7
100
AcDbLine
 10
91.0154534378
 20
226.0439827795
 30
0.0
 11
91.0533218511
 21
226.0439827795
 31
0.0
  0
SPLINE
  5
157
330
5C
100
AcDbEntity
  8
U102
  6
Continuous
 62
     7
100
AcDbSpline
210
0.0
220
0.0
230
1.0
 70
     8
 71
     3
 72
    14
 73
    10
 74
     0
 42
0.0000000008976017
 43
0.0000000001
 40
0.0
 40
0.0
 40
0.0
 40
0.0
 40
0.2499999999999999
 40
0.2499999999999999
 40
0.4999999999999999
 40
0.4999999999999999
 40
0.7499999999999998
 40
0.7499999999999998
 40
1.0
 40
1.0
 40
1.0
 40
1.0
 10
72.79764296471213
 20
226.0439827794898
 30
0.0
 10
73.70158236227314
 20
226.2693441012055
 30
0.0
 10
74.60986125772857
 20
226.4505230714168
 30
0.0
 10
76.43765859644701
 20
226.6984461937878
 30
0.0
 10
77.3572227205295
 20
226.7647252492766
 30
0.0
 10
79.2091868399958
 20
226.7665956651573
 30
0.0
 10
80.14543919655455
 20
226.7009937560562
 30
0.0
 10
81.9901972161459
 20
226.4520520402315
 30
0.0
 10
82.90315498628483
 20
226.269819374633
 30
0.0
 10
83.80900073748471
 20
226.0439827794898
 30
0.0
  0
ARC
  5
158
330
5C
100
AcDbEntity
  8
U102
  6
Continuous
 62
     7
100
AcDbCircle
 10
88.2626139946
 20
221.1137011796
 30
0.0
 40
5.646751424850192
100
AcDbArc
 50
60.8230448929
 51
119.1769551071
  0
ARC
  5
159
330
5C
100
AcDbEntity
  8
U102
  6
Continuous
 62
     7
100
AcDbCircle
 10
68.3440297076
 20
221.0857391294
 30
0.0
 40
5.67118198385902
100
AcDbArc
 50
60.9607660589
 51
119.0392339411
  0
LINE
  5
15A
330
5C
100
AcDbEntity
  8
U102
  6
Continuous
 62
     7
100
AcDbLine
 10
71.0968691508
 20
216.5439827795
 30
0.0
 11
72.7976429647
 21
216.5439827795
 31
0.0
  0
LINE
  5
15B
330
5C
100
AcDbEntity
  8
U102
  6
Continuous
 62
     7
100
AcDbLine
 10
83.8090007375
 20
216.5439827795
 30
0.0
 11
85.5097745514
 21
216.5439827795
 31
0.0
  0
LINE
  5
15C
330
5C
100
AcDbEntity
  8
U102
  6
Continuous
 62
     7
100
AcDbLine
 10
91.0154534378
 20
216.5439827795
 30
0.0
 11
91.0533218511
 21
216.5439827795
 31
0.0
  0
LINE
  5
15D
330
5C
100
AcDbEntity
  8
U102
  6
Continuous
 62
     7
100
AcDbLine
 10
71.0968691508
 20
226.0439827795
 30
0.0
 11
71.0968691508
 21
216.5439827795
 31
0.0
  0
ARC
  5
15E
330
5C
100
AcDbEntity
  8
U102
  6
Continuous
 62
     7
100
AcDbCircle
 10
68.3440297076
 20
221.5022264296
 30
0.0
 40
5.671181983859021
100
AcDbArc
 50
240.9607660589
 51
299.0392339411
  0
LINE
  5
15F
330
5C
100
AcDbEntity
  8
U102
  6
Continuous
 62
     7
100
AcDbLine
 10
65.5911902644
 20
216.5439827795
 30
0.0
 11
65.5911902644
 21
226.0439827795
 31
0.0
  0
LINE
  5
160
330
5C
100
AcDbEntity
  8
U102
  6
Continuous
 62
     7
100
AcDbLine
 10
91.0154534378
 20
226.0439827795
 30
0.0
 11
91.0154534378
 21
216.5439827795
 31
0.0
  0
ARC
  5
161
330
5C
100
AcDbEntity
  8
U102
  6
Continuous
 62
     7
100
AcDbCircle
 10
88.2626139946
 20
221.4742643794
 30
0.0
 40
5.646751424850172
100
AcDbArc
 50
240.8230448929
 51
299.1769551071
  0
LINE
  5
162
330
5C
100
AcDbEntity
  8
U102
  6
Continuous
 62
     7
100
AcDbLine
 10
85.5097745514
 20
216.5439827795
 30
0.0
 11
85.5097745514
 21
226.0439827795
 31
0.0
  0
LINE
  5
163
330
5C
100
AcDbEntity
  8
U102
  6
Continuous
 62
     7
100
AcDbLine
 10
83.8090007375
 20
226.0439827795
 30
0.0
 11
83.8090007375
 21
216.5439827795
 31
0.0
  0
SPLINE
  5
164
330
5C
100
AcDbEntity
  8
U102
  6
Continuous
 62
     7
100
AcDbSpline
210
0.0
220
0.0
230
1.0
 70
     8
 71
     3
 72
    14
 73
    10
 74
     0
 42
0.0000000008976017
 43
0.0000000001
 40
0.0
 40
0.0
 40
0.0
 40
0.0
 40
0.2500000000000002
 40
0.2500000000000002
 40
0.5000000000000001
 40
0.5000000000000001
 40
0.75
 40
0.75
 40
1.0
 40
1.0
 40
1.0
 40
1.0
 10
83.80900073748471
 20
216.5439827794898
 30
0.0
 10
82.9050613399237
 20
216.3186214577741
 30
0.0
 10
81.99678244446825
 20
216.1374424875628
 30
0.0
 10
80.16898510574984
 20
215.8895193651918
 30
0.0
 10
79.24942098166733
 20
215.823240309703
 30
0.0
 10
77.39745686220105
 20
215.8213698938223
 30
0.0
 10
76.46120450564229
 20
215.8869718029234
 30
0.0
 10
74.6164464860509
 20
216.1359135187482
 30
0.0
 10
73.70348871591197
 20
216.3181461843466
 30
0.0
 10
72.79764296471213
 20
216.5439827794898
 30
0.0
  0
LINE
  5
165
330
5C
100
AcDbEntity
  8
U102
  6
Continuous
 62
     7
100
AcDbLine
 10
72.7976429647
 20
216.5439827795
 30
0.0
 11
72.7976429647
 21
226.0439827795
 31
0.0
  0
LINE
  5
166
330
5C
100
AcDbEntity
  8
U102
  6
Continuous
 62
     7
100
AcDbLine
 10
91.0533218511
 20
226.0439827795
 30
0.0
 11
89.3212710435
 21
227.0439827795
 31
0.0
  0
LINE
  5
167
330
5C
100
AcDbEntity
  8
U102
  6
Continuous
 62
     7
100
AcDbLine
 10
67.2853726587
 20
227.0439827795
 30
0.0
 11
65.5533218511
 21
226.0439827795
 31
0.0
  0
LINE
  5
168
330
5C
100
AcDbEntity
  8
U102
  6
Continuous
 62
     7
100
AcDbLine
 10
65.5533218511
 20
216.5439827795
 30
0.0
 11
67.2853726587
 21
215.5439827795
 31
0.0
  0
LINE
  5
169
330
5C
100
AcDbEntity
  8
U102
  6
Continuous
 62
     7
100
AcDbLine
 10
89.3212710435
 20
215.5439827795
 30
0.0
 11
91.0533218511
 21
216.5439827795
 31
0.0
  0
LINE
  5
16A
330
5C
100
AcDbEntity
  8
U102
  6
Continuous
 62
     7
100
AcDbLine
 10
91.0533218511
 20
216.5439827795
 30
0.0
 11
91.0533218511
 21
226.0439827795
 31
0.0
  0
LINE
  5
16B
330
5C
100
AcDbEntity
  8
U102
  6
Continuous
 62
     7
100
AcDbLine
 10
65.5533218511
 20
226.0439827795
 30
0.0
 11
65.5533218511
 21
216.5439827795
 31
0.0
  0
LINE
  5
16D
330
5C
100
AcDbEntity
  8
F114
  6
Continuous
 62
     7
100
AcDbLine
 10
105.4033218511
 20
219.0439827795
 30
0.0
 11
105.4033218511
 21
164.0439827795
 31
0.0
  0
LINE
  5
16E
330
5C
100
AcDbEntity
  8
F114
  6
Continuous
 62
     7
100
AcDbLine
 10
103.4033218511
 20
219.0439827795
 30
0.0
 11
103.4033218511
 21
164.0439827795
 31
0.0
  0
LINE
  5
16F
330
5C
100
AcDbEntity
  8
F114
  6
Continuous
 62
     7
100
AcDbLine
 10
102.3119377418
 20
218.5730020825
 30
0.0
 11
102.3119377418
 21
164.5149634765
 31
0.0
  0
LINE
  5
170
330
5C
100
AcDbEntity
  8
F114
  6
Continuous
 62
     7
100
AcDbLine
 10
95.7119377418
 20
211.5730020825
 30
0.0
 11
95.7119377418
 21
171.5149634765
 31
0.0
  0
LINE
  5
171
330
5C
100
AcDbEntity
  8
F114
  6
Continuous
 62
     7
100
AcDbLine
 10
95.3033218511
 20
210.5439827795
 30
0.0
 11
95.3033218511
 21
172.5439827795
 31
0.0
  0
LINE
  5
172
330
5C
100
AcDbEntity
  8
F114
  6
Continuous
 62
     7
100
AcDbLine
 10
103.4033218511
 20
164.0439827795
 30
0.0
 11
105.4033218511
 21
164.0439827795
 31
0.0
  0
LINE
  5
173
330
5C
100
AcDbEntity
  8
F114
  6
Continuous
 62
     7
100
AcDbLine
 10
105.4033218511
 20
219.0439827795
 30
0.0
 11
103.4033218511
 21
219.0439827795
 31
0.0
  0
ARC
  5
174
330
5C
100
AcDbEntity
  8
F114
  6
Continuous
 62
     7
100
AcDbCircle
 10
103.4033218511
 20
165.5439827795
 30
0.0
 40
1.500000000000003
100
AcDbArc
 50
223.3153156821
 51
270.0
  0
ARC
  5
175
330
5C
100
AcDbEntity
  8
F114
  6
Continuous
 62
     7
100
AcDbCircle
 10
103.4033218511
 20
217.5439827795
 30
0.0
 40
1.500000000000001
100
AcDbArc
 50
90.0
 51
136.6846843179
  0
LINE
  5
176
330
5C
100
AcDbEntity
  8
F114
  6
Continuous
 62
     7
100
AcDbLine
 10
102.3119377418
 20
218.5730020825
 30
0.0
 11
95.7119377418
 21
211.5730020825
 31
0.0
  0
LINE
  5
177
330
5C
100
AcDbEntity
  8
F114
  6
Continuous
 62
     7
100
AcDbLine
 10
95.7119377418
 20
171.5149634765
 30
0.0
 11
102.3119377418
 21
164.5149634765
 31
0.0
  0
ARC
  5
178
330
5C
100
AcDbEntity
  8
F114
  6
Continuous
 62
     7
100
AcDbCircle
 10
96.8033218511
 20
172.5439827795
 30
0.0
 40
1.500000000000001
100
AcDbArc
 50
180.0
 51
223.3153156821
  0
ARC
  5
179
330
5C
100
AcDbEntity
  8
F114
  6
Continuous
 62
     7
100
AcDbCircle
 10
96.8033218511
 20
210.5439827795
 30
0.0
 40
1.499999999999998
100
AcDbArc
 50
136.6846843179
 51
180.0
  0
ENDBLK
  5
17B
330
5C
100
AcDbEntity
  8
0
100
AcDbBlockEnd
  0
BLOCK
  5
26A
330
17C
100
AcDbEntity
  8
0
100
AcDbBlockBegin
  2
SE1
 70
     0
 10
0.0
 20
0.0
 30
0.0
  3
SE1
  1

  0
ARC
  5
17E
330
17C
100
AcDbEntity
  8
F116
  6
Continuous
 62
     7
100
AcDbCircle
 10
162.7309078259
 20
195.2251098463
 30
0.0
 40
15.84555548782184
100
AcDbArc
 50
53.1632449693
 51
126.8367465089
  0
LINE
  5
17F
330
17C
100
AcDbEntity
  8
F116
  6
Continuous
 62
     7
100
AcDbLine
 10
153.2309077857
 20
167.4946761701
 30
0.0
 11
172.2309077857
 21
167.4946761701
 31
0.0
  0
LINE
  5
180
330
17C
100
AcDbEntity
  8
F116
  6
Continuous
 62
     7
100
AcDbLine
 10
152.2309077857
 20
166.4946761701
 30
0.0
 11
173.2309077857
 21
166.4946761701
 31
0.0
  0
LINE
  5
181
330
17C
100
AcDbEntity
  8
F116
  6
Continuous
 62
     7
100
AcDbLine
 10
152.2309077857
 20
162.5439827795
 30
0.0
 11
173.2309077857
 21
162.5439827795
 31
0.0
  0
LINE
  5
182
330
17C
100
AcDbEntity
  8
F116
  6
Continuous
 62
     7
100
AcDbLine
 10
153.7309077857
 20
161.0439827795
 30
0.0
 11
171.7309077857
 21
161.0439827795
 31
0.0
  0
LINE
  5
183
330
17C
100
AcDbEntity
  8
F116
  6
Continuous
 62
     7
100
AcDbLine
 10
153.7309077857
 20
159.5439827795
 30
0.0
 11
171.7309077857
 21
159.5439827795
 31
0.0
  0
ARC
  5
184
330
17C
100
AcDbEntity
  8
F116
  6
Continuous
 62
     7
100
AcDbCircle
 10
162.7309078259
 20
187.8628557127
 30
0.0
 40
15.84555548782181
100
AcDbArc
 50
233.1632534911
 51
306.8367550307
  0
LINE
  5
185
330
17C
100
AcDbEntity
  8
F116
  6
Continuous
 62
     7
100
AcDbLine
 10
172.2309077857
 20
207.9175271491
 30
0.0
 11
172.2309077857
 21
215.5439827795
 31
0.0
  0
LINE
  5
186
330
17C
100
AcDbEntity
  8
F116
  6
Continuous
 62
     7
100
AcDbLine
 10
153.2309077857
 20
215.5439827795
 30
0.0
 11
153.2309077857
 21
207.9158632417
 31
0.0
  0
ARC
  5
187
330
17C
100
AcDbEntity
  8
F116
  6
Continuous
 62
     7
100
AcDbCircle
 10
151.2438216857
 20
207.8981980712
 30
0.0
 40
1.98394750263277
100
AcDbArc
 50
306.4741147401
 51
0.5063488434
  0
ARC
  5
188
330
17C
100
AcDbEntity
  8
F116
  6
Continuous
 62
     7
100
AcDbCircle
 10
174.2193758989
 20
207.8987844075
 30
0.0
 40
1.985200924270891
100
AcDbArc
 50
179.474098265
 51
233.4584252109
  0
LINE
  5
189
330
17C
100
AcDbEntity
  8
F116
  6
Continuous
 62
     7
100
AcDbLine
 10
153.2309077857
 20
175.1721023173
 30
0.0
 11
153.2309077857
 21
167.4946761701
 31
0.0
  0
LINE
  5
18A
330
17C
100
AcDbEntity
  8
F116
  6
Continuous
 62
     7
100
AcDbLine
 10
172.2309077857
 20
167.4946761701
 30
0.0
 11
172.2309077857
 21
175.1704384099
 31
0.0
  0
LINE
  5
18B
330
17C
100
AcDbEntity
  8
F116
  6
Continuous
 62
     7
100
AcDbLine
 10
173.2309077857
 20
166.4946761701
 30
0.0
 11
172.2309077857
 21
167.4946761701
 31
0.0
  0
LINE
  5
18C
330
17C
100
AcDbEntity
  8
F116
  6
Continuous
 62
     7
100
AcDbLine
 10
153.2309077857
 20
167.4946761701
 30
0.0
 11
152.2309077857
 21
166.4946761701
 31
0.0
  0
LINE
  5
18D
330
17C
100
AcDbEntity
  8
F116
  6
Continuous
 62
     7
100
AcDbLine
 10
152.2309077857
 20
166.4946761701
 30
0.0
 11
152.2309077857
 21
162.5439827795
 31
0.0
  0
LINE
  5
18E
330
17C
100
AcDbEntity
  8
F116
  6
Continuous
 62
     7
100
AcDbLine
 10
173.2309077857
 20
162.5439827795
 30
0.0
 11
173.2309077857
 21
166.4946761701
 31
0.0
  0
LINE
  5
18F
330
17C
100
AcDbEntity
  8
F116
  6
Continuous
 62
     7
100
AcDbLine
 10
152.2309077857
 20
162.5439827795
 30
0.0
 11
153.7309077857
 21
161.0439827795
 31
0.0
  0
LINE
  5
190
330
17C
100
AcDbEntity
  8
F116
  6
Continuous
 62
     7
100
AcDbLine
 10
171.7309077857
 20
161.0439827795
 30
0.0
 11
173.2309077857
 21
162.5439827795
 31
0.0
  0
LINE
  5
191
330
17C
100
AcDbEntity
  8
F116
  6
Continuous
 62
     7
100
AcDbLine
 10
153.7309077857
 20
161.0439827795
 30
0.0
 11
153.7309077857
 21
159.5439827795
 31
0.0
  0
LINE
  5
192
330
17C
100
AcDbEntity
  8
F116
  6
Continuous
 62
     7
100
AcDbLine
 10
171.7309077857
 20
159.5439827795
 30
0.0
 11
171.7309077857
 21
161.0439827795
 31
0.0
  0
ARC
  5
193
330
17C
100
AcDbEntity
  8
F116
  6
Continuous
 62
     7
100
AcDbCircle
 10
174.227019148
 20
175.1827601305
 30
0.0
 40
1.994922978449556
100
AcDbArc
 50
126.6073631845
 51
180.3306828752
  0
ARC
  5
194
330
17C
100
AcDbEntity
  8
F116
  6
Continuous
 62
     7
100
AcDbCircle
 10
151.244904166
 20
175.1906758944
 30
0.0
 40
1.982548119635083
100
AcDbArc
 50
359.4717507245
 51
53.5334989979
  0
LINE
  5
195
330
17C
100
AcDbEntity
  8
F116
  6
Continuous
 62
     7
100
AcDbLine
 10
153.4154077857
 20
161.3594827795
 30
0.0
 11
153.4154077857
 21
167.4946761701
 31
0.0
  0
LINE
  5
196
330
17C
100
AcDbEntity
  8
F116
  6
Continuous
 62
     7
100
AcDbLine
 10
172.0464077857
 20
161.3594827795
 30
0.0
 11
172.0464077857
 21
167.4946761701
 31
0.0
  0
CIRCLE
  5
197
330
17C
100
AcDbEntity
  8
K113
  6
Continuous
 62
     7
100
AcDbCircle
 10
162.7309077857
 20
191.5439827795
 30
0.0
 40
2.000000000000028
  0
CIRCLE
  5
198
330
17C
100
AcDbEntity
  8
K113
  6
Continuous
 62
     7
100
AcDbCircle
 10
162.7309077857
 20
191.5439827795
 30
0.0
 40
17.37777777777778
  0
LINE
  5
199
330
17C
100
AcDbEntity
  8
K113
  6
Continuous
 62
     7
100
AcDbLine
 10
170.4276851422
 20
186.2741970514
 30
0.0
 11
170.7586496587
 21
186.0156192318
 31
0.0
  0
LINE
  5
19A
330
17C
100
AcDbEntity
  8
K113
  6
Continuous
 62
     7
100
AcDbLine
 10
169.7627707488
 20
185.4231454375
 30
0.0
 11
170.4276851422
 21
186.2741970514
 31
0.0
  0
ARC
  5
19B
330
17C
100
AcDbEntity
  8
K113
  6
Continuous
 62
     7
100
AcDbCircle
 10
169.9282530071
 20
185.2938565277
 30
0.0
 40
0.2100000000000003
100
AcDbArc
 50
142.0
 51
322.0
  0
LINE
  5
19C
330
17C
100
AcDbEntity
  8
K113
  6
Continuous
 62
     7
100
AcDbLine
 10
170.7586496587
 20
186.0156192318
 30
0.0
 11
170.0937352653
 21
185.1645676179
 31
0.0
  0
ARC
  5
19D
330
17C
100
AcDbEntity
  8
K113
  6
Continuous
 62
     7
100
AcDbCircle
 10
169.9282530071
 20
185.2938565277
 30
0.0
 40
1.005961479604123
100
AcDbArc
 50
142.0
 51
322.0
  0
LINE
  5
19E
330
17C
100
AcDbEntity
  8
K113
  6
Continuous
 62
     7
100
AcDbLine
 10
169.8004589368
 20
186.7642398702
 30
0.0
 11
169.1355445434
 21
185.9131882563
 31
0.0
  0
LINE
  5
19F
330
17C
100
AcDbEntity
  8
K113
  6
Continuous
 62
     7
100
AcDbLine
 10
169.0017423468
 20
187.3882656617
 30
0.0
 11
169.8004589368
 21
186.7642398702
 31
0.0
  0
LINE
  5
1A0
330
17C
100
AcDbEntity
  8
K113
  6
Continuous
 62
     7
100
AcDbLine
 10
169.5644806507
 20
188.108537845
 30
0.0
 11
169.0017423468
 21
187.3882656617
 31
0.0
  0
LINE
  5
1A1
330
17C
100
AcDbEntity
  8
K113
  6
Continuous
 62
     7
100
AcDbLine
 10
171.9486141681
 20
186.2458485962
 30
0.0
 11
169.5644806507
 21
188.108537845
 31
0.0
  0
LINE
  5
1A2
330
17C
100
AcDbEntity
  8
K113
  6
Continuous
 62
     7
100
AcDbLine
 10
170.7209614707
 20
184.674524799
 30
0.0
 11
171.9486141681
 21
186.2458485962
 31
0.0
  0
LINE
  5
1A3
330
17C
100
AcDbEntity
  8
K113
  6
Continuous
 62
     7
100
AcDbLine
 10
167.1682212661
 20
185.4729132735
 30
0.0
 11
167.918636623
 21
185.9418248312
 31
0.0
  0
LINE
  5
1A4
330
17C
100
AcDbEntity
  8
K113
  6
Continuous
 62
     7
100
AcDbLine
 10
167.6705829018
 20
184.6689666017
 30
0.0
 11
167.1682212661
 21
185.4729132735
 31
0.0
  0
LINE
  5
1A5
330
17C
100
AcDbEntity
  8
K113
  6
Continuous
 62
     7
100
AcDbLine
 10
166.9312405482
 20
184.2069742244
 30
0.0
 11
167.6705829018
 21
184.6689666017
 31
0.0
  0
ARC
  5
1A6
330
17C
100
AcDbEntity
  8
K113
  6
Continuous
 62
     7
100
AcDbCircle
 10
166.8136813528
 20
184.3951082639
 30
0.0
 40
0.221843596400236
100
AcDbArc
 50
211.9999999999
 51
302.0000000002
  0
LINE
  5
1A7
330
17C
100
AcDbEntity
  8
K113
  6
Continuous
 62
     7
100
AcDbLine
 10
166.2407448729
 20
184.8933617007
 30
0.0
 11
166.6255473132
 21
184.2775490686
 31
0.0
  0
LINE
  5
1A8
330
17C
100
AcDbEntity
  8
K113
  6
Continuous
 62
     7
100
AcDbLine
 10
165.4919433564
 20
184.4254585825
 30
0.0
 11
166.2407448729
 21
184.8933617007
 31
0.0
  0
LINE
  5
1A9
330
17C
100
AcDbEntity
  8
K113
  6
Continuous
 62
     7
100
AcDbLine
 10
165.9646895375
 20
183.6689065454
 30
0.0
 11
165.4919433564
 21
184.4254585825
 31
0.0
  0
ARC
  5
1AA
330
17C
100
AcDbEntity
  8
K113
  6
Continuous
 62
     7
100
AcDbCircle
 10
166.3717526236
 20
183.9232677923
 30
0.0
 40
0.4800000000154179
100
AcDbArc
 50
212.0
 51
299.5695730507
  0
ARC
  5
1AB
330
17C
100
AcDbEntity
  8
K113
  6
Continuous
 62
     7
100
AcDbCircle
 10
166.8800174965
 20
183.1098739662
 30
0.0
 40
0.4799999999999994
100
AcDbArc
 50
124.4304269477
 51
212.0000000001
  0
LINE
  5
1AC
330
17C
100
AcDbEntity
  8
K113
  6
Continuous
 62
     7
100
AcDbLine
 10
166.7432070765
 20
182.4230180463
 30
0.0
 11
166.4729544104
 21
182.8555127194
 31
0.0
  0
ARC
  5
1AD
330
17C
100
AcDbEntity
  8
K113
  6
Continuous
 62
     7
100
AcDbCircle
 10
167.3103522717
 20
182.7774096969
 30
0.0
 40
0.6687653657838658
100
AcDbArc
 50
212.0000000001
 51
302.0
  0
LINE
  5
1AE
330
17C
100
AcDbEntity
  8
K113
  6
Continuous
 62
     7
100
AcDbLine
 10
169.5242919936
 20
183.3722390999
 30
0.0
 11
167.6647439223
 21
182.2102645017
 31
0.0
  0
LINE
  5
1AF
330
17C
100
AcDbEntity
  8
K113
  6
Continuous
 62
     7
100
AcDbLine
 10
167.918636623
 20
185.9418248312
 30
0.0
 11
169.5242919936
 21
183.3722390999
 31
0.0
  0
LINE
  5
1B0
330
17C
100
AcDbEntity
  8
K113
  6
Continuous
 62
     7
100
AcDbLine
 10
167.2245924099
 20
183.4578790725
 30
0.0
 11
168.0896014679
 21
183.998396722
 31
0.0
  0
LINE
  5
1B1
330
17C
100
AcDbEntity
  8
K113
  6
Continuous
 62
     7
100
AcDbLine
 10
168.0896014679
 20
183.998396722
 30
0.0
 11
168.2764486347
 21
183.6993787495
 31
0.0
  0
LINE
  5
1B2
330
17C
100
AcDbEntity
  8
K113
  6
Continuous
 62
     7
100
AcDbLine
 10
168.2764486347
 20
183.6993787495
 30
0.0
 11
167.4114395766
 21
183.1588610999
 31
0.0
  0
ARC
  5
1B3
330
17C
100
AcDbEntity
  8
K113
  6
Continuous
 62
     7
100
AcDbCircle
 10
167.3180159932
 20
183.3083700862
 30
0.0
 40
0.1762977677186051
100
AcDbArc
 50
122.0000000002
 51
302.0000000001
  0
LINE
  5
1B4
330
17C
100
AcDbEntity
  8
K113
  6
Continuous
 62
     7
100
AcDbLine
 10
163.0737938799
 20
181.748992093
 30
0.0
 11
163.2084012834
 21
180.9446099676
 31
0.0
  0
LINE
  5
1B5
330
17C
100
AcDbEntity
  8
K113
  6
Continuous
 62
     7
100
AcDbLine
 10
164.7260376635
 20
182.0254828786
 30
0.0
 11
163.0737938799
 21
181.748992093
 31
0.0
  0
LINE
  5
1B6
330
17C
100
AcDbEntity
  8
K113
  6
Continuous
 62
     7
100
AcDbLine
 10
164.6769241687
 20
182.3189735507
 30
0.0
 11
164.7260376635
 21
182.0254828786
 31
0.0
  0
LINE
  5
1B7
330
17C
100
AcDbEntity
  8
K113
  6
Continuous
 62
     7
100
AcDbLine
 10
163.1551206838
 20
182.064310985
 30
0.0
 11
164.6769241687
 21
182.3189735507
 31
0.0
  0
LINE
  5
1B8
330
17C
100
AcDbEntity
  8
K113
  6
Continuous
 62
     7
100
AcDbLine
 10
163.0186943093
 20
182.879562852
 30
0.0
 11
163.1551206838
 21
182.064310985
 31
0.0
  0
LINE
  5
1B9
330
17C
100
AcDbEntity
  8
K113
  6
Continuous
 62
     7
100
AcDbLine
 10
164.5404977942
 20
183.1342254176
 30
0.0
 11
163.0186943093
 21
182.879562852
 31
0.0
  0
LINE
  5
1BA
330
17C
100
AcDbEntity
  8
K113
  6
Continuous
 62
     7
100
AcDbLine
 10
164.4968413544
 20
183.3951060151
 30
0.0
 11
164.5404977942
 21
183.1342254176
 31
0.0
  0
LINE
  5
1BB
330
17C
100
AcDbEntity
  8
K113
  6
Continuous
 62
     7
100
AcDbLine
 10
162.8119874962
 20
183.1131581745
 30
0.0
 11
164.4968413544
 21
183.3951060151
 31
0.0
  0
LINE
  5
1BC
330
17C
100
AcDbEntity
  8
K113
  6
Continuous
 62
     7
100
AcDbLine
 10
162.6752318675
 20
183.9303775871
 30
0.0
 11
162.8119874962
 21
183.1131581745
 31
0.0
  0
LINE
  5
1BD
330
17C
100
AcDbEntity
  8
K113
  6
Continuous
 62
     7
100
AcDbLine
 10
165.2622977918
 20
184.3633039488
 30
0.0
 11
162.6752318675
 21
183.9303775871
 31
0.0
  0
LINE
  5
1BE
330
17C
100
AcDbEntity
  8
K113
  6
Continuous
 62
     7
100
AcDbLine
 10
165.7628571332
 20
181.3720792743
 30
0.0
 11
165.2622977918
 21
184.3633039488
 31
0.0
  0
LINE
  5
1BF
330
17C
100
AcDbEntity
  8
K113
  6
Continuous
 62
     7
100
AcDbLine
 10
163.2084012834
 20
180.9446099676
 30
0.0
 11
165.7628571332
 21
181.3720792743
 31
0.0
  0
ARC
  5
1C0
330
17C
100
AcDbEntity
  8
K113
  6
Continuous
 62
     7
100
AcDbCircle
 10
161.5837152459
 20
181.8046284742
 30
0.0
 40
0.6128637220008402
100
AcDbArc
 50
314.1917338769
 51
347.5193747312
  0
ARC
  5
1C1
330
17C
100
AcDbEntity
  8
K113
  6
Continuous
 62
     7
100
AcDbCircle
 10
161.2506992961
 20
182.146646272
 30
0.0
 40
1.090227022296831
100
AcDbArc
 50
257.5
 51
314.211108608
  0
LINE
  5
1C2
330
17C
100
AcDbEntity
  8
K113
  6
Continuous
 62
     7
100
AcDbLine
 10
160.027800972
 20
181.3010590986
 30
0.0
 11
161.0147309803
 21
181.0822619833
 31
0.0
  0
ARC
  5
1C3
330
17C
100
AcDbEntity
  8
K113
  6
Continuous
 62
     7
100
AcDbCircle
 10
160.2611247023
 20
182.3535144329
 30
0.0
 40
1.078008438696022
100
AcDbArc
 50
169.8585971564
 51
257.5
  0
LINE
  5
1C4
330
17C
100
AcDbEntity
  8
K113
  6
Continuous
 62
     7
100
AcDbLine
 10
160.0288000892
 20
182.3595784298
 30
0.0
 11
159.1999588517
 21
182.5433281083
 31
0.0
  0
ARC
  5
1C5
330
17C
100
AcDbEntity
  8
K113
  6
Continuous
 62
     7
100
AcDbCircle
 10
160.2766457996
 20
182.3046323587
 30
0.0
 40
0.2538632838775814
100
AcDbArc
 50
167.5
 51
257.5
  0
LINE
  5
1C6
330
17C
100
AcDbEntity
  8
K113
  6
Continuous
 62
     7
100
AcDbLine
 10
161.1680833196
 20
181.8469784573
 30
0.0
 11
160.2216997284
 21
182.0567866483
 31
0.0
  0
ARC
  5
1C7
330
17C
100
AcDbEntity
  8
K113
  6
Continuous
 62
     7
100
AcDbCircle
 10
161.2041555182
 20
182.0096896303
 30
0.0
 40
0.1666617212937074
100
AcDbArc
 50
257.5
 51
77.5
  0
LINE
  5
1C8
330
17C
100
AcDbEntity
  8
K113
  6
Continuous
 62
     7
100
AcDbLine
 10
159.8670492854
 20
182.4768271325
 30
0.0
 11
161.2402277168
 21
182.1724008034
 31
0.0
  0
ARC
  5
1C9
330
17C
100
AcDbEntity
  8
K113
  6
Continuous
 62
     7
100
AcDbCircle
 10
160.0331373238
 20
183.2260018597
 30
0.0
 40
0.7673643257329605
100
AcDbArc
 50
167.5
 51
257.5
  0
LINE
  5
1CA
330
17C
100
AcDbEntity
  8
K113
  6
Continuous
 62
     7
100
AcDbLine
 10
159.3307889085
 20
183.6033097416
 30
0.0
 11
159.2839625966
 21
183.3920898981
 31
0.0
  0
ARC
  5
1CB
330
17C
100
AcDbEntity
  8
K113
  6
Continuous
 62
     7
100
AcDbCircle
 10
160.2543586814
 20
183.3985592524
 30
0.0
 40
0.945993598387939
100
AcDbArc
 50
93.7174058805
 51
167.5
  0
ARC
  5
1CC
330
17C
100
AcDbEntity
  8
K113
  6
Continuous
 62
     7
100
AcDbCircle
 10
160.3240946086
 20
182.3437124409
 30
0.0
 40
2.003142697530468
100
AcDbArc
 50
77.4657416722
 51
93.7516642082
  0
LINE
  5
1CD
330
17C
100
AcDbEntity
  8
K113
  6
Continuous
 62
     7
100
AcDbLine
 10
161.64174506
 20
184.1033740312
 30
0.0
 11
160.7588232927
 21
184.2991130745
 31
0.0
  0
ARC
  5
1CE
330
17C
100
AcDbEntity
  8
K113
  6
Continuous
 62
     7
100
AcDbCircle
 10
161.4136720306
 20
183.0746030782
 30
0.0
 40
1.053749012098604
100
AcDbArc
 50
347.5
 51
77.5
  0
LINE
  5
1CF
330
17C
100
AcDbEntity
  8
K113
  6
Continuous
 62
     7
100
AcDbLine
 10
161.5572338004
 20
183.0427762
 30
0.0
 11
162.4424429836
 21
182.8465300488
 31
0.0
  0
ARC
  5
1D0
330
17C
100
AcDbEntity
  8
K113
  6
Continuous
 62
     7
100
AcDbCircle
 10
161.3319189558
 20
183.0927272985
 30
0.0
 40
0.230785379619748
100
AcDbArc
 50
347.5
 51
77.5
  0
LINE
  5
1D1
330
17C
100
AcDbEntity
  8
K113
  6
Continuous
 62
     7
100
AcDbLine
 10
160.435486463
 20
183.5278503341
 30
0.0
 11
161.3818700542
 21
183.3180421431
 31
0.0
  0
ARC
  5
1D2
330
17C
100
AcDbEntity
  8
K113
  6
Continuous
 62
     7
100
AcDbCircle
 10
160.3992719215
 20
183.3644970936
 30
0.0
 40
0.1673193778682516
100
AcDbArc
 50
77.5
 51
257.5
  0
LINE
  5
1D3
330
17C
100
AcDbEntity
  8
K113
  6
Continuous
 62
     7
100
AcDbLine
 10
161.6063423793
 20
182.9255153658
 30
0.0
 11
160.3630573799
 21
183.2011438531
 31
0.0
  0
ARC
  5
1D4
330
17C
100
AcDbEntity
  8
K113
  6
Continuous
 62
     7
100
AcDbCircle
 10
161.4256687724
 20
182.1105493909
 30
0.0
 40
0.8347529529534325
100
AcDbArc
 50
344.2100953244
 51
77.5
  0
LINE
  5
1D5
330
17C
100
AcDbEntity
  8
K113
  6
Continuous
 62
     7
100
AcDbLine
 10
162.1820964717
 20
181.6721828235
 30
0.0
 11
162.2289231186
 21
181.8834041778
 31
0.0
  0
LINE
  5
1D6
330
17C
100
AcDbEntity
  8
K113
  6
Continuous
 62
     7
100
AcDbLine
 10
156.0150969772
 20
183.3384838515
 30
0.0
 11
158.3000938355
 21
181.9106593456
 31
0.0
  0
LINE
  5
1D7
330
17C
100
AcDbEntity
  8
K113
  6
Continuous
 62
     7
100
AcDbLine
 10
156.4554065157
 20
184.0431264096
 30
0.0
 11
156.0150969772
 21
183.3384838515
 31
0.0
  0
LINE
  5
1D8
330
17C
100
AcDbEntity
  8
K113
  6
Continuous
 62
     7
100
AcDbLine
 10
157.201466893
 20
183.5769361451
 30
0.0
 11
156.4554065157
 21
184.0431264096
 31
0.0
  0
LINE
  5
1D9
330
17C
100
AcDbEntity
  8
K113
  6
Continuous
 62
     7
100
AcDbLine
 10
158.3601985035
 20
185.4312943513
 30
0.0
 11
157.201466893
 21
183.5769361451
 31
0.0
  0
LINE
  5
1DA
330
17C
100
AcDbEntity
  8
K113
  6
Continuous
 62
     7
100
AcDbLine
 10
159.1528526599
 20
184.9359890623
 30
0.0
 11
158.3601985035
 21
185.4312943513
 31
0.0
  0
LINE
  5
1DB
330
17C
100
AcDbEntity
  8
K113
  6
Continuous
 62
     7
100
AcDbLine
 10
157.9941210494
 20
183.0816308561
 30
0.0
 11
159.1528526599
 21
184.9359890623
 31
0.0
  0
LINE
  5
1DC
330
17C
100
AcDbEntity
  8
K113
  6
Continuous
 62
     7
100
AcDbLine
 10
158.740403374
 20
182.6153019036
 30
0.0
 11
157.9941210494
 21
183.0816308561
 31
0.0
  0
LINE
  5
1DD
330
17C
100
AcDbEntity
  8
K113
  6
Continuous
 62
     7
100
AcDbLine
 10
158.3000938355
 20
181.9106593456
 30
0.0
 11
158.740403374
 21
182.6153019036
 31
0.0
  0
LINE
  5
1DE
330
17C
100
AcDbEntity
  8
K113
  6
Continuous
 62
     7
100
AcDbLine
 10
156.2858256107
 20
187.6113340854
 30
0.0
 11
157.3558690678
 21
186.2417409164
 31
0.0
  0
ARC
  5
1DF
330
17C
100
AcDbEntity
  8
K113
  6
Continuous
 62
     7
100
AcDbCircle
 10
155.6948175455
 20
187.1495879789
 30
0.0
 40
0.7499999999999938
100
AcDbArc
 50
38.0
 51
128.0
  0
LINE
  5
1E0
330
17C
100
AcDbEntity
  8
K113
  6
Continuous
 62
     7
100
AcDbLine
 10
154.0621723385
 20
186.8257894068
 30
0.0
 11
155.233071439
 21
187.7405960441
 31
0.0
  0
ARC
  5
1E1
330
17C
100
AcDbEntity
  8
K113
  6
Continuous
 62
     7
100
AcDbCircle
 10
154.523918445
 20
186.2347813416
 30
0.0
 40
0.7499999999999761
100
AcDbArc
 50
128.0
 51
218.0
  0
LINE
  5
1E2
330
17C
100
AcDbEntity
  8
K113
  6
Continuous
 62
     7
100
AcDbLine
 10
155.0029538369
 20
184.4034420661
 30
0.0
 11
153.9329103798
 21
185.7730352351
 31
0.0
  0
ARC
  5
1E3
330
17C
100
AcDbEntity
  8
K113
  6
Continuous
 62
     7
100
AcDbCircle
 10
155.5939619021
 20
184.8651881726
 30
0.0
 40
0.7499999999999819
100
AcDbArc
 50
218.0
 51
308.0
  0
LINE
  5
1E4
330
17C
100
AcDbEntity
  8
K113
  6
Continuous
 62
     7
100
AcDbLine
 10
157.2266071091
 20
185.1889867447
 30
0.0
 11
156.0557080086
 21
184.2741801074
 31
0.0
  0
ARC
  5
1E5
330
17C
100
AcDbEntity
  8
K113
  6
Continuous
 62
     7
100
AcDbCircle
 10
156.7648610026
 20
185.7799948099
 30
0.0
 40
0.7499999999999711
100
AcDbArc
 50
308.0
 51
38.0
  0
LINE
  5
1E6
330
17C
100
AcDbEntity
  8
K113
  6
Continuous
 62
     7
100
AcDbLine
 10
156.450150999
 20
185.7625846334
 30
0.0
 11
155.6869862664
 21
185.1663349972
 31
0.0
  0
ARC
  5
1E7
330
17C
100
AcDbEntity
  8
K113
  6
Continuous
 62
     7
100
AcDbCircle
 10
155.5638539713
 20
185.3239371479
 30
0.0
 40
0.2000000000000023
100
AcDbArc
 50
218.0
 51
308.0
  0
LINE
  5
1E8
330
17C
100
AcDbEntity
  8
K113
  6
Continuous
 62
     7
100
AcDbLine
 10
155.4062518206
 20
185.2008048528
 30
0.0
 11
154.8041546967
 21
185.9714540283
 31
0.0
  0
ARC
  5
1E9
330
17C
100
AcDbEntity
  8
K113
  6
Continuous
 62
     7
100
AcDbCircle
 10
154.9617568475
 20
186.0945863233
 30
0.0
 40
0.1999999999999954
100
AcDbArc
 50
128.0
 51
218.0
  0
LINE
  5
1EA
330
17C
100
AcDbEntity
  8
K113
  6
Continuous
 62
     7
100
AcDbLine
 10
154.8386245524
 20
186.2521884741
 30
0.0
 11
155.601789285
 21
186.8484381103
 31
0.0
  0
ARC
  5
1EB
330
17C
100
AcDbEntity
  8
K113
  6
Continuous
 62
     7
100
AcDbCircle
 10
155.72492158
 20
186.6908359596
 30
0.0
 40
0.2000000000000015
100
AcDbArc
 50
38.0
 51
128.0
  0
LINE
  5
1EC
330
17C
100
AcDbEntity
  8
K113
  6
Continuous
 62
     7
100
AcDbLine
 10
155.8825237308
 20
186.8139682546
 30
0.0
 11
156.4846208546
 21
186.0433190792
 31
0.0
  0
ARC
  5
1ED
330
17C
100
AcDbEntity
  8
K113
  6
Continuous
 62
     7
100
AcDbCircle
 10
156.3270187039
 20
185.9201867841
 30
0.0
 40
0.2000000000000082
100
AcDbArc
 50
308.0
 51
38.0
  0
LINE
  5
1EE
330
17C
100
AcDbEntity
  8
K113
  6
Continuous
 62
     7
100
AcDbLine
 10
155.0341304292
 20
196.8137685076
 30
0.0
 11
154.7031659127
 21
197.0723463272
 31
0.0
  0
LINE
  5
1EF
330
17C
100
AcDbEntity
  8
K113
  6
Continuous
 62
     7
100
AcDbLine
 10
155.6990448226
 20
197.6648201215
 30
0.0
 11
155.0341304292
 21
196.8137685076
 31
0.0
  0
ARC
  5
1F0
330
17C
100
AcDbEntity
  8
K113
  6
Continuous
 62
     7
100
AcDbCircle
 10
155.5335625643
 20
197.7941090313
 30
0.0
 40
0.2100000000000019
100
AcDbArc
 50
322.0
 51
142.0
  0
LINE
  5
1F1
330
17C
100
AcDbEntity
  8
K113
  6
Continuous
 62
     7
100
AcDbLine
 10
154.7031659127
 20
197.0723463272
 30
0.0
 11
155.368080306
 21
197.9233979411
 31
0.0
  0
LINE
  5
1F2
330
17C
100
AcDbEntity
  8
K113
  6
Continuous
 62
     7
100
AcDbLine
 10
155.8973349207
 20
194.979427714
 30
0.0
 11
156.4600732246
 21
195.6996998973
 31
0.0
  0
LINE
  5
1F3
330
17C
100
AcDbEntity
  8
K113
  6
Continuous
 62
     7
100
AcDbLine
 10
153.5132014033
 20
196.8421169628
 30
0.0
 11
155.8973349207
 21
194.979427714
 31
0.0
  0
LINE
  5
1F4
330
17C
100
AcDbEntity
  8
K113
  6
Continuous
 62
     7
100
AcDbLine
 10
154.7408541007
 20
198.41344076
 30
0.0
 11
153.5132014033
 21
196.8421169628
 31
0.0
  0
ARC
  5
1F5
330
17C
100
AcDbEntity
  8
K113
  6
Continuous
 62
     7
100
AcDbCircle
 10
155.5335625643
 20
197.7941090313
 30
0.0
 40
1.005961479604123
100
AcDbArc
 50
322.0
 51
142.0
  0
LINE
  5
1F6
330
17C
100
AcDbEntity
  8
K113
  6
Continuous
 62
     7
100
AcDbLine
 10
155.6613566346
 20
196.3237256888
 30
0.0
 11
156.3262710279
 21
197.1747773026
 31
0.0
  0
LINE
  5
1F7
330
17C
100
AcDbEntity
  8
K113
  6
Continuous
 62
     7
100
AcDbLine
 10
156.4600732246
 20
195.6996998973
 30
0.0
 11
155.6613566346
 21
196.3237256888
 31
0.0
  0
ARC
  5
1F8
330
17C
100
AcDbEntity
  8
K113
  6
Continuous
 62
     7
100
AcDbCircle
 10
158.1514632997
 20
200.3105558621
 30
0.0
 40
0.6687653657838682
100
AcDbArc
 50
32.0000000001
 51
122.0
  0
LINE
  5
1F9
330
17C
100
AcDbEntity
  8
K113
  6
Continuous
 62
     7
100
AcDbLine
 10
158.988861161
 20
200.2324528396
 30
0.0
 11
158.7186084949
 21
200.6649475127
 31
0.0
  0
ARC
  5
1FA
330
17C
100
AcDbEntity
  8
K113
  6
Continuous
 62
     7
100
AcDbCircle
 10
158.5817980748
 20
199.9780915928
 30
0.0
 40
0.4799999999999839
100
AcDbArc
 50
304.4304269477
 51
32.0000000001
  0
ARC
  5
1FB
330
17C
100
AcDbEntity
  8
K113
  6
Continuous
 62
     7
100
AcDbCircle
 10
159.0900629478
 20
199.1646977667
 30
0.0
 40
0.4800000000154138
100
AcDbArc
 50
32.0
 51
119.5695730507
  0
LINE
  5
1FC
330
17C
100
AcDbEntity
  8
K113
  6
Continuous
 62
     7
100
AcDbLine
 10
159.969872215
 20
198.6625069765
 30
0.0
 11
159.4971260339
 21
199.4190590135
 31
0.0
  0
LINE
  5
1FD
330
17C
100
AcDbEntity
  8
K113
  6
Continuous
 62
     7
100
AcDbLine
 10
159.2210706985
 20
198.1946038582
 30
0.0
 11
159.969872215
 21
198.6625069765
 31
0.0
  0
LINE
  5
1FE
330
17C
100
AcDbEntity
  8
K113
  6
Continuous
 62
     7
100
AcDbLine
 10
158.8362682582
 20
198.8104164904
 30
0.0
 11
159.2210706985
 21
198.1946038582
 31
0.0
  0
ARC
  5
1FF
330
17C
100
AcDbEntity
  8
K113
  6
Continuous
 62
     7
100
AcDbCircle
 10
158.6481342186
 20
198.692857295
 30
0.0
 40
0.2218435964002361
100
AcDbArc
 50
31.9999999999
 51
122.0000000002
  0
LINE
  5
200
330
17C
100
AcDbEntity
  8
K113
  6
Continuous
 62
     7
100
AcDbLine
 10
157.7912326696
 20
198.4189989573
 30
0.0
 11
158.5305750232
 21
198.8809913346
 31
0.0
  0
LINE
  5
201
330
17C
100
AcDbEntity
  8
K113
  6
Continuous
 62
     7
100
AcDbLine
 10
158.2935943053
 20
197.6150522855
 30
0.0
 11
157.7912326696
 21
198.4189989573
 31
0.0
  0
LINE
  5
202
330
17C
100
AcDbEntity
  8
K113
  6
Continuous
 62
     7
100
AcDbLine
 10
157.5431789484
 20
197.1461407278
 30
0.0
 11
158.2935943053
 21
197.6150522855
 31
0.0
  0
LINE
  5
203
330
17C
100
AcDbEntity
  8
K113
  6
Continuous
 62
     7
100
AcDbLine
 10
155.9375235778
 20
199.7157264591
 30
0.0
 11
157.5431789484
 21
197.1461407278
 31
0.0
  0
LINE
  5
204
330
17C
100
AcDbEntity
  8
K113
  6
Continuous
 62
     7
100
AcDbLine
 10
157.7970716491
 20
200.8777010573
 30
0.0
 11
155.9375235778
 21
199.7157264591
 31
0.0
  0
ARC
  5
205
330
17C
100
AcDbEntity
  8
K113
  6
Continuous
 62
     7
100
AcDbCircle
 10
158.1437995782
 20
199.7795954728
 30
0.0
 40
0.176297767718606
100
AcDbArc
 50
302.0000000002
 51
122.0000000001
  0
LINE
  5
206
330
17C
100
AcDbEntity
  8
K113
  6
Continuous
 62
     7
100
AcDbLine
 10
157.1853669367
 20
199.3885868095
 30
0.0
 11
158.0503759948
 21
199.929104459
 31
0.0
  0
LINE
  5
207
330
17C
100
AcDbEntity
  8
K113
  6
Continuous
 62
     7
100
AcDbLine
 10
157.3722141034
 20
199.089568837
 30
0.0
 11
157.1853669367
 21
199.3885868095
 31
0.0
  0
LINE
  5
208
330
17C
100
AcDbEntity
  8
K113
  6
Continuous
 62
     7
100
AcDbLine
 10
158.2372231615
 20
199.6300864865
 30
0.0
 11
157.3722141034
 21
199.089568837
 31
0.0
  0
LINE
  5
209
330
17C
100
AcDbEntity
  8
K113
  6
Continuous
 62
     7
100
AcDbLine
 10
160.7357779079
 20
201.0624826804
 30
0.0
 11
162.3880216915
 21
201.338973466
 31
0.0
  0
LINE
  5
20A
330
17C
100
AcDbEntity
  8
K113
  6
Continuous
 62
     7
100
AcDbLine
 10
160.7848914027
 20
200.7689920083
 30
0.0
 11
160.7357779079
 21
201.0624826804
 31
0.0
  0
LINE
  5
20B
330
17C
100
AcDbEntity
  8
K113
  6
Continuous
 62
     7
100
AcDbLine
 10
162.3066948876
 20
201.0236545739
 30
0.0
 11
160.7848914027
 21
200.7689920083
 31
0.0
  0
LINE
  5
20C
330
17C
100
AcDbEntity
  8
K113
  6
Continuous
 62
     7
100
AcDbLine
 10
162.4431212621
 20
200.208402707
 30
0.0
 11
162.3066948876
 21
201.0236545739
 31
0.0
  0
LINE
  5
20D
330
17C
100
AcDbEntity
  8
K113
  6
Continuous
 62
     7
100
AcDbLine
 10
160.9213177772
 20
199.9537401413
 30
0.0
 11
162.4431212621
 21
200.208402707
 31
0.0
  0
LINE
  5
20E
330
17C
100
AcDbEntity
  8
K113
  6
Continuous
 62
     7
100
AcDbLine
 10
160.964974217
 20
199.6928595439
 30
0.0
 11
160.9213177772
 21
199.9537401413
 31
0.0
  0
LINE
  5
20F
330
17C
100
AcDbEntity
  8
K113
  6
Continuous
 62
     7
100
AcDbLine
 10
162.6498280752
 20
199.9748073845
 30
0.0
 11
160.964974217
 21
199.6928595439
 31
0.0
  0
LINE
  5
210
330
17C
100
AcDbEntity
  8
K113
  6
Continuous
 62
     7
100
AcDbLine
 10
162.7865837039
 20
199.1575879718
 30
0.0
 11
162.6498280752
 21
199.9748073845
 31
0.0
  0
LINE
  5
211
330
17C
100
AcDbEntity
  8
K113
  6
Continuous
 62
     7
100
AcDbLine
 10
160.1995177795
 20
198.7246616102
 30
0.0
 11
162.7865837039
 21
199.1575879718
 31
0.0
  0
LINE
  5
212
330
17C
100
AcDbEntity
  8
K113
  6
Continuous
 62
     7
100
AcDbLine
 10
159.6989584382
 20
201.7158862847
 30
0.0
 11
160.1995177795
 21
198.7246616102
 31
0.0
  0
LINE
  5
213
330
17C
100
AcDbEntity
  8
K113
  6
Continuous
 62
     7
100
AcDbLine
 10
162.253414288
 20
202.1433555914
 30
0.0
 11
159.6989584382
 21
201.7158862847
 31
0.0
  0
LINE
  5
214
330
17C
100
AcDbEntity
  8
K113
  6
Continuous
 62
     7
100
AcDbLine
 10
162.3880216915
 20
201.338973466
 30
0.0
 11
162.253414288
 21
202.1433555914
 31
0.0
  0
ARC
  5
215
330
17C
100
AcDbEntity
  8
K113
  6
Continuous
 62
     7
100
AcDbCircle
 10
163.8781304142
 20
201.2833218763
 30
0.0
 40
0.6128963756474435
100
AcDbArc
 50
134.1926475924
 51
167.5184610157
  0
LINE
  5
216
330
17C
100
AcDbEntity
  8
K113
  6
Continuous
 62
     7
100
AcDbLine
 10
163.2328927718
 20
201.2045627725
 30
0.0
 11
163.2797194187
 21
201.4157841268
 31
0.0
  0
ARC
  5
217
330
17C
100
AcDbEntity
  8
K113
  6
Continuous
 62
     7
100
AcDbCircle
 10
164.0361467251
 20
200.97741617
 30
0.0
 40
0.8347529529534107
100
AcDbArc
 50
164.2099962216
 51
257.5
  0
LINE
  5
218
330
17C
100
AcDbEntity
  8
K113
  6
Continuous
 62
     7
100
AcDbLine
 10
165.0987581985
 20
199.88682169
 30
0.0
 11
163.8554731182
 21
200.1624501951
 31
0.0
  0
ARC
  5
219
330
17C
100
AcDbEntity
  8
K113
  6
Continuous
 62
     7
100
AcDbCircle
 10
165.0625436569
 20
199.7234684495
 30
0.0
 40
0.1673193778682508
100
AcDbArc
 50
257.5
 51
77.5
  0
LINE
  5
21A
330
17C
100
AcDbEntity
  8
K113
  6
Continuous
 62
     7
100
AcDbLine
 10
164.0799455242
 20
199.7699234
 30
0.0
 11
165.0263291154
 21
199.560115209
 31
0.0
  0
ARC
  5
21B
330
17C
100
AcDbEntity
  8
K113
  6
Continuous
 62
     7
100
AcDbCircle
 10
164.1298966227
 20
199.9952382446
 30
0.0
 40
0.2307853796197516
100
AcDbArc
 50
167.5
 51
257.5
  0
LINE
  5
21C
330
17C
100
AcDbEntity
  8
K113
  6
Continuous
 62
     7
100
AcDbLine
 10
163.0193725948
 20
200.2414354943
 30
0.0
 11
163.904581778
 21
200.0451893431
 31
0.0
  0
ARC
  5
21D
330
17C
100
AcDbEntity
  8
K113
  6
Continuous
 62
     7
100
AcDbCircle
 10
164.0481435478
 20
200.0133624649
 30
0.0
 40
1.053749012098601
100
AcDbArc
 50
167.5
 51
257.5
  0
LINE
  5
21E
330
17C
100
AcDbEntity
  8
K113
  6
Continuous
 62
     7
100
AcDbLine
 10
164.7029922857
 20
198.7888524686
 30
0.0
 11
163.8200705185
 21
198.9845915119
 31
0.0
  0
ARC
  5
21F
330
17C
100
AcDbEntity
  8
K113
  6
Continuous
 62
     7
100
AcDbCircle
 10
165.1377209698
 20
200.7442531022
 30
0.0
 40
2.003142697528944
100
AcDbArc
 50
257.4657416722
 51
273.7516642082
  0
ARC
  5
220
330
17C
100
AcDbEntity
  8
K113
  6
Continuous
 62
     7
100
AcDbCircle
 10
165.207456897
 20
199.6894062907
 30
0.0
 40
0.9459935983870289
100
AcDbArc
 50
273.7174058804
 51
347.5
  0
LINE
  5
221
330
17C
100
AcDbEntity
  8
K113
  6
Continuous
 62
     7
100
AcDbLine
 10
166.1778532949
 20
199.695877057
 30
0.0
 11
166.1310266699
 21
199.4846558015
 31
0.0
  0
ARC
  5
222
330
17C
100
AcDbEntity
  8
K113
  6
Continuous
 62
     7
100
AcDbCircle
 10
165.4286785677
 20
199.8619650954
 30
0.0
 40
0.7673643257329553
100
AcDbArc
 50
347.5
 51
77.5000002017
  0
LINE
  5
223
330
17C
100
AcDbEntity
  8
K113
  6
Continuous
 62
     7
100
AcDbLine
 10
164.2215881741
 20
200.9155661468
 30
0.0
 11
165.5947666034
 21
200.6111398232
 31
0.0
  0
ARC
  5
224
330
17C
100
AcDbEntity
  8
K113
  6
Continuous
 62
     7
100
AcDbCircle
 10
164.2576603722
 20
201.07827732
 30
0.0
 40
0.1666617212937109
100
AcDbArc
 50
77.5
 51
257.5000002017
  0
LINE
  5
225
330
17C
100
AcDbEntity
  8
K113
  6
Continuous
 62
     7
100
AcDbLine
 10
165.240116162
 20
201.031180302
 30
0.0
 11
164.2937325708
 21
201.240988493
 31
0.0
  0
ARC
  5
226
330
17C
100
AcDbEntity
  8
K113
  6
Continuous
 62
     7
100
AcDbCircle
 10
165.1851700908
 20
200.7833345916
 30
0.0
 40
0.2538632838775811
100
AcDbArc
 50
347.5
 51
77.5
  0
LINE
  5
227
330
17C
100
AcDbEntity
  8
K113
  6
Continuous
 62
     7
100
AcDbLine
 10
166.2618570387
 20
200.5446388419
 30
0.0
 11
165.4330158012
 21
200.7283885205
 31
0.0
  0
ARC
  5
228
330
17C
100
AcDbEntity
  8
K113
  6
Continuous
 62
     7
100
AcDbCircle
 10
165.2006911881
 20
200.7344525174
 30
0.0
 40
1.078008438696026
100
AcDbArc
 50
349.8585971564
 51
77.5
  0
LINE
  5
229
330
17C
100
AcDbEntity
  8
K113
  6
Continuous
 62
     7
100
AcDbLine
 10
164.4470849101
 20
202.005704967
 30
0.0
 11
165.4340149184
 21
201.7869078517
 31
0.0
  0
ARC
  5
22A
330
17C
100
AcDbEntity
  8
K113
  6
Continuous
 62
     7
100
AcDbCircle
 10
164.2111165943
 20
200.9413206782
 30
0.0
 40
1.09022702229678
100
AcDbArc
 50
77.5
 51
134.211108608
  0
LINE
  5
22B
330
17C
100
AcDbEntity
  8
K113
  6
Continuous
 62
     7
100
AcDbLine
 10
169.5792918406
 20
196.2739973043
 30
0.0
 11
168.9771947167
 21
197.0446464798
 31
0.0
  0
ARC
  5
22C
330
17C
100
AcDbEntity
  8
K113
  6
Continuous
 62
     7
100
AcDbCircle
 10
169.7368939913
 20
196.3971295994
 30
0.0
 40
0.1999999999995801
100
AcDbArc
 50
217.9999999999
 51
308.0
  0
LINE
  5
22D
330
17C
100
AcDbEntity
  8
K113
  6
Continuous
 62
     7
100
AcDbLine
 10
170.623191019
 20
196.8357770849
 30
0.0
 11
169.8600262864
 21
196.2395274487
 31
0.0
  0
ARC
  5
22E
330
17C
100
AcDbEntity
  8
K113
  6
Continuous
 62
     7
100
AcDbCircle
 10
170.5000587239
 20
196.9933792356
 30
0.0
 40
0.2000000000000025
100
AcDbArc
 50
308.0
 51
38.0
  0
LINE
  5
22F
330
17C
100
AcDbEntity
  8
K113
  6
Continuous
 62
     7
100
AcDbLine
 10
170.0555637508
 20
197.8871607062
 30
0.0
 11
170.6576608746
 21
197.1165115307
 31
0.0
  0
ARC
  5
230
330
17C
100
AcDbEntity
  8
K113
  6
Continuous
 62
     7
100
AcDbCircle
 10
169.8979616
 20
197.7640284111
 30
0.0
 40
0.199999999999804
100
AcDbArc
 50
38.0
 51
128.0
  0
LINE
  5
231
330
17C
100
AcDbEntity
  8
K113
  6
Continuous
 62
     7
100
AcDbLine
 10
169.0116645724
 20
197.3253809256
 30
0.0
 11
169.774829305
 21
197.9216305618
 31
0.0
  0
ARC
  5
232
330
17C
100
AcDbEntity
  8
K113
  6
Continuous
 62
     7
100
AcDbCircle
 10
169.1347968675
 20
197.1677787749
 30
0.0
 40
0.2000000000000071
100
AcDbArc
 50
128.0
 51
218.0
  0
ARC
  5
233
330
17C
100
AcDbEntity
  8
K113
  6
Continuous
 62
     7
100
AcDbCircle
 10
170.9378971264
 20
196.8531842174
 30
0.0
 40
0.7499999999999856
100
AcDbArc
 50
308.0
 51
38.0
  0
LINE
  5
234
330
17C
100
AcDbEntity
  8
K113
  6
Continuous
 62
     7
100
AcDbLine
 10
170.2287441324
 20
195.3473695149
 30
0.0
 11
171.3996432329
 21
196.2621761522
 31
0.0
  0
ARC
  5
235
330
17C
100
AcDbEntity
  8
K113
  6
Continuous
 62
     7
100
AcDbCircle
 10
169.7669980259
 20
195.9383775801
 30
0.0
 40
0.7499999999999659
100
AcDbArc
 50
218.0
 51
308.0
  0
LINE
  5
236
330
17C
100
AcDbEntity
  8
K113
  6
Continuous
 62
     7
100
AcDbLine
 10
168.1059465036
 20
196.8462246426
 30
0.0
 11
169.1759899607
 21
195.4766314736
 31
0.0
  0
ARC
  5
237
330
17C
100
AcDbEntity
  8
K113
  6
Continuous
 62
     7
100
AcDbCircle
 10
168.6969545688
 20
197.3079707491
 30
0.0
 40
0.7499999999999918
100
AcDbArc
 50
128.0
 51
218.0
  0
LINE
  5
238
330
17C
100
AcDbEntity
  8
K113
  6
Continuous
 62
     7
100
AcDbLine
 10
169.4061075628
 20
198.8137854516
 30
0.0
 11
168.2352084623
 21
197.8989788143
 31
0.0
  0
ARC
  5
239
330
17C
100
AcDbEntity
  8
K113
  6
Continuous
 62
     7
100
AcDbCircle
 10
169.8678536693
 20
198.2227773864
 30
0.0
 40
0.7499999999999774
100
AcDbArc
 50
38.0
 51
128.0
  0
LINE
  5
23A
330
17C
100
AcDbEntity
  8
K113
  6
Continuous
 62
     7
100
AcDbLine
 10
171.5289051916
 20
197.3149303239
 30
0.0
 11
170.4588617345
 21
198.6845234929
 31
0.0
  0
LINE
  5
23B
330
17C
100
AcDbEntity
  8
K113
  6
Continuous
 62
     7
100
AcDbLine
 10
168.2603486784
 20
199.5110294138
 30
0.0
 11
169.0064090557
 21
199.0448391494
 31
0.0
  0
LINE
  5
23C
330
17C
100
AcDbEntity
  8
K113
  6
Continuous
 62
     7
100
AcDbLine
 10
167.1016170679
 20
197.6566712076
 30
0.0
 11
168.2603486784
 21
199.5110294138
 31
0.0
  0
LINE
  5
23D
330
17C
100
AcDbEntity
  8
K113
  6
Continuous
 62
     7
100
AcDbLine
 10
166.3089629115
 20
198.1519764967
 30
0.0
 11
167.1016170679
 21
197.6566712076
 31
0.0
  0
LINE
  5
23E
330
17C
100
AcDbEntity
  8
K113
  6
Continuous
 62
     7
100
AcDbLine
 10
167.467694522
 20
200.0063347028
 30
0.0
 11
166.3089629115
 21
198.1519764967
 31
0.0
  0
LINE
  5
23F
330
17C
100
AcDbEntity
  8
K113
  6
Continuous
 62
     7
100
AcDbLine
 10
166.7214121974
 20
200.4726636554
 30
0.0
 11
167.467694522
 21
200.0063347028
 31
0.0
  0
LINE
  5
240
330
17C
100
AcDbEntity
  8
K113
  6
Continuous
 62
     7
100
AcDbLine
 10
167.1617217359
 20
201.1773062134
 30
0.0
 11
166.7214121974
 21
200.4726636554
 31
0.0
  0
LINE
  5
241
330
17C
100
AcDbEntity
  8
K113
  6
Continuous
 62
     7
100
AcDbLine
 10
169.4467185942
 20
199.7494817074
 30
0.0
 11
167.1617217359
 21
201.1773062134
 31
0.0
  0
LINE
  5
242
330
17C
100
AcDbEntity
  8
K113
  6
Continuous
 62
     7
100
AcDbLine
 10
169.0064090557
 20
199.0448391494
 30
0.0
 11
169.4467185942
 21
199.7494817074
 31
0.0
  0
CIRCLE
  5
243
330
17C
100
AcDbEntity
  8
K113
  6
Continuous
 62
     7
100
AcDbCircle
 10
162.7309077857
 20
191.5439827795
 30
0.0
 40
18.0
  0
LINE
  5
244
330
17C
100
AcDbEntity
  8
U102
  6
Continuous
 62
     7
100
AcDbLine
 10
151.7129585933
 20
227.0439827795
 30
0.0
 11
173.7488569781
 21
227.0439827795
 31
0.0
  0
LINE
  5
245
330
17C
100
AcDbEntity
  8
U102
  6
Continuous
 62
     7
100
AcDbLine
 10
161.7489655664
 20
226.0439827795
 30
0.0
 11
163.712850005
 21
226.0439827795
 31
0.0
  0
LINE
  5
246
330
17C
100
AcDbEntity
  8
U102
  6
Continuous
 62
     7
100
AcDbLine
 10
161.7489655664
 20
216.5439827795
 30
0.0
 11
163.712850005
 21
216.5439827795
 31
0.0
  0
LINE
  5
247
330
17C
100
AcDbEntity
  8
U102
  6
Continuous
 62
     7
100
AcDbLine
 10
151.7129585933
 20
215.5439827795
 30
0.0
 11
173.7488569781
 21
215.5439827795
 31
0.0
  0
LINE
  5
248
330
17C
100
AcDbEntity
  8
U102
  6
Continuous
 62
     7
100
AcDbLine
 10
173.2489655664
 20
226.0439827795
 30
0.0
 11
174.2309077857
 21
226.0439827795
 31
0.0
  0
LINE
  5
249
330
17C
100
AcDbEntity
  8
U102
  6
Continuous
 62
     7
100
AcDbLine
 10
151.2309077857
 20
226.0439827795
 30
0.0
 11
152.212850005
 21
226.0439827795
 31
0.0
  0
LINE
  5
24A
330
17C
100
AcDbEntity
  8
U102
  6
Continuous
 62
     7
100
AcDbLine
 10
174.2309077857
 20
226.0439827795
 30
0.0
 11
174.2309077857
 21
226.7656700448
 31
0.0
  0
LINE
  5
24B
330
17C
100
AcDbEntity
  8
U102
  6
Continuous
 62
     7
100
AcDbLine
 10
151.2309077857
 20
226.0439827795
 30
0.0
 11
151.2309077857
 21
226.7656700448
 31
0.0
  0
ARC
  5
24C
330
17C
100
AcDbEntity
  8
U102
  6
Continuous
 62
     7
100
AcDbCircle
 10
156.9809077857
 20
210.6539893429
 30
0.0
 40
16.11168125854601
100
AcDbArc
 50
72.7862110528
 51
107.2137889472
  0
ARC
  5
24D
330
17C
100
AcDbEntity
  8
U102
  6
Continuous
 62
     7
100
AcDbCircle
 10
168.4809077857
 20
210.6539731584
 30
0.0
 40
16.11169671811898
100
AcDbArc
 50
72.7862280854
 51
107.2137719146
  0
LINE
  5
24E
330
17C
100
AcDbEntity
  8
U102
  6
Continuous
 62
     7
100
AcDbLine
 10
173.2489655664
 20
216.5439827795
 30
0.0
 11
174.2309077857
 21
216.5439827795
 31
0.0
  0
LINE
  5
24F
330
17C
100
AcDbEntity
  8
U102
  6
Continuous
 62
     7
100
AcDbLine
 10
151.2309077857
 20
216.5439827795
 30
0.0
 11
152.212850005
 21
216.5439827795
 31
0.0
  0
LINE
  5
250
330
17C
100
AcDbEntity
  8
U102
  6
Continuous
 62
     7
100
AcDbLine
 10
173.2489655664
 20
226.0439827795
 30
0.0
 11
173.2489655664
 21
216.5439827795
 31
0.0
  0
ARC
  5
251
330
17C
100
AcDbEntity
  8
U102
  6
Continuous
 62
     7
100
AcDbCircle
 10
168.4809077857
 20
231.9339924006
 30
0.0
 40
16.11169671811905
100
AcDbArc
 50
252.7862280854
 51
287.2137719146
  0
LINE
  5
252
330
17C
100
AcDbEntity
  8
U102
  6
Continuous
 62
     7
100
AcDbLine
 10
163.712850005
 20
216.5439827795
 30
0.0
 11
163.712850005
 21
226.0439827795
 31
0.0
  0
LINE
  5
253
330
17C
100
AcDbEntity
  8
U102
  6
Continuous
 62
     7
100
AcDbLine
 10
161.7489655664
 20
226.0439827795
 30
0.0
 11
161.7489655664
 21
216.5439827795
 31
0.0
  0
ARC
  5
254
330
17C
100
AcDbEntity
  8
U102
  6
Continuous
 62
     7
100
AcDbCircle
 10
156.9809077857
 20
231.933976216
 30
0.0
 40
16.11168125854602
100
AcDbArc
 50
252.7862110528
 51
287.2137889472
  0
LINE
  5
255
330
17C
100
AcDbEntity
  8
U102
  6
Continuous
 62
     7
100
AcDbLine
 10
152.212850005
 20
216.5439827795
 30
0.0
 11
152.212850005
 21
226.0439827795
 31
0.0
  0
LINE
  5
256
330
17C
100
AcDbEntity
  8
U102
  6
Continuous
 62
     7
100
AcDbLine
 10
151.2309077857
 20
226.0439827795
 30
0.0
 11
151.2309077857
 21
216.5439827795
 31
0.0
  0
LINE
  5
257
330
17C
100
AcDbEntity
  8
U102
  6
Continuous
 62
     7
100
AcDbLine
 10
151.2309077857
 20
215.8222955141
 30
0.0
 11
151.2309077857
 21
216.5439827795
 31
0.0
  0
LINE
  5
258
330
17C
100
AcDbEntity
  8
U102
  6
Continuous
 62
     7
100
AcDbLine
 10
174.2309077857
 20
216.5439827795
 30
0.0
 11
174.2309077857
 21
215.8222955141
 31
0.0
  0
LINE
  5
259
330
17C
100
AcDbEntity
  8
U102
  6
Continuous
 62
     7
100
AcDbLine
 10
174.2309077857
 20
216.5439827795
 30
0.0
 11
174.2309077857
 21
226.0439827795
 31
0.0
  0
LINE
  5
25A
330
17C
100
AcDbEntity
  8
U102
  6
Continuous
 62
     7
100
AcDbLine
 10
174.233249816
 20
226.7643184441
 30
0.0
 11
173.7488569781
 21
227.0439827795
 31
0.0
  0
LINE
  5
25B
330
17C
100
AcDbEntity
  8
U102
  6
Continuous
 62
     7
100
AcDbLine
 10
151.7129585933
 20
227.0439827795
 30
0.0
 11
151.2285657554
 21
226.7643184441
 31
0.0
  0
LINE
  5
25C
330
17C
100
AcDbEntity
  8
U102
  6
Continuous
 62
     7
100
AcDbLine
 10
151.2285657554
 20
215.8236471148
 30
0.0
 11
151.7129585933
 21
215.5439827795
 31
0.0
  0
LINE
  5
25D
330
17C
100
AcDbEntity
  8
U102
  6
Continuous
 62
     7
100
AcDbLine
 10
173.7488569781
 20
215.5439827795
 30
0.0
 11
174.233249816
 21
215.8236471148
 31
0.0
  0
ARC
  5
25E
330
17C
100
AcDbEntity
  8
F114
  6
Continuous
 62
     7
100
AcDbCircle
 10
162.7309077857
 20
191.5439827795
 30
0.0
 40
27.5
100
AcDbArc
 50
0.0
 51
65.2703502446
  0
ARC
  5
25F
330
17C
100
AcDbEntity
  8
F114
  6
Continuous
 62
     7
100
AcDbCircle
 10
162.7309077857
 20
191.5439827795
 30
0.0
 40
27.5
100
AcDbArc
 50
114.738339022
 51
247.5536494186
  0
ARC
  5
260
330
17C
100
AcDbEntity
  8
F114
  6
Continuous
 62
     7
100
AcDbCircle
 10
162.7309077857
 20
191.5439827795
 30
0.0
 40
27.5
100
AcDbArc
 50
292.4463505814
 51
0.0
  0
ARC
  5
261
330
17C
100
AcDbEntity
  8
F114
  6
Continuous
 62
     7
100
AcDbCircle
 10
162.7309077857
 20
191.5439827795
 30
0.0
 40
27.0290193030335
100
AcDbArc
 50
0.0
 51
64.7978164647
  0
ARC
  5
262
330
17C
100
AcDbEntity
  8
F114
  6
Continuous
 62
     7
100
AcDbCircle
 10
162.7309077857
 20
191.5439827795
 30
0.0
 40
27.0290193030335
100
AcDbArc
 50
115.201292645
 51
247.3723856736
  0
ARC
  5
263
330
17C
100
AcDbEntity
  8
F114
  6
Continuous
 62
     7
100
AcDbCircle
 10
162.7309077857
 20
191.5439827795
 30
0.0
 40
27.0290193030335
100
AcDbArc
 50
292.6276143264
 51
0.0
  0
ARC
  5
264
330
17C
100
AcDbEntity
  8
F114
  6
Continuous
 62
     7
100
AcDbCircle
 10
162.7309077857
 20
191.5439827795
 30
0.0
 40
20.0290193030335
100
AcDbArc
 50
0.0
 51
61.6618015131
  0
ARC
  5
265
330
17C
100
AcDbEntity
  8
F114
  6
Continuous
 62
     7
100
AcDbCircle
 10
162.7309077857
 20
191.5439827795
 30
0.0
 40
20.0290193030335
100
AcDbArc
 50
118.3366099516
 51
241.6589385213
  0
ARC
  5
266
330
17C
100
AcDbEntity
  8
F114
  6
Continuous
 62
     7
100
AcDbCircle
 10
162.7309077857
 20
191.5439827795
 30
0.0
 40
20.0290193030335
100
AcDbArc
 50
298.3424121104
 51
0.0
  0
ARC
  5
267
330
17C
100
AcDbEntity
  8
F114
  6
Continuous
 62
     7
100
AcDbCircle
 10
162.7309077857
 20
191.5439827795
 30
0.0
 40
19.0
100
AcDbArc
 50
0.0
 51
59.9768034756
  0
ARC
  5
268
330
17C
100
AcDbEntity
  8
F114
  6
Continuous
 62
     7
100
AcDbCircle
 10
162.7309077857
 20
191.5439827795
 30
0.0
 40
19.0
100
AcDbArc
 50
120.0118339349
 51
239.9778853475
  0
ARC
  5
269
330
17C
100
AcDbEntity
  8
F114
  6
Continuous
 62
     7
100
AcDbCircle
 10
162.7309077857
 20
191.5439827795
 30
0.0
 40
19.0
100
AcDbArc
 50
300.038141878
 51
0.0
  0
ENDBLK
  5
26B
330
17C
100
AcDbEntity
  8
0
100
AcDbBlockEnd
  0
BLOCK
  5
363
330
26C
100
AcDbEntity
  8
0
100
AcDbBlockBegin
  2
SE2
 70
     0
 10
0.0
 20
0.0
 30
0.0
  3
SE2
  1

  0
LINE
  5
26E
330
26C
100
AcDbEntity
  8
F116
  6
Continuous
 62
     7
100
AcDbLine
 10
112.3033218511
 20
97.5833714428
 30
0.0
 11
112.3033218511
 21
89.5833714428
 31
0.0
  0
LINE
  5
26F
330
26C
100
AcDbEntity
  8
F116
  6
Continuous
 62
     7
100
AcDbLine
 10
111.3033218511
 20
98.5833714428
 30
0.0
 11
111.3033218511
 21
88.5833714428
 31
0.0
  0
SPLINE
  5
270
330
26C
100
AcDbEntity
  8
F116
  6
Continuous
 62
     7
100
AcDbSpline
210
0.0
220
0.0
230
1.0
 70
     8
 71
     3
 72
    10
 73
     6
 74
     0
 42
0.0000000001374952
 43
0.0000000001
 40
0.0195651425058656
 40
0.0195651425058656
 40
0.0195651425058656
 40
0.0195651425058656
 40
0.0624999999999999
 40
0.0624999999999999
 40
0.1182749144196484
 40
0.1182749144196484
 40
0.1182749144196484
 40
0.1182749144196484
 10
90.75788642459128
 20
92.13149723158935
 30
0.0
 10
90.59838221940767
 20
91.08397678009497
 30
0.0
 10
90.26892871380491
 20
90.07617000547484
 30
0.0
 10
89.17186208222508
 20
87.96979612941556
 30
0.0
 10
88.30313033174394
 20
86.93425440493031
 30
0.0
 10
87.26906443710786
 20
86.0936483904064
 30
0.0
  0
SPLINE
  5
271
330
26C
100
AcDbEntity
  8
F116
  6
Continuous
 62
     7
100
AcDbSpline
210
0.0
220
0.0
230
1.0
 70
     8
 71
     3
 72
    12
 73
     8
 74
     0
 42
0.0000000001378878
 43
0.0000000001
 40
0.3822439515279019
 40
0.3822439515279019
 40
0.3822439515279019
 40
0.3822439515279019
 40
0.4374999999999996
 40
0.4374999999999996
 40
0.4687499999999996
 40
0.4687499999999996
 40
0.4807204089720807
 40
0.4807204089720807
 40
0.4807204089720807
 40
0.4807204089720807
 10
69.32183422616
 20
86.10667364570732
 30
0.0
 10
68.30682731018007
 20
86.93594431623877
 30
0.0
 10
67.44375455283657
 20
87.9621960260693
 30
0.0
 10
66.48200828508729
 20
89.79385784913137
 30
0.0
 10
66.20512040691985
 20
90.51834877495287
 30
0.0
 10
65.95055585406242
 20
91.54662933952622
 30
0.0
 10
65.8930816306268
 20
91.83400393052891
 30
0.0
 10
65.84883184827572
 20
92.12401506543345
 30
0.0
  0
SPLINE
  5
272
330
26C
100
AcDbEntity
  8
F116
  6
Continuous
 62
     7
100
AcDbSpline
210
0.0
220
0.0
230
1.0
 70
     8
 71
     3
 72
    10
 73
     6
 74
     0
 42
0.0000000001371647
 43
0.0000000001
 40
0.5200098147228414
 40
0.5200098147228414
 40
0.5200098147228414
 40
0.5200098147228414
 40
0.5624999999999997
 40
0.5624999999999997
 40
0.6185088791440565
 40
0.6185088791440565
 40
0.6185088791440565
 40
0.6185088791440565
 10
65.84874499299505
 20
95.03185250462941
 30
0.0
 10
66.00693144573665
 20
96.07089549123171
 30
0.0
 10
66.33229303220621
 20
97.07409730873825
 30
0.0
 10
67.42383260915236
 20
99.1837470942767
 30
0.0
 10
68.29589044331391
 20
100.2261996501181
 30
0.0
 10
69.33638681478837
 20
101.0721615013365
 30
0.0
  0
SPLINE
  5
273
330
26C
100
AcDbEntity
  8
F116
  6
Continuous
 62
     7
100
AcDbSpline
210
0.0
220
0.0
230
1.0
 70
     8
 71
     3
 72
    12
 73
     8
 74
     0
 42
0.0000000001375872
 43
0.0000000001
 40
0.8820263945883338
 40
0.8820263945883338
 40
0.8820263945883338
 40
0.8820263945883338
 40
0.9374999999999999
 40
0.9374999999999999
 40
0.9687499999999999
 40
0.9687499999999999
 40
0.9803565397089925
 40
0.9803565397089925
 40
0.9803565397089925
 40
0.9803565397089925
 10
87.28520276061353
 20
101.0597729474913
 30
0.0
 10
88.30603792338337
 20
100.225692229754
 30
0.0
 10
89.17307513085322
 20
99.19220763941568
 30
0.0
 10
90.13457266646522
 20
97.34988374841014
 30
0.0
 10
90.40999329120037
 20
96.62346493959554
 30
0.0
 10
90.66008056032729
 20
95.6002979530905
 30
0.0
 10
90.71551887415704
 20
95.3203107125229
 30
0.0
 10
90.75845322592566
 20
95.03779399459648
 30
0.0
  0
LINE
  5
274
330
26C
100
AcDbEntity
  8
F116
  6
Continuous
 62
     7
100
AcDbLine
 10
61.3033218511
 20
111.5833714428
 30
0.0
 11
61.3033218511
 21
75.5833714428
 31
0.0
  0
LINE
  5
275
330
26C
100
AcDbEntity
  8
F116
  6
Continuous
 62
     7
100
AcDbLine
 10
59.3089547836
 20
109.7333714428
 30
0.0
 11
59.3089547836
 21
77.4333714428
 31
0.0
  0
SPLINE
  5
276
330
26C
100
AcDbEntity
  8
F116
  6
Continuous
 62
     7
100
AcDbSpline
210
0.0
220
0.0
230
1.0
 70
     8
 71
     3
 72
    10
 73
     6
 74
     0
 42
0.0000000003694914
 43
0.0000000001
 40
0.0
 40
0.0
 40
0.0
 40
0.0
 40
0.125
 40
0.125
 40
0.1855098131381482
 40
0.1855098131381482
 40
0.1855098131381482
 40
0.1855098131381482
 10
79.58404137098881
 20
93.58337144278187
 30
0.0
 10
79.58404137098881
 20
92.46410190285671
 30
0.0
 10
80.18468994790898
 20
91.42759405275274
 30
0.0
 10
81.44565248746198
 20
90.38969942720018
 30
0.0
 10
81.91127821769182
 20
90.12074467549543
 30
0.0
 10
82.40803579609951
 20
89.92880653214601
 30
0.0
  0
SPLINE
  5
277
330
26C
100
AcDbEntity
  8
F116
  6
Continuous
 62
     7
100
AcDbSpline
210
0.0
220
0.0
230
1.0
 70
     8
 71
     3
 72
    10
 73
     6
 74
     0
 42
0.000000000369621
 43
0.0000000001
 40
0.8146459421443387
 40
0.8146459421443387
 40
0.8146459421443387
 40
0.8146459421443387
 40
0.875
 40
0.875
 40
1.0
 40
1.0
 40
1.0
 40
1.0
 10
82.40419431710853
 20
97.23423066758474
 30
0.0
 10
81.90677358875884
 20
97.04156470677015
 30
0.0
 10
81.44087520607916
 20
96.77308098940487
 30
0.0
 10
80.19288281563833
 20
95.74595510002166
 30
0.0
 10
79.58404137098881
 20
94.70264098270702
 30
0.0
 10
79.58404137098881
 20
93.58337144278187
 30
0.0
  0
ARC
  5
278
330
26C
100
AcDbEntity
  8
F116
  6
Continuous
 62
     7
100
AcDbCircle
 10
78.3033218511
 20
93.5833714428
 30
0.0
 40
3.000000000000004
100
AcDbArc
 50
78.4245443838
 51
281.5754556162
  0
ARC
  5
279
330
26C
100
AcDbEntity
  8
F116
  6
Continuous
 62
     7
100
AcDbCircle
 10
82.9277273925
 20
93.5833714428
 30
0.0
 40
4.981724125521914
100
AcDbArc
 50
143.846315601
 51
216.153684399
  0
SPLINE
  5
27A
330
26C
100
AcDbEntity
  8
F116
  6
Continuous
 62
     7
100
AcDbSpline
210
0.0
220
0.0
230
1.0
 70
     8
 71
     3
 72
    12
 73
     8
 74
     0
 42
0.000000000639432
 43
0.0000000001
 40
0.0
 40
0.0
 40
0.0
 40
0.0
 40
0.125
 40
0.125
 40
0.25
 40
0.25
 40
0.2540233291198044
 40
0.2540233291198044
 40
0.2540233291198044
 40
0.2540233291198044
 10
78.90529666697971
 20
90.64438755016783
 30
0.0
 10
79.31401591294927
 20
90.13130954549175
 30
0.0
 10
79.8641521253173
 20
89.78187822706448
 30
0.0
 10
81.08078659837875
 20
89.51191488449365
 30
0.0
 10
81.75383709541205
 20
89.5974461285606
 30
0.0
 10
82.37739755485677
 20
89.90817202994472
 30
0.0
 10
82.39677256486588
 20
89.91807892766633
 30
0.0
 10
82.41607504287329
 20
89.92820120048385
 30
0.0
  0
SPLINE
  5
27B
330
26C
100
AcDbEntity
  8
F116
  6
Continuous
 62
     7
100
AcDbSpline
210
0.0
220
0.0
230
1.0
 70
     8
 71
     3
 72
    12
 73
     8
 74
     0
 42
0.0000000006383499
 43
0.0000000001
 40
0.7454112307421099
 40
0.7454112307421099
 40
0.7454112307421099
 40
0.7454112307421099
 40
0.75
 40
0.75
 40
0.875
 40
0.875
 40
1.0
 40
1.0
 40
1.0
 40
1.0
 10
82.4288716866445
 20
97.23177057894834
 30
0.0
 10
82.40684154134877
 20
97.24346716414418
 30
0.0
 10
82.38472166459273
 20
97.25487225919073
 30
0.0
 10
81.75766439227172
 20
97.56859358544683
 30
0.0
 10
81.09502943058999
 20
97.65646614189924
 30
0.0
 10
79.86208042046638
 20
97.38591225506245
 30
0.0
 10
79.31407817888235
 20
97.03551150444099
 30
0.0
 10
78.90529666697971
 20
96.5223553353959
 30
0.0
  0
ELLIPSE
  5
27C
330
26C
100
AcDbEntity
  8
F116
  6
Continuous
 62
     7
100
AcDbEllipse
 10
76.5533218511
 20
93.5833714428
 30
0.0
 11
5.778349561921175E-14
 21
17.99999999999268
 31
0.0
210
0.0
220
0.0
230
1.0
 40
0.5
 41
2.945901600724516
 42
3.337283706455074
  0
LINE
  5
27D
330
26C
100
AcDbEntity
  8
F116
  6
Continuous
 62
     7
100
AcDbLine
 10
74.8033218511
 20
75.9269278598
 30
0.0
 11
81.8033218511
 21
75.9269278598
 31
0.0
  0
ELLIPSE
  5
27E
330
26C
100
AcDbEntity
  8
F116
  6
Continuous
 62
     7
100
AcDbEllipse
 10
80.0533218511
 20
93.5833714428
 30
0.0
 11
-6.993552029958172E-14
 21
18.00000000000178
 31
0.0
210
0.0
220
0.0
230
1.0
 40
0.5
 41
2.945901600724561
 42
3.337283706455022
  0
ELLIPSE
  5
27F
330
26C
100
AcDbEntity
  8
F116
  6
Continuous
 62
     7
100
AcDbEllipse
 10
76.5533218511
 20
93.5833714428
 30
0.0
 11
6.191242422318794E-14
 21
-17.99999999999268
 31
0.0
210
0.0
220
0.0
230
1.0
 40
0.5
 41
2.945901600724516
 42
3.337283706455066
  0
LINE
  5
280
330
26C
100
AcDbEntity
  8
F116
  6
Continuous
 62
     7
100
AcDbLine
 10
74.8033218511
 20
111.2398150258
 30
0.0
 11
81.8033218511
 21
111.2398150258
 31
0.0
  0
ELLIPSE
  5
281
330
26C
100
AcDbEntity
  8
F116
  6
Continuous
 62
     7
100
AcDbEllipse
 10
80.0533218511
 20
93.5833714428
 30
0.0
 11
-6.580659169560344E-14
 21
-18.00000000000178
 31
0.0
210
0.0
220
0.0
230
1.0
 40
0.5
 41
2.945901600724564
 42
3.337283706455025
  0
LINE
  5
282
330
26C
100
AcDbEntity
  8
F116
  6
Continuous
 62
     7
100
AcDbLine
 10
111.3033218511
 20
88.5833714428
 30
0.0
 11
112.3033218511
 21
89.5833714428
 31
0.0
  0
LINE
  5
283
330
26C
100
AcDbEntity
  8
F116
  6
Continuous
 62
     7
100
AcDbLine
 10
112.3033218511
 20
97.5833714428
 30
0.0
 11
111.3033218511
 21
98.5833714428
 31
0.0
  0
LINE
  5
284
330
26C
100
AcDbEntity
  8
F116
  6
Continuous
 62
     7
100
AcDbLine
 10
111.3033218511
 20
98.5833714428
 30
0.0
 11
105.4033218511
 21
98.5833714428
 31
0.0
  0
LINE
  5
285
330
26C
100
AcDbEntity
  8
F116
  6
Continuous
 62
     7
100
AcDbLine
 10
105.4033218511
 20
88.5833714428
 30
0.0
 11
111.3033218511
 21
88.5833714428
 31
0.0
  0
ARC
  5
286
330
26C
100
AcDbEntity
  8
F116
  6
Continuous
 62
     7
100
AcDbCircle
 10
61.3033218511
 20
109.5833714428
 30
0.0
 40
2.000000000000002
100
AcDbArc
 50
90.0
 51
175.6987776953
  0
ARC
  5
287
330
26C
100
AcDbEntity
  8
F116
  6
Continuous
 62
     7
100
AcDbCircle
 10
61.3033218511
 20
77.5833714428
 30
0.0
 40
1.999999999999999
100
AcDbArc
 50
184.3012223047
 51
270.0
  0
LINE
  5
288
330
26C
100
AcDbEntity
  8
F116
  6
Continuous
 62
     7
100
AcDbLine
 10
76.5533218511
 20
111.5833714428
 30
0.0
 11
61.3033218511
 21
111.5833714428
 31
0.0
  0
LINE
  5
289
330
26C
100
AcDbEntity
  8
F116
  6
Continuous
 62
     7
100
AcDbLine
 10
95.3033218511
 20
111.5833714428
 30
0.0
 11
80.0533218511
 21
111.5833714428
 31
0.0
  0
LINE
  5
28A
330
26C
100
AcDbEntity
  8
F116
  6
Continuous
 62
     7
100
AcDbLine
 10
80.0533218511
 20
75.5833714428
 30
0.0
 11
95.3033218511
 21
75.5833714428
 31
0.0
  0
LINE
  5
28B
330
26C
100
AcDbEntity
  8
F116
  6
Continuous
 62
     7
100
AcDbLine
 10
61.3033218511
 20
75.5833714428
 30
0.0
 11
76.5533218511
 21
75.5833714428
 31
0.0
  0
ARC
  5
28C
330
26C
100
AcDbEntity
  8
K1027
  6
Continuous
 62
     7
100
AcDbCircle
 10
31.5274190149
 20
93.5833714428
 30
0.0
 40
3.624930728728354
100
AcDbArc
 50
148.1688977762
 51
211.8311022238
  0
LINE
  5
28D
330
26C
100
AcDbEntity
  8
K113
  6
Continuous
 62
     7
100
AcDbLine
 10
45.404155416
 20
109.0833714428
 30
0.0
 11
45.404155416
 21
78.0833714428
 31
0.0
  0
LINE
  5
28E
330
26C
100
AcDbEntity
  8
K113
  6
Continuous
 62
     7
100
AcDbLine
 10
28.4476542437
 20
95.5833714428
 30
0.0
 11
28.4476542437
 21
91.5833714428
 31
0.0
  0
LINE
  5
28F
330
26C
100
AcDbEntity
  8
K113
  6
Continuous
 62
     7
100
AcDbLine
 10
31.8129258082
 20
110.9611492206
 30
0.0
 11
31.8129258082
 21
76.205593665
 31
0.0
  0
LINE
  5
290
330
26C
100
AcDbEntity
  8
K113
  6
Continuous
 62
     7
100
AcDbLine
 10
32.9339351021
 20
111.5641522124
 30
0.0
 11
32.9339351021
 21
75.6025906732
 31
0.0
  0
ELLIPSE
  5
291
330
26C
100
AcDbEntity
  8
K113
  6
Continuous
 62
     7
100
AcDbEllipse
 10
74.404195132
 20
93.9441187264
 30
0.0
 11
-45.996307499491
 21
1.710056948267999E-5
 31
0.0
210
0.0
220
0.0
230
1.0
 40
0.7880104357
 41
-0.2131387744513997
 42
-0.2038054871632484
  0
ELLIPSE
  5
292
330
26C
100
AcDbEntity
  8
K113
  6
Continuous
 62
     7
100
AcDbEllipse
 10
74.4041572247
 20
100.9193948896
 30
0.0
 11
45.04811306269856
 21
-1.078525327401838E-9
 31
0.0
210
0.0
220
0.0
230
1.0
 40
0.615661463
 41
3.12858482760885
 42
3.152559781870658
  0
SPLINE
  5
293
330
26C
100
AcDbEntity
  8
K113
  6
Continuous
 62
     7
100
AcDbSpline
210
0.0
220
0.0
230
1.0
 70
     8
 71
     3
 72
    35
 73
    31
 74
     0
 42
0.0000000227805434
 43
0.0000000001
 40
0.0
 40
0.0
 40
0.0
 40
0.0
 40
0.1038574848865046
 40
0.1038574848865046
 40
0.1038574848865046
 40
0.2081450996783859
 40
0.2081450996783859
 40
0.2081450996783859
 40
0.3132794528429909
 40
0.3132794528429909
 40
0.3132794528429909
 40
0.420532040560663
 40
0.420532040560663
 40
0.420532040560663
 40
0.5300109781533683
 40
0.5300109781533683
 40
0.5300109781533683
 40
0.6408664358179004
 40
0.6408664358179004
 40
0.6408664358179004
 40
0.7515856970590845
 40
0.7515856970590845
 40
0.7515856970590845
 40
0.8606725103930712
 40
0.8606725103930712
 40
0.8606725103930712
 40
0.9673908400913885
 40
0.9673908400913885
 40
0.9673908400913885
 40
1.0
 40
1.0
 40
1.0
 40
1.0
 10
29.44760045794411
 20
100.9461989224328
 30
0.0
 10
29.44785300335483
 20
100.9320503158461
 30
0.0
 10
29.44728678105407
 20
100.9146426081558
 30
0.0
 10
29.44595236033851
 20
100.8954240390916
 30
0.0
 10
29.44461210621094
 20
100.8761214561702
 30
0.0
 10
29.44246139220426
 20
100.8544696979268
 30
0.0
 10
29.43968725650464
 20
100.8322548345734
 30
0.0
 10
29.4368901848964
 20
100.8098563038976
 30
0.0
 10
29.43338549620066
 20
100.7862853151507
 30
0.0
 10
29.42946411986876
 20
100.7634221295229
 30
0.0
 10
29.42546442490994
 20
100.7401023151113
 30
0.0
 10
29.4209245620108
 20
100.7168927734742
 30
0.0
 10
29.41621184590158
 20
100.6956222951791
 30
0.0
 10
29.41140295034295
 20
100.6739177184058
 30
0.0
 10
29.40628360338184
 20
100.6536424686873
 30
0.0
 10
29.40126842861034
 20
100.6364243154148
 30
0.0
 10
29.39619214311641
 20
100.6189963561368
 30
0.0
 10
29.3910821020718
 20
100.6042205322649
 30
0.0
 10
29.38636445702525
 20
100.5933541127606
 30
0.0
 10
29.38165382525904
 20
100.5825038473428
 30
0.0
 10
29.37720214107724
 20
100.5752518707596
 30
0.0
 10
29.37339779788198
 20
100.5722936205517
 30
0.0
 10
29.36964952884459
 20
100.5693789735048
 30
0.0
 10
29.36642409106602
 20
100.5705571058013
 30
0.0
 10
29.36401412534013
 20
100.5758118592221
 30
0.0
 10
29.36165582113258
 20
100.5809539684933
 30
0.0
 10
29.36001246480014
 20
100.5901494010214
 30
0.0
 10
29.35923531157603
 20
100.602656111873
 30
0.0
 10
29.35899462383032
 20
100.6065294948144
 30
0.0
 10
29.35883345184411
 20
100.6107340416873
 30
0.0
 10
29.35875328107877
 20
100.615234405918
 30
0.0
  0
ELLIPSE
  5
294
330
26C
100
AcDbEntity
  8
K113
  6
Continuous
 62
     7
100
AcDbEllipse
 10
74.4041570359
 20
101.250359405
 30
0.0
 11
44.95927105072487
 21
-2.779251702885960E-9
 31
0.0
210
0.0
220
0.0
230
1.0
 40
0.6156614642
 41
3.128559122019626
 42
3.15258145439625
  0
ELLIPSE
  5
295
330
26C
100
AcDbEntity
  8
K113
  6
Continuous
 62
     7
100
AcDbEllipse
 10
74.4041555268
 20
99.4934520927
 30
0.0
 11
-45.38446881979221
 21
3.406631746440754E-9
 31
0.0
210
0.0
220
0.0
230
1.0
 40
0.6156614746
 41
6.250128332746003
 42
6.270273891133606
  0
ELLIPSE
  5
296
330
26C
100
AcDbEntity
  8
K113
  6
Continuous
 62
     7
100
AcDbEllipse
 10
74.4041554351
 20
94.5068636528
 30
0.0
 11
-45.97553699251603
 21
7.747683935894816E-9
 31
0.0
210
0.0
220
0.0
230
1.0
 40
0.7880107535
 41
6.052199602912288
 42
6.11932274893173
  0
ELLIPSE
  5
297
330
26C
100
AcDbEntity
  8
K113
  6
Continuous
 62
     7
100
AcDbEllipse
 10
74.4041553902
 20
101.8775856124
 30
0.0
 11
44.77961211208329
 21
3.743411147649609E-10
 31
0.0
210
0.0
220
0.0
230
1.0
 40
0.6156614755
 41
3.108088998924032
 42
3.152625543774394
  0
SPLINE
  5
298
330
26C
100
AcDbEntity
  8
K113
  6
Continuous
 62
     7
100
AcDbSpline
210
0.0
220
0.0
230
1.0
 70
     8
 71
     3
 72
    35
 73
    31
 74
     0
 42
0.0000000047600901
 43
0.0000000001
 40
0.0
 40
0.0
 40
0.0
 40
0.0
 40
0.1046230373314493
 40
0.1046230373314493
 40
0.1046230373314493
 40
0.2092531589315406
 40
0.2092531589315406
 40
0.2092531589315406
 40
0.3149943894629095
 40
0.3149943894629095
 40
0.3149943894629095
 40
0.4229767152587903
 40
0.4229767152587903
 40
0.4229767152587903
 40
0.5330101085774999
 40
0.5330101085774999
 40
0.5330101085774999
 40
0.6439992374802511
 40
0.6439992374802511
 40
0.6439992374802511
 40
0.7543526107856457
 40
0.7543526107856457
 40
0.7543526107856457
 40
0.8627271122790605
 40
0.8627271122790605
 40
0.8627271122790605
 40
0.9687093418799598
 40
0.9687093418799598
 40
0.9687093418799598
 40
1.0
 40
1.0
 40
1.0
 40
1.0
 10
29.20155835526185
 20
99.98800820053322
 30
0.0
 10
29.20277037580206
 20
99.91973432852461
 30
0.0
 10
29.20797406932543
 20
99.86542599422118
 30
0.0
 10
29.21670621003812
 20
99.82946332324362
 30
0.0
 10
29.22544154160207
 20
99.7934875109828
 30
0.0
 10
29.23793963696515
 20
99.77485959442335
 30
0.0
 10
29.2531357357446
 20
99.77475563467544
 30
0.0
 10
29.26849467298756
 20
99.77465056091494
 30
0.0
 10
29.28701696133586
 20
99.79343083468856
 30
0.0
 10
29.30719081923856
 20
99.82923847165003
 30
0.0
 10
29.32778743687371
 20
99.86579648700184
 30
0.0
 10
29.35065791347798
 20
99.92106830595746
 30
0.0
 10
29.37396386070226
 20
99.9904157950625
 30
0.0
 10
29.39770374109395
 20
100.0610544642818
 30
0.0
 10
29.42254371950209
 20
100.1482270788999
 30
0.0
 10
29.44645976569993
 20
100.2448171473553
 30
0.0
 10
29.47057478828917
 20
100.3422108245304
 30
0.0
 10
29.49442134392181
 20
100.4519050042468
 30
0.0
 10
29.51597746575311
 20
100.564800919091
 30
0.0
 10
29.53740603108028
 20
100.6770287820314
 30
0.0
 10
29.5571739441587
 20
100.7956074749869
 30
0.0
 10
29.57352033587964
 20
100.910380223933
 30
0.0
 10
29.58957513614763
 20
101.0231056248653
 30
0.0
 10
29.60278030746823
 20
101.1353623277147
 30
0.0
 10
29.61191695359556
 20
101.2373317613616
 30
0.0
 10
29.6208550257009
 20
101.3370850119281
 30
0.0
 10
29.62614838005686
 20
101.4297973349594
 30
0.0
 10
29.62730547834287
 20
101.5074476957827
 30
0.0
 10
29.62765174448663
 20
101.5306848670137
 30
0.0
 10
29.6276394304073
 20
101.5527351001523
 30
0.0
 10
29.62726864211722
 20
101.5734251278176
 30
0.0
  0
ELLIPSE
  5
299
330
26C
100
AcDbEntity
  8
K113
  6
Continuous
 62
     7
100
AcDbEllipse
 10
74.4041532465
 20
100.292168687
 30
0.0
 11
45.20529458978729
 21
3.435912992975576E-9
 31
0.0
210
0.0
220
0.0
230
1.0
 40
0.6156614901
 41
3.128630059649546
 42
3.152521646442171
  0
ELLIPSE
  5
29A
330
26C
100
AcDbEntity
  8
K113
  6
Continuous
 62
     7
100
AcDbEllipse
 10
74.4041548582
 20
93.9441254292
 30
0.0
 11
-45.99626721613685
 21
-2.010553885550054E-7
 31
0.0
210
0.0
220
0.0
230
1.0
 40
0.7880107582
 41
-0.1861664727261321
 42
-0.1637880412497621
  0
LINE
  5
29B
330
26C
100
AcDbEntity
  8
K113
  6
Continuous
 62
     7
100
AcDbLine
 10
29.5781802764
 20
100.9461989224
 30
0.0
 11
29.4476004579
 21
100.9461989224
 31
0.0
  0
LINE
  5
29C
330
26C
100
AcDbEntity
  8
K113
  6
Continuous
 62
     7
100
AcDbLine
 10
29.3581234929
 20
100.6529225939
 30
0.0
 11
29.2026565002
 21
100.6529225939
 31
0.0
  0
ELLIPSE
  5
29D
330
26C
100
AcDbEntity
  8
K113
  6
Continuous
 62
     7
100
AcDbEllipse
 10
74.4041561756
 20
100.2921686841
 30
0.0
 11
45.00176578160623
 21
-1.243049109264376E-9
 31
0.0
210
0.0
220
0.0
230
1.0
 40
0.6156614701
 41
3.131538724979413
 42
3.148814997630046
  0
LINE
  5
29E
330
26C
100
AcDbEntity
  8
K113
  6
Continuous
 62
     7
100
AcDbLine
 10
29.373072139
 20
99.9880082005
 30
0.0
 11
29.2015583553
 21
99.9880082005
 31
0.0
  0
ELLIPSE
  5
29F
330
26C
100
AcDbEntity
  8
K113
  6
Continuous
 62
     7
100
AcDbEllipse
 10
74.4041554357
 20
94.5068636527
 30
0.0
 11
-45.77543011051633
 21
8.072392318004554E-9
 31
0.0
210
0.0
220
0.0
230
1.0
 40
0.7880107534
 41
-0.2090078626749907
 42
-0.1982449248499822
  0
ELLIPSE
  5
2A0
330
26C
100
AcDbEntity
  8
K113
  6
Continuous
 62
     7
100
AcDbEllipse
 10
74.4041554357
 20
94.5068636527
 30
0.0
 11
-45.77543011051633
 21
8.072392318004554E-9
 31
0.0
210
0.0
220
0.0
230
1.0
 40
0.7880107534
 41
-0.1785001001357323
 42
-0.171220681258812
  0
LINE
  5
2A1
330
26C
100
AcDbEntity
  8
K113
  6
Continuous
 62
     7
100
AcDbLine
 10
29.1472797281
 20
100.4169443078
 30
0.0
 11
29.0444816959
 21
100.4169443078
 31
0.0
  0
LINE
  5
2A2
330
26C
100
AcDbEntity
  8
K113
  6
Continuous
 62
     7
100
AcDbLine
 10
29.6266350773
 20
101.6111133158
 30
0.0
 11
29.448704613
 21
101.6111133158
 31
0.0
  0
ARC
  5
2A3
330
26C
100
AcDbEntity
  8
K113
  6
Continuous
 62
     7
100
AcDbCircle
 10
26.9457927142
 20
98.4420430349
 30
0.0
 40
2.687336128781347
100
AcDbArc
 50
341.6422992591
 51
1.6027667091
  0
ELLIPSE
  5
2A4
330
26C
100
AcDbEntity
  8
K113
  6
Continuous
 62
     7
100
AcDbEllipse
 10
74.4041586485
 20
92.3700244464
 30
0.0
 11
-45.97774728730139
 21
4.938540472141319E-7
 31
0.0
210
0.0
220
0.0
230
1.0
 40
0.5299192468
 41
-0.2161572786637063
 42
-0.2048148149867037
  0
SPLINE
  5
2A5
330
26C
100
AcDbEntity
  8
K113
  6
Continuous
 62
     7
100
AcDbSpline
210
0.0
220
0.0
230
1.0
 70
     8
 71
     3
 72
    10
 73
     6
 74
     0
 42
0.0000000291371102
 43
0.0000000001
 40
0.0
 40
0.0
 40
0.0
 40
0.0
 40
0.5
 40
0.5
 40
1.0
 40
1.0
 40
1.0
 40
1.0
 10
29.27821286869688
 20
97.46108670534234
 30
0.0
 10
29.28193762407177
 20
97.35812150913641
 30
0.0
 10
29.2959409960568
 20
97.28646354786908
 30
0.0
 10
29.3360931503818
 20
97.23783834801465
 30
0.0
 10
29.36202057446427
 20
97.26065477659287
 30
0.0
 10
29.38740769840459
 20
97.3254180674794
 30
0.0
  0
ARC
  5
2A6
330
26C
100
AcDbEntity
  8
K113
  6
Continuous
 62
     7
100
AcDbCircle
 10
27.0058320656
 20
97.4145266791
 30
0.0
 40
2.272857749680878
100
AcDbArc
 50
344.761994056
 51
1.1737996429
  0
ELLIPSE
  5
2A7
330
26C
100
AcDbEntity
  8
K113
  6
Continuous
 62
     7
100
AcDbEllipse
 10
74.404154055
 20
92.3700249355
 30
0.0
 11
-45.97774269286981
 21
-1.725563377773429E-7
 31
0.0
210
0.0
220
0.0
230
1.0
 40
0.5299192717
 41
-0.1835539646470838
 42
-0.1638541149572275
  0
ELLIPSE
  5
2A8
330
26C
100
AcDbEntity
  8
K113
  6
Continuous
 62
     7
100
AcDbEllipse
 10
74.4041556284
 20
97.5577536512
 30
0.0
 11
-45.38447275034168
 21
-1.563009791147717E-8
 31
0.0
210
0.0
220
0.0
230
1.0
 40
0.8480480942
 41
0.0120700941310708
 42
0.0315303702728576
  0
ELLIPSE
  5
2A9
330
26C
100
AcDbEntity
  8
K113
  6
Continuous
 62
     7
100
AcDbEllipse
 10
74.4041527126
 20
93.118826574
 30
0.0
 11
-45.99673560838213
 21
-3.398763226867179E-7
 31
0.0
210
0.0
220
0.0
230
1.0
 40
0.5299192791
 41
-0.1798089414786368
 42
-0.1637858443088067
  0
ARC
  5
2AA
330
26C
100
AcDbEntity
  8
K113
  6
Continuous
 62
     7
100
AcDbCircle
 10
28.0565504334
 20
97.7717684349
 30
0.0
 40
1.13123830356777
100
AcDbArc
 50
344.9490556871
 51
0.6045427846
  0
ARC
  5
2AB
330
26C
100
AcDbEntity
  8
K113
  6
Continuous
 62
     7
100
AcDbCircle
 10
61.7071024824
 20
98.0601184516
 30
0.0
 40
32.52055137513859
100
AcDbArc
 50
179.1843704521
 51
180.4870015945
  0
ELLIPSE
  5
2AC
330
26C
100
AcDbEntity
  8
K113
  6
Continuous
 62
     7
100
AcDbEllipse
 10
74.4041578588
 20
94.0463024913
 30
0.0
 11
-45.99676337898192
 21
3.119937910282493E-7
 31
0.0
210
0.0
220
0.0
230
1.0
 40
0.5299192508
 41
-0.1847130980107758
 42
-0.1637857464044261
  0
ELLIPSE
  5
2AD
330
26C
100
AcDbEntity
  8
K113
  6
Continuous
 62
     7
100
AcDbEllipse
 10
74.404153896
 20
97.5577536755
 30
0.0
 11
-45.38447101781158
 21
-1.023935719210205E-7
 31
0.0
210
0.0
220
0.0
230
1.0
 40
0.8480481103
 41
6.251654934099408
 42
6.271157144426154
  0
ELLIPSE
  5
2AE
330
26C
100
AcDbEntity
  8
K113
  6
Continuous
 62
     7
100
AcDbEllipse
 10
74.4041554246
 20
94.7967180751
 30
0.0
 11
-45.9777440625424
 21
1.242116800299122E-9
 31
0.0
210
0.0
220
0.0
230
1.0
 40
0.5299192642
 41
-0.2310742438915341
 42
-0.1638541105287077
  0
ELLIPSE
  5
2AF
330
26C
100
AcDbEntity
  8
K113
  6
Continuous
 62
     7
100
AcDbEllipse
 10
74.4041554667
 20
99.1634090172
 30
0.0
 11
44.77856175090533
 21
-9.131454957350921E-10
 31
0.0
210
0.0
220
0.0
230
1.0
 40
0.8480480957
 41
3.109635492680502
 42
3.158610251543343
  0
SPLINE
  5
2B0
330
26C
100
AcDbEntity
  8
K113
  6
Continuous
 62
     7
100
AcDbSpline
210
0.0
220
0.0
230
1.0
 70
     8
 71
     3
 72
    35
 73
    31
 74
     0
 42
0.0000000269147379
 43
0.0000000001
 40
0.0
 40
0.0
 40
0.0
 40
0.0
 40
0.1039962731476448
 40
0.1039962731476448
 40
0.1039962731476448
 40
0.2083580280612735
 40
0.2083580280612735
 40
0.2083580280612735
 40
0.3135532361057515
 40
0.3135532361057515
 40
0.3135532361057515
 40
0.420823096754299
 40
0.420823096754299
 40
0.420823096754299
 40
0.5302670219467807
 40
0.5302670219467807
 40
0.5302670219467807
 40
0.6410482621497634
 40
0.6410482621497634
 40
0.6410482621497634
 40
0.7516865838949417
 40
0.7516865838949417
 40
0.7516865838949417
 40
0.860723194035186
 40
0.860723194035186
 40
0.860723194035186
 40
0.9674443076475339
 40
0.9674443076475339
 40
0.9674443076475339
 40
1.0
 40
1.0
 40
1.0
 40
1.0
 10
29.41768682187607
 20
98.26390323365996
 30
0.0
 10
29.41789037518175
 20
98.24752409897411
 30
0.0
 10
29.41741299391318
 20
98.22918331401507
 30
0.0
 10
29.4162972776104
 20
98.21040146175034
 30
0.0
 10
29.41517738808831
 20
98.19154935794535
 30
0.0
 10
29.41338467560886
 20
98.17174083161403
 30
0.0
 10
29.41107481393757
 20
98.15259103461283
 30
0.0
 10
29.40874617176809
 20
98.13328553879545
 30
0.0
 10
29.405830395168
 20
98.11412990499507
 30
0.0
 10
29.40256942281039
 20
98.09663116112928
 30
0.0
 10
29.39924470206558
 20
98.07879033625913
 30
0.0
 10
29.39547241367181
 20
98.06219111997684
 30
0.0
 10
29.39155786414624
 20
98.04812427093852
 30
0.0
 10
29.38756531849764
 20
98.03377714451936
 30
0.0
 10
29.38331640992797
 20
98.0216740053234
 30
0.0
 10
29.37915545609582
 20
98.01278045385453
 30
0.0
 10
29.37494523687992
 20
98.00378160339805
 30
0.0
 10
29.37070854946411
 20
97.99782237912005
 30
0.0
 10
29.36679876352074
 20
97.99542705461134
 30
0.0
 10
29.36289500197858
 20
97.99303542094299
 30
0.0
 10
29.35920755245004
 20
97.99413523812645
 30
0.0
 10
29.35605788832751
 20
97.99869857855383
 30
0.0
 10
29.35295380257076
 20
98.00319588349582
 30
0.0
 10
29.35028467198507
 20
98.01119116553596
 30
0.0
 10
29.34829226538227
 20
98.02205877841533
 30
0.0
 10
29.34634163140665
 20
98.03269854184846
 30
0.0
 10
29.34498512496335
 20
98.04639515717537
 30
0.0
 10
29.34434734480974
 20
98.06200443497748
 30
0.0
 10
29.34415015735929
 20
98.06683047679734
 30
0.0
 10
29.34401873846364
 20
98.07186181468258
 30
0.0
 10
29.34395429201053
 20
98.07705606694842
 30
0.0
  0
ARC
  5
2B1
330
26C
100
AcDbEntity
  8
K113
  6
Continuous
 62
     7
100
AcDbCircle
 10
61.7714282904
 20
98.6659825348
 30
0.0
 40
32.35623977124012
100
AcDbArc
 50
179.1802253149
 51
180.7120122755
  0
SPLINE
  5
2B2
330
26C
100
AcDbEntity
  8
K113
  6
Continuous
 62
     7
100
AcDbSpline
210
0.0
220
0.0
230
1.0
 70
    12
 71
     2
 72
     6
 73
     3
 74
     0
 42
0.0000000497824637
 43
0.0000000001
 40
0.0
 40
0.0
 40
0.0
 40
1.0
 40
1.0
 40
1.0
 10
29.34476646025343
 20
98.9420651250307
 30
0.0
 41
1.0
 10
29.38094304954485
 20
99.03556520878261
 30
0.0
 41
1.0
 10
29.41850032128183
 20
99.12891229174339
 30
0.0
 41
1.0
  0
ARC
  5
2B3
330
26C
100
AcDbEntity
  8
K113
  6
Continuous
 62
     7
100
AcDbCircle
 10
61.7507229321
 20
98.4791353631
 30
0.0
 40
32.40926289588847
100
AcDbArc
 50
179.1815665875
 51
180.7108473213
  0
ELLIPSE
  5
2B4
330
26C
100
AcDbEntity
  8
K113
  6
Continuous
 62
     7
100
AcDbEllipse
 10
74.4041553935
 20
94.7967180785
 30
0.0
 11
-45.77764679661559
 21
-3.312877579245969E-9
 31
0.0
210
0.0
220
0.0
230
1.0
 40
0.5299192644
 41
-0.2100873710216762
 42
-0.164576850742006
  0
LINE
  5
2B5
330
26C
100
AcDbEntity
  8
K113
  6
Continuous
 62
     7
100
AcDbLine
 10
29.245066676
 20
98.7711002801
 30
0.0
 11
29.0422408198
 21
98.7711002801
 31
0.0
  0
ELLIPSE
  5
2B6
330
26C
100
AcDbEntity
  8
K113
  6
Continuous
 62
     7
100
AcDbEllipse
 10
74.4041569826
 20
97.5577536182
 30
0.0
 11
-45.1817495133709
 21
1.019230316686869E-7
 31
0.0
210
0.0
220
0.0
230
1.0
 40
0.8480480815
 41
6.251513419138469
 42
6.257989892335559
  0
LINE
  5
2B7
330
26C
100
AcDbEntity
  8
K113
  6
Continuous
 62
     7
100
AcDbLine
 10
29.3414897691
 20
98.5230465589
 30
0.0
 11
29.1898461511
 21
98.5230465589
 31
0.0
  0
ARC
  5
2B8
330
26C
100
AcDbEntity
  8
K113
  6
Continuous
 62
     7
100
AcDbCircle
 10
61.7642446801
 20
98.0601184803
 30
0.0
 40
32.37421748370534
100
AcDbArc
 50
180.1166944459
 51
180.4892029825
  0
LINE
  5
2B9
330
26C
100
AcDbEntity
  8
K113
  6
Continuous
 62
     7
100
AcDbLine
 10
29.3912071662
 20
97.7837042053
 30
0.0
 11
29.1877257677
 21
97.7837042053
 31
0.0
  0
ARC
  5
2BA
330
26C
100
AcDbEntity
  8
K113
  6
Continuous
 62
     7
100
AcDbCircle
 10
28.2648209024
 20
97.7717840232
 30
0.0
 40
1.126449335718183
100
AcDbArc
 50
344.882723354
 51
0.6063200982
  0
LINE
  5
2BB
330
26C
100
AcDbEntity
  8
K113
  6
Continuous
 62
     7
100
AcDbLine
 10
29.3522883729
 20
97.4780109703
 30
0.0
 11
29.1489819651
 21
97.4780109703
 31
0.0
  0
ELLIPSE
  5
2BC
330
26C
100
AcDbEntity
  8
K113
  6
Continuous
 62
     7
100
AcDbEllipse
 10
74.4041600886
 20
93.1188258916
 30
0.0
 11
-45.79672874099591
 21
5.949479950095474E-7
 31
0.0
210
0.0
220
0.0
230
1.0
 40
0.5299192384
 41
-0.180602851738767
 42
-0.179893993775436
  0
ELLIPSE
  5
2BD
330
26C
100
AcDbEntity
  8
K113
  6
Continuous
 62
     7
100
AcDbEllipse
 10
74.4041600886
 20
93.1188258916
 30
0.0
 11
-45.79672874099591
 21
5.949479950095474E-7
 31
0.0
210
0.0
220
0.0
230
1.0
 40
0.5299192384
 41
-0.1701148070916574
 42
-0.1645076533628709
  0
LINE
  5
2BE
330
26C
100
AcDbEntity
  8
K113
  6
Continuous
 62
     7
100
AcDbLine
 10
29.2257282313
 20
97.0932085299
 30
0.0
 11
29.022988806
 21
97.0932085299
 31
0.0
  0
ELLIPSE
  5
2BF
330
26C
100
AcDbEntity
  8
K113
  6
Continuous
 62
     7
100
AcDbEllipse
 10
74.4041532404
 20
97.5577536081
 30
0.0
 11
-45.18174577115568
 21
1.375117468032808E-7
 31
0.0
210
0.0
220
0.0
230
1.0
 40
0.8480481166
 41
0.0121242569065747
 42
0.0162288389669149
  0
LINE
  5
2C0
330
26C
100
AcDbEntity
  8
K113
  6
Continuous
 62
     7
100
AcDbLine
 10
29.4413499496
 20
97.4610867053
 30
0.0
 11
29.2782128687
 21
97.4610867053
 31
0.0
  0
LINE
  5
2C1
330
26C
100
AcDbEntity
  8
K113
  6
Continuous
 62
     7
100
AcDbLine
 10
29.6230303263
 20
99.1289122917
 30
0.0
 11
29.4185003213
 21
99.1289122917
 31
0.0
  0
ARC
  5
2C2
330
26C
100
AcDbEntity
  8
K113
  6
Continuous
 62
     7
100
AcDbCircle
 10
61.8288627815
 20
98.6659825487
 30
0.0
 40
32.20915938179458
100
AcDbArc
 50
179.176481651
 51
180.7152638123
  0
LINE
  5
2C3
330
26C
100
AcDbEntity
  8
K113
  6
Continuous
 62
     7
100
AcDbLine
 10
29.6222131114
 20
98.2639032337
 30
0.0
 11
29.4176868219
 21
98.2639032337
 31
0.0
  0
SPLINE
  5
2C4
330
26C
100
AcDbEntity
  8
K113
  6
Continuous
 62
     7
100
AcDbSpline
210
0.0
220
0.0
230
1.0
 70
     8
 71
     3
 72
    17
 73
    13
 74
     0
 42
0.0000000328287298
 43
0.0000000001
 40
0.3242210823709121
 40
0.3242210823709121
 40
0.3242210823709121
 40
0.3242210823709121
 40
0.4211897087848998
 40
0.4211897087848998
 40
0.4211897087848998
 40
0.5306591795862683
 40
0.5306591795862683
 40
0.5306591795862683
 40
0.641473562330032
 40
0.641473562330032
 40
0.641473562330032
 40
0.678912214334663
 40
0.678912214334663
 40
0.678912214334663
 40
0.678912214334663
 10
29.60601526584201
 20
98.0913364176813
 30
0.0
 10
29.60291824541275
 20
98.07544578711315
 30
0.0
 10
29.59947858557584
 20
98.0606743559768
 30
0.0
 10
29.59592286701863
 20
98.0479740668253
 30
0.0
 10
29.59191011887101
 20
98.03364136277483
 30
0.0
 10
29.58764064278181
 20
98.02155656701537
 30
0.0
 10
29.58346037705316
 20
98.0126836728791
 30
0.0
 10
29.57923035247773
 20
98.00370516225611
 30
0.0
 10
29.57497459703935
 20
97.99776963251507
 30
0.0
 10
29.57104814529082
 20
97.99539989972382
 30
0.0
 10
29.569721928297
 20
97.99459948751965
 30
0.0
 10
29.5684206827682
 20
97.99419893174309
 30
0.0
 10
29.56715691309537
 20
97.99419708508822
 30
0.0
  0
ARC
  5
2C5
330
26C
100
AcDbEntity
  8
K113
  6
Continuous
 62
     7
100
AcDbCircle
 10
73.1797497145
 20
95.1871773684
 30
0.0
 40
43.73752305864285
100
AcDbArc
 50
179.4873621443
 51
181.6520230479
  0
SPLINE
  5
2C6
330
26C
100
AcDbEntity
  8
K113
  6
Continuous
 62
     7
100
AcDbSpline
210
0.0
220
0.0
230
1.0
 70
    12
 71
     2
 72
     6
 73
     3
 74
     0
 42
0.0000001248292993
 43
0.0000000001
 40
0.0
 40
0.0
 40
0.0
 40
1.0
 40
1.0
 40
1.0
 10
29.38069236658231
 20
95.52938782578835
 30
0.0
 41
1.0
 10
29.41184280445965
 20
95.55396184379978
 30
0.0
 41
1.0
 10
29.44397729798112
 20
95.57850132059778
 30
0.0
 41
1.0
  0
ARC
  5
2C7
330
26C
100
AcDbEntity
  8
K113
  6
Continuous
 62
     7
100
AcDbCircle
 10
73.1779441378
 20
95.1380646074
 30
0.0
 40
43.79899984385377
100
AcDbArc
 50
179.4880826691
 51
181.4790050501
  0
ELLIPSE
  5
2C8
330
26C
100
AcDbEntity
  8
K113
  6
Continuous
 62
     7
100
AcDbEllipse
 10
74.4041561225
 20
92.4528888306
 30
0.0
 11
-45.98571828101708
 21
2.352692556332667E-8
 31
0.0
210
0.0
220
0.0
230
1.0
 40
0.1650476047
 41
-0.206299453062317
 42
-0.1879692947122571
  0
ARC
  5
2C9
330
26C
100
AcDbEntity
  8
K113
  6
Continuous
 62
     7
100
AcDbCircle
 10
73.173447213
 20
95.0016382498
 30
0.0
 40
43.95954280576699
100
AcDbArc
 50
179.4899522931
 51
181.4736024645
  0
SPLINE
  5
2CA
330
26C
100
AcDbEntity
  8
K113
  6
Continuous
 62
     7
100
AcDbSpline
210
0.0
220
0.0
230
1.0
 70
    12
 71
     2
 72
     6
 73
     3
 74
     0
 42
0.0000001515115754
 43
0.0000000001
 40
0.0
 40
0.0
 40
0.0
 40
1.0
 40
1.0
 40
1.0
 10
29.16614831903247
 20
95.34930501148712
 30
0.0
 41
1.0
 10
29.19051040109655
 20
95.37114517978532
 30
0.0
 41
1.0
 10
29.21564620058008
 20
95.39296145131772
 30
0.0
 41
1.0
  0
ARC
  5
2CB
330
26C
100
AcDbEntity
  8
K113
  6
Continuous
 62
     7
100
AcDbCircle
 10
73.1722012002
 20
94.9579809024
 30
0.0
 40
44.00779260036633
100
AcDbArc
 50
179.4905103405
 51
181.6843487702
  0
ELLIPSE
  5
2CC
330
26C
100
AcDbEntity
  8
K113
  6
Continuous
 62
     7
100
AcDbEllipse
 10
74.4041544685
 20
92.2898385079
 30
0.0
 11
-45.98129868779517
 21
-2.763387377446487E-8
 31
0.0
210
0.0
220
0.0
230
1.0
 40
0.1650476075
 41
-0.1821351190828366
 42
-0.1638418381517015
  0
ARC
  5
2CD
330
26C
100
AcDbEntity
  8
K113
  6
Continuous
 62
     7
100
AcDbCircle
 10
73.1683664886
 20
94.8212284867
 30
0.0
 40
44.14867967076996
100
AcDbArc
 50
178.321023686
 51
181.678976314
  0
ELLIPSE
  5
2CE
330
26C
100
AcDbEntity
  8
K113
  6
Continuous
 62
     7
100
AcDbEllipse
 10
74.4041554333
 20
94.8769044044
 30
0.0
 11
-45.98129965270935
 21
5.762618419149915E-10
 31
0.0
210
0.0
220
0.0
230
1.0
 40
0.1650476058
 41
-0.231119526614191
 42
-0.1638418363420291
  0
ARC
  5
2CF
330
26C
100
AcDbEntity
  8
K113
  6
Continuous
 62
     7
100
AcDbCircle
 10
73.1848841638
 20
95.3217882103
 30
0.0
 40
43.55862214654815
100
AcDbArc
 50
178.2982736505
 51
181.6588145319
  0
ELLIPSE
  5
2D0
330
26C
100
AcDbEntity
  8
K113
  6
Continuous
 62
     7
100
AcDbEllipse
 10
74.4041553111
 20
92.3224485589
 30
0.0
 11
-45.98223070092108
 21
-3.760019925877982E-9
 31
0.0
210
0.0
220
0.0
230
1.0
 40
0.165047606
 41
-0.2311147614606117
 42
-0.2129316206914691
  0
ELLIPSE
  5
2D1
330
26C
100
AcDbEntity
  8
K113
  6
Continuous
 62
     7
100
AcDbEllipse
 10
74.404155416
 20
94.876904405
 30
0.0
 11
-45.78121794098453
 21
3.349270761106776E-12
 31
0.0
210
0.0
220
0.0
230
1.0
 40
0.1650476059
 41
-0.2113026993399236
 42
-0.1645644088507385
  0
LINE
  5
2D2
330
26C
100
AcDbEntity
  8
K113
  6
Continuous
 62
     7
100
AcDbLine
 10
29.2414504908
 20
96.1147614489
 30
0.0
 11
29.0386408023
 21
96.1147614489
 31
0.0
  0
ARC
  5
2D3
330
26C
100
AcDbEntity
  8
K113
  6
Continuous
 62
     7
100
AcDbCircle
 10
73.173891169
 20
94.8212284867
 30
0.0
 40
43.95147974151256
100
AcDbArc
 50
178.3134883435
 51
179.2546596851
  0
LINE
  5
2D4
330
26C
100
AcDbEntity
  8
K113
  6
Continuous
 62
     7
100
AcDbLine
 10
29.3796859066
 20
95.3929614513
 30
0.0
 11
29.2156462006
 21
95.3929614513
 31
0.0
  0
LINE
  5
2D5
330
26C
100
AcDbEntity
  8
K113
  6
Continuous
 62
     7
100
AcDbLine
 10
29.6270184066
 20
95.5785013206
 30
0.0
 11
29.443977298
 21
95.5785013206
 31
0.0
  0
ARC
  5
2D6
330
26C
100
AcDbEntity
  8
K113
  6
Continuous
 62
     7
100
AcDbCircle
 10
29.1598342867
 20
92.8018054835
 30
0.0
 40
0.3952297297508733
100
AcDbArc
 50
8.9632135578
 51
36.0796223554
  0
SPLINE
  5
2D7
330
26C
100
AcDbEntity
  8
K113
  6
Continuous
 62
     7
100
AcDbSpline
210
0.0
220
0.0
230
1.0
 70
    12
 71
     2
 72
     6
 73
     3
 74
     0
 42
0.0000001516258675
 43
0.0000000001
 40
0.0
 40
0.0
 40
0.0
 40
1.0
 40
1.0
 40
1.0
 10
29.43281781893123
 20
93.08138645666185
 30
0.0
 41
1.0
 10
29.45577792487257
 20
93.05796103776508
 30
0.0
 41
1.0
 10
29.47925871108233
 20
93.03455980977294
 30
0.0
 41
1.0
  0
SPLINE
  5
2D8
330
26C
100
AcDbEntity
  8
K113
  6
Continuous
 62
     7
100
AcDbSpline
210
0.0
220
0.0
230
1.0
 70
     8
 71
     3
 72
    14
 73
    10
 74
     0
 42
0.00000001305123
 43
0.0000000001
 40
0.0
 40
0.0
 40
0.0
 40
0.0
 40
0.25
 40
0.25
 40
0.5
 40
0.5
 40
0.75
 40
0.75
 40
1.0
 40
1.0
 40
1.0
 40
1.0
 10
29.23273334170062
 20
92.45880611024282
 30
0.0
 10
29.23469959780767
 20
92.57179206314146
 30
0.0
 10
29.24168996432686
 20
92.67753607610786
 30
0.0
 10
29.26441136917371
 20
92.86180434999433
 30
0.0
 10
29.28020168073346
 20
92.93981970984382
 30
0.0
 10
29.31745570340795
 20
93.0542777026761
 30
0.0
 10
29.33923177122348
 20
93.0916600064046
 30
0.0
 10
29.3849289739551
 20
93.12035584507764
 30
0.0
 10
29.40907149032372
 20
93.1121933103639
 30
0.0
 10
29.43281781893122
 20
93.08138645666185
 30
0.0
  0
ARC
  5
2D9
330
26C
100
AcDbEntity
  8
K113
  6
Continuous
 62
     7
100
AcDbCircle
 10
72.2879985702
 20
91.7095376477
 30
0.0
 40
43.0617843362653
100
AcDbArc
 50
179.0030118857
 51
180.6573273394
  0
SPLINE
  5
2DA
330
26C
100
AcDbEntity
  8
K113
  6
Continuous
 62
     7
100
AcDbSpline
210
0.0
220
0.0
230
1.0
 70
     8
 71
     3
 72
    35
 73
    31
 74
     0
 42
0.000000028478818
 43
0.0000000001
 40
0.0
 40
0.0
 40
0.0
 40
0.0
 40
0.1048903526261743
 40
0.1048903526261743
 40
0.1048903526261743
 40
0.2101047535322983
 40
0.2101047535322983
 40
0.2101047535322983
 40
0.3162305490488653
 40
0.3162305490488653
 40
0.3162305490488653
 40
0.4241570546332952
 40
0.4241570546332952
 40
0.4241570546332952
 40
0.5336935140251547
 40
0.5336935140251547
 40
0.5336935140251547
 40
0.6439369875344311
 40
0.6439369875344311
 40
0.6439369875344311
 40
0.7536302035551613
 40
0.7536302035551613
 40
0.7536302035551613
 40
0.8617456950839538
 40
0.8617456950839538
 40
0.8617456950839538
 40
0.967987790552706
 40
0.967987790552706
 40
0.967987790552706
 40
1.0
 40
1.0
 40
1.0
 40
1.0
 10
29.16619943003596
 20
91.28795011309055
 30
0.0
 10
29.1664057843347
 20
91.26993878599333
 30
0.0
 10
29.16720420959135
 20
91.2510081012413
 30
0.0
 10
29.16852468099877
 20
91.23272479688141
 30
0.0
 10
29.16984955275397
 20
91.21438056511549
 30
0.0
 10
29.17173539060991
 20
91.19618753297308
 30
0.0
 10
29.17402179959869
 20
91.17961221357186
 30
0.0
 10
29.17632818163163
 20
91.16289209960948
 30
0.0
 10
29.17910376758985
 20
91.14736474630242
 30
0.0
 10
29.18212071596184
 20
91.13424456551388
 30
0.0
 10
29.18518825875607
 20
91.12090435843223
 30
0.0
 10
29.18858806449538
 20
91.10969024251864
 30
0.0
 10
29.19204466909882
 20
91.10147729471342
 30
0.0
 10
29.19555178746423
 20
91.09314432540212
 30
0.0
 10
29.1992133893544
 20
91.08767308091578
 30
0.0
 10
29.20272982531014
 20
91.08551048589312
 30
0.0
 10
29.20626795099152
 20
91.08333455176997
 30
0.0
 10
29.20975742336481
 20
91.0844509055581
 30
0.0
 10
29.212903940952
 20
91.08880026236777
 30
0.0
 10
29.21603431568026
 20
91.09312730528548
 30
0.0
 10
29.21891297017465
 20
91.10078093330124
 30
0.0
 10
29.22128796029838
 20
91.11115891867331
 30
0.0
 10
29.22362898667274
 20
91.1213884927781
 30
0.0
 10
29.22554618438397
 20
91.13455770232164
 30
0.0
 10
29.22686727691611
 20
91.14957418187062
 30
0.0
 10
29.22816583313542
 20
91.16433449762143
 30
0.0
 10
29.22892456560516
 20
91.18129435062234
 30
0.0
 10
29.22907503468254
 20
91.19902545184529
 30
0.0
 10
29.22912097495799
 20
91.2044390005189
 30
0.0
 10
29.22911196213023
 20
91.2099524259302
 30
0.0
 10
29.2290480743311
 20
91.2155210299902
 30
0.0
  0
ARC
  5
2DB
330
26C
100
AcDbEntity
  8
K113
  6
Continuous
 62
     7
100
AcDbCircle
 10
72.2849230823
 20
91.7819577969
 30
0.0
 40
43.12155346478927
100
AcDbArc
 50
179.3989153078
 51
180.6564043321
  0
SPLINE
  5
2DC
330
26C
100
AcDbEntity
  8
K113
  6
Continuous
 62
     7
100
AcDbSpline
210
0.0
220
0.0
230
1.0
 70
     8
 71
     3
 72
    10
 73
     6
 74
     0
 42
0.0000000469056905
 43
0.0000000001
 40
0.0
 40
0.0
 40
0.0
 40
0.0
 40
0.5
 40
0.5
 40
1.0
 40
1.0
 40
1.0
 40
1.0
 10
29.21176693830089
 20
92.40969745044669
 30
0.0
 10
29.20032586850888
 20
92.42278063505222
 30
0.0
 10
29.1888777738169
 20
92.411723883196
 30
0.0
 10
29.17182600441794
 20
92.34749698967862
 30
0.0
 10
29.16637300314247
 20
92.29442611910717
 30
0.0
 10
29.16574255608047
 20
92.23433370428971
 30
0.0
  0
ELLIPSE
  5
2DD
330
26C
100
AcDbEntity
  8
K113
  6
Continuous
 62
     7
100
AcDbEllipse
 10
74.4041551564
 20
91.7320068222
 30
0.0
 11
-45.19771885445628
 21
-1.397682720225677E-7
 31
0.0
210
0.0
220
0.0
230
1.0
 40
0.9762960099
 41
6.247759154380224
 42
6.26782674314519
  0
SPLINE
  5
2DE
330
26C
100
AcDbEntity
  8
K113
  6
Continuous
 62
     7
100
AcDbSpline
210
0.0
220
0.0
230
1.0
 70
     8
 71
     3
 72
    20
 73
    16
 74
     0
 42
0.0000000107837708
 43
0.0000000001
 40
0.0
 40
0.0
 40
0.0
 40
0.0
 40
0.210394337051745
 40
0.210394337051745
 40
0.210394337051745
 40
0.4207904921092018
 40
0.4207904921092018
 40
0.4207904921092018
 40
0.6330421892995914
 40
0.6330421892995914
 40
0.6330421892995914
 40
0.8489379967691779
 40
0.8489379967691779
 40
0.8489379967691779
 40
1.0
 40
1.0
 40
1.0
 40
1.0
 10
29.02298017528469
 20
92.49420871001873
 30
0.0
 10
29.02438522075296
 20
92.6079932072931
 30
0.0
 10
29.02956004024272
 20
92.71899013259764
 30
0.0
 10
29.03805068564051
 20
92.81801805504298
 30
0.0
 10
29.04654349961017
 20
92.91707126993163
 30
0.0
 10
29.05858090966189
 20
93.00686850603029
 30
0.0
 10
29.07314492300192
 20
93.08030253794811
 30
0.0
 10
29.08783843735989
 20
93.15438953424217
 30
0.0
 10
29.10549635574089
 20
93.21384329494008
 30
0.0
 10
29.12467580939527
 20
93.25418024088732
 30
0.0
 10
29.14418070798935
 20
93.29520164089553
 30
0.0
 10
29.16578544888029
 20
93.31757575443763
 30
0.0
 10
29.1877442010699
 20
93.31971094754223
 30
0.0
 10
29.20321736180263
 20
93.32121550416812
 30
0.0
 10
29.21911221791705
 20
93.31283140037705
 30
0.0
 10
29.23479517785264
 20
93.29490663367088
 30
0.0
  0
ARC
  5
2DF
330
26C
100
AcDbEntity
  8
K113
  6
Continuous
 62
     7
100
AcDbCircle
 10
72.2781890449
 20
91.9600802773
 30
0.0
 40
43.25850654305539
100
AcDbArc
 50
179.2925303013
 51
180.461980871
  0
ARC
  5
2E0
330
26C
100
AcDbEntity
  8
K113
  6
Continuous
 62
     7
100
AcDbCircle
 10
38.7662645401
 20
91.6931830296
 30
0.0
 40
9.745519966358252
100
AcDbArc
 50
180.4814884563
 51
183.8107297264
  0
SPLINE
  5
2E1
330
26C
100
AcDbEntity
  8
K113
  6
Continuous
 62
     7
100
AcDbSpline
210
0.0
220
0.0
230
1.0
 70
     8
 71
     3
 72
    10
 73
     6
 74
     0
 42
0.0000000112117932
 43
0.0000000001
 40
0.0
 40
0.0
 40
0.0
 40
0.0
 40
0.5
 40
0.5
 40
1.0
 40
1.0
 40
1.0
 40
1.0
 10
29.22246771481388
 20
90.18325255858124
 30
0.0
 10
29.18421472915571
 20
90.22732228446922
 30
0.0
 10
29.14602072500783
 20
90.33464004732026
 30
0.0
 10
29.08140425988521
 20
90.6423134252471
 30
0.0
 10
29.05596622981652
 20
90.8391157190468
 30
0.0
 10
29.04229153100617
 20
91.04548839946769
 30
0.0
  0
SPLINE
  5
2E2
330
26C
100
AcDbEntity
  8
K113
  6
Continuous
 62
     7
100
AcDbSpline
210
0.0
220
0.0
230
1.0
 70
    12
 71
     2
 72
     6
 73
     3
 74
     0
 42
0.0000001603562039
 43
0.0000000001
 40
0.0
 40
0.0
 40
0.0
 40
1.0
 40
1.0
 40
1.0
 10
29.26365047486129
 20
90.13642593359062
 30
0.0
 41
1.0
 10
29.24279998270669
 20
90.15982857069376
 30
0.0
 41
1.0
 10
29.22246771481389
 20
90.18325255858124
 30
0.0
 41
1.0
  0
SPLINE
  5
2E3
330
26C
100
AcDbEntity
  8
K113
  6
Continuous
 62
     7
100
AcDbSpline
210
0.0
220
0.0
230
1.0
 70
     8
 71
     3
 72
    12
 73
     8
 74
     0
 42
0.0000000141816075
 43
0.0000000001
 40
0.0
 40
0.0
 40
0.0
 40
0.0
 40
0.2499999999999997
 40
0.2499999999999997
 40
0.4999999999999994
 40
0.4999999999999994
 40
1.0
 40
1.0
 40
1.0
 40
1.0
 10
29.39765615408868
 20
90.71951262503521
 30
0.0
 10
29.39954794937157
 20
90.61978059383001
 30
0.0
 10
29.39747282859791
 20
90.52617167376181
 30
0.0
 10
29.38585232714577
 20
90.36088922322142
 30
0.0
 10
29.37627612806643
 20
90.29009828266142
 30
0.0
 10
29.33899503689578
 20
90.1298781523315
 30
0.0
 10
29.30232391618039
 20
90.09301878012822
 30
0.0
 10
29.26365047486128
 20
90.13642593359062
 30
0.0
  0
ARC
  5
2E4
330
26C
100
AcDbEntity
  8
K113
  6
Continuous
 62
     7
100
AcDbCircle
 10
72.2956985613
 20
91.5332362933
 30
0.0
 40
42.90575943591972
100
AcDbArc
 50
179.2528903941
 51
181.0867008982
  0
SPLINE
  5
2E5
330
26C
100
AcDbEntity
  8
K113
  6
Continuous
 62
     7
100
AcDbSpline
210
0.0
220
0.0
230
1.0
 70
     8
 71
     3
 72
    35
 73
    31
 74
     0
 42
0.0000000282706378
 43
0.0000000001
 40
0.0
 40
0.0
 40
0.0
 40
0.0
 40
0.1038569263879373
 40
0.1038569263879373
 40
0.1038569263879373
 40
0.2080445261506469
 40
0.2080445261506469
 40
0.2080445261506469
 40
0.3130784097678387
 40
0.3130784097678387
 40
0.3130784097678387
 40
0.4202704357862202
 40
0.4202704357862202
 40
0.4202704357862202
 40
0.5297560987338495
 40
0.5297560987338495
 40
0.5297560987338495
 40
0.6406865720051508
 40
0.6406865720051508
 40
0.6406865720051508
 40
0.7515178461440513
 40
0.7515178461440513
 40
0.7515178461440513
 40
0.860701496181385
 40
0.860701496181385
 40
0.860701496181385
 40
0.9674562836498684
 40
0.9674562836498684
 40
0.9674562836498684
 40
1.0
 40
1.0
 40
1.0
 40
1.0
 10
29.46502259304137
 20
92.02054665770763
 30
0.0
 10
29.46525522440714
 20
92.0383578145693
 30
0.0
 10
29.46482967702065
 20
92.05708867669019
 30
0.0
 10
29.4637840921141
 20
92.07519033530829
 30
0.0
 10
29.46273493750196
 20
92.09335379435163
 30
0.0
 10
29.46103374059524
 20
92.11137816169375
 30
0.0
 10
29.45882870176518
 20
92.12781071297094
 30
0.0
 10
29.45660540842443
 20
92.14437930184482
 30
0.0
 10
29.45381127302876
 20
92.15977712662591
 30
0.0
 10
29.45067838591431
 20
92.17281768338707
 30
0.0
 10
29.44748167436606
 20
92.18612390760482
 30
0.0
 10
29.44384711285311
 20
92.19733541268214
 30
0.0
 10
29.44006863914661
 20
92.20560522257945
 30
0.0
 10
29.43621065860931
 20
92.21404904622608
 30
0.0
 10
29.43209806851151
 20
92.2196560187201
 30
0.0
 10
29.42806361207255
 20
92.22199080575336
 30
0.0
 10
29.42397752712884
 20
92.22435547080495
 30
0.0
 10
29.41985855120462
 20
92.22342624922175
 30
0.0
 10
29.41604993824605
 20
92.21925161175118
 30
0.0
 10
29.41224576094731
 20
92.21508183622691
 30
0.0
 10
29.40864436983522
 20
92.20755080825685
 30
0.0
 10
29.4055601273298
 20
92.1972410497053
 30
0.0
 10
29.40252174362111
 20
92.18708458426252
 30
0.0
 10
29.39989961800925
 20
92.17393691458821
 30
0.0
 10
29.39793214010002
 20
92.1588835890789
 30
0.0
 10
29.39600788356854
 20
92.14416095367051
 30
0.0
 10
29.39465599991678
 20
92.12719640365364
 30
0.0
 10
29.3940013083175
 20
92.10942872373303
 30
0.0
 10
29.39379904199449
 20
92.10393941656919
 30
0.0
 10
29.39366040969568
 20
92.09834440043903
 30
0.0
 10
29.39358668858408
 20
92.0926910543651
 30
0.0
  0
ARC
  5
2E6
330
26C
100
AcDbEntity
  8
K113
  6
Continuous
 62
     7
100
AcDbCircle
 10
72.2988955127
 20
91.4610938139
 30
0.0
 40
42.83752627913588
100
AcDbArc
 50
179.2517028678
 51
180.5175322242
  0
SPLINE
  5
2E7
330
26C
100
AcDbEntity
  8
K113
  6
Continuous
 62
     7
100
AcDbSpline
210
0.0
220
0.0
230
1.0
 70
     8
 71
     3
 72
    10
 73
     6
 74
     0
 42
0.0000000423231343
 43
0.0000000001
 40
0.0
 40
0.0
 40
0.0
 40
0.0
 40
0.5
 40
0.5
 40
1.0
 40
1.0
 40
1.0
 40
1.0
 10
29.41143041012916
 20
90.88126342725995
 30
0.0
 10
29.42549810051637
 20
90.86692081144105
 30
0.0
 10
29.4390761615088
 20
90.87891518852943
 30
0.0
 10
29.45829028996043
 20
90.94949291268783
 30
0.0
 10
29.46371455085622
 20
91.00798244388011
 30
0.0
 10
29.46311674877317
 20
91.07416306650848
 30
0.0
  0
ARC
  5
2E8
330
26C
100
AcDbEntity
  8
K113
  6
Continuous
 62
     7
100
AcDbCircle
 10
72.2980986901
 20
91.5160642348
 30
0.0
 40
42.8913660380891
100
AcDbArc
 50
180.8480199712
 51
181.9555636425
  0
SPLINE
  5
2E9
330
26C
100
AcDbEntity
  8
K113
  6
Continuous
 62
     7
100
AcDbSpline
210
0.0
220
0.0
230
1.0
 70
     8
 71
     3
 72
    20
 73
    16
 74
     0
 42
0.0000000106080781
 43
0.0000000001
 40
0.0
 40
0.0
 40
0.0
 40
0.0
 40
0.2145704359437539
 40
0.2145704359437539
 40
0.2145704359437539
 40
0.4291496672513009
 40
0.4291496672513009
 40
0.4291496672513009
 40
0.6455359586230102
 40
0.6455359586230102
 40
0.6455359586230102
 40
0.8663347512109848
 40
0.8663347512109848
 40
0.8663347512109848
 40
1.0
 40
1.0
 40
1.0
 40
1.0
 10
29.64060218582994
 20
90.88026431010334
 30
0.0
 10
29.64171921446214
 20
90.76460028983486
 30
0.0
 10
29.63858053936255
 20
90.65165595429599
 30
0.0
 10
29.63147080534723
 20
90.55078849325912
 30
0.0
 10
29.62435908962807
 20
90.44989291732598
 30
0.0
 10
29.61308646367146
 20
90.35831737957682
 30
0.0
 10
29.59863861215543
 20
90.283296140169
 30
0.0
 10
29.58406700351701
 20
90.20763228530397
 30
0.0
 10
29.56588119007199
 20
90.14674536225994
 30
0.0
 10
29.54559681900755
 20
90.10512292121358
 30
0.0
 10
29.52490255981158
 20
90.06265941171431
 30
0.0
 10
29.50147226179932
 20
90.03908379238679
 30
0.0
 10
29.47720697174948
 20
90.03595026621862
 30
0.0
 10
29.46238978617338
 20
90.03403683189964
 30
0.0
 10
29.44707418062721
 20
90.03959323870187
 30
0.0
 10
29.43171287821279
 20
90.05242218978026
 30
0.0
  0
ARC
  5
2EA
330
26C
100
AcDbEntity
  8
K113
  6
Continuous
 62
     7
100
AcDbCircle
 10
72.307208623
 20
91.2923182999
 30
0.0
 40
42.66859609070495
100
AcDbArc
 50
179.2280278893
 51
180.5533184515
  0
ARC
  5
2EB
330
26C
100
AcDbEntity
  8
K113
  6
Continuous
 62
     7
100
AcDbCircle
 10
25.2666997613
 20
91.9643588048
 30
0.0
 40
4.376864250344097
100
AcDbArc
 50
358.72795407
 51
11.8531252547
  0
LINE
  5
2EC
330
26C
100
AcDbEntity
  8
K113
  6
Continuous
 62
     7
100
AcDbLine
 10
29.5067122951
 20
90.0524221898
 30
0.0
 11
29.4317128782
 21
90.0524221898
 31
0.0
  0
LINE
  5
2ED
330
26C
100
AcDbEntity
  8
K113
  6
Continuous
 62
     7
100
AcDbLine
 10
29.6391702137
 20
91.0741630665
 30
0.0
 11
29.4631167488
 21
91.0741630665
 31
0.0
  0
LINE
  5
2EE
330
26C
100
AcDbEntity
  8
K113
  6
Continuous
 62
     7
100
AcDbLine
 10
29.639335394
 20
92.0205466577
 30
0.0
 11
29.465022593
 21
92.0205466577
 31
0.0
  0
LINE
  5
2EF
330
26C
100
AcDbEntity
  8
K113
  6
Continuous
 62
     7
100
AcDbLine
 10
29.3147802409
 20
90.1364259336
 30
0.0
 11
29.2636504749
 21
90.1364259336
 31
0.0
  0
LINE
  5
2F0
330
26C
100
AcDbEntity
  8
K113
  6
Continuous
 62
     7
100
AcDbLine
 10
29.3463295056
 20
90.1832525586
 30
0.0
 11
29.2224677148
 21
90.1832525586
 31
0.0
  0
LINE
  5
2F1
330
26C
100
AcDbEntity
  8
K113
  6
Continuous
 62
     7
100
AcDbLine
 10
29.2451176149
 20
91.0454883995
 30
0.0
 11
29.042291531
 21
91.0454883995
 31
0.0
  0
LINE
  5
2F2
330
26C
100
AcDbEntity
  8
K113
  6
Continuous
 62
     7
100
AcDbLine
 10
29.163707367
 20
91.6112869428
 30
0.0
 11
29.021088685
 21
91.6112869428
 31
0.0
  0
LINE
  5
2F3
330
26C
100
AcDbEntity
  8
K113
  6
Continuous
 62
     7
100
AcDbLine
 10
29.2131794535
 20
92.49420871
 30
0.0
 11
29.0229801753
 21
92.49420871
 31
0.0
  0
LINE
  5
2F4
330
26C
100
AcDbEntity
  8
K113
  6
Continuous
 62
     7
100
AcDbLine
 10
29.3911154956
 20
91.21552103
 30
0.0
 11
29.2290480743
 21
91.21552103
 31
0.0
  0
LINE
  5
2F5
330
26C
100
AcDbEntity
  8
K113
  6
Continuous
 62
     7
100
AcDbLine
 10
29.4364184014
 20
92.4588061102
 30
0.0
 11
29.2327333417
 21
92.4588061102
 31
0.0
  0
ARC
  5
2F6
330
26C
100
AcDbEntity
  8
K113
  6
Continuous
 62
     7
100
AcDbCircle
 10
72.3076862684
 20
91.516064462
 30
0.0
 40
42.69647734478576
100
AcDbArc
 50
180.8518913602
 51
181.3786009755
  0
SPLINE
  5
2F7
330
26C
100
AcDbEntity
  8
K113
  6
Continuous
 62
     7
100
AcDbSpline
210
0.0
220
0.0
230
1.0
 70
     8
 71
     3
 72
    10
 73
     6
 74
     0
 42
0.0000000099116349
 43
0.0000000001
 40
0.231007674956223
 40
0.231007674956223
 40
0.231007674956223
 40
0.231007674956223
 40
0.5
 40
0.5
 40
1.0
 40
1.0
 40
1.0
 40
1.0
 10
29.37346311459659
 20
90.28318276299483
 30
0.0
 10
29.35349310187754
 20
90.3364085802401
 30
0.0
 10
29.33432311197203
 20
90.40570141670966
 30
0.0
 10
29.28441164497886
 20
90.64228040635682
 30
0.0
 10
29.25885521517908
 20
90.83909343395499
 30
0.0
 10
29.24511761490503
 20
91.04548839946769
 30
0.0
  0
ARC
  5
2F8
330
26C
100
AcDbEntity
  8
K113
  6
Continuous
 62
     7
100
AcDbCircle
 10
38.9256173188
 20
91.6931860418
 30
0.0
 40
9.70214341028319
100
AcDbArc
 50
183.5982564963
 51
183.827809984
  0
ARC
  5
2F9
330
26C
100
AcDbEntity
  8
K113
  6
Continuous
 62
     7
100
AcDbCircle
 10
72.2975400349
 20
91.7095376585
 30
0.0
 40
42.86767026583549
100
AcDbArc
 50
178.9984968639
 51
179.3133285408
  0
SPLINE
  5
2FA
330
26C
100
AcDbEntity
  8
K113
  6
Continuous
 62
     7
100
AcDbSpline
210
0.0
220
0.0
230
1.0
 70
     8
 71
     3
 72
    12
 73
     8
 74
     0
 42
0.0000000091959731
 43
0.0000000001
 40
0.0
 40
0.0
 40
0.0
 40
0.0
 40
0.25
 40
0.25
 40
0.5
 40
0.5
 40
0.5021378669486611
 40
0.5021378669486611
 40
0.5021378669486611
 40
0.5021378669486611
 10
29.43641840139675
 20
92.45880611024282
 30
0.0
 10
29.43839385856272
 20
92.57180892328107
 30
0.0
 10
29.44541711972712
 20
92.67755765437632
 30
0.0
 10
29.46824491841761
 20
92.86183479245942
 30
0.0
 10
29.48410823157732
 20
92.93984591318377
 30
0.0
 10
29.50298038236351
 20
92.99755881239145
 30
0.0
 10
29.503140629832
 20
92.99804670625336
 30
0.0
 10
29.50330110724853
 20
92.99853314660974
 30
0.0
  0
ARC
  5
2FB
330
26C
100
AcDbEntity
  8
K113
  6
Continuous
 62
     7
100
AcDbCircle
 10
46.3114086078
 20
87.0360359498
 30
0.0
 40
17.15065815060635
100
AcDbArc
 50
178.9942253081
 51
181.0057746919
  0
ARC
  5
2FC
330
26C
100
AcDbEntity
  8
K113
  6
Continuous
 62
     7
100
AcDbCircle
 10
30.7618504254
 20
86.8183823967
 30
0.0
 40
1.600631556174512
100
AcDbArc
 50
182.9865376779
 51
193.1494079578
  0
ELLIPSE
  5
2FD
330
26C
100
AcDbEntity
  8
K113
  6
Continuous
 62
     7
100
AcDbEllipse
 10
74.4041565453
 20
93.159190764
 30
0.0
 11
-45.99484107000735
 21
-4.609393510494734E-7
 31
0.0
210
0.0
220
0.0
230
1.0
 40
0.7880107445
 41
0.1860639455130459
 42
0.2075348500987433
  0
SPLINE
  5
2FE
330
26C
100
AcDbEntity
  8
K113
  6
Continuous
 62
     7
100
AcDbSpline
210
0.0
220
0.0
230
1.0
 70
     8
 71
     3
 72
    10
 73
     6
 74
     0
 42
0.0000000714827741
 43
0.0000000001
 40
0.0
 40
0.0
 40
0.0
 40
0.0
 40
0.5
 40
0.5
 40
1.0
 40
1.0
 40
1.0
 40
1.0
 10
29.436238977943
 20
85.65661835383371
 30
0.0
 10
29.43681920752908
 20
85.62376724481106
 30
0.0
 10
29.4326973354159
 20
85.60922091559871
 30
0.0
 10
29.41788001621475
 20
85.62245401538486
 30
0.0
 10
29.40727032962961
 20
85.64996168138005
 30
0.0
 10
29.39628078954304
 20
85.6910882094899
 30
0.0
  0
ARC
  5
2FF
330
26C
100
AcDbEntity
  8
K113
  6
Continuous
 62
     7
100
AcDbCircle
 10
46.480835404
 20
85.9576669158
 30
0.0
 40
17.04725483957514
100
AcDbArc
 50
178.9881239613
 51
181.0118760387
  0
ARC
  5
300
330
26C
100
AcDbEntity
  8
K113
  6
Continuous
 62
     7
100
AcDbCircle
 10
28.1910705444
 20
86.224696026
 30
0.0
 40
1.24563307233335
100
AcDbArc
 50
1.5649981039
 51
14.6365062339
  0
ELLIPSE
  5
301
330
26C
100
AcDbEntity
  8
K113
  6
Continuous
 62
     7
100
AcDbEllipse
 10
74.4041565546
 20
94.0075524779
 30
0.0
 11
-45.99484107932722
 21
-4.609187619417976E-7
 31
0.0
210
0.0
220
0.0
230
1.0
 40
0.7880107444
 41
0.1860639454937746
 42
0.2075348500773135
  0
SPLINE
  5
302
330
26C
100
AcDbEntity
  8
K113
  6
Continuous
 62
     7
100
AcDbSpline
210
0.0
220
0.0
230
1.0
 70
     8
 71
     3
 72
    10
 73
     6
 74
     0
 42
0.0000000717116613
 43
0.0000000001
 40
0.0
 40
0.0
 40
0.0
 40
0.0
 40
0.5
 40
0.5
 40
1.0
 40
1.0
 40
1.0
 40
1.0
 10
29.1633928403416
 20
87.33708451172971
 30
0.0
 10
29.16396908507518
 20
87.36990796623769
 30
0.0
 10
29.16869646764241
 20
87.38444943179049
 30
0.0
 10
29.18340890961037
 20
87.37133629494546
 30
0.0
 10
29.19332794951722
 20
87.34388710238747
 30
0.0
 10
29.20318717793505
 20
87.30261465607353
 30
0.0
  0
SPLINE
  5
303
330
26C
100
AcDbEntity
  8
K113
  6
Continuous
 62
     7
100
AcDbSpline
210
0.0
220
0.0
230
1.0
 70
     8
 71
     3
 72
    12
 73
     8
 74
     0
 42
0.000000019131039
 43
0.0000000001
 40
0.0
 40
0.0
 40
0.0
 40
0.0
 40
0.2499999999999997
 40
0.2499999999999997
 40
0.4999999999999993
 40
0.4999999999999993
 40
1.0
 40
1.0
 40
1.0
 40
1.0
 10
29.47541542653538
 20
84.91463599559903
 30
0.0
 10
29.49660528966012
 20
84.83757938220032
 30
0.0
 10
29.51705170188337
 20
84.77359847635284
 30
0.0
 10
29.55481568964706
 20
84.67676988392037
 30
0.0
 10
29.57177712475162
 20
84.6450751356231
 30
0.0
 10
29.61319000564419
 20
84.60748052831929
 30
0.0
 10
29.62756062130831
 20
84.6621099568482
 30
0.0
 10
29.62367522560823
 20
84.78537403688823
 30
0.0
  0
ELLIPSE
  5
304
330
26C
100
AcDbEntity
  8
K113
  6
Continuous
 62
     7
100
AcDbEllipse
 10
74.4041555011
 20
92.5866036207
 30
0.0
 11
-45.97149969492965
 21
-3.349195428707305E-8
 31
0.0
210
0.0
220
0.0
230
1.0
 40
0.7880107529
 41
0.1804359425001234
 42
0.2133964127414358
  0
ARC
  5
305
330
26C
100
AcDbEntity
  8
K113
  6
Continuous
 62
     7
100
AcDbCircle
 10
35.4489506617
 20
87.5219087536
 30
0.0
 40
6.432396926985891
100
AcDbArc
 50
183.4190719454
 51
192.9031096596
  0
ARC
  5
306
330
26C
100
AcDbEntity
  8
K113
  6
Continuous
 62
     7
100
AcDbCircle
 10
46.227336928
 20
87.6733109963
 30
0.0
 40
17.207653209068
100
AcDbArc
 50
178.2182678946
 51
181.7817321054
  0
SPLINE
  5
307
330
26C
100
AcDbEntity
  8
K113
  6
Continuous
 62
     7
100
AcDbSpline
210
0.0
220
0.0
230
1.0
 70
     8
 71
     3
 72
    12
 73
     8
 74
     0
 42
0.0000000191910974
 43
0.0000000001
 40
0.0
 40
0.0
 40
0.0
 40
0.0
 40
0.2500000000000001
 40
0.2500000000000001
 40
0.5000000000000001
 40
0.5000000000000001
 40
1.0
 40
1.0
 40
1.0
 40
1.0
 10
29.1789776998692
 20
88.07907076617936
 30
0.0
 10
29.16103809430085
 20
88.15656559399673
 30
0.0
 10
29.14310142766262
 20
88.22071877874679
 30
0.0
 10
29.10871764461594
 20
88.31747503354451
 30
0.0
 10
29.09256040947243
 20
88.34897927774799
 30
0.0
 10
29.05066453931557
 20
88.38602011909659
 30
0.0
 10
29.03183327838479
 20
88.33145821061285
 30
0.0
 10
29.02800319919461
 20
88.20833272489027
 30
0.0
  0
ELLIPSE
  5
308
330
26C
100
AcDbEntity
  8
K113
  6
Continuous
 62
     7
100
AcDbEllipse
 10
74.4041554994
 20
94.5801392914
 30
0.0
 11
-45.97149969326985
 21
-3.501233359563469E-8
 31
0.0
210
0.0
220
0.0
230
1.0
 40
0.7880107529
 41
0.1804359424778136
 42
0.2133964127196775
  0
ARC
  5
309
330
26C
100
AcDbEntity
  8
K113
  6
Continuous
 62
     7
100
AcDbCircle
 10
25.417676303
 20
85.7999017813
 30
0.0
 40
4.206365287396848
100
AcDbArc
 50
0.7562130646
 51
15.2763255236
  0
ARC
  5
30A
330
26C
100
AcDbEntity
  8
K113
  6
Continuous
 62
     7
100
AcDbCircle
 10
46.5972259941
 20
85.3203957654
 30
0.0
 40
16.98198086028723
100
AcDbArc
 50
178.1945827939
 51
181.8054172061
  0
LINE
  5
30B
330
26C
100
AcDbEntity
  8
K113
  6
Continuous
 62
     7
100
AcDbLine
 10
29.3698595798
 20
87.3026146561
 30
0.0
 11
29.2031871779
 21
87.3026146561
 31
0.0
  0
LINE
  5
30C
330
26C
100
AcDbEntity
  8
K113
  6
Continuous
 62
     7
100
AcDbLine
 10
29.5561258756
 20
86.5394499235
 30
0.0
 11
29.3962807895
 21
86.5394499235
 31
0.0
  0
LINE
  5
30D
330
26C
100
AcDbEntity
  8
K113
  6
Continuous
 62
     7
100
AcDbLine
 10
29.5987364502
 20
86.2587154777
 30
0.0
 11
29.4362389779
 21
86.2587154777
 31
0.0
  0
LINE
  5
30E
330
26C
100
AcDbEntity
  8
K113
  6
Continuous
 62
     7
100
AcDbLine
 10
29.6185733834
 20
85.6566183538
 30
0.0
 11
29.4362389779
 21
85.6566183538
 31
0.0
  0
LINE
  5
30F
330
26C
100
AcDbEntity
  8
K113
  6
Continuous
 62
     7
100
AcDbLine
 10
29.1437764374
 20
88.2083327249
 30
0.0
 11
29.0280031992
 21
88.2083327249
 31
0.0
  0
ARC
  5
310
330
26C
100
AcDbEntity
  8
K113
  6
Continuous
 62
     7
100
AcDbCircle
 10
46.3532441682
 20
87.6733109963
 30
0.0
 40
17.13083584331544
100
AcDbArc
 50
179.2802138672
 51
180.9827871694
  0
LINE
  5
311
330
26C
100
AcDbEntity
  8
K113
  6
Continuous
 62
     7
100
AcDbLine
 10
29.1610551814
 20
87.1382892678
 30
0.0
 11
29.0280031992
 21
87.1382892678
 31
0.0
  0
LINE
  5
312
330
26C
100
AcDbEntity
  8
K113
  6
Continuous
 62
     7
100
AcDbLine
 10
29.2937797188
 20
86.0855350961
 30
0.0
 11
29.1789776999
 21
86.0855350961
 31
0.0
  0
ELLIPSE
  5
313
330
26C
100
AcDbEntity
  8
K113
  6
Continuous
 62
     7
100
AcDbEllipse
 10
74.4041551013
 20
92.5866035578
 30
0.0
 11
-45.77137476155126
 21
1.292706611873026E-7
 31
0.0
210
0.0
220
0.0
230
1.0
 40
0.7880107562
 41
0.1945350403758759
 42
0.2076560640432412
  0
LINE
  5
314
330
26C
100
AcDbEntity
  8
K113
  6
Continuous
 62
     7
100
AcDbLine
 10
29.6200931114
 20
84.9146359956
 30
0.0
 11
29.4754154265
 21
84.9146359956
 31
0.0
  0
ELLIPSE
  5
315
330
26C
100
AcDbEntity
  8
K113
  6
Continuous
 62
     7
100
AcDbEllipse
 10
74.4041566354
 20
88.4502576486
 30
0.0
 11
-44.96854420577976
 21
-7.228613709887673E-8
 31
0.0
210
0.0
220
0.0
230
1.0
 40
0.8480480847
 41
0.0103927911743038
 42
0.0299605012283927
  0
ELLIPSE
  5
316
330
26C
100
AcDbEntity
  8
K113
  6
Continuous
 62
     7
100
AcDbEllipse
 10
74.4041553509
 20
93.187044358
 30
0.0
 11
-45.99762588462849
 21
8.968204742347295E-9
 31
0.0
210
0.0
220
0.0
230
1.0
 40
0.5299192646
 41
0.1637826466061591
 42
0.2121774753494893
  0
ARC
  5
317
330
26C
100
AcDbEntity
  8
K113
  6
Continuous
 62
     7
100
AcDbCircle
 10
61.6602164933
 20
89.6089892388
 30
0.0
 40
32.64053359013295
100
AcDbArc
 50
179.3042875098
 51
180.6957124902
  0
ELLIPSE
  5
318
330
26C
100
AcDbEntity
  8
K113
  6
Continuous
 62
     7
100
AcDbEllipse
 10
74.4041553521
 20
93.9796985145
 30
0.0
 11
-45.99762588584686
 21
8.800294406104574E-9
 31
0.0
210
0.0
220
0.0
230
1.0
 40
0.5299192646
 41
0.1637826466020356
 42
0.2121774753447271
  0
ELLIPSE
  5
319
330
26C
100
AcDbEntity
  8
K113
  6
Continuous
 62
     7
100
AcDbEllipse
 10
74.4041537776
 20
88.4502576577
 30
0.0
 11
-44.96854134809488
 21
-1.048996106525873E-7
 31
0.0
210
0.0
220
0.0
230
1.0
 40
0.8480481116
 41
6.253218979074922
 42
6.272792512333631
  0
ELLIPSE
  5
31A
330
26C
100
AcDbEntity
  8
K113
  6
Continuous
 62
     7
100
AcDbEllipse
 10
74.4041605165
 20
94.7259814559
 30
0.0
 11
-45.98026906421484
 21
-8.278215034730367E-7
 31
0.0
210
0.0
220
0.0
230
1.0
 40
0.529919237
 41
0.2122587964150887
 42
0.2307824706957682
  0
ARC
  5
31B
330
26C
100
AcDbEntity
  8
K113
  6
Continuous
 62
     7
100
AcDbCircle
 10
61.8345575066
 20
88.009948129
 30
0.0
 40
32.21189528869877
100
AcDbArc
 50
177.9671972062
 51
182.0324079037
  0
ELLIPSE
  5
31C
330
26C
100
AcDbEntity
  8
K113
  6
Continuous
 62
     7
100
AcDbEllipse
 10
74.4041556287
 20
92.4409840126
 30
0.0
 11
-45.98027184305717
 21
-3.430058024073489E-8
 31
0.0
210
0.0
220
0.0
230
1.0
 40
0.5299192631
 41
0.2122587807926594
 42
0.2307824528366627
  0
LINE
  5
31D
330
26C
100
AcDbEntity
  8
K113
  6
Continuous
 62
     7
100
AcDbLine
 10
29.6335286101
 20
88.8465847065
 30
0.0
 11
29.438040937
 21
88.8465847065
 31
0.0
  0
ARC
  5
31E
330
26C
100
AcDbEntity
  8
K113
  6
Continuous
 62
     7
100
AcDbCircle
 10
61.717147515
 20
89.6089892388
 30
0.0
 40
32.49474002058253
100
AcDbArc
 50
180.3554683956
 51
180.6988340854
  0
LINE
  5
31F
330
26C
100
AcDbEntity
  8
K113
  6
Continuous
 62
     7
100
AcDbLine
 10
29.2248245163
 20
89.2126621606
 30
0.0
 11
29.0220891282
 21
89.2126621606
 31
0.0
  0
ELLIPSE
  5
320
330
26C
100
AcDbEntity
  8
K113
  6
Continuous
 62
     7
100
AcDbEllipse
 10
74.4041553484
 20
93.1870443578
 30
0.0
 11
-45.79761551452237
 21
9.304408161139307E-9
 31
0.0
210
0.0
220
0.0
230
1.0
 40
0.5299192646
 41
0.1645044372419412
 42
0.2110576899432859
  0
LINE
  5
321
330
26C
100
AcDbEntity
  8
K113
  6
Continuous
 62
     7
100
AcDbLine
 10
29.6226904608
 20
88.0539305501
 30
0.0
 11
29.438040937
 21
88.0539305501
 31
0.0
  0
LINE
  5
322
330
26C
100
AcDbEntity
  8
K113
  6
Continuous
 62
     7
100
AcDbLine
 10
29.6303135425
 20
87.3078701728
 30
0.0
 11
29.4557935157
 21
87.3078701728
 31
0.0
  0
ARC
  5
323
330
26C
100
AcDbEntity
  8
K113
  6
Continuous
 62
     7
100
AcDbCircle
 10
32.738822104
 20
110.5833714428
 30
0.0
 40
0.9999999999999996
100
AcDbArc
 50
78.7486752997
 51
157.8038991432
  0
ARC
  5
324
330
26C
100
AcDbEntity
  8
K113
  6
Continuous
 62
     7
100
AcDbCircle
 10
32.738822104
 20
76.5833714428
 30
0.0
 40
0.9999999999999989
100
AcDbArc
 50
202.1961008568
 51
281.2513247003
  0
LINE
  5
325
330
26C
100
AcDbEntity
  8
K113
  6
Continuous
 62
     7
100
AcDbLine
 10
32.9339351021
 20
75.6025906732
 30
0.0
 11
45.404155416
 21
78.0833714428
 31
0.0
  0
LINE
  5
326
330
26C
100
AcDbEntity
  8
K113
  6
Continuous
 62
     7
100
AcDbLine
 10
45.404155416
 20
109.0833714428
 30
0.0
 11
32.9339351021
 21
111.5641522124
 31
0.0
  0
LINE
  5
327
330
26C
100
AcDbEntity
  8
K113
  6
Continuous
 62
     7
100
AcDbLine
 10
29.3700525935
 20
100.5707166642
 30
0.0
 11
29.5170335862
 21
100.5707166642
 31
0.0
  0
LINE
  5
328
330
26C
100
AcDbEntity
  8
K113
  6
Continuous
 62
     7
100
AcDbLine
 10
29.3631121678
 20
97.9941818826
 30
0.0
 11
29.5673887514
 21
97.9941818826
 31
0.0
  0
LINE
  5
329
330
26C
100
AcDbEntity
  8
K113
  6
Continuous
 62
     7
100
AcDbLine
 10
29.4228906684
 20
90.8752458538
 30
0.0
 11
29.6274393757
 21
90.8752458538
 31
0.0
  0
LINE
  5
32A
330
26C
100
AcDbEntity
  8
K113
  6
Continuous
 62
     7
100
AcDbLine
 10
29.6282880851
 20
92.2232805776
 30
0.0
 11
29.4237339829
 21
92.2232805776
 31
0.0
  0
LINE
  5
32B
330
26C
100
AcDbEntity
  8
K113
  6
Continuous
 62
     7
100
AcDbLine
 10
29.211853352
 20
92.4151679854
 30
0.0
 11
29.2023263238
 21
92.4151679854
 31
0.0
  0
LINE
  5
32C
330
26C
100
AcDbEntity
  8
K113
  6
Continuous
 62
     7
100
AcDbLine
 10
29.2061082239
 20
91.0844161937
 30
0.0
 11
29.3922866843
 21
91.0844161937
 31
0.0
  0
ARC
  5
32D
330
26C
100
AcDbEntity
  8
K113
  6
Continuous
 62
     7
100
AcDbCircle
 10
74.404155416
 20
93.5833714428
 30
0.0
 40
46.00000000000001
100
AcDbArc
 50
182.491906369
 51
202.1961008568
  0
ARC
  5
32E
330
26C
100
AcDbEntity
  8
K113
  6
Continuous
 62
     7
100
AcDbCircle
 10
74.404155416
 20
93.5833714428
 30
0.0
 40
46.0
100
AcDbArc
 50
157.8038991432
 51
177.508093631
  0
LINE
  5
32F
330
26C
100
AcDbEntity
  8
K113
  6
Continuous
 62
     7
100
AcDbLine
 10
29.349965477
 20
87.379482361
 30
0.0
 11
29.1727012681
 21
87.379482361
 31
0.0
  0
LINE
  5
330
330
26C
100
AcDbEntity
  8
K113
  6
Continuous
 62
     7
100
AcDbLine
 10
29.4286273364
 20
85.6142205046
 30
0.0
 11
29.6177865895
 21
85.6142205046
 31
0.0
  0
LINE
  5
331
330
26C
100
AcDbEntity
  8
K132
  6
Continuous
 62
     7
100
AcDbLine
 10
56.9033218511
 20
108.5833714428
 30
0.0
 11
56.9033218511
 21
78.5833714428
 31
0.0
  0
LINE
  5
332
330
26C
100
AcDbEntity
  8
K132
  6
Continuous
 62
     7
100
AcDbLine
 10
57.9033218511
 20
109.5833714428
 30
0.0
 11
57.9033218511
 21
77.5833714428
 31
0.0
  0
SPLINE
  5
333
330
26C
100
AcDbEntity
  8
K132
  6
Continuous
 62
     7
100
AcDbSpline
210
0.0
220
0.0
230
1.0
 70
     8
 71
     3
 72
    12
 73
     8
 74
     0
 42
0.0000000085128033
 43
0.0000000001
 40
0.0
 40
0.0
 40
0.0
 40
0.0
 40
0.2500000000000004
 40
0.2500000000000004
 40
0.5000000000000008
 40
0.5000000000000008
 40
1.0
 40
1.0
 40
1.0
 40
1.0
 10
55.90332185109842
 20
100.7324972634679
 30
0.0
 10
56.00841389129099
 20
100.7324972634679
 30
0.0
 10
56.10972654120086
 20
100.70257023565
 30
0.0
 10
56.28610229321094
 20
100.6061109037292
 30
0.0
 10
56.36051154475542
 20
100.541708802038
 30
0.0
 10
56.55272392499093
 20
100.3261022115248
 30
0.0
 10
56.63777035999185
 20
100.1587812864618
 30
0.0
 10
56.70332185109842
 20
99.98259014509232
 30
0.0
  0
ARC
  5
334
330
26C
100
AcDbEntity
  8
K132
  6
Continuous
 62
     7
100
AcDbCircle
 10
54.6393573556
 20
99.0473084788
 30
0.0
 40
2.265987915700006
100
AcDbArc
 50
2.4214984393
 51
24.3775684454
  0
LINE
  5
335
330
26C
100
AcDbEntity
  8
K132
  6
Continuous
 62
     7
100
AcDbLine
 10
45.404155416
 20
100.7324972635
 30
0.0
 11
55.9033218511
 21
100.7324972635
 31
0.0
  0
LINE
  5
336
330
26C
100
AcDbEntity
  8
K132
  6
Continuous
 62
     7
100
AcDbLine
 10
55.9033218511
 20
100.7324972635
 30
0.0
 11
55.9033218511
 21
86.4342456221
 31
0.0
  0
LINE
  5
337
330
26C
100
AcDbEntity
  8
K132
  6
Continuous
 62
     7
100
AcDbLine
 10
56.7033218511
 20
87.1841527405
 30
0.0
 11
56.7033218511
 21
80.6833714428
 31
0.0
  0
SPLINE
  5
338
330
26C
100
AcDbEntity
  8
K132
  6
Continuous
 62
     7
100
AcDbSpline
210
0.0
220
0.0
230
1.0
 70
     8
 71
     3
 72
    12
 73
     8
 74
     0
 42
0.0000000085128033
 43
0.0000000001
 40
0.0
 40
0.0
 40
0.0
 40
0.0
 40
0.2500000000000004
 40
0.2500000000000004
 40
0.5000000000000008
 40
0.5000000000000008
 40
1.0
 40
1.0
 40
1.0
 40
1.0
 10
55.90332185109842
 20
86.43424562209582
 30
0.0
 10
56.00841389129099
 20
86.43424562209582
 30
0.0
 10
56.10972654120086
 20
86.46417264991369
 30
0.0
 10
56.28610229321094
 20
86.56063198183449
 30
0.0
 10
56.36051154475542
 20
86.62503408352576
 30
0.0
 10
56.55272392499093
 20
86.84064067403894
 30
0.0
 10
56.63777035999185
 20
87.0079615991019
 30
0.0
 10
56.70332185109842
 20
87.1841527404714
 30
0.0
  0
ARC
  5
339
330
26C
100
AcDbEntity
  8
K132
  6
Continuous
 62
     7
100
AcDbCircle
 10
54.6393573556
 20
88.1194344067
 30
0.0
 40
2.2659879156999
100
AcDbArc
 50
335.6224315546
 51
357.5785015607
  0
LINE
  5
33A
330
26C
100
AcDbEntity
  8
K132
  6
Continuous
 62
     7
100
AcDbLine
 10
45.404155416
 20
86.4342456221
 30
0.0
 11
55.9033218511
 21
86.4342456221
 31
0.0
  0
LINE
  5
33B
330
26C
100
AcDbEntity
  8
K132
  6
Continuous
 62
     7
100
AcDbLine
 10
56.7033218511
 20
106.4833714428
 30
0.0
 11
56.7033218511
 21
99.9825901451
 31
0.0
  0
ARC
  5
33C
330
26C
100
AcDbEntity
  8
K132
  6
Continuous
 62
     7
100
AcDbCircle
 10
55.9033218511
 20
107.0833714428
 30
0.0
 40
0.9999999999911621
100
AcDbArc
 50
269.9999999997
 51
323.1301023544
  0
ARC
  5
33D
330
26C
100
AcDbEntity
  8
K132
  6
Continuous
 62
     7
100
AcDbCircle
 10
55.9033218512
 20
107.0833714427
 30
0.0
 40
0.9999999999005065
100
AcDbArc
 50
323.1301023523
 51
0.0
  0
LINE
  5
33E
330
26C
100
AcDbEntity
  8
K132
  6
Continuous
 62
     7
100
AcDbLine
 10
45.404155416
 20
106.0833714428
 30
0.0
 11
55.9033218511
 21
106.0833714428
 31
0.0
  0
LINE
  5
33F
330
26C
100
AcDbEntity
  8
K132
  6
Continuous
 62
     7
100
AcDbLine
 10
45.404155416
 20
81.0833714428
 30
0.0
 11
55.9033218511
 21
81.0833714428
 31
0.0
  0
ARC
  5
340
330
26C
100
AcDbEntity
  8
K132
  6
Continuous
 62
     7
100
AcDbCircle
 10
55.9033218511
 20
80.0833714428
 30
0.0
 40
0.9999999999911633
100
AcDbArc
 50
36.8698976456
 51
90.0000000003
  0
ARC
  5
341
330
26C
100
AcDbEntity
  8
K132
  6
Continuous
 62
     7
100
AcDbCircle
 10
55.9033218512
 20
80.0833714428
 30
0.0
 40
0.9999999999005156
100
AcDbArc
 50
0.0
 51
36.8698976477
  0
ARC
  5
342
330
26C
100
AcDbEntity
  8
K132
  6
Continuous
 62
     7
100
AcDbCircle
 10
57.9033218511
 20
108.5833714428
 30
0.0
 40
1.000000000000001
100
AcDbArc
 50
90.0
 51
180.0
  0
ARC
  5
343
330
26C
100
AcDbEntity
  8
K132
  6
Continuous
 62
     7
100
AcDbCircle
 10
57.9033218511
 20
78.5833714428
 30
0.0
 40
1.000000000000001
100
AcDbArc
 50
180.0
 51
270.0
  0
LINE
  5
344
330
26C
100
AcDbEntity
  8
K132
  6
Continuous
 62
     7
100
AcDbLine
 10
59.3089547836
 20
109.5833714428
 30
0.0
 11
57.9033218511
 21
109.5833714428
 31
0.0
  0
LINE
  5
345
330
26C
100
AcDbEntity
  8
K132
  6
Continuous
 62
     7
100
AcDbLine
 10
57.9033218511
 20
77.5833714428
 30
0.0
 11
59.3089547836
 21
77.5833714428
 31
0.0
  0
CIRCLE
  5
347
330
26C
100
AcDbEntity
  8
U200
  6
Continuous
 62
     7
100
AcDbCircle
 10
78.3033218511
 20
93.5833714428
 30
0.0
 40
5.499999999999991
  0
CIRCLE
  5
348
330
26C
100
AcDbEntity
  8
U102
  6
Continuous
 62
     7
100
AcDbCircle
 10
78.3033218511
 20
93.5833714428
 30
0.0
 40
11.01794919243113
  0
ARC
  5
349
330
26C
100
AcDbEntity
  8
U102
  6
Continuous
 62
     7
100
AcDbCircle
 10
78.3033218511
 20
93.5833714428
 30
0.0
 40
12.75000000000001
100
AcDbArc
 50
175.5829873705
 51
184.4170126295
  0
CIRCLE
  5
34A
330
26C
100
AcDbEntity
  8
U102
  6
Continuous
 62
     7
100
AcDbCircle
 10
78.3033218511
 20
93.5833714428
 30
0.0
 40
7.25
  0
ARC
  5
34B
330
26C
100
AcDbEntity
  8
U102
  6
Continuous
 62
     7
100
AcDbCircle
 10
78.3033218511
 20
93.5833714428
 30
0.0
 40
12.75000000000001
100
AcDbArc
 50
235.5829873705
 51
244.4170126295
  0
ARC
  5
34C
330
26C
100
AcDbEntity
  8
U102
  6
Continuous
 62
     7
100
AcDbCircle
 10
78.3033218511
 20
93.5833714428
 30
0.0
 40
12.75000000000001
100
AcDbArc
 50
295.5829873705
 51
304.4170126295
  0
ARC
  5
34D
330
26C
100
AcDbEntity
  8
U102
  6
Continuous
 62
     7
100
AcDbCircle
 10
78.3033218511
 20
93.5833714428
 30
0.0
 40
12.75000000000001
100
AcDbArc
 50
355.5829873705
 51
4.4170126295
  0
ARC
  5
34E
330
26C
100
AcDbEntity
  8
U102
  6
Continuous
 62
     7
100
AcDbCircle
 10
78.3033218511
 20
93.5833714428
 30
0.0
 40
12.75000000000001
100
AcDbArc
 50
55.5829873705
 51
64.4170126295
  0
ARC
  5
34F
330
26C
100
AcDbEntity
  8
U102
  6
Continuous
 62
     7
100
AcDbCircle
 10
78.3033218511
 20
93.5833714428
 30
0.0
 40
12.75000000000001
100
AcDbArc
 50
115.5829873705
 51
124.4170126295
  0
LINE
  5
350
330
26C
100
AcDbEntity
  8
U102
  6
Continuous
 62
     7
100
AcDbLine
 10
72.7976429647
 20
82.0833714428
 30
0.0
 11
83.8090007375
 21
82.0833714428
 31
0.0
  0
LINE
  5
351
330
26C
100
AcDbEntity
  8
U102
  6
Continuous
 62
     7
100
AcDbLine
 10
85.5097745514
 20
83.0653136621
 30
0.0
 11
91.0154534378
 21
92.6014292235
 31
0.0
  0
LINE
  5
352
330
26C
100
AcDbEntity
  8
U102
  6
Continuous
 62
     7
100
AcDbLine
 10
91.0154534378
 20
94.5653136621
 30
0.0
 11
85.5097745514
 21
104.1014292235
 31
0.0
  0
LINE
  5
353
330
26C
100
AcDbEntity
  8
U102
  6
Continuous
 62
     7
100
AcDbLine
 10
83.8090007375
 20
105.0833714428
 30
0.0
 11
72.7976429647
 21
105.0833714428
 31
0.0
  0
LINE
  5
354
330
26C
100
AcDbEntity
  8
U102
  6
Continuous
 62
     7
100
AcDbLine
 10
71.0968691508
 20
104.1014292235
 30
0.0
 11
65.5911902644
 21
94.5653136621
 31
0.0
  0
LINE
  5
355
330
26C
100
AcDbEntity
  8
U102
  6
Continuous
 62
     7
100
AcDbLine
 10
65.5911902644
 20
92.6014292235
 30
0.0
 11
71.0968691508
 21
83.0653136621
 31
0.0
  0
LINE
  5
356
330
26C
100
AcDbEntity
  8
F114
  6
Continuous
 62
     7
100
AcDbLine
 10
105.4033218511
 20
66.0833714428
 30
0.0
 11
105.4033218511
 21
121.0833714428
 31
0.0
  0
LINE
  5
357
330
26C
100
AcDbEntity
  8
F114
  6
Continuous
 62
     7
100
AcDbLine
 10
103.4033218511
 20
66.0833714428
 30
0.0
 11
103.4033218511
 21
121.0833714428
 31
0.0
  0
LINE
  5
358
330
26C
100
AcDbEntity
  8
F114
  6
Continuous
 62
     7
100
AcDbLine
 10
102.3119377418
 20
66.5543521397
 30
0.0
 11
102.3119377418
 21
120.6123907458
 31
0.0
  0
LINE
  5
359
330
26C
100
AcDbEntity
  8
F114
  6
Continuous
 62
     7
100
AcDbLine
 10
95.7119377418
 20
73.5543521397
 30
0.0
 11
95.7119377418
 21
113.6123907458
 31
0.0
  0
LINE
  5
35A
330
26C
100
AcDbEntity
  8
F114
  6
Continuous
 62
     7
100
AcDbLine
 10
95.3033218511
 20
74.5833714428
 30
0.0
 11
95.3033218511
 21
112.5833714428
 31
0.0
  0
LINE
  5
35B
330
26C
100
AcDbEntity
  8
F114
  6
Continuous
 62
     7
100
AcDbLine
 10
103.4033218511
 20
66.0833714428
 30
0.0
 11
105.4033218511
 21
66.0833714428
 31
0.0
  0
LINE
  5
35C
330
26C
100
AcDbEntity
  8
F114
  6
Continuous
 62
     7
100
AcDbLine
 10
105.4033218511
 20
121.0833714428
 30
0.0
 11
103.4033218511
 21
121.0833714428
 31
0.0
  0
ARC
  5
35D
330
26C
100
AcDbEntity
  8
F114
  6
Continuous
 62
     7
100
AcDbCircle
 10
103.4033218511
 20
67.5833714428
 30
0.0
 40
1.500000000000003
100
AcDbArc
 50
223.3153156821
 51
270.0
  0
ARC
  5
35E
330
26C
100
AcDbEntity
  8
F114
  6
Continuous
 62
     7
100
AcDbCircle
 10
103.4033218511
 20
119.5833714428
 30
0.0
 40
1.500000000000001
100
AcDbArc
 50
90.0
 51
136.6846843179
  0
LINE
  5
35F
330
26C
100
AcDbEntity
  8
F114
  6
Continuous
 62
     7
100
AcDbLine
 10
102.3119377418
 20
120.6123907458
 30
0.0
 11
95.7119377418
 21
113.6123907458
 31
0.0
  0
LINE
  5
360
330
26C
100
AcDbEntity
  8
F114
  6
Continuous
 62
     7
100
AcDbLine
 10
95.7119377418
 20
73.5543521397
 30
0.0
 11
102.3119377418
 21
66.5543521397
 31
0.0
  0
ARC
  5
361
330
26C
100
AcDbEntity
  8
F114
  6
Continuous
 62
     7
100
AcDbCircle
 10
96.8033218511
 20
74.5833714428
 30
0.0
 40
1.500000000000001
100
AcDbArc
 50
180.0
 51
223.3153156821
  0
ARC
  5
362
330
26C
100
AcDbEntity
  8
F114
  6
Continuous
 62
     7
100
AcDbCircle
 10
96.8033218511
 20
112.5833714428
 30
0.0
 40
1.499999999999998
100
AcDbArc
 50
136.6846843179
 51
180.0
  0
ENDBLK
  5
364
330
26C
100
AcDbEntity
  8
0
100
AcDbBlockEnd
  0
BLOCK
  5
367
330
366
100
AcDbEntity
  8
0
100
AcDbBlockBegin
  2
_OBLIQUE
 70
     0
 10
0.0
 20
0.0
 30
0.0
  3
_OBLIQUE
  1

  0
LINE
  5
369
330
366
100
AcDbEntity
  8
0
  6
ByBlock
 62
     0
370
    -2
100
AcDbLine
 10
-0.5
 20
-0.5
 30
0.0
 11
0.5
 21
0.5
 31
0.0
  0
ENDBLK
  5
368
330
366
100
AcDbEntity
  8
0
100
AcDbBlockEnd
  0
BLOCK
  5
36B
330
36A
100
AcDbEntity
  8
0
100
AcDbBlockBegin
  2
_DOT
 70
     0
 10
0.0
 20
0.0
 30
0.0
  3
_DOT
  1

  0
POLYLINE
  5
36D
330
36A
100
AcDbEntity
  8
0
  6
ByBlock
 62
     0
100
AcDb2dPolyline
 66
     1
 10
0.0
 20
0.0
 30
0.0
 70
     1
 40
0.5
 41
0.5
  0
VERTEX
  5
36F
330
36D
100
AcDbEntity
  8
0
  6
ByBlock
 62
     0
100
AcDbVertex
100
AcDb2dVertex
 10
-0.25
 20
0.0
 30
0.0
 42
1.0
  0
VERTEX
  5
370
330
36D
100
AcDbEntity
  8
0
  6
ByBlock
 62
     0
100
AcDbVertex
100
AcDb2dVertex
 10
0.25
 20
0.0
 30
0.0
 42
1.0
  0
SEQEND
  5
371
330
36D
100
AcDbEntity
  8
0
  6
ByBlock
 62
     0
  0
LINE
  5
36E
330
36A
100
AcDbEntity
  8
0
  6
ByBlock
 62
     0
370
    -2
100
AcDbLine
 10
-0.5
 20
0.0
 30
0.0
 11
-1.0
 21
0.0
 31
0.0
  0
ENDBLK
  5
36C
330
36A
100
AcDbEntity
  8
0
100
AcDbBlockEnd
  0
BLOCK
  5
375
330
372
100
AcDbEntity
  8
0
100
AcDbBlockBegin
  2
_SE_FILLED
 70
     0
 10
0.0
 20
0.0
 30
0.0
  3
_SE_FILLED
  1

  0
SOLID
  5
373
330
372
100
AcDbEntity
  8
0
 62
     0
100
AcDbTrace
 10
0.0
 20
0.0
 30
0.0
 11
-1.0
 21
-0.1665
 31
0.0
 12
-1.0
 22
0.1665
 32
0.0
 13
0.0
 23
0.0
 33
0.0
  0
LINE
  5
374
330
372
100
AcDbEntity
  8
0
 62
     0
100
AcDbLine
 10
0.0
 20
0.0
 30
0.0
 11
-1.0
 21
0.0
 31
0.0
  0
ENDBLK
  5
376
330
372
100
AcDbEntity
  8
0
100
AcDbBlockEnd
  0
BLOCK
  5
381
330
37A
100
AcDbEntity
  8
0
100
AcDbBlockBegin
  2
DMBLK5
 70
     0
 10
0.0
 20
0.0
 30
0.0
  3
DMBLK5
  1

  0
HATCH
  5
37B
330
37A
100
AcDbEntity
  8
Cartouche
  6
Continuous
 62
     7
100
AcDbHatch
 10
0.0
 20
0.0
 30
0.0
210
0.0
220
0.0
230
1.0
  2
SOLID
 70
     1
 71
     0
 91
        1
 92
        1
 93
        3
 72
     1
 10
117.4033219554065
 20
143.3003541261026
 11
117.4033219554065
 21
147.3003541608719
 72
     1
 10
117.4033219554065
 20
147.3003541608719
 11
105.4033218510984
 21
145.3003541434873
 72
     1
 10
105.4033218510984
 20
145.3003541434873
 11
117.4033219554065
 21
143.3003541261026
 97
        0
 75
     0
 76
     1
 98
        0
  0
HATCH
  5
37C
330
37A
100
AcDbEntity
  8
Cartouche
  6
Continuous
 62
     7
100
AcDbHatch
 10
0.0
 20
0.0
 30
0.0
210
0.0
220
0.0
230
1.0
  2
SOLID
 70
     1
 71
     0
 91
        1
 92
        1
 93
        3
 72
     1
 10
66.30332174679027
 20
143.3003541261026
 11
78.3033218510984
 21
145.3003541434873
 72
     1
 10
78.3033218510984
 20
145.3003541434873
 11
66.30332174679027
 21
147.3003541608719
 72
     1
 10
66.30332174679027
 20
147.3003541608719
 11
66.30332174679027
 21
143.3003541261026
 97
        0
 75
     0
 76
     1
 98
        0
  0
LINE
  5
37D
330
37A
100
AcDbEntity
  8
Cartouche
  6
Continuous
 62
     7
100
AcDbLine
 10
105.4033218511
 20
161.6439826655
 30
0.0
 11
105.4033218511
 21
143.7003541839
 31
0.0
  0
LINE
  5
37E
330
37A
100
AcDbEntity
  8
Cartouche
  6
Continuous
 62
     7
100
AcDbLine
 10
78.3033218511
 20
157.1439826655
 30
0.0
 11
78.3033218511
 21
143.7003541839
 31
0.0
  0
LINE
  5
37F
330
37A
100
AcDbEntity
  8
Cartouche
  6
Continuous
 62
     7
100
AcDbLine
 10
129.4033220597
 20
145.3003541435
 30
0.0
 11
54.303321112
 21
145.3003541435
 31
0.0
  0
TEXT
  5
380
330
37A
100
AcDbEntity
  8
Cartouche
  6
Continuous
 62
     7
100
AcDbText
 10
85.8088771414
 20
147.3003541435
 30
0.0
 40
8.0
  1
27
  7
SEACAD_ArialB
 11
85.8088771414
 21
155.3003541435
 31
0.0
100
AcDbText
 73
     3
  0
ENDBLK
  5
382
330
37A
100
AcDbEntity
  8
0
100
AcDbBlockEnd
  0
BLOCK
  5
38B
330
384
100
AcDbEntity
  8
0
100
AcDbBlockBegin
  2
DMBLK6
 70
     0
 10
0.0
 20
0.0
 30
0.0
  3
DMBLK6
  1

  0
HATCH
  5
385
330
384
100
AcDbEntity
  8
Cartouche
  6
Continuous
 62
     7
100
AcDbHatch
 10
0.0
 20
0.0
 30
0.0
210
0.0
220
0.0
230
1.0
  2
SOLID
 70
     1
 71
     0
 91
        1
 92
        1
 93
        3
 72
     1
 10
40.50415552035004
 20
128.4424418389865
 11
40.50415552035004
 21
132.4424418737558
 72
     1
 10
40.50415552035004
 20
132.4424418737558
 11
28.50415541604191
 21
130.4424418563711
 72
     1
 10
28.50415541604191
 20
130.4424418563711
 11
40.50415552035004
 21
128.4424418389865
 97
        0
 75
     0
 76
     1
 98
        0
  0
HATCH
  5
386
330
384
100
AcDbEntity
  8
Cartouche
  6
Continuous
 62
     7
100
AcDbHatch
 10
0.0
 20
0.0
 30
0.0
210
0.0
220
0.0
230
1.0
  2
SOLID
 70
     1
 71
     0
 91
        1
 92
        1
 93
        3
 72
     1
 10
93.4033187367025
 20
128.4424418389865
 11
105.4033188410106
 21
130.4424418563711
 72
     1
 10
105.4033188410106
 20
130.4424418563711
 11
93.4033187367025
 21
132.4424418737558
 72
     1
 10
93.4033187367025
 20
132.4424418737558
 11
93.4033187367025
 21
128.4424418389865
 97
        0
 75
     0
 76
     1
 98
        0
  0
LINE
  5
387
330
384
100
AcDbEntity
  8
Cartouche
  6
Continuous
 62
     7
100
AcDbLine
 10
28.504155416
 20
189.1439826655
 30
0.0
 11
28.504155416
 21
128.8424418968
 31
0.0
  0
LINE
  5
388
330
384
100
AcDbEntity
  8
Cartouche
  6
Continuous
 62
     7
100
AcDbLine
 10
105.4033218511
 20
161.6439826655
 30
0.0
 11
105.4033218511
 21
128.8424418968
 31
0.0
  0
LINE
  5
389
330
384
100
AcDbEntity
  8
Cartouche
  6
Continuous
 62
     7
100
AcDbLine
 10
28.504155416
 20
130.4424418564
 30
0.0
 11
105.403318841
 21
130.4424418564
 31
0.0
  0
TEXT
  5
38A
330
384
100
AcDbEntity
  8
Cartouche
  6
Continuous
 62
     7
100
AcDbText
 10
60.9092926841
 20
132.4424418564
 30
0.0
 40
8.0
  1
77
  7
SEACAD_ArialB
 11
60.9092926841
 21
140.4424418564
 31
0.0
100
AcDbText
 73
     3
  0
ENDBLK
  5
38C
330
384
100
AcDbEntity
  8
0
100
AcDbBlockEnd
  0
BLOCK
  5
395
330
38E
100
AcDbEntity
  8
0
100
AcDbBlockBegin
  2
DMBLK7
 70
     0
 10
0.0
 20
0.0
 30
0.0
  3
DMBLK7
  1

  0
HATCH
  5
38F
330
38E
100
AcDbEntity
  8
Cartouche
  6
Continuous
 62
     7
100
AcDbHatch
 10
0.0
 20
0.0
 30
0.0
210
0.0
220
0.0
230
1.0
  2
SOLID
 70
     1
 71
     0
 91
        1
 92
        1
 93
        3
 72
     1
 10
128.7187290194669
 20
171.5439828837979
 11
124.7187289846975
 21
171.5439828837979
 72
     1
 10
124.7187289846975
 20
171.5439828837979
 11
126.7187290020822
 21
159.5439827794897
 72
     1
 10
126.7187290020822
 20
159.5439827794897
 11
128.7187290194669
 21
171.5439828837979
 97
        0
 75
     0
 76
     1
 98
        0
  0
HATCH
  5
390
330
38E
100
AcDbEntity
  8
Cartouche
  6
Continuous
 62
     7
100
AcDbHatch
 10
0.0
 20
0.0
 30
0.0
210
0.0
220
0.0
230
1.0
  2
SOLID
 70
     1
 71
     0
 91
        1
 92
        1
 93
        3
 72
     1
 10
128.7187290194669
 20
211.5439857150185
 11
126.7187290020822
 21
223.5439858193266
 72
     1
 10
126.7187290020822
 20
223.5439858193266
 11
124.7187289846975
 21
211.5439857150185
 72
     1
 10
124.7187289846975
 20
211.5439857150185
 11
128.7187290194669
 21
211.5439857150185
 97
        0
 75
     0
 76
     1
 98
        0
  0
LINE
  5
391
330
38E
100
AcDbEntity
  8
Cartouche
  6
Continuous
 62
     7
100
AcDbLine
 10
89.7033225872
 20
159.5439827795
 30
0.0
 11
128.3187289617
 21
159.5439827795
 31
0.0
  0
LINE
  5
392
330
38E
100
AcDbEntity
  8
Cartouche
  6
Continuous
 62
     7
100
AcDbLine
 10
91.2033212163
 20
223.5439827795
 30
0.0
 11
128.3187289617
 21
223.5439827795
 31
0.0
  0
LINE
  5
393
330
38E
100
AcDbEntity
  8
Cartouche
  6
Continuous
 62
     7
100
AcDbLine
 10
126.7187290021
 20
159.5439827795
 30
0.0
 11
126.7187290021
 21
223.5439858193
 31
0.0
  0
TEXT
  5
394
330
38E
100
AcDbEntity
  8
Cartouche
  6
Continuous
 62
     7
100
AcDbText
 10
124.7187290021
 20
185.499539855
 30
0.0
 40
8.0
  1
64
 50
90.0
  7
SEACAD_ArialB
 11
116.7187290021
 21
185.499539855
 31
0.0
100
AcDbText
 73
     3
  0
ENDBLK
  5
396
330
38E
100
AcDbEntity
  8
0
100
AcDbBlockEnd
  0
BLOCK
  5
39F
330
398
100
AcDbEntity
  8
0
100
AcDbBlockBegin
  2
DMBLK8
 70
     0
 10
0.0
 20
0.0
 30
0.0
  3
DMBLK8
  1

  0
HATCH
  5
399
330
398
100
AcDbEntity
  8
Cartouche
  6
Continuous
 62
     7
100
AcDbHatch
 10
0.0
 20
0.0
 30
0.0
210
0.0
220
0.0
230
1.0
  2
SOLID
 70
     1
 71
     0
 91
        1
 92
        1
 93
        3
 72
     1
 10
55.80332174679027
 20
236.7077985402823
 11
55.80332174679027
 21
232.707798505513
 72
     1
 10
55.80332174679027
 20
232.707798505513
 11
67.8033218510984
 21
234.7077985228977
 72
     1
 10
67.8033218510984
 20
234.7077985228977
 11
55.80332174679027
 21
236.7077985402823
 97
        0
 75
     0
 76
     1
 98
        0
  0
HATCH
  5
39A
330
398
100
AcDbEntity
  8
Cartouche
  6
Continuous
 62
     7
100
AcDbHatch
 10
0.0
 20
0.0
 30
0.0
210
0.0
220
0.0
230
1.0
  2
SOLID
 70
     1
 71
     0
 91
        1
 92
        1
 93
        3
 72
     1
 10
100.8033219554065
 20
236.7077985402823
 11
88.8033218510984
 21
234.7077985228977
 72
     1
 10
88.8033218510984
 20
234.7077985228977
 11
100.8033219554065
 21
232.707798505513
 72
     1
 10
100.8033219554065
 20
232.707798505513
 11
100.8033219554065
 21
236.7077985402823
 97
        0
 75
     0
 76
     1
 98
        0
  0
LINE
  5
39B
330
398
100
AcDbEntity
  8
Cartouche
  6
Continuous
 62
     7
100
AcDbLine
 10
67.8033218511
 20
225.9439823153
 30
0.0
 11
67.8033218511
 21
236.3077984825
 31
0.0
  0
LINE
  5
39C
330
398
100
AcDbEntity
  8
Cartouche
  6
Continuous
 62
     7
100
AcDbLine
 10
88.8033218511
 20
225.9439829309
 30
0.0
 11
88.8033218511
 21
236.3077984825
 31
0.0
  0
LINE
  5
39D
330
398
100
AcDbEntity
  8
Cartouche
  6
Continuous
 62
     7
100
AcDbLine
 10
43.8033216425
 20
234.7077985229
 30
0.0
 11
112.8033236392
 21
234.7077985229
 31
0.0
  0
TEXT
  5
39E
330
398
100
AcDbEntity
  8
Cartouche
  6
Continuous
 62
     7
100
AcDbText
 10
65.3537959837
 20
236.7077985229
 30
0.0
 40
8.0
  1
G1/2"
  7
SEACAD_ArialB
 11
65.3537959837
 21
244.7077985229
 31
0.0
100
AcDbText
 73
     3
  0
ENDBLK
  5
3A0
330
398
100
AcDbEntity
  8
0
100
AcDbBlockEnd
  0
BLOCK
  5
3AB
330
3A1
100
AcDbEntity
  8
0
100
AcDbBlockBegin
  2
GDimGGroup
 70
     0
 10
0.0
 20
0.0
 30
0.0
  3
GDimGGroup
  1

  0
HATCH
  5
3A3
330
3A1
100
AcDbEntity
  8
Cartouche
  6
Continuous
 62
     7
100
AcDbHatch
 10
0.0
 20
0.0
 30
0.0
210
0.0
220
0.0
230
1.0
  2
SOLID
 70
     1
 71
     0
 91
        1
 92
        1
 93
        3
 72
     1
 10
130.9370479795375
 20
109.0833713384737
 11
128.9370479621528
 21
121.0833714427819
 72
     1
 10
128.9370479621528
 20
121.0833714427819
 11
126.9370479447682
 21
109.0833713384737
 72
     1
 10
126.9370479447682
 20
109.0833713384737
 11
130.9370479795375
 21
109.0833713384737
 97
        0
 75
     0
 76
     1
 98
        0
  0
HATCH
  5
3A4
330
3A1
100
AcDbEntity
  8
Cartouche
  6
Continuous
 62
     7
100
AcDbHatch
 10
0.0
 20
0.0
 30
0.0
210
0.0
220
0.0
230
1.0
  2
SOLID
 70
     1
 71
     0
 91
        1
 92
        1
 93
        3
 72
     1
 10
130.9370479795375
 20
78.08337184511322
 11
126.9370479447682
 21
78.08337184511322
 72
     1
 10
126.9370479447682
 20
78.08337184511322
 11
128.9370479621528
 21
66.08337174080509
 72
     1
 10
128.9370479621528
 20
66.08337174080509
 11
130.9370479795375
 21
78.08337184511322
 97
        0
 75
     0
 76
     1
 98
        0
  0
LINE
  5
3A5
330
3A1
100
AcDbEntity
  8
Cartouche
  6
Continuous
 62
     7
100
AcDbLine
 10
107.8033219651
 20
121.0833714428
 30
0.0
 11
130.5370479217
 21
121.0833714428
 31
0.0
  0
LINE
  5
3A6
330
3A1
100
AcDbEntity
  8
Cartouche
  6
Continuous
 62
     7
100
AcDbLine
 10
107.8033219651
 20
66.0833714428
 30
0.0
 11
130.5370479217
 21
66.0833714428
 31
0.0
  0
LINE
  5
3A7
330
3A1
100
AcDbEntity
  8
Cartouche
  6
Continuous
 62
     7
100
AcDbLine
 10
128.9370479622
 20
121.0833714428
 30
0.0
 11
128.9370479622
 21
66.0833717408
 31
0.0
  0
TEXT
  5
3A9
330
3A1
100
AcDbEntity
  8
Cartouche
  6
Continuous
 62
     7
100
AcDbText
 10
126.9370479622
 20
80.5101061867
 30
0.0
 40
8.0
  1
O
 50
90.0
  7
SEACAD_Solid_Edge_ANSI1_SymbolsB
 11
118.9370479622
 21
80.5101061867
 31
0.0
100
AcDbText
 73
     3
  0
TEXT
  5
3AA
330
3A1
100
AcDbEntity
  8
Cartouche
  6
Continuous
 62
     7
100
AcDbText
 10
126.9370479622
 20
94.567748108
 30
0.0
 40
8.0
  1
55
 50
90.0
  7
SEACAD_ArialB
 11
118.9370479622
 21
94.567748108
 31
0.0
100
AcDbText
 73
     3
  0
ENDBLK
  5
3AC
330
3A1
100
AcDbEntity
  8
0
100
AcDbBlockEnd
  0
ENDSEC
  0
SECTION
  2
ENTITIES
  0
LINE
  5
40
330
1F
100
AcDbEntity
  8
encadrement
  6
Continuous
 62
     7
100
AcDbLine
 10
10.0
 20
80.035459542
 30
0.0
 11
200.0
 21
80.035459542
 31
0.0
  0
LINE
  5
41
330
1F
100
AcDbEntity
  8
encadrement
  6
Continuous
 62
     7
100
AcDbLine
 10
10.0
 20
65.035459542
 30
0.0
 11
200.0
 21
65.035459542
 31
0.0
  0
LINE
  5
42
330
1F
100
AcDbEntity
  8
encadrement
  6
Continuous
 62
     7
100
AcDbLine
 10
10.0
 20
55.035459542
 30
0.0
 11
200.0
 21
55.035459542
 31
0.0
  0
LINE
  5
43
330
1F
100
AcDbEntity
  8
encadrement
  6
Continuous
 62
     7
100
AcDbLine
 10
10.0
 20
45.035459542
 30
0.0
 11
200.0
 21
45.035459542
 31
0.0
  0
LINE
  5
44
330
1F
100
AcDbEntity
  8
encadrement
  6
Continuous
 62
     7
100
AcDbLine
 10
10.0
 20
35.035459542
 30
0.0
 11
200.0
 21
35.035459542
 31
0.0
  0
INSERT
  5
47
330
1F
100
AcDbEntity
  8
Défaut
100
AcDbBlockReference
  2
SEANNOT_GROUP
 10
0.0
 20
0.0
 30
0.0
  0
INSERT
  5
4D
330
1F
100
AcDbEntity
  8
Défaut
100
AcDbBlockReference
  2
SEANNOT_GROUP1
 10
0.0
 20
0.0
 30
0.0
  0
INSERT
  5
52
330
1F
100
AcDbEntity
  8
Défaut
100
AcDbBlockReference
  2
SEANNOT_GROUP2
 10
0.0
 20
0.0
 30
0.0
  0
INSERT
  5
57
330
1F
100
AcDbEntity
  8
Défaut
100
AcDbBlockReference
  2
SEANNOT_GROUP3
 10
0.0
 20
0.0
 30
0.0
  0
INSERT
  5
5D
330
1F
100
AcDbEntity
  8
Cartouche
100
AcDbBlockReference
  2
SE
 10
0.0
 20
0.0
 30
0.0
  0
INSERT
  5
17D
330
1F
100
AcDbEntity
  8
Cartouche
100
AcDbBlockReference
  2
SE1
 10
0.0
 20
0.0
 30
0.0
  0
INSERT
  5
26D
330
1F
100
AcDbEntity
  8
Cartouche
100
AcDbBlockReference
  2
SE2
 10
0.0
 20
0.0
 30
0.0
  0
DIMENSION
  5
379
330
1F
100
AcDbEntity
  8
Cartouche
  6
Continuous
 62
     7
100
AcDbDimension
  2
DMBLK5
 10
78.3033218511
 20
145.3003541435
 30
0.0
 11
91.8533215859
 21
145.3003541435
 31
0.0
 70
   160
  1
\A1;<>
 71
     5
 42
-1.0
  3
presto
100
AcDbAlignedDimension
 13
105.4033218511
 23
164.0439827795
 33
0.0
 14
78.3033218511
 24
159.5439827795
 34
0.0
100
AcDbRotatedDimension
  0
DIMENSION
  5
383
330
1F
100
AcDbEntity
  8
Cartouche
  6
Continuous
 62
     7
100
AcDbDimension
  2
DMBLK6
 10
105.4033218511
 20
130.4424418564
 30
0.0
 11
66.9537371285
 21
130.4424418564
 31
0.0
 70
   160
  1
\A1;<>
 71
     5
 42
-1.0
  3
presto
100
AcDbAlignedDimension
 13
28.504155416
 23
191.5439827795
 33
0.0
 14
105.4033218511
 24
164.0439827795
 34
0.0
100
AcDbRotatedDimension
  0
DIMENSION
  5
38D
330
1F
100
AcDbEntity
  8
Cartouche
  6
Continuous
 62
     7
100
AcDbDimension
  2
DMBLK7
 10
126.7187290021
 20
223.5439827795
 30
0.0
 11
126.7187290021
 21
191.5439842994
 31
0.0
 70
   160
  1
\A1;<>
 71
     5
 42
-1.0
  3
presto
100
AcDbAlignedDimension
 13
69.3033218511
 23
159.5439827795
 33
0.0
 14
67.8033218511
 24
223.5439827795
 34
0.0
 50
90.0
100
AcDbRotatedDimension
1001
ACAD
1000
DSTYLE
1002
{
1070
   271
1070
     2
1070
   272
1070
     2
1070
     0
1002
}
  0
DIMENSION
  5
397
330
1F
100
AcDbEntity
  8
Cartouche
  6
Continuous
 62
     7
100
AcDbDimension
  2
DMBLK8
 10
67.8033218511
 20
234.7077985229
 30
0.0
 11
82.5537959837
 21
234.7077985229
 31
0.0
 70
   161
  1
\A1;G1/2" {}
 71
     5
 42
-1.0
  3
presto
100
AcDbAlignedDimension
 13
67.8033218511
 23
215.8568796637
 33
0.0
 14
88.8033218511
 24
215.8534604628
 34
0.0
1001
ACAD
1000
DSTYLE
1002
{
1070
   271
1070
     2
1070
   272
1070
     2
1070
     0
1002
}
  0
INSERT
  5
3A2
330
1F
100
AcDbEntity
  8
Cartouche
100
AcDbBlockReference
  2
GDimGGroup
 10
0.0
 20
0.0
 30
0.0
  0
ENDSEC
  0
SECTION
  2
OBJECTS
  0
DICTIONARY
  5
C
330
0
100
AcDbDictionary
281
     1
  3
ACAD_GROUP
350
D
  3
ACAD_LAYOUT
350
1A
  3
ACAD_MATERIAL
350
3B
  3
ACAD_MLEADERSTYLE
350
3AF
  3
ACAD_MLINESTYLE
350
17
  3
ACAD_PLOTSETTINGS
350
19
  3
ACAD_PLOTSTYLENAME
350
E
  3
ACAD_VISUALSTYLE
350
2A
  3
AcDbVariableDictionary
350
3AD
  0
DICTIONARY
  5
D
102
{ACAD_REACTORS
330
C
102
}
330
C
100
AcDbDictionary
281
     1
  0
DICTIONARY
  5
1A
102
{ACAD_REACTORS
330
C
102
}
330
C
100
AcDbDictionary
281
     1
  3
Layout1
350
1E
  3
Model
350
22
  0
DICTIONARY
  5
3B
102
{ACAD_REACTORS
330
C
102
}
330
C
100
AcDbDictionary
281
     1
  3
ByBlock
350
3D
  3
ByLayer
350
3C
  3
Global
350
3E
  0
DICTIONARY
  5
3AF
102
{ACAD_REACTORS
330
C
102
}
330
C
100
AcDbDictionary
281
     1
  0
DICTIONARY
  5
17
102
{ACAD_REACTORS
330
C
102
}
330
C
100
AcDbDictionary
281
     1
  3
Standard
350
18
  0
DICTIONARY
  5
19
102
{ACAD_REACTORS
330
C
102
}
330
C
100
AcDbDictionary
281
     1
  0
ACDBDICTIONARYWDFLT
  5
E
102
{ACAD_REACTORS
330
C
102
}
330
C
100
AcDbDictionary
281
     1
  3
Normal
350
F
100
AcDbDictionaryWithDefault
340
F
  0
DICTIONARY
  5
2A
102
{ACAD_REACTORS
330
C
102
}
330
C
100
AcDbDictionary
281
     1
  3
2dWireframe
350
2F
  3
3D Hidden
350
31
  3
3dWireframe
350
30
  3
Basic
350
32
  3
Brighten
350
36
  3
ColorChange
350
3A
  3
Conceptual
350
34
  3
Dim
350
35
  3
Facepattern
350
39
  3
Flat
350
2B
  3
FlatWithEdges
350
2C
  3
Gouraud
350
2D
  3
GouraudWithEdges
350
2E
  3
Linepattern
350
38
  3
Realistic
350
33
  3
Thicken
350
37
  0
DICTIONARY
  5
3AD
102
{ACAD_REACTORS
330
C
102
}
330
C
100
AcDbDictionary
281
     1
  3
DIMASSOC
350
3B2
  3
HIDETEXT
350
3B3
  3
PSOLHEIGHT
350
3B1
  3
PSOLWIDTH
350
3B0
  0
LAYOUT
  5
1E
102
{ACAD_REACTORS
330
1A
102
}
330
1A
100
AcDbPlotSettings
  1

  2
none_device
  4

  6

 40
0.0
 41
0.0
 42
0.0
 43
0.0
 44
0.0
 45
0.0
 46
0.0
 47
0.0
 48
0.0
 49
0.0
140
0.0
141
0.0
142
1.0
143
1.0
 70
   688
 72
     0
 73
     0
 74
     5
  7

 75
    16
147
1.0
148
0.0
149
0.0
100
AcDbLayout
  1
Layout1
 70
     1
 71
     1
 10
0.0
 20
0.0
 11
210.0
 21
297.0
 12
0.0
 22
0.0
 32
0.0
 14
0.0
 24
0.0
 34
0.0
 15
210.0
 25
297.0
 35
0.0
146
0.0
 13
0.0
 23
0.0
 33
0.0
 16
1.0
 26
0.0
 36
0.0
 17
0.0
 27
1.0
 37
0.0
 76
     0
330
1B
  0
LAYOUT
  5
22
102
{ACAD_REACTORS
330
1A
102
}
330
1A
100
AcDbPlotSettings
  1

  2
none_device
  4

  6

 40
0.0
 41
0.0
 42
0.0
 43
0.0
 44
0.0
 45
0.0
 46
0.0
 47
0.0
 48
0.0
 49
0.0
140
0.0
141
0.0
142
1.0
143
1.0
 70
  1712
 72
     0
 73
     0
 74
     0
  7

 75
     0
147
1.0
148
0.0
149
0.0
100
AcDbLayout
  1
Model
 70
     1
 71
     0
 10
0.0
 20
0.0
 11
210.0
 21
297.0
 12
0.0
 22
0.0
 32
0.0
 14
0.0
 24
0.0
 34
0.0
 15
210.0
 25
297.0
 35
0.0
146
0.0
 13
0.0
 23
0.0
 33
0.0
 16
1.0
 26
0.0
 36
0.0
 17
0.0
 27
1.0
 37
0.0
 76
     0
330
1F
331
29
  0
MATERIAL
  5
3D
102
{ACAD_REACTORS
330
3B
102
}
102
{ACAD_XDICTIONARY
360
3D6
102
}
330
3B
100
AcDbMaterial
  1
ByBlock
  0
MATERIAL
  5
3C
102
{ACAD_REACTORS
330
3B
102
}
102
{ACAD_XDICTIONARY
360
3D4
102
}
330
3B
100
AcDbMaterial
  1
ByLayer
  0
MATERIAL
  5
3E
102
{ACAD_REACTORS
330
3B
102
}
102
{ACAD_XDICTIONARY
360
3D8
102
}
330
3B
100
AcDbMaterial
  1
Global
  0
MLINESTYLE
  5
18
102
{ACAD_REACTORS
330
17
102
}
330
17
100
AcDbMlineStyle
  2
Standard
 70
     0
  3

 62
   256
 51
90.0
 52
90.0
 71
     2
 49
0.5
 62
   256
  6
BYLAYER
 49
-0.5
 62
   256
  6
BYLAYER
  0
ACDBPLACEHOLDER
  5
F
102
{ACAD_REACTORS
330
E
102
}
330
E
  0
VISUALSTYLE
  5
2F
102
{ACAD_REACTORS
330
2A
102
}
102
{ACAD_XDICTIONARY
360
3BC
102
}
330
2A
100
AcDbVisualStyle
  2
2dWireframe
 70
     4
 71
     0
 72
     2
 73
     0
 90
        0
 40
-0.6
 41
-30.0
 62
     5
 63
     7
 74
     1
 91
        4
 64
     7
 65
   257
 75
     1
175
     1
 42
1.0
 92
        0
 66
   257
 43
1.0
 76
     1
 77
     6
 78
     2
 67
     7
 79
     5
170
     0
171
     0
290
     0
174
     0
 93
        1
 44
0.0
173
     0
291
     0
 45
0.0
1001
ACAD
1000
AcDbSavedByObjectVersion
1070
     0
  0
VISUALSTYLE
  5
31
102
{ACAD_REACTORS
330
2A
102
}
102
{ACAD_XDICTIONARY
360
3C0
102
}
330
2A
100
AcDbVisualStyle
  2
3D Hidden
 70
     6
 71
     1
 72
     2
 73
     2
 90
        0
 40
-0.6
 41
-30.0
 62
     5
 63
     7
 74
     2
 91
        2
 64
     7
 65
   257
 75
     2
175
     1
 42
40.0
 92
        0
 66
   257
 43
1.0
 76
     1
 77
     6
 78
     2
 67
     7
 79
     3
170
     0
171
     0
290
     0
174
     0
 93
        1
 44
0.0
173
     0
291
     0
 45
0.0
1001
ACAD
1000
AcDbSavedByObjectVersion
1070
     0
  0
VISUALSTYLE
  5
30
102
{ACAD_REACTORS
330
2A
102
}
102
{ACAD_XDICTIONARY
360
3BE
102
}
330
2A
100
AcDbVisualStyle
  2
3dWireframe
 70
     5
 71
     0
 72
     2
 73
     0
 90
        0
 40
-0.6
 41
-30.0
 62
     5
 63
     7
 74
     1
 91
        4
 64
     7
 65
   257
 75
     1
175
     1
 42
1.0
 92
        0
 66
   257
 43
1.0
 76
     1
 77
     6
 78
     2
 67
     7
 79
     5
170
     0
171
     0
290
     0
174
     0
 93
        1
 44
0.0
173
     0
291
     0
 45
0.0
1001
ACAD
1000
AcDbSavedByObjectVersion
1070
     0
  0
VISUALSTYLE
  5
32
102
{ACAD_REACTORS
330
2A
102
}
102
{ACAD_XDICTIONARY
360
3C2
102
}
330
2A
100
AcDbVisualStyle
  2
Basic
 70
     7
 71
     1
 72
     0
 73
     1
 90
        0
 40
-0.6
 41
-30.0
 62
     5
 63
     7
 74
     0
 91
        4
 64
     7
 65
   257
 75
     1
175
     1
 42
1.0
 92
        8
 66
     7
 43
1.0
 76
     1
 77
     6
 78
     2
 67
     7
 79
     5
170
     0
171
     0
290
     0
174
     0
 93
        1
 44
0.0
173
     0
291
     1
 45
0.0
1001
ACAD
1000
AcDbSavedByObjectVersion
1070
     0
  0
VISUALSTYLE
  5
36
102
{ACAD_REACTORS
330
2A
102
}
102
{ACAD_XDICTIONARY
360
3CA
102
}
330
2A
100
AcDbVisualStyle
  2
Brighten
 70
    12
 71
     2
 72
     2
 73
     0
 90
        0
 40
-0.6
 41
-30.0
 62
     5
 63
     7
 74
     1
 91
        4
 64
     7
 65
   257
 75
     1
175
     1
 42
1.0
 92
        8
 66
     7
 43
1.0
 76
     1
 77
     6
 78
     2
 67
     7
 79
     5
170
     0
171
     0
290
     0
174
     0
 93
        1
 44
50.0
173
     0
291
     1
 45
0.0
1001
ACAD
1000
AcDbSavedByObjectVersion
1070
     0
  0
VISUALSTYLE
  5
3A
102
{ACAD_REACTORS
330
2A
102
}
102
{ACAD_XDICTIONARY
360
3D2
102
}
330
2A
100
AcDbVisualStyle
  2
ColorChange
 70
    16
 71
     2
 72
     2
 73
     3
 90
        0
 40
-0.6
 41
-30.0
 62
     5
 63
     8
 74
     1
 91
        4
 64
     7
 65
   257
 75
     1
175
     1
 42
1.0
 92
        8
 66
     8
 43
1.0
 76
     1
 77
     6
 78
     2
 67
     7
 79
     5
170
     0
171
     0
290
     0
174
     0
 93
        1
 44
0.0
173
     0
291
     1
 45
0.0
1001
ACAD
1000
AcDbSavedByObjectVersion
1070
     0
  0
VISUALSTYLE
  5
34
102
{ACAD_REACTORS
330
2A
102
}
102
{ACAD_XDICTIONARY
360
3C6
102
}
330
2A
100
AcDbVisualStyle
  2
Conceptual
 70
     9
 71
     3
 72
     2
 73
     0
 90
        0
 40
-0.6
 41
-30.0
 62
     5
 63
     7
 74
     2
 91
        2
 64
     7
 65
   257
 75
     1
175
     1
 42
40.0
 92
        8
 66
     7
 43
1.0
 76
     1
 77
     6
 78
     2
 67
     7
 79
     3
170
     0
171
     0
290
     0
174
     0
 93
        1
 44
0.0
173
     0
291
     0
 45
0.0
1001
ACAD
1000
AcDbSavedByObjectVersion
1070
     0
  0
VISUALSTYLE
  5
35
102
{ACAD_REACTORS
330
2A
102
}
102
{ACAD_XDICTIONARY
360
3C8
102
}
330
2A
100
AcDbVisualStyle
  2
Dim
 70
    11
 71
     2
 72
     2
 73
     0
 90
        0
 40
-0.6
 41
-30.0
 62
     5
 63
     7
 74
     1
 91
        4
 64
     7
 65
   257
 75
     1
175
     1
 42
1.0
 92
        8
 66
     7
 43
1.0
 76
     1
 77
     6
 78
     2
 67
     7
 79
     5
170
     0
171
     0
290
     0
174
     0
 93
        1
 44
-50.0
173
     0
291
     1
 45
0.0
1001
ACAD
1000
AcDbSavedByObjectVersion
1070
     0
  0
VISUALSTYLE
  5
39
102
{ACAD_REACTORS
330
2A
102
}
102
{ACAD_XDICTIONARY
360
3D0
102
}
330
2A
100
AcDbVisualStyle
  2
Facepattern
 70
    15
 71
     2
 72
     2
 73
     0
 90
        0
 40
-0.6
 41
-30.0
 62
     5
 63
     7
 74
     1
 91
        4
 64
     7
 65
   257
 75
     1
175
     1
 42
1.0
 92
        8
 66
     7
 43
1.0
 76
     1
 77
     6
 78
     2
 67
     7
 79
     5
170
     0
171
     0
290
     0
174
     0
 93
        1
 44
0.0
173
     0
291
     1
 45
0.0
1001
ACAD
1000
AcDbSavedByObjectVersion
1070
     0
  0
VISUALSTYLE
  5
2B
102
{ACAD_REACTORS
330
2A
102
}
102
{ACAD_XDICTIONARY
360
3B4
102
}
330
2A
100
AcDbVisualStyle
  2
Flat
 70
     0
 71
     2
 72
     1
 73
     1
 90
        2
 40
-0.6
 41
30.0
 62
     5
 63
     7
 74
     0
 91
        4
 64
     7
 65
   257
 75
     1
175
     1
 42
1.0
 92
        8
 66
     7
 43
1.0
 76
     1
 77
     6
 78
     2
 67
     7
 79
     5
170
     0
171
     0
290
     0
174
     0
 93
       13
 44
0.0
173
     0
291
     1
 45
0.0
1001
ACAD
1000
AcDbSavedByObjectVersion
1070
     0
  0
VISUALSTYLE
  5
2C
102
{ACAD_REACTORS
330
2A
102
}
102
{ACAD_XDICTIONARY
360
3B6
102
}
330
2A
100
AcDbVisualStyle
  2
FlatWithEdges
 70
     1
 71
     2
 72
     1
 73
     1
 90
        2
 40
-0.6
 41
30.0
 62
     5
 63
     7
 74
     1
 91
        4
 64
     7
 65
   257
 75
     1
175
     1
 42
1.0
 92
        0
 66
   257
 43
1.0
 76
     1
 77
     6
 78
     2
 67
     7
 79
     5
170
     0
171
     0
290
     0
174
     0
 93
       13
 44
0.0
173
     0
291
     1
 45
0.0
1001
ACAD
1000
AcDbSavedByObjectVersion
1070
     0
  0
VISUALSTYLE
  5
2D
102
{ACAD_REACTORS
330
2A
102
}
102
{ACAD_XDICTIONARY
360
3B8
102
}
330
2A
100
AcDbVisualStyle
  2
Gouraud
 70
     2
 71
     2
 72
     2
 73
     1
 90
        2
 40
-0.6
 41
30.0
 62
     5
 63
     7
 74
     0
 91
        4
 64
     7
 65
   257
 75
     1
175
     1
 42
1.0
 92
        0
 66
     7
 43
1.0
 76
     1
 77
     6
 78
     2
 67
     7
 79
     5
170
     0
171
     0
290
     0
174
     0
 93
       13
 44
0.0
173
     0
291
     1
 45
0.0
1001
ACAD
1000
AcDbSavedByObjectVersion
1070
     0
  0
VISUALSTYLE
  5
2E
102
{ACAD_REACTORS
330
2A
102
}
102
{ACAD_XDICTIONARY
360
3BA
102
}
330
2A
100
AcDbVisualStyle
  2
GouraudWithEdges
 70
     3
 71
     2
 72
     2
 73
     1
 90
        2
 40
-0.6
 41
30.0
 62
     5
 63
     7
 74
     1
 91
        4
 64
     7
 65
   257
 75
     1
175
     1
 42
1.0
 92
        0
 66
   257
 43
1.0
 76
     1
 77
     6
 78
     2
 67
     7
 79
     5
170
     0
171
     0
290
     0
174
     0
 93
       13
 44
0.0
173
     0
291
     1
 45
0.0
1001
ACAD
1000
AcDbSavedByObjectVersion
1070
     0
  0
VISUALSTYLE
  5
38
102
{ACAD_REACTORS
330
2A
102
}
102
{ACAD_XDICTIONARY
360
3CE
102
}
330
2A
100
AcDbVisualStyle
  2
Linepattern
 70
    14
 71
     2
 72
     2
 73
     0
 90
        0
 40
-0.6
 41
-30.0
 62
     5
 63
     7
 74
     1
 91
        4
 64
     7
 65
   257
 75
     7
175
     7
 42
1.0
 92
        8
 66
     7
 43
1.0
 76
     1
 77
     6
 78
     2
 67
     7
 79
     5
170
     0
171
     0
290
     0
174
     0
 93
        1
 44
0.0
173
     0
291
     1
 45
0.0
1001
ACAD
1000
AcDbSavedByObjectVersion
1070
     0
  0
VISUALSTYLE
  5
33
102
{ACAD_REACTORS
330
2A
102
}
102
{ACAD_XDICTIONARY
360
3C4
102
}
330
2A
100
AcDbVisualStyle
  2
Realistic
 70
     8
 71
     2
 72
     2
 73
     0
 90
        0
 40
-0.6
 41
-30.0
 62
     5
 63
     7
 74
     1
 91
        0
 64
     7
 65
   257
 75
     1
175
     1
 42
1.0
 92
        8
 66
     8
 43
1.0
 76
     1
 77
     6
 78
     2
 67
     7
 79
     5
170
     0
171
     0
290
     0
174
     0
 93
       13
 44
0.0
173
     0
291
     0
 45
0.0
1001
ACAD
1000
AcDbSavedByObjectVersion
1070
     0
  0
VISUALSTYLE
  5
37
102
{ACAD_REACTORS
330
2A
102
}
102
{ACAD_XDICTIONARY
360
3CC
102
}
330
2A
100
AcDbVisualStyle
  2
Thicken
 70
    13
 71
     2
 72
     2
 73
     0
 90
        0
 40
-0.6
 41
-30.0
 62
     5
 63
     7
 74
     1
 91
        4
 64
     7
 65
   257
 75
     1
175
     1
 42
1.0
 92
       12
 66
     7
 43
1.0
 76
     1
 77
     6
 78
     2
 67
     7
 79
     5
170
     0
171
     0
290
     0
174
     0
 93
        1
 44
0.0
173
     0
291
     1
 45
0.0
1001
ACAD
1000
AcDbSavedByObjectVersion
1070
     0
  0
DICTIONARYVAR
  5
3B2
102
{ACAD_REACTORS
330
3AD
102
}
330
3AD
100
DictionaryVariables
280
     0
  1
2
  0
DICTIONARYVAR
  5
3B3
102
{ACAD_REACTORS
330
3AD
102
}
330
3AD
100
DictionaryVariables
280
     0
  1
1
  0
DICTIONARYVAR
  5
3B1
102
{ACAD_REACTORS
330
3AD
102
}
330
3AD
100
DictionaryVariables
280
     0
  1
80.000000
  0
DICTIONARYVAR
  5
3B0
102
{ACAD_REACTORS
330
3AD
102
}
330
3AD
100
DictionaryVariables
280
     0
  1
5.000000
  0
DICTIONARY
  5
3D6
330
3D
100
AcDbDictionary
280
     1
281
     1
  3
ACAD_XREC_ROUNDTRIP
360
3D7
  0
DICTIONARY
  5
3D4
330
3C
100
AcDbDictionary
280
     1
281
     1
  3
ACAD_XREC_ROUNDTRIP
360
3D5
  0
DICTIONARY
  5
3D8
330
3E
100
AcDbDictionary
280
     1
281
     1
  3
ACAD_XREC_ROUNDTRIP
360
3D9
  0
DICTIONARY
  5
3BC
330
2F
100
AcDbDictionary
280
     1
281
     1
  3
ACAD_XREC_ROUNDTRIP
360
3BD
  0
DICTIONARY
  5
3C0
330
31
100
AcDbDictionary
280
     1
281
     1
  3
ACAD_XREC_ROUNDTRIP
360
3C1
  0
DICTIONARY
  5
3BE
330
30
100
AcDbDictionary
280
     1
281
     1
  3
ACAD_XREC_ROUNDTRIP
360
3BF
  0
DICTIONARY
  5
3C2
330
32
100
AcDbDictionary
280
     1
281
     1
  3
ACAD_XREC_ROUNDTRIP
360
3C3
  0
DICTIONARY
  5
3CA
330
36
100
AcDbDictionary
280
     1
281
     1
  3
ACAD_XREC_ROUNDTRIP
360
3CB
  0
DICTIONARY
  5
3D2
330
3A
100
AcDbDictionary
280
     1
281
     1
  3
ACAD_XREC_ROUNDTRIP
360
3D3
  0
DICTIONARY
  5
3C6
330
34
100
AcDbDictionary
280
     1
281
     1
  3
ACAD_XREC_ROUNDTRIP
360
3C7
  0
DICTIONARY
  5
3C8
330
35
100
AcDbDictionary
280
     1
281
     1
  3
ACAD_XREC_ROUNDTRIP
360
3C9
  0
DICTIONARY
  5
3D0
330
39
100
AcDbDictionary
280
     1
281
     1
  3
ACAD_XREC_ROUNDTRIP
360
3D1
  0
DICTIONARY
  5
3B4
330
2B
100
AcDbDictionary
280
     1
281
     1
  3
ACAD_XREC_ROUNDTRIP
360
3B5
  0
DICTIONARY
  5
3B6
330
2C
100
AcDbDictionary
280
     1
281
     1
  3
ACAD_XREC_ROUNDTRIP
360
3B7
  0
DICTIONARY
  5
3B8
330
2D
100
AcDbDictionary
280
     1
281
     1
  3
ACAD_XREC_ROUNDTRIP
360
3B9
  0
DICTIONARY
  5
3BA
330
2E
100
AcDbDictionary
280
     1
281
     1
  3
ACAD_XREC_ROUNDTRIP
360
3BB
  0
DICTIONARY
  5
3CE
330
38
100
AcDbDictionary
280
     1
281
     1
  3
ACAD_XREC_ROUNDTRIP
360
3CF
  0
DICTIONARY
  5
3C4
330
33
100
AcDbDictionary
280
     1
281
     1
  3
ACAD_XREC_ROUNDTRIP
360
3C5
  0
DICTIONARY
  5
3CC
330
37
100
AcDbDictionary
280
     1
281
     1
  3
ACAD_XREC_ROUNDTRIP
360
3CD
  0
XRECORD
  5
3D7
102
{ACAD_REACTORS
330
3D6
102
}
330
3D6
100
AcDbXrecord
280
     1
102
MATERIAL
148
0.0
149
0.0
149
0.0
 93
        0
 94
      127
282
     0
 72
     1
 77
     1
171
     1
175
     1
179
     1
273
     0
  0
XRECORD
  5
3D5
102
{ACAD_REACTORS
330
3D4
102
}
330
3D4
100
AcDbXrecord
280
     1
102
MATERIAL
148
0.0
149
0.0
149
0.0
 93
        0
 94
      127
282
     0
 72
     1
 77
     1
171
     1
175
     1
179
     1
273
     0
  0
XRECORD
  5
3D9
102
{ACAD_REACTORS
330
3D8
102
}
330
3D8
100
AcDbXrecord
280
     1
102
MATERIAL
148
0.0
149
0.0
149
0.0
 93
        0
 94
      127
282
     0
 72
     1
 77
     1
171
     1
175
     1
179
     1
273
     0
  0
XRECORD
  5
3BD
102
{ACAD_REACTORS
330
3BC
102
}
330
3BC
100
AcDbXrecord
280
     1
102
RTVSPropertyOp0
 70
     1
102
RTVSPropertyOp1
 70
     1
102
RTVSPropertyOp2
 70
     1
102
RTVSPropertyOp3
 70
     1
102
RTVSPropertyOp4
 70
     1
102
RTVSPropertyOp5
 70
     1
102
RTVSPropertyOp6
 70
     1
102
RTVSPropertyOp7
 70
     1
102
RTVSPropertyOp8
 70
     1
102
RTVSPropertyOp9
 70
     1
102
RTVSPropertyOp10
 70
     1
102
RTVSPropertyOp11
 70
     1
102
RTVSPropertyOp12
 70
     1
102
RTVSPropertyOp13
 70
     1
102
RTVSPropertyOp14
 70
     1
102
RTVSPropertyOp15
 70
     1
102
RTVSPropertyOp16
 70
     1
102
RTVSPropertyOp17
 70
     1
102
RTVSPropertyOp18
 70
     1
102
RTVSPropertyOp19
 70
     1
102
RTVSPropertyOp20
 70
     1
102
RTVSPropertyOp21
 70
     1
102
RTVSPropertyOp22
 70
     1
102
RTVSPropertyOp23
 70
     1
102
RTVSPropertyOp24
 70
     1
102
RTVSPropertyOp25
 70
     1
102
RTVSPropertyOp26
 70
     1
102
RTVSPropertyOp27
 70
     1
  0
XRECORD
  5
3C1
102
{ACAD_REACTORS
330
3C0
102
}
330
3C0
100
AcDbXrecord
280
     1
102
RTVSPropertyOp0
 70
     1
102
RTVSPropertyOp1
 70
     1
102
RTVSPropertyOp2
 70
     1
102
RTVSPropertyOp3
 70
     1
102
RTVSPropertyOp4
 70
     1
102
RTVSPropertyOp5
 70
     1
102
RTVSPropertyOp6
 70
     1
102
RTVSPropertyOp7
 70
     1
102
RTVSPropertyOp8
 70
     1
102
RTVSPropertyOp9
 70
     1
102
RTVSPropertyOp10
 70
     1
102
RTVSPropertyOp11
 70
     1
102
RTVSPropertyOp12
 70
     1
102
RTVSPropertyOp13
 70
     1
102
RTVSPropertyOp14
 70
     1
102
RTVSPropertyOp15
 70
     1
102
RTVSPropertyOp16
 70
     1
102
RTVSPropertyOp17
 70
     1
102
RTVSPropertyOp18
 70
     1
102
RTVSPropertyOp19
 70
     1
102
RTVSPropertyOp20
 70
     1
102
RTVSPropertyOp21
 70
     1
102
RTVSPropertyOp22
 70
     1
102
RTVSPropertyOp23
 70
     1
102
RTVSPropertyOp24
 70
     1
102
RTVSPropertyOp25
 70
     1
102
RTVSPropertyOp26
 70
     1
102
RTVSPropertyOp27
 70
     1
  0
XRECORD
  5
3BF
102
{ACAD_REACTORS
330
3BE
102
}
330
3BE
100
AcDbXrecord
280
     1
102
RTVSPropertyOp0
 70
     1
102
RTVSPropertyOp1
 70
     1
102
RTVSPropertyOp2
 70
     1
102
RTVSPropertyOp3
 70
     1
102
RTVSPropertyOp4
 70
     1
102
RTVSPropertyOp5
 70
     1
102
RTVSPropertyOp6
 70
     1
102
RTVSPropertyOp7
 70
     1
102
RTVSPropertyOp8
 70
     1
102
RTVSPropertyOp9
 70
     1
102
RTVSPropertyOp10
 70
     1
102
RTVSPropertyOp11
 70
     1
102
RTVSPropertyOp12
 70
     1
102
RTVSPropertyOp13
 70
     1
102
RTVSPropertyOp14
 70
     1
102
RTVSPropertyOp15
 70
     1
102
RTVSPropertyOp16
 70
     1
102
RTVSPropertyOp17
 70
     1
102
RTVSPropertyOp18
 70
     1
102
RTVSPropertyOp19
 70
     1
102
RTVSPropertyOp20
 70
     1
102
RTVSPropertyOp21
 70
     1
102
RTVSPropertyOp22
 70
     1
102
RTVSPropertyOp23
 70
     1
102
RTVSPropertyOp24
 70
     1
102
RTVSPropertyOp25
 70
     1
102
RTVSPropertyOp26
 70
     1
102
RTVSPropertyOp27
 70
     1
  0
XRECORD
  5
3C3
102
{ACAD_REACTORS
330
3C2
102
}
330
3C2
100
AcDbXrecord
280
     1
102
RTVSPropertyOp0
 70
     1
102
RTVSPropertyOp1
 70
     1
102
RTVSPropertyOp2
 70
     1
102
RTVSPropertyOp3
 70
     1
102
RTVSPropertyOp4
 70
     1
102
RTVSPropertyOp5
 70
     1
102
RTVSPropertyOp6
 70
     1
102
RTVSPropertyOp7
 70
     1
102
RTVSPropertyOp8
 70
     1
102
RTVSPropertyOp9
 70
     1
102
RTVSPropertyOp10
 70
     1
102
RTVSPropertyOp11
 70
     1
102
RTVSPropertyOp12
 70
     1
102
RTVSPropertyOp13
 70
     1
102
RTVSPropertyOp14
 70
     1
102
RTVSPropertyOp15
 70
     1
102
RTVSPropertyOp16
 70
     1
102
RTVSPropertyOp17
 70
     1
102
RTVSPropertyOp18
 70
     1
102
RTVSPropertyOp19
 70
     1
102
RTVSPropertyOp20
 70
     1
102
RTVSPropertyOp21
 70
     1
102
RTVSPropertyOp22
 70
     1
102
RTVSPropertyOp23
 70
     1
102
RTVSPropertyOp24
 70
     1
102
RTVSPropertyOp25
 70
     1
102
RTVSPropertyOp26
 70
     1
102
RTVSPropertyOp27
 70
     1
  0
XRECORD
  5
3CB
102
{ACAD_REACTORS
330
3CA
102
}
330
3CA
100
AcDbXrecord
280
     1
102
RTVSPropertyOp0
 70
     1
102
RTVSPropertyOp1
 70
     1
102
RTVSPropertyOp2
 70
     1
102
RTVSPropertyOp3
 70
     1
102
RTVSPropertyOp4
 70
     1
102
RTVSPropertyOp5
 70
     1
102
RTVSPropertyOp6
 70
     1
102
RTVSPropertyOp7
 70
     1
102
RTVSPropertyOp8
 70
     1
102
RTVSPropertyOp9
 70
     1
102
RTVSPropertyOp10
 70
     1
102
RTVSPropertyOp11
 70
     1
102
RTVSPropertyOp12
 70
     1
102
RTVSPropertyOp13
 70
     1
102
RTVSPropertyOp14
 70
     1
102
RTVSPropertyOp15
 70
     1
102
RTVSPropertyOp16
 70
     1
102
RTVSPropertyOp17
 70
     1
102
RTVSPropertyOp18
 70
     1
102
RTVSPropertyOp19
 70
     1
102
RTVSPropertyOp20
 70
     1
102
RTVSPropertyOp21
 70
     1
102
RTVSPropertyOp22
 70
     1
102
RTVSPropertyOp23
 70
     1
102
RTVSPropertyOp24
 70
     1
102
RTVSPropertyOp25
 70
     1
102
RTVSPropertyOp26
 70
     1
102
RTVSPropertyOp27
 70
     1
  0
XRECORD
  5
3D3
102
{ACAD_REACTORS
330
3D2
102
}
330
3D2
100
AcDbXrecord
280
     1
102
RTVSPropertyOp0
 70
     1
102
RTVSPropertyOp1
 70
     1
102
RTVSPropertyOp2
 70
     1
102
RTVSPropertyOp3
 70
     1
102
RTVSPropertyOp4
 70
     1
102
RTVSPropertyOp5
 70
     1
102
RTVSPropertyOp6
 70
     1
102
RTVSPropertyOp7
 70
     1
102
RTVSPropertyOp8
 70
     1
102
RTVSPropertyOp9
 70
     1
102
RTVSPropertyOp10
 70
     1
102
RTVSPropertyOp11
 70
     1
102
RTVSPropertyOp12
 70
     1
102
RTVSPropertyOp13
 70
     1
102
RTVSPropertyOp14
 70
     1
102
RTVSPropertyOp15
 70
     1
102
RTVSPropertyOp16
 70
     1
102
RTVSPropertyOp17
 70
     1
102
RTVSPropertyOp18
 70
     1
102
RTVSPropertyOp19
 70
     1
102
RTVSPropertyOp20
 70
     1
102
RTVSPropertyOp21
 70
     1
102
RTVSPropertyOp22
 70
     1
102
RTVSPropertyOp23
 70
     1
102
RTVSPropertyOp24
 70
     1
102
RTVSPropertyOp25
 70
     1
102
RTVSPropertyOp26
 70
     1
102
RTVSPropertyOp27
 70
     1
  0
XRECORD
  5
3C7
102
{ACAD_REACTORS
330
3C6
102
}
330
3C6
100
AcDbXrecord
280
     1
102
RTVSPropertyOp0
 70
     1
102
RTVSPropertyOp1
 70
     1
102
RTVSPropertyOp2
 70
     1
102
RTVSPropertyOp3
 70
     1
102
RTVSPropertyOp4
 70
     1
102
RTVSPropertyOp5
 70
     1
102
RTVSPropertyOp6
 70
     1
102
RTVSPropertyOp7
 70
     1
102
RTVSPropertyOp8
 70
     1
102
RTVSPropertyOp9
 70
     1
102
RTVSPropertyOp10
 70
     1
102
RTVSPropertyOp11
 70
     1
102
RTVSPropertyOp12
 70
     1
102
RTVSPropertyOp13
 70
     1
102
RTVSPropertyOp14
 70
     1
102
RTVSPropertyOp15
 70
     1
102
RTVSPropertyOp16
 70
     1
102
RTVSPropertyOp17
 70
     1
102
RTVSPropertyOp18
 70
     1
102
RTVSPropertyOp19
 70
     1
102
RTVSPropertyOp20
 70
     1
102
RTVSPropertyOp21
 70
     1
102
RTVSPropertyOp22
 70
     1
102
RTVSPropertyOp23
 70
     1
102
RTVSPropertyOp24
 70
     1
102
RTVSPropertyOp25
 70
     1
102
RTVSPropertyOp26
 70
     1
102
RTVSPropertyOp27
 70
     1
  0
XRECORD
  5
3C9
102
{ACAD_REACTORS
330
3C8
102
}
330
3C8
100
AcDbXrecord
280
     1
102
RTVSPropertyOp0
 70
     1
102
RTVSPropertyOp1
 70
     1
102
RTVSPropertyOp2
 70
     1
102
RTVSPropertyOp3
 70
     1
102
RTVSPropertyOp4
 70
     1
102
RTVSPropertyOp5
 70
     1
102
RTVSPropertyOp6
 70
     1
102
RTVSPropertyOp7
 70
     1
102
RTVSPropertyOp8
 70
     1
102
RTVSPropertyOp9
 70
     1
102
RTVSPropertyOp10
 70
     1
102
RTVSPropertyOp11
 70
     1
102
RTVSPropertyOp12
 70
     1
102
RTVSPropertyOp13
 70
     1
102
RTVSPropertyOp14
 70
     1
102
RTVSPropertyOp15
 70
     1
102
RTVSPropertyOp16
 70
     1
102
RTVSPropertyOp17
 70
     1
102
RTVSPropertyOp18
 70
     1
102
RTVSPropertyOp19
 70
     1
102
RTVSPropertyOp20
 70
     1
102
RTVSPropertyOp21
 70
     1
102
RTVSPropertyOp22
 70
     1
102
RTVSPropertyOp23
 70
     1
102
RTVSPropertyOp24
 70
     1
102
RTVSPropertyOp25
 70
     1
102
RTVSPropertyOp26
 70
     1
102
RTVSPropertyOp27
 70
     1
  0
XRECORD
  5
3D1
102
{ACAD_REACTORS
330
3D0
102
}
330
3D0
100
AcDbXrecord
280
     1
102
RTVSPropertyOp0
 70
     1
102
RTVSPropertyOp1
 70
     1
102
RTVSPropertyOp2
 70
     1
102
RTVSPropertyOp3
 70
     1
102
RTVSPropertyOp4
 70
     1
102
RTVSPropertyOp5
 70
     1
102
RTVSPropertyOp6
 70
     1
102
RTVSPropertyOp7
 70
     1
102
RTVSPropertyOp8
 70
     1
102
RTVSPropertyOp9
 70
     1
102
RTVSPropertyOp10
 70
     1
102
RTVSPropertyOp11
 70
     1
102
RTVSPropertyOp12
 70
     1
102
RTVSPropertyOp13
 70
     1
102
RTVSPropertyOp14
 70
     1
102
RTVSPropertyOp15
 70
     1
102
RTVSPropertyOp16
 70
     1
102
RTVSPropertyOp17
 70
     1
102
RTVSPropertyOp18
 70
     1
102
RTVSPropertyOp19
 70
     1
102
RTVSPropertyOp20
 70
     1
102
RTVSPropertyOp21
 70
     1
102
RTVSPropertyOp22
 70
     1
102
RTVSPropertyOp23
 70
     1
102
RTVSPropertyOp24
 70
     1
102
RTVSPropertyOp25
 70
     1
102
RTVSPropertyOp26
 70
     1
102
RTVSPropertyOp27
 70
     1
  0
XRECORD
  5
3B5
102
{ACAD_REACTORS
330
3B4
102
}
330
3B4
100
AcDbXrecord
280
     1
102
RTVSPropertyOp0
 70
     1
102
RTVSPropertyOp1
 70
     1
102
RTVSPropertyOp2
 70
     1
102
RTVSPropertyOp3
 70
     1
102
RTVSPropertyOp4
 70
     1
102
RTVSPropertyOp5
 70
     1
102
RTVSPropertyOp6
 70
     1
102
RTVSPropertyOp7
 70
     1
102
RTVSPropertyOp8
 70
     1
102
RTVSPropertyOp9
 70
     1
102
RTVSPropertyOp10
 70
     1
102
RTVSPropertyOp11
 70
     1
102
RTVSPropertyOp12
 70
     1
102
RTVSPropertyOp13
 70
     1
102
RTVSPropertyOp14
 70
     1
102
RTVSPropertyOp15
 70
     1
102
RTVSPropertyOp16
 70
     1
102
RTVSPropertyOp17
 70
     1
102
RTVSPropertyOp18
 70
     1
102
RTVSPropertyOp19
 70
     1
102
RTVSPropertyOp20
 70
     1
102
RTVSPropertyOp21
 70
     1
102
RTVSPropertyOp22
 70
     1
102
RTVSPropertyOp23
 70
     1
102
RTVSPropertyOp24
 70
     1
102
RTVSPropertyOp25
 70
     1
102
RTVSPropertyOp26
 70
     1
102
RTVSPropertyOp27
 70
     1
  0
XRECORD
  5
3B7
102
{ACAD_REACTORS
330
3B6
102
}
330
3B6
100
AcDbXrecord
280
     1
102
RTVSPropertyOp0
 70
     1
102
RTVSPropertyOp1
 70
     1
102
RTVSPropertyOp2
 70
     1
102
RTVSPropertyOp3
 70
     1
102
RTVSPropertyOp4
 70
     1
102
RTVSPropertyOp5
 70
     1
102
RTVSPropertyOp6
 70
     1
102
RTVSPropertyOp7
 70
     1
102
RTVSPropertyOp8
 70
     1
102
RTVSPropertyOp9
 70
     1
102
RTVSPropertyOp10
 70
     1
102
RTVSPropertyOp11
 70
     1
102
RTVSPropertyOp12
 70
     1
102
RTVSPropertyOp13
 70
     1
102
RTVSPropertyOp14
 70
     1
102
RTVSPropertyOp15
 70
     1
102
RTVSPropertyOp16
 70
     1
102
RTVSPropertyOp17
 70
     1
102
RTVSPropertyOp18
 70
     1
102
RTVSPropertyOp19
 70
     1
102
RTVSPropertyOp20
 70
     1
102
RTVSPropertyOp21
 70
     1
102
RTVSPropertyOp22
 70
     1
102
RTVSPropertyOp23
 70
     1
102
RTVSPropertyOp24
 70
     1
102
RTVSPropertyOp25
 70
     1
102
RTVSPropertyOp26
 70
     1
102
RTVSPropertyOp27
 70
     1
  0
XRECORD
  5
3B9
102
{ACAD_REACTORS
330
3B8
102
}
330
3B8
100
AcDbXrecord
280
     1
102
RTVSPropertyOp0
 70
     1
102
RTVSPropertyOp1
 70
     1
102
RTVSPropertyOp2
 70
     1
102
RTVSPropertyOp3
 70
     1
102
RTVSPropertyOp4
 70
     1
102
RTVSPropertyOp5
 70
     1
102
RTVSPropertyOp6
 70
     1
102
RTVSPropertyOp7
 70
     1
102
RTVSPropertyOp8
 70
     1
102
RTVSPropertyOp9
 70
     1
102
RTVSPropertyOp10
 70
     1
102
RTVSPropertyOp11
 70
     1
102
RTVSPropertyOp12
 70
     1
102
RTVSPropertyOp13
 70
     1
102
RTVSPropertyOp14
 70
     1
102
RTVSPropertyOp15
 70
     1
102
RTVSPropertyOp16
 70
     1
102
RTVSPropertyOp17
 70
     1
102
RTVSPropertyOp18
 70
     1
102
RTVSPropertyOp19
 70
     1
102
RTVSPropertyOp20
 70
     1
102
RTVSPropertyOp21
 70
     1
102
RTVSPropertyOp22
 70
     1
102
RTVSPropertyOp23
 70
     1
102
RTVSPropertyOp24
 70
     1
102
RTVSPropertyOp25
 70
     1
102
RTVSPropertyOp26
 70
     1
102
RTVSPropertyOp27
 70
     1
  0
XRECORD
  5
3BB
102
{ACAD_REACTORS
330
3BA
102
}
330
3BA
100
AcDbXrecord
280
     1
102
RTVSPropertyOp0
 70
     1
102
RTVSPropertyOp1
 70
     1
102
RTVSPropertyOp2
 70
     1
102
RTVSPropertyOp3
 70
     1
102
RTVSPropertyOp4
 70
     1
102
RTVSPropertyOp5
 70
     1
102
RTVSPropertyOp6
 70
     1
102
RTVSPropertyOp7
 70
     1
102
RTVSPropertyOp8
 70
     1
102
RTVSPropertyOp9
 70
     1
102
RTVSPropertyOp10
 70
     1
102
RTVSPropertyOp11
 70
     1
102
RTVSPropertyOp12
 70
     1
102
RTVSPropertyOp13
 70
     1
102
RTVSPropertyOp14
 70
     1
102
RTVSPropertyOp15
 70
     1
102
RTVSPropertyOp16
 70
     1
102
RTVSPropertyOp17
 70
     1
102
RTVSPropertyOp18
 70
     1
102
RTVSPropertyOp19
 70
     1
102
RTVSPropertyOp20
 70
     1
102
RTVSPropertyOp21
 70
     1
102
RTVSPropertyOp22
 70
     1
102
RTVSPropertyOp23
 70
     1
102
RTVSPropertyOp24
 70
     1
102
RTVSPropertyOp25
 70
     1
102
RTVSPropertyOp26
 70
     1
102
RTVSPropertyOp27
 70
     1
  0
XRECORD
  5
3CF
102
{ACAD_REACTORS
330
3CE
102
}
330
3CE
100
AcDbXrecord
280
     1
102
RTVSPropertyOp0
 70
     1
102
RTVSPropertyOp1
 70
     1
102
RTVSPropertyOp2
 70
     1
102
RTVSPropertyOp3
 70
     1
102
RTVSPropertyOp4
 70
     1
102
RTVSPropertyOp5
 70
     1
102
RTVSPropertyOp6
 70
     1
102
RTVSPropertyOp7
 70
     1
102
RTVSPropertyOp8
 70
     1
102
RTVSPropertyOp9
 70
     1
102
RTVSPropertyOp10
 70
     1
102
RTVSPropertyOp11
 70
     1
102
RTVSPropertyOp12
 70
     1
102
RTVSPropertyOp13
 70
     1
102
RTVSPropertyOp14
 70
     1
102
RTVSPropertyOp15
 70
     1
102
RTVSPropertyOp16
 70
     1
102
RTVSPropertyOp17
 70
     1
102
RTVSPropertyOp18
 70
     1
102
RTVSPropertyOp19
 70
     1
102
RTVSPropertyOp20
 70
     1
102
RTVSPropertyOp21
 70
     1
102
RTVSPropertyOp22
 70
     1
102
RTVSPropertyOp23
 70
     1
102
RTVSPropertyOp24
 70
     1
102
RTVSPropertyOp25
 70
     1
102
RTVSPropertyOp26
 70
     1
102
RTVSPropertyOp27
 70
     1
  0
XRECORD
  5
3C5
102
{ACAD_REACTORS
330
3C4
102
}
330
3C4
100
AcDbXrecord
280
     1
102
RTVSPropertyOp0
 70
     1
102
RTVSPropertyOp1
 70
     1
102
RTVSPropertyOp2
 70
     1
102
RTVSPropertyOp3
 70
     1
102
RTVSPropertyOp4
 70
     1
102
RTVSPropertyOp5
 70
     1
102
RTVSPropertyOp6
 70
     1
102
RTVSPropertyOp7
 70
     1
102
RTVSPropertyOp8
 70
     1
102
RTVSPropertyOp9
 70
     1
102
RTVSPropertyOp10
 70
     1
102
RTVSPropertyOp11
 70
     1
102
RTVSPropertyOp12
 70
     1
102
RTVSPropertyOp13
 70
     1
102
RTVSPropertyOp14
 70
     1
102
RTVSPropertyOp15
 70
     1
102
RTVSPropertyOp16
 70
     1
102
RTVSPropertyOp17
 70
     1
102
RTVSPropertyOp18
 70
     1
102
RTVSPropertyOp19
 70
     1
102
RTVSPropertyOp20
 70
     1
102
RTVSPropertyOp21
 70
     1
102
RTVSPropertyOp22
 70
     1
102
RTVSPropertyOp23
 70
     1
102
RTVSPropertyOp24
 70
     1
102
RTVSPropertyOp25
 70
     1
102
RTVSPropertyOp26
 70
     1
102
RTVSPropertyOp27
 70
     1
  0
XRECORD
  5
3CD
102
{ACAD_REACTORS
330
3CC
102
}
330
3CC
100
AcDbXrecord
280
     1
102
RTVSPropertyOp0
 70
     1
102
RTVSPropertyOp1
 70
     1
102
RTVSPropertyOp2
 70
     1
102
RTVSPropertyOp3
 70
     1
102
RTVSPropertyOp4
 70
     1
102
RTVSPropertyOp5
 70
     1
102
RTVSPropertyOp6
 70
     1
102
RTVSPropertyOp7
 70
     1
102
RTVSPropertyOp8
 70
     1
102
RTVSPropertyOp9
 70
     1
102
RTVSPropertyOp10
 70
     1
102
RTVSPropertyOp11
 70
     1
102
RTVSPropertyOp12
 70
     1
102
RTVSPropertyOp13
 70
     1
102
RTVSPropertyOp14
 70
     1
102
RTVSPropertyOp15
 70
     1
102
RTVSPropertyOp16
 70
     1
102
RTVSPropertyOp17
 70
     1
102
RTVSPropertyOp18
 70
     1
102
RTVSPropertyOp19
 70
     1
102
RTVSPropertyOp20
 70
     1
102
RTVSPropertyOp21
 70
     1
102
RTVSPropertyOp22
 70
     1
102
RTVSPropertyOp23
 70
     1
102
RTVSPropertyOp24
 70
     1
102
RTVSPropertyOp25
 70
     1
102
RTVSPropertyOp26
 70
     1
102
RTVSPropertyOp27
 70
     1
  0
ENDSEC
  0
EOF
