  0
SECTION
  2
HEADER
  9
$ACADVER
  1
AC1015
  9
$ACADMAINTVER
 70
     6
  9
$DWGCODEPAGE
  3
ANSI_1252
  9
$INSBASE
 10
0.0
 20
0.0
 30
0.0
  9
$EXTMIN
 10
0.0
 20
0.0
 30
0.0
  9
$EXTMAX
 10
210.0
 20
297.0
 30
0.0
  9
$LIMMIN
 10
0.0
 20
0.0
  9
$LIMMAX
 10
210.0
 20
297.0
  9
$ORTHOMODE
 70
     0
  9
$REGENMODE
 70
     1
  9
$FILLMODE
 70
     1
  9
$QTEXTMODE
 70
     0
  9
$MIRRTEXT
 70
     1
  9
$LTSCALE
 40
1.0
  9
$ATTMODE
 70
     1
  9
$TEXTSIZE
 40
2.5
  9
$TRACEWID
 40
1.0
  9
$TEXTSTYLE
  7
Standard
  9
$CLAYER
  8
0
  9
$CELTYPE
  6
ByLayer
  9
$CECOLOR
 62
   256
  9
$CELTSCALE
 40
1.0
  9
$DISPSILH
 70
     0
  9
$DIMSCALE
 40
1.0
  9
$DIMASZ
 40
2.5
  9
$DIMEXO
 40
0.625
  9
$DIMDLI
 40
3.75
  9
$DIMRND
 40
0.0
  9
$DIMDLE
 40
0.0
  9
$DIMEXE
 40
1.25
  9
$DIMTP
 40
0.0
  9
$DIMTM
 40
0.0
  9
$DIMTXT
 40
2.5
  9
$DIMCEN
 40
2.5
  9
$DIMTSZ
 40
0.0
  9
$DIMTOL
 70
     0
  9
$DIMLIM
 70
     0
  9
$DIMTIH
 70
     0
  9
$DIMTOH
 70
     0
  9
$DIMSE1
 70
     0
  9
$DIMSE2
 70
     0
  9
$DIMTAD
 70
     1
  9
$DIMZIN
 70
     8
  9
$DIMBLK
  1

  9
$DIMASO
 70
     1
  9
$DIMSHO
 70
     1
  9
$DIMPOST
  1

  9
$DIMAPOST
  1

  9
$DIMALT
 70
     0
  9
$DIMALTD
 70
     3
  9
$DIMALTF
 40
0.0393700787
  9
$DIMLFAC
 40
1.0
  9
$DIMTOFL
 70
     1
  9
$DIMTVP
 40
0.0
  9
$DIMTIX
 70
     0
  9
$DIMSOXD
 70
     0
  9
$DIMSAH
 70
     0
  9
$DIMBLK1
  1

  9
$DIMBLK2
  1

  9
$DIMSTYLE
  2
ISO-25
  9
$DIMCLRD
 70
     0
  9
$DIMCLRE
 70
     0
  9
$DIMCLRT
 70
     0
  9
$DIMTFAC
 40
1.0
  9
$DIMGAP
 40
0.625
  9
$DIMJUST
 70
     0
  9
$DIMSD1
 70
     0
  9
$DIMSD2
 70
     0
  9
$DIMTOLJ
 70
     0
  9
$DIMTZIN
 70
     8
  9
$DIMALTZ
 70
     0
  9
$DIMALTTZ
 70
     0
  9
$DIMUPT
 70
     0
  9
$DIMDEC
 70
     2
  9
$DIMTDEC
 70
     2
  9
$DIMALTU
 70
     2
  9
$DIMALTTD
 70
     3
  9
$DIMTXSTY
  7
Standard
  9
$DIMAUNIT
 70
     0
  9
$DIMADEC
 70
     0
  9
$DIMALTRND
 40
0.0
  9
$DIMAZIN
 70
     0
  9
$DIMDSEP
 70
    44
  9
$DIMATFIT
 70
     3
  9
$DIMFRAC
 70
     0
  9
$DIMLDRBLK
  1

  9
$DIMLUNIT
 70
     2
  9
$DIMLWD
 70
    -2
  9
$DIMLWE
 70
    -2
  9
$DIMTMOVE
 70
     0
  9
$LUNITS
 70
     2
  9
$LUPREC
 70
     4
  9
$SKETCHINC
 40
1.0
  9
$FILLETRAD
 40
10.0
  9
$AUNITS
 70
     0
  9
$AUPREC
 70
     0
  9
$MENU
  1
.
  9
$ELEVATION
 40
0.0
  9
$PELEVATION
 40
0.0
  9
$THICKNESS
 40
0.0
  9
$LIMCHECK
 70
     0
  9
$CHAMFERA
 40
10.0
  9
$CHAMFERB
 40
10.0
  9
$CHAMFERC
 40
20.0
  9
$CHAMFERD
 40
0.0
  9
$SKPOLY
 70
     0
  9
$TDCREATE
 40
2455434.620562118
  9
$TDUCREATE
 40
2455434.537228785
  9
$TDUPDATE
 40
2455434.62056213
  9
$TDUUPDATE
 40
2455434.537228796
  9
$TDINDWG
 40
0.0000000116
  9
$TDUSRTIMER
 40
0.0000000116
  9
$USRTIMER
 70
     1
  9
$ANGBASE
 50
0.0
  9
$ANGDIR
 70
     0
  9
$PDMODE
 70
     0
  9
$PDSIZE
 40
0.0
  9
$PLINEWID
 40
0.0
  9
$SPLFRAME
 70
     0
  9
$SPLINETYPE
 70
     6
  9
$SPLINESEGS
 70
     8
  9
$HANDSEED
  5
1CB
  9
$SURFTAB1
 70
     6
  9
$SURFTAB2
 70
     6
  9
$SURFTYPE
 70
     6
  9
$SURFU
 70
     6
  9
$SURFV
 70
     6
  9
$UCSBASE
  2

  9
$UCSNAME
  2

  9
$UCSORG
 10
0.0
 20
0.0
 30
0.0
  9
$UCSXDIR
 10
1.0
 20
0.0
 30
0.0
  9
$UCSYDIR
 10
0.0
 20
1.0
 30
0.0
  9
$UCSORTHOREF
  2

  9
$UCSORTHOVIEW
 70
     0
  9
$UCSORGTOP
 10
0.0
 20
0.0
 30
0.0
  9
$UCSORGBOTTOM
 10
0.0
 20
0.0
 30
0.0
  9
$UCSORGLEFT
 10
0.0
 20
0.0
 30
0.0
  9
$UCSORGRIGHT
 10
0.0
 20
0.0
 30
0.0
  9
$UCSORGFRONT
 10
0.0
 20
0.0
 30
0.0
  9
$UCSORGBACK
 10
0.0
 20
0.0
 30
0.0
  9
$PUCSBASE
  2

  9
$PUCSNAME
  2

  9
$PUCSORG
 10
0.0
 20
0.0
 30
0.0
  9
$PUCSXDIR
 10
1.0
 20
0.0
 30
0.0
  9
$PUCSYDIR
 10
0.0
 20
1.0
 30
0.0
  9
$PUCSORTHOREF
  2

  9
$PUCSORTHOVIEW
 70
     0
  9
$PUCSORGTOP
 10
0.0
 20
0.0
 30
0.0
  9
$PUCSORGBOTTOM
 10
0.0
 20
0.0
 30
0.0
  9
$PUCSORGLEFT
 10
0.0
 20
0.0
 30
0.0
  9
$PUCSORGRIGHT
 10
0.0
 20
0.0
 30
0.0
  9
$PUCSORGFRONT
 10
0.0
 20
0.0
 30
0.0
  9
$PUCSORGBACK
 10
0.0
 20
0.0
 30
0.0
  9
$USERI1
 70
     0
  9
$USERI2
 70
     0
  9
$USERI3
 70
     0
  9
$USERI4
 70
     0
  9
$USERI5
 70
     0
  9
$USERR1
 40
0.0
  9
$USERR2
 40
0.0
  9
$USERR3
 40
0.0
  9
$USERR4
 40
0.0
  9
$USERR5
 40
0.0
  9
$WORLDVIEW
 70
     1
  9
$SHADEDGE
 70
     3
  9
$SHADEDIF
 70
    70
  9
$TILEMODE
 70
     1
  9
$MAXACTVP
 70
    64
  9
$PINSBASE
 10
0.0
 20
0.0
 30
0.0
  9
$PLIMCHECK
 70
     0
  9
$PEXTMIN
 10
0.0
 20
0.0
 30
0.0
  9
$PEXTMAX
 10
210.0
 20
297.0
 30
0.0
  9
$PLIMMIN
 10
0.0
 20
0.0
  9
$PLIMMAX
 10
210.0
 20
297.0
  9
$UNITMODE
 70
     0
  9
$VISRETAIN
 70
     1
  9
$PLINEGEN
 70
     0
  9
$PSLTSCALE
 70
     1
  9
$TREEDEPTH
 70
  3020
  9
$CMLSTYLE
  2
Standard
  9
$CMLJUST
 70
     0
  9
$CMLSCALE
 40
20.0
  9
$PROXYGRAPHICS
 70
     1
  9
$MEASUREMENT
 70
     1
  9
$CELWEIGHT
370
    -1
  9
$ENDCAPS
280
     0
  9
$JOINSTYLE
280
     0
  9
$LWDISPLAY
290
     0
  9
$INSUNITS
 70
     4
  9
$HYPERLINKBASE
  1

  9
$STYLESHEET
  1

  9
$XEDIT
290
     1
  9
$CEPSNTYPE
380
     0
  9
$PSTYLEMODE
290
     1
  9
$FINGERPRINTGUID
  2
{3FB4E8EC-7325-48B0-864A-32E33B5A7562}
  9
$VERSIONGUID
  2
{FAEB1C32-E019-11D5-929B-00C0DF256EC4}
  9
$EXTNAMES
290
     1
  9
$PSVPSCALE
 40
0.0
  9
$OLESTARTUP
290
     0
  0
ENDSEC
  0
SECTION
  2
CLASSES
  0
CLASS
  1
ACDBDICTIONARYWDFLT
  2
AcDbDictionaryWithDefault
  3
ObjectDBX Classes
 90
        0
280
     0
281
     0
  0
CLASS
  1
VISUALSTYLE
  2
AcDbVisualStyle
  3
ObjectDBX Classes
 90
     4095
280
     0
281
     0
  0
CLASS
  1
SCALE
  2
AcDbScale
  3
ObjectDBX Classes
 90
     1153
280
     0
281
     0
  0
CLASS
  1
DICTIONARYVAR
  2
AcDbDictionaryVar
  3
ObjectDBX Classes
 90
        0
280
     0
281
     0
  0
CLASS
  1
ACDBPLACEHOLDER
  2
AcDbPlaceHolder
  3
ObjectDBX Classes
 90
        0
280
     0
281
     0
  0
CLASS
  1
LAYOUT
  2
AcDbLayout
  3
ObjectDBX Classes
 90
        0
280
     0
281
     0
  0
ENDSEC
  0
SECTION
  2
TABLES
  0
TABLE
  2
VPORT
  5
8
330
0
100
AcDbSymbolTable
 70
     1
  0
VPORT
  5
29
330
8
100
AcDbSymbolTableRecord
100
AcDbViewportTableRecord
  2
*Active
 70
     0
 10
0.0
 20
0.0
 11
1.0
 21
1.0
 12
344.1869158879
 22
148.5
 13
0.0
 23
0.0
 14
10.0
 24
10.0
 15
10.0
 25
10.0
 16
0.0
 26
0.0
 36
1.0
 17
0.0
 27
0.0
 37
0.0
 40
297.0
 41
1.9729729729
 42
50.0
 43
0.0
 44
0.0
 50
0.0
 51
0.0
 71
     0
 72
   100
 73
     1
 74
     3
 75
     0
 76
     0
 77
     0
 78
     0
281
     0
 65
     1
110
0.0
120
0.0
130
0.0
111
1.0
121
0.0
131
0.0
112
0.0
122
1.0
132
0.0
 79
     0
146
0.0
  0
ENDTAB
  0
TABLE
  2
LTYPE
  5
5
330
0
100
AcDbSymbolTable
 70
     1
  0
LTYPE
  5
14
330
5
100
AcDbSymbolTableRecord
100
AcDbLinetypeTableRecord
  2
ByBlock
 70
     0
  3

 72
    65
 73
     0
 40
0.0
  0
LTYPE
  5
15
330
5
100
AcDbSymbolTableRecord
100
AcDbLinetypeTableRecord
  2
ByLayer
 70
     0
  3

 72
    65
 73
     0
 40
0.0
  0
LTYPE
  5
16
330
5
100
AcDbSymbolTableRecord
100
AcDbLinetypeTableRecord
  2
Continuous
 70
     0
  3
Solid line
 72
    65
 73
     0
 40
0.0
  0
ENDTAB
  0
TABLE
  2
LAYER
  5
2
330
0
100
AcDbSymbolTable
 70
    10
  0
LAYER
  5
10
330
2
100
AcDbSymbolTableRecord
100
AcDbLayerTableRecord
  2
0
 70
     0
 62
     7
  6
Continuous
370
    -3
390
F
  0
LAYER
  5
3B
330
2
100
AcDbSymbolTableRecord
100
AcDbLayerTableRecord
  2
encadrement
 70
     1
 62
    -7
  6
Continuous
370
    -3
390
F
  0
LAYER
  5
41
330
2
100
AcDbSymbolTableRecord
100
AcDbLayerTableRecord
  2
Défaut
 70
     0
 62
     7
  6
Continuous
370
    -3
390
F
  0
LAYER
  5
79
330
2
100
AcDbSymbolTableRecord
100
AcDbLayerTableRecord
  2
Cartouche
 70
     0
 62
     7
  6
Continuous
370
    -3
390
F
  0
LAYER
  5
87
330
2
100
AcDbSymbolTableRecord
100
AcDbLayerTableRecord
  2
E1395
 70
     0
 62
     7
  6
Continuous
370
    -3
390
F
  0
LAYER
  5
A3
330
2
100
AcDbSymbolTableRecord
100
AcDbLayerTableRecord
  2
E422_5
 70
     0
 62
     7
  6
Continuous
370
    -3
390
F
  0
LAYER
  5
A6
330
2
100
AcDbSymbolTableRecord
100
AcDbLayerTableRecord
  2
E428_5
 70
     0
 62
     7
  6
Continuous
370
    -3
390
F
  0
LAYER
  5
AA
330
2
100
AcDbSymbolTableRecord
100
AcDbLayerTableRecord
  2
K207
 70
     0
 62
     7
  6
Continuous
370
    -3
390
F
  0
LAYER
  5
AC
330
2
100
AcDbSymbolTableRecord
100
AcDbLayerTableRecord
  2
U111
 70
     0
 62
     7
  6
Continuous
370
    -3
390
F
  0
LAYER
  5
D9
330
2
100
AcDbSymbolTableRecord
100
AcDbLayerTableRecord
  2
E111
 70
     0
 62
     7
  6
Continuous
370
    -3
390
F
  0
ENDTAB
  0
TABLE
  2
STYLE
  5
3
330
0
100
AcDbSymbolTable
 70
     4
  0
STYLE
  5
11
330
3
100
AcDbSymbolTableRecord
100
AcDbTextStyleTableRecord
  2
Standard
 70
     0
 40
0.0
 41
1.0
 50
0.0
 71
     0
 42
2.5
  3
txt
  4

  0
STYLE
  5
66
330
3
100
AcDbSymbolTableRecord
100
AcDbTextStyleTableRecord
  2
SEACAD_arial_ttfB
 70
     0
 40
0.0
 41
1.0
 50
0.0
 71
     0
 42
0.2
  3
arial.ttf
  4

  0
STYLE
  5
80
330
3
100
AcDbSymbolTableRecord
100
AcDbTextStyleTableRecord
  2
SEACAD_semeca1_ttfB
 70
     0
 40
0.0
 41
1.0
 50
0.0
 71
     0
 42
0.2
  3
semeca1.ttf
  4

  0
STYLE
  5
19A
330
3
100
AcDbSymbolTableRecord
100
AcDbTextStyleTableRecord
  2
SEACAD_arial_ttf
 70
     0
 40
0.0
 41
1.0
 50
0.0
 71
     0
 42
0.2
  3
arial.ttf
  4

  0
ENDTAB
  0
TABLE
  2
VIEW
  5
6
330
0
100
AcDbSymbolTable
 70
     0
  0
ENDTAB
  0
TABLE
  2
UCS
  5
7
330
0
100
AcDbSymbolTable
 70
     0
  0
ENDTAB
  0
TABLE
  2
APPID
  5
9
330
0
100
AcDbSymbolTable
 70
     1
  0
APPID
  5
12
330
9
100
AcDbSymbolTableRecord
100
AcDbRegAppTableRecord
  2
ACAD
 70
     0
  0
ENDTAB
  0
TABLE
  2
DIMSTYLE
  5
A
330
0
100
AcDbSymbolTable
 70
     3
100
AcDbDimStyleTable
  0
DIMSTYLE
105
27
330
A
100
AcDbSymbolTableRecord
100
AcDbDimStyleTableRecord
  2
ISO-25
 70
     0
 41
2.5
 42
0.625
 43
3.75
 44
1.25
 73
     0
 74
     0
 77
     1
 78
     8
140
2.5
141
2.5
143
0.0393700787
147
0.625
171
     3
172
     1
271
     2
272
     2
274
     3
278
    44
283
     0
284
     8
340
11
  0
DIMSTYLE
105
188
330
A
100
AcDbSymbolTableRecord
100
AcDbDimStyleTableRecord
  2
Standard
 70
     0
277
     1
340
11
  0
DIMSTYLE
105
19B
102
{ACAD_REACTORS
330
19C
330
1A6
330
1B0
102
}
330
A
100
AcDbSymbolTableRecord
100
AcDbDimStyleTableRecord
  2
presto
 70
     0
 41
12.0
 42
2.4
 44
1.6
 73
     0
 74
     0
 77
     1
 78
     8
140
8.0
141
0.0
147
4.0
172
     1
173
     1
271
     2
272
     2
278
    44
284
     8
340
19A
343
195
344
195
  0
ENDTAB
  0
TABLE
  2
BLOCK_RECORD
  5
1
330
0
100
AcDbSymbolTable
 70
    15
  0
BLOCK_RECORD
  5
1F
330
1
100
AcDbSymbolTableRecord
100
AcDbBlockTableRecord
  2
*Model_Space
340
22
  0
BLOCK_RECORD
  5
1B
330
1
100
AcDbSymbolTableRecord
100
AcDbBlockTableRecord
  2
*Paper_Space
340
1E
  0
BLOCK_RECORD
  5
42
330
1
100
AcDbSymbolTableRecord
100
AcDbBlockTableRecord
  2
SEANNOT_GROUP
340
0
102
{BLKREFS
331
43
102
}
  0
BLOCK_RECORD
  5
6A
330
1
100
AcDbSymbolTableRecord
100
AcDbBlockTableRecord
  2
SEANNOT_GROUP1
340
0
102
{BLKREFS
331
6B
102
}
  0
BLOCK_RECORD
  5
6F
330
1
100
AcDbSymbolTableRecord
100
AcDbBlockTableRecord
  2
SEANNOT_GROUP2
340
0
102
{BLKREFS
331
70
102
}
  0
BLOCK_RECORD
  5
74
330
1
100
AcDbSymbolTableRecord
100
AcDbBlockTableRecord
  2
SEANNOT_GROUP3
340
0
102
{BLKREFS
331
75
102
}
  0
BLOCK_RECORD
  5
7A
330
1
100
AcDbSymbolTableRecord
100
AcDbBlockTableRecord
  2
SEANNOT_GROUP4
340
0
102
{BLKREFS
331
7B
102
}
  0
BLOCK_RECORD
  5
85
330
1
100
AcDbSymbolTableRecord
100
AcDbBlockTableRecord
  2
SE
340
0
102
{BLKREFS
331
86
102
}
  0
BLOCK_RECORD
  5
E8
330
1
100
AcDbSymbolTableRecord
100
AcDbBlockTableRecord
  2
SE1
340
0
102
{BLKREFS
331
E9
102
}
  0
BLOCK_RECORD
  5
189
330
1
100
AcDbSymbolTableRecord
100
AcDbBlockTableRecord
  2
_OBLIQUE
340
0
  0
BLOCK_RECORD
  5
18D
330
1
100
AcDbSymbolTableRecord
100
AcDbBlockTableRecord
  2
_DOT
340
0
  0
BLOCK_RECORD
  5
195
330
1
100
AcDbSymbolTableRecord
100
AcDbBlockTableRecord
  2
_SE_FILLED
340
0
  0
BLOCK_RECORD
  5
19D
330
1
100
AcDbSymbolTableRecord
100
AcDbBlockTableRecord
  2
DMBLK4
340
0
  0
BLOCK_RECORD
  5
1A7
330
1
100
AcDbSymbolTableRecord
100
AcDbBlockTableRecord
  2
DMBLK5
340
0
  0
BLOCK_RECORD
  5
1B1
330
1
100
AcDbSymbolTableRecord
100
AcDbBlockTableRecord
  2
DMBLK6
340
0
  0
BLOCK_RECORD
  5
1BA
330
1
100
AcDbSymbolTableRecord
100
AcDbBlockTableRecord
  2
GDimGGroup
340
0
102
{BLKREFS
331
1BB
102
}
  0
ENDTAB
  0
ENDSEC
  0
SECTION
  2
BLOCKS
  0
BLOCK
  5
20
330
1F
100
AcDbEntity
  8
0
100
AcDbBlockBegin
  2
*Model_Space
 70
     0
 10
0.0
 20
0.0
 30
0.0
  3
*Model_Space
  1

  0
ENDBLK
  5
21
330
1F
100
AcDbEntity
  8
0
100
AcDbBlockEnd
  0
BLOCK
  5
1C
330
1B
100
AcDbEntity
 67
     1
  8
0
100
AcDbBlockBegin
  2
*Paper_Space
 70
     0
 10
0.0
 20
0.0
 30
0.0
  3
*Paper_Space
  1

  0
ENDBLK
  5
1D
330
1B
100
AcDbEntity
 67
     1
  8
0
100
AcDbBlockEnd
  0
BLOCK
  5
68
330
42
100
AcDbEntity
  8
0
100
AcDbBlockBegin
  2
SEANNOT_GROUP
 70
     0
 10
0.0
 20
0.0
 30
0.0
  3
SEANNOT_GROUP
  1

  0
TEXT
  5
67
330
42
100
AcDbEntity
  8
Défaut
  6
Continuous
 62
     7
100
AcDbText
 10
40.4973880795
 20
26.658892213
 30
0.0
 40
3.0
  1
P50 mural alim. par le bas 20 à 35 " NF
  7
SEACAD_arial_ttfB
 11
40.4973880795
 21
29.658892213
 31
0.0
100
AcDbText
 73
     3
  0
ENDBLK
  5
69
330
42
100
AcDbEntity
  8
0
100
AcDbBlockEnd
  0
BLOCK
  5
6D
330
6A
100
AcDbEntity
  8
0
100
AcDbBlockBegin
  2
SEANNOT_GROUP1
 70
     0
 10
0.0
 20
0.0
 30
0.0
  3
SEANNOT_GROUP1
  1

  0
TEXT
  5
6C
330
6A
100
AcDbEntity
  8
Défaut
  6
Continuous
 62
     7
100
AcDbText
 10
19.3291911396
 20
25.658892213
 30
0.0
 40
5.0
  1
38022
  7
SEACAD_arial_ttfB
 11
19.3291911396
 21
30.658892213
 31
0.0
100
AcDbText
 73
     3
  0
ENDBLK
  5
6E
330
6A
100
AcDbEntity
  8
0
100
AcDbBlockEnd
  0
BLOCK
  5
72
330
6F
100
AcDbEntity
  8
0
100
AcDbBlockBegin
  2
SEANNOT_GROUP2
 70
     0
 10
0.0
 20
0.0
 30
0.0
  3
SEANNOT_GROUP2
  1

  0
TEXT
  5
71
330
6F
100
AcDbEntity
  8
Défaut
  6
Continuous
 62
     7
100
AcDbText
 10
19.7071946564
 20
12.6727620919
 30
0.0
 40
3.0
  1
\\Srvnt3\Recherche\Std presto\Std\_DOC\38022c\38022.asm
  7
SEACAD_arial_ttfB
 11
19.7071946564
 21
15.6727620919
 31
0.0
100
AcDbText
 73
     3
  0
ENDBLK
  5
73
330
6F
100
AcDbEntity
  8
0
100
AcDbBlockEnd
  0
BLOCK
  5
77
330
74
100
AcDbEntity
  8
0
100
AcDbBlockBegin
  2
SEANNOT_GROUP3
 70
     0
 10
0.0
 20
0.0
 30
0.0
  3
SEANNOT_GROUP3
  1

  0
TEXT
  5
76
330
74
100
AcDbEntity
  8
Défaut
  6
Continuous
 62
     7
100
AcDbText
 10
20.0851981732
 20
19.0988218773
 30
0.0
 40
3.0
  1
\\Srvnt3\Recherche\Std presto\Std\_DOC\38022c\38022_C_0.dft
  7
SEACAD_arial_ttfB
 11
20.0851981732
 21
22.0988218773
 31
0.0
100
AcDbText
 73
     3
  0
ENDBLK
  5
78
330
74
100
AcDbEntity
  8
0
100
AcDbBlockEnd
  0
BLOCK
  5
83
330
7A
100
AcDbEntity
  8
0
100
AcDbBlockBegin
  2
SEANNOT_GROUP4
 70
     0
 10
0.0
 20
0.0
 30
0.0
  3
SEANNOT_GROUP4
  1

  0
LWPOLYLINE
  5
7C
330
7A
100
AcDbEntity
  8
Cartouche
  6
Continuous
 62
     7
100
AcDbPolyline
 90
        2
 70
     0
 43
0.0
 10
78.6807104695
 20
102.873508738
 10
78.6807104695
 20
121.8411904409
  0
HATCH
  5
7D
330
7A
100
AcDbEntity
  8
Cartouche
  6
Continuous
 62
     7
100
AcDbHatch
 10
0.0
 20
0.0
 30
0.0
210
0.0
220
0.0
230
1.0
  2
SOLID
 70
     1
 71
     0
 91
        1
 92
        1
 93
        3
 72
     1
 10
80.68071048683515
 20
109.8411903366143
 11
78.68071046945046
 21
121.8411904409224
 72
     1
 10
78.68071046945046
 20
121.8411904409224
 11
76.68071045206577
 21
109.8411903366143
 72
     1
 10
76.68071045206577
 20
109.8411903366143
 11
80.68071048683515
 21
109.8411903366143
 97
        0
 75
     0
 76
     1
 98
        0
  0
LINE
  5
7E
330
7A
100
AcDbEntity
  8
Cartouche
  6
Continuous
 62
     7
100
AcDbLine
 10
78.6807104695
 20
102.873508738
 30
0.0
 11
91.7982473842
 21
102.873508738
 31
0.0
  0
TEXT
  5
7F
330
7A
100
AcDbEntity
  8
Cartouche
  6
Continuous
 62
     7
100
AcDbText
 10
94.5982473842
 20
98.873508738
 30
0.0
 40
8.0
  1
G3/4"
  7
SEACAD_arial_ttfB
 11
94.5982473842
 21
106.873508738
 31
0.0
100
AcDbText
 73
     3
  0
TEXT
  5
81
330
7A
100
AcDbEntity
  8
Cartouche
  6
Continuous
 62
     7
100
AcDbText
 10
122.9460734711
 20
98.873508738
 30
0.0
 40
8.0
  1
O
  7
SEACAD_semeca1_ttfB
 11
122.9460734711
 21
106.873508738
 31
0.0
100
AcDbText
 73
     3
  0
TEXT
  5
82
330
7A
100
AcDbEntity
  8
Cartouche
  6
Continuous
 62
     7
100
AcDbText
 10
132.0688804887
 20
98.873508738
 30
0.0
 40
8.0
  1
16
  7
SEACAD_arial_ttfB
 11
132.0688804887
 21
106.873508738
 31
0.0
100
AcDbText
 73
     3
  0
ENDBLK
  5
84
330
7A
100
AcDbEntity
  8
0
100
AcDbBlockEnd
  0
BLOCK
  5
E6
330
85
100
AcDbEntity
  8
0
100
AcDbBlockBegin
  2
SE
 70
     0
 10
0.0
 20
0.0
 30
0.0
  3
SE
  1

  0
LINE
  5
88
330
85
100
AcDbEntity
  8
E1395
  6
Continuous
 62
     7
100
AcDbLine
 10
169.697711878
 20
137.5722793542
 30
0.0
 11
165.6144526812
 21
137.5722793542
 31
0.0
  0
LINE
  5
89
330
85
100
AcDbEntity
  8
E1395
  6
Continuous
 62
     7
100
AcDbLine
 10
155.9060822796
 20
137.5722793542
 30
0.0
 11
165.6144526812
 21
137.5722793542
 31
0.0
  0
LINE
  5
8A
330
85
100
AcDbEntity
  8
E1395
  6
Continuous
 62
     7
100
AcDbLine
 10
169.697711878
 20
137.5722793542
 30
0.0
 11
179.4060822796
 21
137.5722793542
 31
0.0
  0
SPLINE
  5
8B
330
85
100
AcDbEntity
  8
E1395
  6
Continuous
 62
     7
100
AcDbSpline
210
0.0
220
0.0
230
1.0
 70
     8
 71
     3
 72
    14
 73
    10
 74
     0
 42
0.0000000002049786
 43
0.0000000001
 40
0.0
 40
0.0
 40
0.0
 40
0.0
 40
0.0624999999999999
 40
0.0624999999999999
 40
0.1249999999999999
 40
0.1249999999999999
 40
0.1874999999999998
 40
0.1874999999999998
 40
0.2372355452261327
 40
0.2372355452261327
 40
0.2372355452261327
 40
0.2372355452261327
 10
165.6144526811592
 20
137.5722793541679
 30
0.0
 10
164.1072164706547
 20
137.7919977186999
 30
0.0
 10
162.7123413711497
 20
138.2470330971393
 30
0.0
 10
160.2985823317404
 20
139.3717118837036
 30
0.0
 10
159.2551563858646
 20
140.0495754935048
 30
0.0
 10
157.5597185494483
 20
141.3714002595023
 30
0.0
 10
156.8871442678925
 20
142.0321565595468
 30
0.0
 10
156.1049861150384
 20
142.9082140373141
 30
0.0
 10
155.9110890833497
 20
143.178279684698
 30
0.0
 10
155.9071646102531
 20
143.2547238646552
 30
0.0
  0
SPLINE
  5
8C
330
85
100
AcDbEntity
  8
E1395
  6
Continuous
 62
     7
100
AcDbSpline
210
0.0
220
0.0
230
1.0
 70
     8
 71
     3
 72
    14
 73
    10
 74
     0
 42
0.0000000002058964
 43
0.0000000001
 40
0.7616333375946284
 40
0.7616333375946284
 40
0.7616333375946284
 40
0.7616333375946284
 40
0.8124999999999999
 40
0.8124999999999999
 40
0.8749999999999999
 40
0.8749999999999999
 40
0.9375
 40
0.9375
 40
1.0
 40
1.0
 40
1.0
 40
1.0
 10
179.4055116784425
 20
143.2569563664778
 30
0.0
 10
179.4051768024325
 20
143.1825339232425
 30
0.0
 10
179.2054443981594
 20
142.9048812933752
 30
0.0
 10
178.4090015058553
 20
142.0159785366469
 30
0.0
 10
177.7333701030096
 20
141.3545998140814
 30
0.0
 10
176.0387887929459
 20
140.0373421154944
 30
0.0
 10
174.9916084936955
 20
139.359886173553
 30
0.0
 10
172.5910703512645
 20
138.2445623677081
 30
0.0
 10
171.1885187507125
 20
137.7896027210251
 30
0.0
 10
169.6977118779987
 20
137.5722793541679
 30
0.0
  0
ELLIPSE
  5
8D
330
85
100
AcDbEntity
  8
E1395
  6
Continuous
 62
     7
100
AcDbEllipse
 10
165.0063076944
 20
137.5722793542
 30
0.0
 11
-0.3906598779174601
 21
-3.478129505896169
 31
0.0
210
0.0
220
0.0
230
1.0
 40
0.1727024435
 41
1.590191652690691
 42
2.864166685471385
  0
ELLIPSE
  5
8E
330
85
100
AcDbEntity
  8
E1395
  6
Continuous
 62
     7
100
AcDbEllipse
 10
170.3058568648
 20
137.5722793542
 30
0.0
 11
0.3906598779226682
 21
-3.478129505895544
 31
0.0
210
0.0
220
0.0
230
1.0
 40
0.1727024435
 41
3.419018621708346
 42
4.692993654489508
  0
LINE
  5
8F
330
85
100
AcDbEntity
  8
E1395
  6
Continuous
 62
     7
100
AcDbLine
 10
169.697711878
 20
187.5101015277
 30
0.0
 11
165.6144526812
 21
187.5101015277
 31
0.0
  0
LINE
  5
90
330
85
100
AcDbEntity
  8
E1395
  6
Continuous
 62
     7
100
AcDbLine
 10
155.9060822796
 20
187.5101015277
 30
0.0
 11
165.6144526812
 21
187.5101015277
 31
0.0
  0
LINE
  5
91
330
85
100
AcDbEntity
  8
E1395
  6
Continuous
 62
     7
100
AcDbLine
 10
169.697711878
 20
187.5101015277
 30
0.0
 11
179.4060822796
 21
187.5101015277
 31
0.0
  0
SPLINE
  5
92
330
85
100
AcDbEntity
  8
E1395
  6
Continuous
 62
     7
100
AcDbSpline
210
0.0
220
0.0
230
1.0
 70
     8
 71
     3
 72
    14
 73
    10
 74
     0
 42
0.0000000002054716
 43
0.0000000001
 40
0.0
 40
0.0
 40
0.0
 40
0.0
 40
0.0625
 40
0.0625
 40
0.125
 40
0.125
 40
0.1875000000000001
 40
0.1875000000000001
 40
0.2378354017464251
 40
0.2378354017464251
 40
0.2378354017464251
 40
0.2378354017464251
 10
169.6977118779834
 20
187.5101015276769
 30
0.0
 10
171.1964489154484
 20
187.2916221357642
 30
0.0
 10
172.5920688154868
 20
186.8379567574661
 30
0.0
 10
175.0021783604646
 20
185.7169787585802
 30
0.0
 10
176.046645680372
 20
185.0398604274523
 30
0.0
 10
177.7433736536824
 20
183.7190660304073
 30
0.0
 10
178.4156279349521
 20
183.0597834500975
 30
0.0
 10
179.2065904972802
 20
182.1755857254496
 30
0.0
 10
179.4026738734066
 20
181.9019301810586
 30
0.0
 10
179.404943067613
 20
181.8265364818056
 30
0.0
  0
SPLINE
  5
93
330
85
100
AcDbEntity
  8
E1395
  6
Continuous
 62
     7
100
AcDbSpline
210
0.0
220
0.0
230
1.0
 70
     8
 71
     3
 72
    14
 73
    10
 74
     0
 42
0.0000000002060098
 43
0.0000000001
 40
0.7615237198502829
 40
0.7615237198502829
 40
0.7615237198502829
 40
0.7615237198502829
 40
0.8125000000000001
 40
0.8125000000000001
 40
0.8750000000000001
 40
0.8750000000000001
 40
0.9375000000000001
 40
0.9375000000000001
 40
1.0
 40
1.0
 40
1.0
 40
1.0
 10
155.9068013018306
 20
181.8260630214147
 30
0.0
 10
155.908432965805
 20
181.9015874023149
 30
0.0
 10
156.1084424373513
 20
182.1797740084176
 30
0.0
 10
156.9071147251722
 20
183.0703774913604
 30
0.0
 10
157.581291324164
 20
183.730041017376
 30
0.0
 10
159.2770012811386
 20
185.0475368064257
 30
0.0
 10
160.319926231212
 20
185.7222330417554
 30
0.0
 10
162.7223195896075
 20
186.838356872755
 30
0.0
 10
164.1194030051012
 20
187.2921596633373
 30
0.0
 10
165.6144526811594
 20
187.5101015276769
 30
0.0
  0
ELLIPSE
  5
94
330
85
100
AcDbEntity
  8
E1395
  6
Continuous
 62
     7
100
AcDbEllipse
 10
170.3058568647
 20
187.5101015277
 30
0.0
 11
0.3906598779197252
 21
3.478129505895867
 31
0.0
210
0.0
220
0.0
230
1.0
 40
0.1727024435
 41
1.590191652690424
 42
2.864166685471325
  0
ELLIPSE
  5
95
330
85
100
AcDbEntity
  8
E1395
  6
Continuous
 62
     7
100
AcDbEllipse
 10
165.0063076944
 20
187.5101015277
 30
0.0
 11
-0.3906598779174029
 21
3.478129505896162
 31
0.0
210
0.0
220
0.0
230
0.9999999999999998
 40
0.1727024435
 41
3.419018621708172
 42
4.692993654488884
  0
CIRCLE
  5
96
330
85
100
AcDbEntity
  8
E1395
  6
Continuous
 62
     7
100
AcDbCircle
 10
167.6560822796
 20
162.5411904409
 30
0.0
 40
21.74481938598975
  0
LINE
  5
97
330
85
100
AcDbEntity
  8
E1395
  6
Continuous
 62
     7
100
AcDbLine
 10
179.4060822796
 20
137.5722793542
 30
0.0
 11
179.4060822796
 21
143.254330081
 31
0.0
  0
LINE
  5
98
330
85
100
AcDbEntity
  8
E1395
  6
Continuous
 62
     7
100
AcDbLine
 10
155.9060822796
 20
143.2534171639
 30
0.0
 11
155.9060822796
 21
137.5722793542
 31
0.0
  0
ARC
  5
99
330
85
100
AcDbEntity
  8
E1395
  6
Continuous
 62
     7
100
AcDbCircle
 10
182.9060822796
 20
137.5722793542
 30
0.0
 40
3.5
100
AcDbArc
 50
180.0
 51
231.2890699108
  0
ARC
  5
9A
330
85
100
AcDbEntity
  8
E1395
  6
Continuous
 62
     7
100
AcDbCircle
 10
152.4060822796
 20
137.5722793542
 30
0.0
 40
3.500000000000001
100
AcDbArc
 50
308.7109300892
 51
0.0
  0
SPLINE
  5
9B
330
85
100
AcDbEntity
  8
E1395
  6
Continuous
 62
     7
100
AcDbSpline
210
0.0
220
0.0
230
1.0
 70
     8
 71
     3
 72
    11
 73
     7
 74
     0
 42
0.0000000004752832
 43
0.0000000001
 40
0.9443152428012629
 40
0.9443152428012629
 40
0.9443152428012629
 40
0.9443152428012629
 40
0.956659405475588
 40
0.9718899719859655
 40
0.9878257705494826
 40
1.0
 40
1.0
 40
1.0
 40
1.0
 10
155.7116328194173
 20
144.4010817635372
 30
0.0
 10
155.7391583163894
 20
144.3228141281766
 30
0.0
 10
155.7953839275251
 20
144.142524355557
 30
0.0
 10
155.8607229720373
 20
143.8470278124855
 30
0.0
 10
155.9014533559387
 20
143.5352174848184
 30
0.0
 10
155.9028768019533
 20
143.3482362151792
 30
0.0
 10
155.903091501963
 20
143.252524761404
 30
0.0
  0
SPLINE
  5
9C
330
85
100
AcDbEntity
  8
E1395
  6
Continuous
 62
     7
100
AcDbSpline
210
0.0
220
0.0
230
1.0
 70
     8
 71
     3
 72
    11
 73
     7
 74
     0
 42
0.0000000004764432
 43
0.0000000001
 40
0.0
 40
0.0
 40
0.0
 40
0.0
 40
0.0126668155861325
 40
0.0274621225565602
 40
0.0416338835060578
 40
0.0544192539032001
 40
0.0544192539032001
 40
0.0544192539032001
 40
0.0544192539032001
 10
179.4081616399853
 20
143.2548464747503
 30
0.0
 10
179.4090447758291
 20
143.3542707906322
 30
0.0
 10
179.4116591341317
 20
143.5363502659499
 30
0.0
 10
179.449991163367
 20
143.8348941642354
 30
0.0
 10
179.510609220593
 20
144.1182505041986
 30
0.0
 10
179.5638359512555
 20
144.2946372876907
 30
0.0
 10
179.5916130895123
 20
144.375675500687
 30
0.0
  0
LINE
  5
9D
330
85
100
AcDbEntity
  8
E1395
  6
Continuous
 62
     7
100
AcDbLine
 10
179.4060822796
 20
181.8289073014
 30
0.0
 11
179.4060822796
 21
187.5101015277
 31
0.0
  0
LINE
  5
9E
330
85
100
AcDbEntity
  8
E1395
  6
Continuous
 62
     7
100
AcDbLine
 10
155.9060822796
 20
187.5101015277
 30
0.0
 11
155.9060822796
 21
181.8299309801
 31
0.0
  0
ARC
  5
9F
330
85
100
AcDbEntity
  8
E1395
  6
Continuous
 62
     7
100
AcDbCircle
 10
182.9060822796
 20
187.5101015277
 30
0.0
 40
3.499999999999998
100
AcDbArc
 50
144.527571998
 51
180.0
  0
ARC
  5
A0
330
85
100
AcDbEntity
  8
E1395
  6
Continuous
 62
     7
100
AcDbCircle
 10
152.4060822796
 20
187.5101015277
 30
0.0
 40
3.5
100
AcDbArc
 50
0.0
 51
35.472428002
  0
SPLINE
  5
A1
330
85
100
AcDbEntity
  8
E1395
  6
Continuous
 62
     7
100
AcDbSpline
210
0.0
220
0.0
230
1.0
 70
     8
 71
     3
 72
    12
 73
     8
 74
     0
 42
0.0000000004761978
 43
0.0000000001
 40
0.9457355575093986
 40
0.9457355575093986
 40
0.9457355575093986
 40
0.9457355575093986
 40
0.9527301886915289
 40
0.9678295849141639
 40
0.9836786563102764
 40
0.999983680630515
 40
1.0
 40
1.0
 40
1.0
 40
1.0
 10
179.5891143098708
 20
180.7111874205655
 30
0.0
 10
179.5738693242595
 20
180.7556079787416
 30
0.0
 10
179.5280976573663
 20
180.8983089107973
 30
0.0
 10
179.4637410594104
 20
181.1543487726503
 30
0.0
 10
179.4171226171955
 20
181.4806981547579
 30
0.0
 10
179.397161887592
 20
181.7178881242973
 30
0.0
 10
179.4027737693947
 20
181.8286329185414
 30
0.0
 10
179.402780267683
 20
181.8287611394773
 30
0.0
  0
SPLINE
  5
A2
330
85
100
AcDbEntity
  8
E1395
  6
Continuous
 62
     7
100
AcDbSpline
210
0.0
220
0.0
230
1.0
 70
     8
 71
     3
 72
    12
 73
     8
 74
     0
 42
0.0000000004765436
 43
0.0000000001
 40
0.0
 40
0.0
 40
0.0
 40
0.0
 40
0.0063775167988081
 40
0.0215606941984947
 40
0.0361921268384059
 40
0.0501293505876945
 40
0.0557293265944999
 40
0.0557293265944999
 40
0.0557293265944999
 40
0.0557293265944999
 10
155.9050269854372
 20
181.8298376716724
 30
0.0
 10
155.9061637075258
 20
181.7797179065362
 30
0.0
 10
155.9090157157459
 20
181.6353700873541
 30
0.0
 10
155.8825509751953
 20
181.3724880383267
 30
0.0
 10
155.8294515534232
 20
181.0720568820575
 30
0.0
 10
155.7674447704974
 20
180.8440514613814
 30
0.0
 10
155.7255963434029
 20
180.7189913656218
 30
0.0
 10
155.7131268130843
 20
180.6836474856015
 30
0.0
  0
CIRCLE
  5
A4
330
85
100
AcDbEntity
  8
E422_5
  6
Continuous
 62
     7
100
AcDbCircle
 10
167.6560822796
 20
162.5411904409
 30
0.0
 40
20.0
  0
CIRCLE
  5
A5
330
85
100
AcDbEntity
  8
E422_5
  6
Continuous
 62
     7
100
AcDbCircle
 10
167.6560822796
 20
162.5411904409
 30
0.0
 40
19.0
  0
CIRCLE
  5
A7
330
85
100
AcDbEntity
  8
E428_5
  6
Continuous
 62
     7
100
AcDbCircle
 10
167.6560822796
 20
162.5411904409
 30
0.0
 40
1.549999999999998
  0
CIRCLE
  5
A8
330
85
100
AcDbEntity
  8
E428_5
  6
Continuous
 62
     7
100
AcDbCircle
 10
167.6560822796
 20
162.5411904409
 30
0.0
 40
17.37777777777778
  0
CIRCLE
  5
A9
330
85
100
AcDbEntity
  8
E428_5
  6
Continuous
 62
     7
100
AcDbCircle
 10
167.6560822796
 20
162.5411904409
 30
0.0
 40
18.0
  0
CIRCLE
  5
AB
330
85
100
AcDbEntity
  8
K207
  6
Continuous
 62
     7
100
AcDbCircle
 10
167.6560822796
 20
162.5411904409
 30
0.0
 40
1.500000000000007
  0
LINE
  5
AD
330
85
100
AcDbEntity
  8
U111
  6
Continuous
 62
     7
100
AcDbLine
 10
182.4329887398
 20
202.5411904409
 30
0.0
 11
182.8203625989
 21
202.5411904409
 31
0.0
  0
LINE
  5
AE
330
85
100
AcDbEntity
  8
U111
  6
Continuous
 62
     7
100
AcDbLine
 10
177.9939125291
 20
202.5411904409
 30
0.0
 11
172.0951584903
 21
202.5411904409
 31
0.0
  0
LINE
  5
AF
330
85
100
AcDbEntity
  8
U111
  6
Continuous
 62
     7
100
AcDbLine
 10
163.2170060688
 20
202.5411904409
 30
0.0
 11
157.3182520301
 21
202.5411904409
 31
0.0
  0
LINE
  5
B0
330
85
100
AcDbEntity
  8
U111
  6
Continuous
 62
     7
100
AcDbLine
 10
152.8791758193
 20
202.5411904409
 30
0.0
 11
152.4918019602
 21
202.5411904409
 31
0.0
  0
LINE
  5
B1
330
85
100
AcDbEntity
  8
U111
  6
Continuous
 62
     7
100
AcDbLine
 10
182.4329887398
 20
189.5411904409
 30
0.0
 11
182.8203625989
 21
189.5411904409
 31
0.0
  0
LINE
  5
B2
330
85
100
AcDbEntity
  8
U111
  6
Continuous
 62
     7
100
AcDbLine
 10
177.9939125291
 20
189.5411904409
 30
0.0
 11
172.0951584903
 21
189.5411904409
 31
0.0
  0
LINE
  5
B3
330
85
100
AcDbEntity
  8
U111
  6
Continuous
 62
     7
100
AcDbLine
 10
163.2170060688
 20
189.5411904409
 30
0.0
 11
157.3182520301
 21
189.5411904409
 31
0.0
  0
LINE
  5
B4
330
85
100
AcDbEntity
  8
U111
  6
Continuous
 62
     7
100
AcDbLine
 10
152.8791758193
 20
189.5411904409
 30
0.0
 11
152.4918019602
 21
189.5411904409
 31
0.0
  0
LINE
  5
B5
330
85
100
AcDbEntity
  8
U111
  6
Continuous
 62
     7
100
AcDbLine
 10
177.9939125291
 20
202.5411904409
 30
0.0
 11
182.4329887398
 21
202.5411904409
 31
0.0
  0
ARC
  5
B6
330
85
100
AcDbEntity
  8
U111
  6
Continuous
 62
     7
100
AcDbCircle
 10
191.6520167895
 20
196.0411904409
 30
0.0
 40
15.12593177260882
100
AcDbArc
 50
154.5498531549
 51
205.4501468451
  0
LINE
  5
B7
330
85
100
AcDbEntity
  8
U111
  6
Continuous
 62
     7
100
AcDbLine
 10
163.2170060688
 20
202.5411904409
 30
0.0
 11
172.0951584903
 21
202.5411904409
 31
0.0
  0
SPLINE
  5
B8
330
85
100
AcDbEntity
  8
U111
  6
Continuous
 62
     7
100
AcDbSpline
210
0.0
220
0.0
230
1.0
 70
     8
 71
     3
 72
    12
 73
     8
 74
     0
 42
0.0000000006680711
 43
0.0000000001
 40
0.0
 40
0.0
 40
0.0
 40
0.0
 40
0.5000000000000001
 40
0.5000000000000001
 40
0.7500000000000002
 40
0.7500000000000002
 40
1.0
 40
1.0
 40
1.0
 40
1.0
 10
163.2170060688356
 20
202.5411904409224
 30
0.0
 10
161.333345021962
 20
200.9366523975977
 30
0.0
 10
160.3194757587056
 20
198.4760448525714
 30
0.0
 10
160.3208359132031
 20
194.8187266644011
 30
0.0
 10
160.5711163805076
 20
193.5924619568503
 30
0.0
 10
161.5530960022732
 20
191.3512712408197
 30
0.0
 10
162.2749071166608
 20
190.3436881152517
 30
0.0
 10
163.2170060688355
 20
189.5411904409224
 30
0.0
  0
LINE
  5
B9
330
85
100
AcDbEntity
  8
U111
  6
Continuous
 62
     7
100
AcDbLine
 10
152.8791758193
 20
202.5411904409
 30
0.0
 11
157.3182520301
 21
202.5411904409
 31
0.0
  0
ARC
  5
BA
330
85
100
AcDbEntity
  8
U111
  6
Continuous
 62
     7
100
AcDbCircle
 10
166.5369804687
 20
196.0411904409
 30
0.0
 40
15.12566123647076
100
AcDbArc
 50
154.5493654497
 51
205.4506345503
  0
ARC
  5
BB
330
85
100
AcDbEntity
  8
U111
  6
Continuous
 62
     7
100
AcDbCircle
 10
168.77550402
 20
196.0411904409
 30
0.0
 40
15.12537235481417
100
AcDbArc
 50
334.548844651
 51
25.451155349
  0
SPLINE
  5
BC
330
85
100
AcDbEntity
  8
U111
  6
Continuous
 62
     7
100
AcDbSpline
210
0.0
220
0.0
230
1.0
 70
     8
 71
     3
 72
    12
 73
     8
 74
     0
 42
0.0000000006680711
 43
0.0000000001
 40
0.0
 40
0.0
 40
0.0
 40
0.0
 40
0.5
 40
0.5
 40
0.75
 40
0.75
 40
1.0
 40
1.0
 40
1.0
 40
1.0
 10
172.0951584902952
 20
189.5411904409224
 30
0.0
 10
173.9788195371687
 20
191.1457284842471
 30
0.0
 10
174.9926888004252
 20
193.6063360292734
 30
0.0
 10
174.9913286459276
 20
197.2636542174437
 30
0.0
 10
174.7410481786231
 20
198.4899189249945
 30
0.0
 10
173.7590685568574
 20
200.7311096410251
 30
0.0
 10
173.0372574424698
 20
201.7386927665931
 30
0.0
 10
172.0951584902952
 20
202.5411904409224
 30
0.0
  0
ARC
  5
BD
330
85
100
AcDbEntity
  8
U111
  6
Continuous
 62
     7
100
AcDbCircle
 10
143.6604473807
 20
196.0411904409
 30
0.0
 40
15.12566123647072
100
AcDbArc
 50
334.5493654497
 51
25.4506345503
  0
LINE
  5
BE
330
85
100
AcDbEntity
  8
U111
  6
Continuous
 62
     7
100
AcDbLine
 10
152.8791758193
 20
189.5411904409
 30
0.0
 11
157.3182520301
 21
189.5411904409
 31
0.0
  0
LINE
  5
BF
330
85
100
AcDbEntity
  8
U111
  6
Continuous
 62
     7
100
AcDbLine
 10
163.2170060688
 20
189.5411904409
 30
0.0
 11
172.0951584903
 21
189.5411904409
 31
0.0
  0
LINE
  5
C0
330
85
100
AcDbEntity
  8
U111
  6
Continuous
 62
     7
100
AcDbLine
 10
177.9939125291
 20
189.5411904409
 30
0.0
 11
182.4329887398
 21
189.5411904409
 31
0.0
  0
ARC
  5
C1
330
85
100
AcDbEntity
  8
U111
  6
Continuous
 62
     7
100
AcDbCircle
 10
163.9060822796
 20
196.0411904409
 30
0.0
 40
20.0
100
AcDbArc
 50
341.0344250112
 51
18.9655749888
  0
ARC
  5
C2
330
85
100
AcDbEntity
  8
U111
  6
Continuous
 62
     7
100
AcDbCircle
 10
171.4060822796
 20
196.0411904409
 30
0.0
 40
20.0
100
AcDbArc
 50
161.0344250112
 51
198.9655749888
  0
LINE
  5
C3
330
85
100
AcDbEntity
  8
U111
  6
Continuous
 62
     7
100
AcDbLine
 10
152.4918019602
 20
121.8411904409
 30
0.0
 11
152.8791758193
 21
121.8411904409
 31
0.0
  0
LINE
  5
C4
330
85
100
AcDbEntity
  8
U111
  6
Continuous
 62
     7
100
AcDbLine
 10
157.3182520301
 20
121.8411904409
 30
0.0
 11
163.2170060688
 21
121.8411904409
 31
0.0
  0
LINE
  5
C5
330
85
100
AcDbEntity
  8
U111
  6
Continuous
 62
     7
100
AcDbLine
 10
172.0951584903
 20
121.8411904409
 30
0.0
 11
177.9939125291
 21
121.8411904409
 31
0.0
  0
LINE
  5
C6
330
85
100
AcDbEntity
  8
U111
  6
Continuous
 62
     7
100
AcDbLine
 10
182.8203625989
 20
121.8411904409
 30
0.0
 11
182.4329887398
 21
121.8411904409
 31
0.0
  0
LINE
  5
C7
330
85
100
AcDbEntity
  8
U111
  6
Continuous
 62
     7
100
AcDbLine
 10
152.4918019602
 20
134.8411904409
 30
0.0
 11
152.8791758193
 21
134.8411904409
 31
0.0
  0
LINE
  5
C8
330
85
100
AcDbEntity
  8
U111
  6
Continuous
 62
     7
100
AcDbLine
 10
157.3182520301
 20
134.8411904409
 30
0.0
 11
163.2170060688
 21
134.8411904409
 31
0.0
  0
LINE
  5
C9
330
85
100
AcDbEntity
  8
U111
  6
Continuous
 62
     7
100
AcDbLine
 10
172.0951584903
 20
134.8411904409
 30
0.0
 11
177.9939125291
 21
134.8411904409
 31
0.0
  0
LINE
  5
CA
330
85
100
AcDbEntity
  8
U111
  6
Continuous
 62
     7
100
AcDbLine
 10
182.8203625989
 20
134.8411904409
 30
0.0
 11
182.4329887398
 21
134.8411904409
 31
0.0
  0
LINE
  5
CB
330
85
100
AcDbEntity
  8
U111
  6
Continuous
 62
     7
100
AcDbLine
 10
157.3182520301
 20
121.8411904409
 30
0.0
 11
152.8791758193
 21
121.8411904409
 31
0.0
  0
ARC
  5
CC
330
85
100
AcDbEntity
  8
U111
  6
Continuous
 62
     7
100
AcDbCircle
 10
143.6601477696
 20
128.3411904409
 30
0.0
 40
15.12593177260878
100
AcDbArc
 50
334.5498531549
 51
25.4501468451
  0
LINE
  5
CD
330
85
100
AcDbEntity
  8
U111
  6
Continuous
 62
     7
100
AcDbLine
 10
172.0951584903
 20
121.8411904409
 30
0.0
 11
163.2170060688
 21
121.8411904409
 31
0.0
  0
SPLINE
  5
CE
330
85
100
AcDbEntity
  8
U111
  6
Continuous
 62
     7
100
AcDbSpline
210
0.0
220
0.0
230
1.0
 70
     8
 71
     3
 72
    12
 73
     8
 74
     0
 42
0.0000000006680711
 43
0.0000000001
 40
0.0
 40
0.0
 40
0.0
 40
0.0
 40
0.5000000000000001
 40
0.5000000000000001
 40
0.7500000000000002
 40
0.7500000000000002
 40
1.0
 40
1.0
 40
1.0
 40
1.0
 10
172.0951584902952
 20
121.8411904409224
 30
0.0
 10
173.9788195371687
 20
123.4457284842471
 30
0.0
 10
174.9926888004252
 20
125.9063360292734
 30
0.0
 10
174.9913286459276
 20
129.5636542174437
 30
0.0
 10
174.7410481786231
 20
130.7899189249945
 30
0.0
 10
173.7590685568575
 20
133.0311096410251
 30
0.0
 10
173.0372574424698
 20
134.0386927665931
 30
0.0
 10
172.0951584902952
 20
134.8411904409224
 30
0.0
  0
LINE
  5
CF
330
85
100
AcDbEntity
  8
U111
  6
Continuous
 62
     7
100
AcDbLine
 10
182.4329887398
 20
121.8411904409
 30
0.0
 11
177.9939125291
 21
121.8411904409
 31
0.0
  0
ARC
  5
D0
330
85
100
AcDbEntity
  8
U111
  6
Continuous
 62
     7
100
AcDbCircle
 10
168.7751840904
 20
128.3411904409
 30
0.0
 40
15.12566123647078
100
AcDbArc
 50
334.5493654497
 51
25.4506345503
  0
ARC
  5
D1
330
85
100
AcDbEntity
  8
U111
  6
Continuous
 62
     7
100
AcDbCircle
 10
166.5366605391
 20
128.3411904409
 30
0.0
 40
15.12537235481412
100
AcDbArc
 50
154.548844651
 51
205.451155349
  0
SPLINE
  5
D2
330
85
100
AcDbEntity
  8
U111
  6
Continuous
 62
     7
100
AcDbSpline
210
0.0
220
0.0
230
1.0
 70
     8
 71
     3
 72
    12
 73
     8
 74
     0
 42
0.0000000006680711
 43
0.0000000001
 40
0.0
 40
0.0
 40
0.0
 40
0.0
 40
0.5
 40
0.5
 40
0.75
 40
0.75
 40
1.0
 40
1.0
 40
1.0
 40
1.0
 10
163.2170060688355
 20
134.8411904409224
 30
0.0
 10
161.333345021962
 20
133.2366523975976
 30
0.0
 10
160.3194757587056
 20
130.7760448525714
 30
0.0
 10
160.3208359132031
 20
127.1187266644011
 30
0.0
 10
160.5711163805076
 20
125.8924619568503
 30
0.0
 10
161.5530960022733
 20
123.6512712408197
 30
0.0
 10
162.2749071166609
 20
122.6436881152516
 30
0.0
 10
163.2170060688356
 20
121.8411904409224
 30
0.0
  0
ARC
  5
D3
330
85
100
AcDbEntity
  8
U111
  6
Continuous
 62
     7
100
AcDbCircle
 10
191.6517171784
 20
128.3411904409
 30
0.0
 40
15.12566123647072
100
AcDbArc
 50
154.5493654497
 51
205.4506345503
  0
LINE
  5
D4
330
85
100
AcDbEntity
  8
U111
  6
Continuous
 62
     7
100
AcDbLine
 10
182.4329887398
 20
134.8411904409
 30
0.0
 11
177.9939125291
 21
134.8411904409
 31
0.0
  0
LINE
  5
D5
330
85
100
AcDbEntity
  8
U111
  6
Continuous
 62
     7
100
AcDbLine
 10
172.0951584903
 20
134.8411904409
 30
0.0
 11
163.2170060688
 21
134.8411904409
 31
0.0
  0
LINE
  5
D6
330
85
100
AcDbEntity
  8
U111
  6
Continuous
 62
     7
100
AcDbLine
 10
157.3182520301
 20
134.8411904409
 30
0.0
 11
152.8791758193
 21
134.8411904409
 31
0.0
  0
ARC
  5
D7
330
85
100
AcDbEntity
  8
U111
  6
Continuous
 62
     7
100
AcDbCircle
 10
171.4060822796
 20
128.3411904409
 30
0.0
 40
20.0
100
AcDbArc
 50
161.0344250112
 51
198.9655749888
  0
ARC
  5
D8
330
85
100
AcDbEntity
  8
U111
  6
Continuous
 62
     7
100
AcDbCircle
 10
163.9060822796
 20
128.3411904409
 30
0.0
 40
20.0
100
AcDbArc
 50
341.0344250112
 51
18.9655749888
  0
ARC
  5
DA
330
85
100
AcDbEntity
  8
E111
  6
Continuous
 62
     7
100
AcDbCircle
 10
167.6560822796
 20
162.5411904409
 30
0.0
 40
30.0
100
AcDbArc
 50
0.0
 51
64.1580672368
  0
ARC
  5
DB
330
85
100
AcDbEntity
  8
E111
  6
Continuous
 62
     7
100
AcDbCircle
 10
167.6560822796
 20
162.5411904409
 30
0.0
 40
30.0
100
AcDbArc
 50
115.8419327632
 51
245.2035530261
  0
ARC
  5
DC
330
85
100
AcDbEntity
  8
E111
  6
Continuous
 62
     7
100
AcDbCircle
 10
167.6560822796
 20
162.5411904409
 30
0.0
 40
30.0
100
AcDbArc
 50
294.7964469739
 51
360.0
  0
ARC
  5
DD
330
85
100
AcDbEntity
  8
E111
  6
Continuous
 62
     7
100
AcDbCircle
 10
167.6560822796
 20
162.5411904409
 30
0.0
 40
29.72545179489714
100
AcDbArc
 50
0.0
 51
65.2731859599
  0
ARC
  5
DE
330
85
100
AcDbEntity
  8
E111
  6
Continuous
 62
     7
100
AcDbCircle
 10
167.6560822796
 20
162.5411904409
 30
0.0
 40
29.72545179489714
100
AcDbArc
 50
114.7268140401
 51
245.3279453081
  0
ARC
  5
DF
330
85
100
AcDbEntity
  8
E111
  6
Continuous
 62
     7
100
AcDbCircle
 10
167.6560822796
 20
162.5411904409
 30
0.0
 40
29.72545179489714
100
AcDbArc
 50
294.6720546919
 51
0.0
  0
ARC
  5
E0
330
85
100
AcDbEntity
  8
E111
  6
Continuous
 62
     7
100
AcDbCircle
 10
167.6560822796
 20
162.5411904409
 30
0.0
 40
23.72545179489714
100
AcDbArc
 50
0.0
 51
60.3138464279
  0
ARC
  5
E1
330
85
100
AcDbEntity
  8
E111
  6
Continuous
 62
     7
100
AcDbCircle
 10
167.6560822796
 20
162.5411904409
 30
0.0
 40
23.72545179489714
100
AcDbArc
 50
119.6861535721
 51
240.3138464279
  0
ARC
  5
E2
330
85
100
AcDbEntity
  8
E111
  6
Continuous
 62
     7
100
AcDbCircle
 10
167.6560822796
 20
162.5411904409
 30
0.0
 40
23.72545179489714
100
AcDbArc
 50
299.6861535721
 51
0.0
  0
ARC
  5
E3
330
85
100
AcDbEntity
  8
E111
  6
Continuous
 62
     7
100
AcDbCircle
 10
167.6560822796
 20
162.5411904409
 30
0.0
 40
22.5
100
AcDbArc
 50
0.0
 51
58.5052306808
  0
ARC
  5
E4
330
85
100
AcDbEntity
  8
E111
  6
Continuous
 62
     7
100
AcDbCircle
 10
167.6560822796
 20
162.5411904409
 30
0.0
 40
22.5
100
AcDbArc
 50
121.4883944785
 51
238.4942837165
  0
ARC
  5
E5
330
85
100
AcDbEntity
  8
E111
  6
Continuous
 62
     7
100
AcDbCircle
 10
167.6560822796
 20
162.5411904409
 30
0.0
 40
22.5
100
AcDbArc
 50
301.5025870327
 51
0.0
  0
ENDBLK
  5
E7
330
85
100
AcDbEntity
  8
0
100
AcDbBlockEnd
  0
BLOCK
  5
186
330
E8
100
AcDbEntity
  8
0
100
AcDbBlockBegin
  2
SE1
 70
     0
 10
0.0
 20
0.0
 30
0.0
  3
SE1
  1

  0
LINE
  5
EA
330
E8
100
AcDbEntity
  8
E1395
  6
Continuous
 62
     7
100
AcDbLine
 10
116.4352914664
 20
157.5411904409
 30
0.0
 11
116.4352914664
 21
167.5411904409
 31
0.0
  0
LINE
  5
EB
330
E8
100
AcDbEntity
  8
E1395
  6
Continuous
 62
     7
100
AcDbLine
 10
115.9352914664
 20
157.0411904409
 30
0.0
 11
115.9352914664
 21
168.0411904409
 31
0.0
  0
LINE
  5
EC
330
E8
100
AcDbEntity
  8
E1395
  6
Continuous
 62
     7
100
AcDbLine
 10
59.0050904598
 20
140.7975894009
 30
0.0
 11
59.0050904598
 21
184.284791481
 31
0.0
  0
LINE
  5
ED
330
E8
100
AcDbEntity
  8
E1395
  6
Continuous
 62
     7
100
AcDbLine
 10
66.3640232307
 20
137.5722793542
 30
0.0
 11
66.1852914664
 21
137.5722793542
 31
0.0
  0
ARC
  5
EE
330
E8
100
AcDbEntity
  8
E1395
  6
Continuous
 62
     7
100
AcDbCircle
 10
78.6465587542
 20
118.3263844244
 30
0.0
 40
27.70665927503828
100
AcDbArc
 50
58.6456705488
 51
124.8979671144
  0
SPLINE
  5
EF
330
E8
100
AcDbEntity
  8
E1395
  6
Continuous
 62
     7
100
AcDbSpline
210
0.0
220
0.0
230
1.0
 70
     8
 71
     3
 72
     8
 73
     4
 74
     0
 42
0.0000000189823622
 43
0.0000000001
 40
0.5016377152853799
 40
0.5016377152853799
 40
0.5016377152853799
 40
0.5016377152853799
 40
1.0
 40
1.0
 40
1.0
 40
1.0
 10
62.56628218149504
 20
140.9219489866336
 30
0.0
 10
62.56628676772714
 20
140.9219564177385
 30
0.0
 10
62.64141772326445
 20
140.9656607865018
 30
0.0
 10
62.79511424118109
 20
141.0506154352675
 30
0.0
  0
LINE
  5
F0
330
E8
100
AcDbEntity
  8
E1395
  6
Continuous
 62
     7
100
AcDbLine
 10
66.3640232307
 20
137.5722793542
 30
0.0
 11
89.6852914664
 21
137.5722793542
 31
0.0
  0
SPLINE
  5
F1
330
E8
100
AcDbEntity
  8
E1395
  6
Continuous
 62
     7
100
AcDbSpline
210
0.0
220
0.0
230
1.0
 70
     8
 71
     3
 72
    24
 73
    20
 74
     0
 42
0.0000000001914422
 43
0.0000000001
 40
0.4996036995258347
 40
0.4996036995258347
 40
0.4996036995258347
 40
0.4996036995258347
 40
0.4999999999999997
 40
0.4999999999999997
 40
0.5624999999999997
 40
0.5624999999999997
 40
0.6249999999999998
 40
0.6249999999999998
 40
0.6874999999999998
 40
0.6874999999999998
 40
0.7499999999999998
 40
0.7499999999999998
 40
0.8124999999999999
 40
0.8124999999999999
 40
0.8749999999999999
 40
0.8749999999999999
 40
0.9375
 40
0.9375
 40
1.0
 40
1.0
 40
1.0
 40
1.0
 10
89.68528822219136
 20
138.4890576048066
 30
0.0
 10
89.68529556296123
 20
138.4890517876857
 30
0.0
 10
89.68529104094888
 20
138.4890552472213
 30
0.0
 10
89.68268952995872
 20
138.4910781266448
 30
0.0
 10
89.37177274841662
 20
138.7380278810689
 30
0.0
 10
88.26013393896172
 20
139.5570762608834
 30
0.0
 10
87.46549893173665
 20
140.1231349513893
 30
0.0
 10
85.54162805897697
 20
141.2984438921401
 30
0.0
 10
84.39715469644649
 20
141.9182969846653
 30
0.0
 10
81.82056662227507
 20
142.8922134175014
 30
0.0
 10
80.34657446225478
 20
143.2470992081502
 30
0.0
 10
77.26066903975224
 20
143.3031948211076
 30
0.0
 10
75.73086209705029
 20
142.9960977554144
 30
0.0
 10
72.98387689085415
 20
142.0159785366469
 30
0.0
 10
71.73968978510855
 20
141.3545998140814
 30
0.0
 10
69.58858902889689
 20
140.0373421154944
 30
0.0
 10
68.64910786296805
 20
139.359886173553
 30
0.0
 10
67.17940733319261
 20
138.2445623677081
 30
0.0
 10
66.62706055512402
 20
137.7896027210251
 30
0.0
 10
66.36402323070301
 20
137.5722793541679
 30
0.0
  0
ELLIPSE
  5
F2
330
E8
100
AcDbEntity
  8
E1395
  6
Continuous
 62
     7
100
AcDbEllipse
 10
62.9172624796
 20
137.5722793542
 30
0.0
 11
1.879531452879534
 21
-2.952517826810937
 31
0.0
210
0.0
220
0.0
230
1.0
 40
0.9788192236
 41
1.013562601740144
 42
2.600402915296983
  0
LINE
  5
F3
330
E8
100
AcDbEntity
  8
E1395
  6
Continuous
 62
     7
100
AcDbLine
 10
66.3640232307
 20
187.5101015277
 30
0.0
 11
66.1852914664
 21
187.5101015277
 31
0.0
  0
LINE
  5
F4
330
E8
100
AcDbEntity
  8
E1395
  6
Continuous
 62
     7
100
AcDbLine
 10
66.3640232307
 20
187.5101015277
 30
0.0
 11
89.6852914664
 21
187.5101015277
 31
0.0
  0
SPLINE
  5
F5
330
E8
100
AcDbEntity
  8
E1395
  6
Continuous
 62
     7
100
AcDbSpline
210
0.0
220
0.0
230
1.0
 70
     8
 71
     3
 72
    24
 73
    20
 74
     0
 42
0.0000000001913395
 43
0.0000000001
 40
0.0
 40
0.0
 40
0.0
 40
0.0
 40
0.0625
 40
0.0625
 40
0.125
 40
0.125
 40
0.1875000000000001
 40
0.1875000000000001
 40
0.2500000000000001
 40
0.2500000000000001
 40
0.3125000000000001
 40
0.3125000000000001
 40
0.3750000000000001
 40
0.3750000000000001
 40
0.4375000000000001
 40
0.4375000000000001
 40
0.5
 40
0.5
 40
0.5001161742449747
 40
0.5001161742449747
 40
0.5001161742449747
 40
0.5001161742449747
 10
66.36402323070028
 20
187.5101015276769
 30
0.0
 10
66.62845974998255
 20
187.2916221357642
 30
0.0
 10
67.17906413810773
 20
186.8379567574661
 30
0.0
 10
68.65653822089651
 20
185.7169787585802
 30
0.0
 10
69.59584963335894
 20
185.0398604274523
 30
0.0
 10
71.75512989866088
 20
183.7190660304073
 30
0.0
 10
72.9971251801427
 20
183.0597834500975
 30
0.0
 10
75.75310926451306
 20
182.0802618294862
 30
0.0
 10
77.30367983546331
 20
181.7767152671512
 30
0.0
 10
80.35271652809065
 20
181.8386988302936
 30
0.0
 10
81.82996834563028
 20
182.1921488919734
 30
0.0
 10
84.41964266718227
 20
183.1741758393127
 30
0.0
 10
85.55947228360552
 20
183.7939490876723
 30
0.0
 10
87.47872738005616
 20
184.9682309054174
 30
0.0
 10
88.26714703247981
 20
185.5304020608627
 30
0.0
 10
89.36994839468949
 20
186.34307892026
 30
0.0
 10
89.68418499608781
 20
186.5924655970637
 30
0.0
 10
89.68529051633989
 20
186.5933252267043
 30
0.0
 10
89.68529149638587
 20
186.5933259707899
 30
0.0
 10
89.68529140578234
 20
186.5933258645933
 30
0.0
  0
ARC
  5
F6
330
E8
100
AcDbEntity
  8
E1395
  6
Continuous
 62
     7
100
AcDbCircle
 10
78.6461436652
 20
206.7425790182
 30
0.0
 40
27.69541815689762
100
AcDbArc
 50
235.0868565132
 51
301.3695049422
  0
SPLINE
  5
F7
330
E8
100
AcDbEntity
  8
E1395
  6
Continuous
 62
     7
100
AcDbSpline
210
0.0
220
0.0
230
1.0
 70
     8
 71
     3
 72
    10
 73
     6
 74
     0
 42
0.000000019107181
 43
0.0000000001
 40
0.0
 40
0.0
 40
0.0
 40
0.0
 40
0.5
 40
0.5
 40
0.5016377152902874
 40
0.5016377152902874
 40
0.5016377152902874
 40
0.5016377152902874
 10
62.79511424117759
 20
184.0317654465792
 30
0.0
 10
62.640889215049
 20
184.1170122244714
 30
0.0
 10
62.56677531375984
 20
184.1601498447156
 30
0.0
 10
62.56628296264767
 20
184.1604314721648
 30
0.0
 10
62.56628216642379
 20
184.1604319196312
 30
0.0
 10
62.56628218149504
 20
184.1604318952111
 30
0.0
  0
ELLIPSE
  5
F8
330
E8
100
AcDbEntity
  8
E1395
  6
Continuous
 62
     7
100
AcDbEllipse
 10
62.9172624796
 20
187.5101015277
 30
0.0
 11
1.879531452880473
 21
2.952517826810323
 31
0.0
210
0.0
220
0.0
230
1.0
 40
0.9788192236
 41
3.682782391882781
 42
5.269622705439267
  0
LINE
  5
F9
330
E8
100
AcDbEntity
  8
E1395
  6
Continuous
 62
     7
100
AcDbLine
 10
77.9352914664
 20
166.5411904409
 30
0.0
 11
73.9352914664
 21
158.5411904409
 31
0.0
  0
LINE
  5
FA
330
E8
100
AcDbEntity
  8
E1395
  6
Continuous
 62
     7
100
AcDbLine
 10
81.9352914664
 20
158.5411904409
 30
0.0
 11
77.9352914664
 21
166.5411904409
 31
0.0
  0
LINE
  5
FB
330
E8
100
AcDbEntity
  8
E1395
  6
Continuous
 62
     7
100
AcDbLine
 10
73.9352914664
 20
158.5411904409
 30
0.0
 11
81.9352914664
 21
158.5411904409
 31
0.0
  0
LINE
  5
FC
330
E8
100
AcDbEntity
  8
E1395
  6
Continuous
 62
     7
100
AcDbLine
 10
89.6352914664
 20
162.2661904409
 30
0.0
 11
89.6352914664
 21
162.8161904409
 31
0.0
  0
LINE
  5
FD
330
E8
100
AcDbEntity
  8
E1395
  6
Continuous
 62
     7
100
AcDbLine
 10
87.6352914664
 20
162.2661904409
 30
0.0
 11
89.6352914664
 21
162.2661904409
 31
0.0
  0
LINE
  5
FE
330
E8
100
AcDbEntity
  8
E1395
  6
Continuous
 62
     7
100
AcDbLine
 10
87.6352914664
 20
162.8161904409
 30
0.0
 11
87.6352914664
 21
162.2661904409
 31
0.0
  0
LINE
  5
FF
330
E8
100
AcDbEntity
  8
E1395
  6
Continuous
 62
     7
100
AcDbLine
 10
89.6352914664
 20
162.8161904409
 30
0.0
 11
87.6352914664
 21
162.8161904409
 31
0.0
  0
LINE
  5
100
330
E8
100
AcDbEntity
  8
E1395
  6
Continuous
 62
     7
100
AcDbLine
 10
89.6352914664
 20
161.3411904409
 30
0.0
 11
90.1352914664
 21
161.3411904409
 31
0.0
  0
LINE
  5
101
330
E8
100
AcDbEntity
  8
E1395
  6
Continuous
 62
     7
100
AcDbLine
 10
90.1352914664
 20
161.3411904409
 30
0.0
 11
90.1352914664
 21
163.7411904409
 31
0.0
  0
LINE
  5
102
330
E8
100
AcDbEntity
  8
E1395
  6
Continuous
 62
     7
100
AcDbLine
 10
90.1352914664
 20
163.7411904409
 30
0.0
 11
89.6352914664
 21
163.7411904409
 31
0.0
  0
LINE
  5
103
330
E8
100
AcDbEntity
  8
E1395
  6
Continuous
 62
     7
100
AcDbLine
 10
89.6352914664
 20
163.7411904409
 30
0.0
 11
89.6352914664
 21
163.3161904409
 31
0.0
  0
LINE
  5
104
330
E8
100
AcDbEntity
  8
E1395
  6
Continuous
 62
     7
100
AcDbLine
 10
89.6352914664
 20
163.3161904409
 30
0.0
 11
87.6352914664
 21
163.3161904409
 31
0.0
  0
LINE
  5
105
330
E8
100
AcDbEntity
  8
E1395
  6
Continuous
 62
     7
100
AcDbLine
 10
87.6352914664
 20
163.3161904409
 30
0.0
 11
87.6352914664
 21
163.7411904409
 31
0.0
  0
LINE
  5
106
330
E8
100
AcDbEntity
  8
E1395
  6
Continuous
 62
     7
100
AcDbLine
 10
87.6352914664
 20
163.7411904409
 30
0.0
 11
87.1352914664
 21
163.7411904409
 31
0.0
  0
LINE
  5
107
330
E8
100
AcDbEntity
  8
E1395
  6
Continuous
 62
     7
100
AcDbLine
 10
87.1352914664
 20
163.7411904409
 30
0.0
 11
87.1352914664
 21
161.3411904409
 31
0.0
  0
LINE
  5
108
330
E8
100
AcDbEntity
  8
E1395
  6
Continuous
 62
     7
100
AcDbLine
 10
87.1352914664
 20
161.3411904409
 30
0.0
 11
87.6352914664
 21
161.3411904409
 31
0.0
  0
LINE
  5
109
330
E8
100
AcDbEntity
  8
E1395
  6
Continuous
 62
     7
100
AcDbLine
 10
87.6352914664
 20
161.3411904409
 30
0.0
 11
87.6352914664
 21
161.7661904409
 31
0.0
  0
LINE
  5
10A
330
E8
100
AcDbEntity
  8
E1395
  6
Continuous
 62
     7
100
AcDbLine
 10
87.6352914664
 20
161.7661904409
 30
0.0
 11
89.6352914664
 21
161.7661904409
 31
0.0
  0
LINE
  5
10B
330
E8
100
AcDbEntity
  8
E1395
  6
Continuous
 62
     7
100
AcDbLine
 10
89.6352914664
 20
161.7661904409
 30
0.0
 11
89.6352914664
 21
161.3411904409
 31
0.0
  0
LINE
  5
10C
330
E8
100
AcDbEntity
  8
E1395
  6
Continuous
 62
     7
100
AcDbLine
 10
95.0725230514
 20
159.8278583094
 30
0.0
 11
95.6450843065
 21
161.7006217898
 31
0.0
  0
LINE
  5
10D
330
E8
100
AcDbEntity
  8
E1395
  6
Continuous
 62
     7
100
AcDbLine
 10
95.6450843065
 20
161.7006217898
 30
0.0
 11
92.9030537525
 21
162.5389446597
 31
0.0
  0
LINE
  5
10E
330
E8
100
AcDbEntity
  8
E1395
  6
Continuous
 62
     7
100
AcDbLine
 10
92.9030537525
 20
162.5389446597
 30
0.0
 11
92.9030537525
 21
162.5418330993
 31
0.0
  0
LINE
  5
10F
330
E8
100
AcDbEntity
  8
E1395
  6
Continuous
 62
     7
100
AcDbLine
 10
92.9030537525
 20
162.5418330993
 30
0.0
 11
95.7597678901
 21
162.7917632013
 31
0.0
  0
LINE
  5
110
330
E8
100
AcDbEntity
  8
E1395
  6
Continuous
 62
     7
100
AcDbLine
 10
95.7597678901
 20
162.7917632013
 30
0.0
 11
95.7161900187
 21
163.2898605504
 31
0.0
  0
LINE
  5
111
330
E8
100
AcDbEntity
  8
E1395
  6
Continuous
 62
     7
100
AcDbLine
 10
95.7161900187
 20
163.2898605504
 30
0.0
 11
93.6382482775
 21
163.1080642045
 31
0.0
  0
LINE
  5
112
330
E8
100
AcDbEntity
  8
E1395
  6
Continuous
 62
     7
100
AcDbLine
 10
93.6382482775
 20
163.1080642045
 30
0.0
 11
95.5672989582
 21
164.9916931596
 31
0.0
  0
LINE
  5
113
330
E8
100
AcDbEntity
  8
E1395
  6
Continuous
 62
     7
100
AcDbLine
 10
95.5672989582
 20
164.9916931596
 30
0.0
 11
92.7032392012
 21
164.7411203992
 31
0.0
  0
LINE
  5
114
330
E8
100
AcDbEntity
  8
E1395
  6
Continuous
 62
     7
100
AcDbLine
 10
92.7032392012
 20
164.7411203992
 30
0.0
 11
92.7468170726
 21
164.2430230502
 31
0.0
  0
LINE
  5
115
330
E8
100
AcDbEntity
  8
E1395
  6
Continuous
 62
     7
100
AcDbLine
 10
92.7468170726
 20
164.2430230502
 30
0.0
 11
94.2165807432
 21
164.3716107094
 31
0.0
  0
LINE
  5
116
330
E8
100
AcDbEntity
  8
E1395
  6
Continuous
 62
     7
100
AcDbLine
 10
94.2165807432
 20
164.3716107094
 30
0.0
 11
92.8521302617
 21
163.03928779
 31
0.0
  0
LINE
  5
117
330
E8
100
AcDbEntity
  8
E1395
  6
Continuous
 62
     7
100
AcDbLine
 10
92.8521302617
 20
163.03928779
 30
0.0
 11
92.8957081331
 21
162.5411904409
 31
0.0
  0
LINE
  5
118
330
E8
100
AcDbEntity
  8
E1395
  6
Continuous
 62
     7
100
AcDbLine
 10
92.8957081331
 20
162.5411904409
 30
0.0
 11
92.7495222807
 21
162.0630380629
 31
0.0
  0
LINE
  5
119
330
E8
100
AcDbEntity
  8
E1395
  6
Continuous
 62
     7
100
AcDbLine
 10
92.7495222807
 20
162.0630380629
 30
0.0
 11
93.8652111627
 21
161.7219377408
 31
0.0
  0
LINE
  5
11A
330
E8
100
AcDbEntity
  8
E1395
  6
Continuous
 62
     7
100
AcDbLine
 10
93.8652111627
 20
161.7219377408
 30
0.0
 11
93.5119286861
 21
160.5664028273
 31
0.0
  0
LINE
  5
11B
330
E8
100
AcDbEntity
  8
E1395
  6
Continuous
 62
     7
100
AcDbLine
 10
93.5119286861
 20
160.5664028273
 30
0.0
 11
93.9900810641
 21
160.4202169749
 31
0.0
  0
LINE
  5
11C
330
E8
100
AcDbEntity
  8
E1395
  6
Continuous
 62
     7
100
AcDbLine
 10
93.9900810641
 20
160.4202169749
 30
0.0
 11
94.3433635407
 21
161.5757518884
 31
0.0
  0
LINE
  5
11D
330
E8
100
AcDbEntity
  8
E1395
  6
Continuous
 62
     7
100
AcDbLine
 10
94.3433635407
 20
161.5757518884
 30
0.0
 11
95.0207460761
 21
161.3686552642
 31
0.0
  0
LINE
  5
11E
330
E8
100
AcDbEntity
  8
E1395
  6
Continuous
 62
     7
100
AcDbLine
 10
95.0207460761
 20
161.3686552642
 30
0.0
 11
94.5578242103
 21
159.8545060673
 31
0.0
  0
LINE
  5
11F
330
E8
100
AcDbEntity
  8
E1395
  6
Continuous
 62
     7
100
AcDbLine
 10
94.5578242103
 20
159.8545060673
 30
0.0
 11
95.0725230514
 21
159.8278583094
 31
0.0
  0
SPLINE
  5
120
330
E8
100
AcDbEntity
  8
E1395
  6
Continuous
 62
     7
100
AcDbSpline
210
0.0
220
0.0
230
1.0
 70
    11
 71
     3
 72
    30
 73
    26
 74
     0
 42
0.0000000004410011
 43
0.0000000001
 40
0.0
 40
0.0
 40
0.0
 40
0.0
 40
0.0624999999999999
 40
0.0624999999999999
 40
0.1249999999999999
 40
0.1249999999999999
 40
0.2499999999999998
 40
0.2499999999999998
 40
0.3749999999999998
 40
0.3749999999999998
 40
0.4374999999999997
 40
0.4374999999999997
 40
0.4999999999999997
 40
0.4999999999999997
 40
0.5624999999999996
 40
0.5624999999999996
 40
0.6249999999999996
 40
0.6249999999999996
 40
0.7499999999999997
 40
0.7499999999999997
 40
0.8749999999999999
 40
0.8749999999999999
 40
0.9375
 40
0.9375
 40
1.0
 40
1.0
 40
1.0
 40
1.0
 10
94.13529146641517
 20
158.2828571075891
 30
0.0
 10
93.6627602240814
 20
158.2828571075891
 30
0.0
 10
93.21016370149866
 20
158.4745591613728
 30
0.0
 10
92.48674813075364
 20
159.0438784254332
 30
0.0
 10
92.19775451618263
 20
159.4217069310987
 30
0.0
 10
91.53248396917063
 20
160.6473168715609
 30
0.0
 10
91.33663467948314
 20
161.5934258507432
 30
0.0
 10
91.3339613888074
 20
163.4705085714802
 30
0.0
 10
91.52694928299384
 20
164.4168173975571
 30
0.0
 10
92.18773744700708
 20
165.6461295218066
 30
0.0
 10
92.47551100966237
 20
166.0258670711929
 30
0.0
 10
93.19480798407757
 20
166.5993914086873
 30
0.0
 10
93.64644652496737
 20
166.7940969493553
 30
0.0
 10
94.58236813814494
 20
166.804713700493
 30
0.0
 10
95.04336784788515
 20
166.6177290008849
 30
0.0
 10
95.77648475801114
 20
166.0476836804253
 30
0.0
 10
96.06655026240392
 20
165.670227624785
 30
0.0
 10
96.73790587537124
 20
164.4393876646375
 30
0.0
 10
96.93355712035934
 20
163.4923253372515
 30
0.0
 10
96.93700400782619
 20
161.6138220166682
 30
0.0
 10
96.7456884850965
 20
160.6684620762221
 30
0.0
 10
96.08035614352912
 20
159.43208386482
 30
0.0
 10
95.79284919993964
 20
159.0520483543302
 30
0.0
 10
95.05891906867292
 20
158.4723137973837
 30
0.0
 10
94.60782270874894
 20
158.2828571075891
 30
0.0
 10
94.13529146641517
 20
158.2828571075891
 30
0.0
  0
SPLINE
  5
121
330
E8
100
AcDbEntity
  8
E1395
  6
Continuous
 62
     7
100
AcDbSpline
210
0.0
220
0.0
230
1.0
 70
    11
 71
     3
 72
    30
 73
    26
 74
     0
 42
0.000000000495965
 43
0.0000000001
 40
0.0
 40
0.0
 40
0.0
 40
0.0
 40
0.0625
 40
0.0625
 40
0.125
 40
0.125
 40
0.2499999999999999
 40
0.2499999999999999
 40
0.3749999999999999
 40
0.3749999999999999
 40
0.4375
 40
0.4375
 40
0.5000000000000001
 40
0.5000000000000001
 40
0.5625000000000002
 40
0.5625000000000002
 40
0.6250000000000003
 40
0.6250000000000003
 40
0.7500000000000002
 40
0.7500000000000002
 40
0.8750000000000002
 40
0.8750000000000002
 40
0.9375000000000001
 40
0.9375000000000001
 40
1.0
 40
1.0
 40
1.0
 40
1.0
 10
94.1352914664152
 20
158.6828571075891
 30
0.0
 10
93.71505641167215
 20
158.6828571075891
 30
0.0
 10
93.31748995205606
 20
158.8696743094978
 30
0.0
 10
92.69474734559047
 20
159.4034733485552
 30
0.0
 10
92.45172041397332
 20
159.7507820849685
 30
0.0
 10
91.89609452292075
 20
160.85929274285
 30
0.0
 10
91.73593431401186
 20
161.7021986793586
 30
0.0
 10
91.73465228116214
 20
163.3706497733635
 30
0.0
 10
91.89302547358623
 20
164.212517111809
 30
0.0
 10
92.44666406456678
 20
165.3236956695927
 30
0.0
 10
92.68774189258977
 20
165.6709784300507
 30
0.0
 10
93.31200359274362
 20
166.2098899202802
 30
0.0
 10
93.70581174195462
 20
166.3961672275603
 30
0.0
 10
94.54111087793068
 20
166.4027865731957
 30
0.0
 10
94.9451222387165
 20
166.2178780009498
 30
0.0
 10
95.57302424115146
 20
165.682949938666
 30
0.0
 10
95.81654162851257
 20
165.3356401775096
 30
0.0
 10
96.37563991809628
 20
164.2219632034194
 30
0.0
 10
96.53466703580445
 20
163.37998424829
 30
0.0
 10
96.53591244044706
 20
161.711657407313
 30
0.0
 10
96.37832945629549
 20
160.8704639653245
 30
0.0
 10
95.82212876880533
 20
159.7555688185379
 30
0.0
 10
95.57917015339571
 20
159.4062815804149
 30
0.0
 10
94.94943207411724
 20
158.8665863728606
 30
0.0
 10
94.55552652115826
 20
158.6828571075891
 30
0.0
 10
94.1352914664152
 20
158.6828571075891
 30
0.0
  0
ARC
  5
122
330
E8
100
AcDbEntity
  8
E1395
  6
Continuous
 62
     7
100
AcDbCircle
 10
115.9352914664
 20
167.5411904409
 30
0.0
 40
0.5000000000000004
100
AcDbArc
 50
0.0
 51
90.0
  0
ARC
  5
123
330
E8
100
AcDbEntity
  8
E1395
  6
Continuous
 62
     7
100
AcDbCircle
 10
115.9352914664
 20
157.5411904409
 30
0.0
 40
0.4999999999999996
100
AcDbArc
 50
270.0
 51
0.0
  0
LINE
  5
124
330
E8
100
AcDbEntity
  8
E1395
  6
Continuous
 62
     7
100
AcDbLine
 10
115.9352914664
 20
168.0411904409
 30
0.0
 11
109.9352914664
 21
168.0411904409
 31
0.0
  0
LINE
  5
125
330
E8
100
AcDbEntity
  8
E1395
  6
Continuous
 62
     7
100
AcDbLine
 10
109.9352914664
 20
157.0411904409
 30
0.0
 11
115.9352914664
 21
157.0411904409
 31
0.0
  0
ARC
  5
126
330
E8
100
AcDbEntity
  8
E1395
  6
Continuous
 62
     7
100
AcDbCircle
 10
58.9352914664
 20
182.2860098269
 30
0.0
 40
1.999999999999998
100
AcDbArc
 50
88.0
 51
180.0
  0
ARC
  5
127
330
E8
100
AcDbEntity
  8
E1395
  6
Continuous
 62
     7
100
AcDbCircle
 10
58.9352914664
 20
142.7963710549
 30
0.0
 40
2.000000000000002
100
AcDbArc
 50
180.0
 51
272.0
  0
LINE
  5
128
330
E8
100
AcDbEntity
  8
E1395
  6
Continuous
 62
     7
100
AcDbLine
 10
89.6852914664
 20
137.5722793542
 30
0.0
 11
89.6852914664
 21
138.5023617432
 31
0.0
  0
ARC
  5
129
330
E8
100
AcDbEntity
  8
E1395
  6
Continuous
 62
     7
100
AcDbCircle
 10
93.1852914664
 20
137.5722793542
 30
0.0
 40
3.500000000000001
100
AcDbArc
 50
180.0
 51
231.2890699108
  0
ARC
  5
12A
330
E8
100
AcDbEntity
  8
E1395
  6
Continuous
 62
     7
100
AcDbCircle
 10
62.6852914664
 20
137.5722793542
 30
0.0
 40
3.5
100
AcDbArc
 50
308.7109300892
 51
0.0
  0
ARC
  5
12B
330
E8
100
AcDbEntity
  8
E1395
  6
Continuous
 62
     7
100
AcDbCircle
 10
93.1787485215
 20
138.4972163227
 30
0.0
 40
3.48784130777901
100
AcDbArc
 50
92.0222317015
 51
179.9095304383
  0
ARC
  5
12C
330
E8
100
AcDbEntity
  8
E1395
  6
Continuous
 62
     7
100
AcDbCircle
 10
62.6915381195
 20
137.432702563
 30
0.0
 40
3.488311381686771
100
AcDbArc
 50
2.281525308
 51
91.9613109001
  0
LINE
  5
12D
330
E8
100
AcDbEntity
  8
E1395
  6
Continuous
 62
     7
100
AcDbLine
 10
89.6852914664
 20
186.590687511
 30
0.0
 11
89.6852914664
 21
187.5101015277
 31
0.0
  0
ARC
  5
12E
330
E8
100
AcDbEntity
  8
E1395
  6
Continuous
 62
     7
100
AcDbCircle
 10
93.1852914664
 20
187.5101015277
 30
0.0
 40
3.499999999999998
100
AcDbArc
 50
144.527571998
 51
180.0
  0
ARC
  5
12F
330
E8
100
AcDbEntity
  8
E1395
  6
Continuous
 62
     7
100
AcDbCircle
 10
62.6852914664
 20
187.5101015277
 30
0.0
 40
3.5
100
AcDbArc
 50
0.0
 51
35.472428002
  0
ARC
  5
130
330
E8
100
AcDbEntity
  8
E1395
  6
Continuous
 62
     7
100
AcDbCircle
 10
62.694634569
 20
187.6500072732
 30
0.0
 40
3.488067568876506
100
AcDbArc
 50
267.9957154676
 51
357.7274532298
  0
ARC
  5
131
330
E8
100
AcDbEntity
  8
E1395
  6
Continuous
 62
     7
100
AcDbCircle
 10
93.1852913084
 20
186.5933257933
 30
0.0
 40
3.499999845938967
100
AcDbArc
 50
179.9999972311
 51
268.0000017876
  0
LINE
  5
132
330
E8
100
AcDbEntity
  8
E1395
  6
Continuous
 62
     7
100
AcDbLine
 10
93.0558658272
 20
141.9866686785
 30
0.0
 11
97.9352914664
 21
142.1570619765
 31
0.0
  0
LINE
  5
133
330
E8
100
AcDbEntity
  8
E1395
  6
Continuous
 62
     7
100
AcDbLine
 10
59.0050904598
 20
140.7975894009
 30
0.0
 11
62.5722424667
 21
140.9221570939
 31
0.0
  0
LINE
  5
134
330
E8
100
AcDbEntity
  8
E1395
  6
Continuous
 62
     7
100
AcDbLine
 10
62.5722424667
 20
184.160223788
 30
0.0
 11
59.0050904598
 21
184.284791481
 31
0.0
  0
LINE
  5
135
330
E8
100
AcDbEntity
  8
E1395
  6
Continuous
 62
     7
100
AcDbLine
 10
97.9352914664
 20
182.9253189053
 30
0.0
 11
93.0560334351
 21
183.0957063503
 31
0.0
  0
LINE
  5
136
330
E8
100
AcDbEntity
  8
E422_5
  6
Continuous
 62
     7
100
AcDbLine
 10
56.9352914664
 20
142.5411904409
 30
0.0
 11
56.9352914664
 21
182.5411904409
 31
0.0
  0
LINE
  5
137
330
E8
100
AcDbEntity
  8
E422_5
  6
Continuous
 62
     7
100
AcDbLine
 10
55.4352914664
 20
142.5411904409
 30
0.0
 11
55.4352914664
 21
182.5411904409
 31
0.0
  0
LINE
  5
138
330
E8
100
AcDbEntity
  8
E422_5
  6
Continuous
 62
     7
100
AcDbLine
 10
54.4352914664
 20
143.5411904409
 30
0.0
 11
54.4352914664
 21
181.5411904409
 31
0.0
  0
LINE
  5
139
330
E8
100
AcDbEntity
  8
E422_5
  6
Continuous
 62
     7
100
AcDbLine
 10
52.9352914664
 20
148.6471603287
 30
0.0
 11
52.9352914664
 21
148.1411904409
 31
0.0
  0
LINE
  5
13A
330
E8
100
AcDbEntity
  8
E422_5
  6
Continuous
 62
     7
100
AcDbLine
 10
52.9352914664
 20
148.6471603287
 30
0.0
 11
43.8930264933
 21
148.6471603287
 31
0.0
  0
ARC
  5
13B
330
E8
100
AcDbEntity
  8
E422_5
  6
Continuous
 62
     7
100
AcDbCircle
 10
53.0108897179
 20
147.2219122412
 30
0.0
 40
1.427251626974561
100
AcDbArc
 50
3.621369318
 51
93.0362471504
  0
LINE
  5
13C
330
E8
100
AcDbEntity
  8
E422_5
  6
Continuous
 62
     7
100
AcDbLine
 10
52.9352914664
 20
148.6471603287
 30
0.0
 11
52.9352914664
 21
158.7575510235
 31
0.0
  0
SPLINE
  5
13D
330
E8
100
AcDbEntity
  8
E422_5
  6
Continuous
 62
     7
100
AcDbSpline
210
0.0
220
0.0
230
1.0
 70
     8
 71
     3
 72
    18
 73
    14
 74
     0
 42
0.0000000054084672
 43
0.0000000001
 40
0.0
 40
0.0
 40
0.0
 40
0.0
 40
0.2500000000000013
 40
0.2500000000000013
 40
0.3750000000000011
 40
0.3750000000000011
 40
0.5000000000000009
 40
0.5000000000000009
 40
0.6250000000000007
 40
0.6250000000000007
 40
0.7500000000000004
 40
0.7500000000000004
 40
1.0
 40
1.0
 40
1.0
 40
1.0
 10
54.43529146641515
 20
157.9713296380951
 30
0.0
 10
54.4352914664152
 20
158.0731087793517
 30
0.0
 10
54.39779003252458
 20
158.1751708223899
 30
0.0
 10
54.28739653536636
 20
158.3173619466006
 30
0.0
 10
54.24230340033591
 20
158.3622861069911
 30
0.0
 10
54.13569523962024
 20
158.4472853418668
 30
0.0
 10
54.07333297722343
 20
158.4877482215905
 30
0.0
 10
53.93591172949446
 20
158.5607024613606
 30
0.0
 10
53.8608692979799
 20
158.5934127970845
 30
0.0
 10
53.69787328111547
 20
158.6512174990739
 30
0.0
 10
53.60945620216535
 20
158.6762721815917
 30
0.0
 10
53.33633226464684
 20
158.7361975614643
 30
0.0
 10
53.13679452363741
 20
158.757551023454
 30
0.0
 10
52.93529146641515
 20
158.7575510234535
 30
0.0
  0
LINE
  5
13E
330
E8
100
AcDbEntity
  8
E422_5
  6
Continuous
 62
     7
100
AcDbLine
 10
52.9352914664
 20
158.7575510235
 30
0.0
 11
43.8930264933
 21
158.7575510235
 31
0.0
  0
LINE
  5
13F
330
E8
100
AcDbEntity
  8
E422_5
  6
Continuous
 62
     7
100
AcDbLine
 10
52.9352914664
 20
166.3248298584
 30
0.0
 11
52.9352914664
 21
158.7575510235
 31
0.0
  0
LINE
  5
140
330
E8
100
AcDbEntity
  8
E422_5
  6
Continuous
 62
     7
100
AcDbLine
 10
52.9352914664
 20
166.3248298584
 30
0.0
 11
43.8930264933
 21
166.3248298584
 31
0.0
  0
SPLINE
  5
141
330
E8
100
AcDbEntity
  8
E422_5
  6
Continuous
 62
     7
100
AcDbSpline
210
0.0
220
0.0
230
1.0
 70
     8
 71
     3
 72
    18
 73
    14
 74
     0
 42
0.0000000054084672
 43
0.0000000001
 40
0.0
 40
0.0
 40
0.0
 40
0.0
 40
0.2499999999999991
 40
0.2499999999999991
 40
0.3749999999999993
 40
0.3749999999999993
 40
0.4999999999999994
 40
0.4999999999999994
 40
0.6249999999999996
 40
0.6249999999999996
 40
0.7499999999999998
 40
0.7499999999999998
 40
1.0
 40
1.0
 40
1.0
 40
1.0
 10
54.43529146641515
 20
167.1110512437496
 30
0.0
 10
54.43529146641519
 20
167.0092721024921
 30
0.0
 10
54.39779003252457
 20
166.9072100594549
 30
0.0
 10
54.28739653536636
 20
166.7650189352442
 30
0.0
 10
54.2423034003359
 20
166.7200947748536
 30
0.0
 10
54.13569523962025
 20
166.635095539978
 30
0.0
 10
54.07333297722342
 20
166.5946326602543
 30
0.0
 10
53.93591172949446
 20
166.5216784204842
 30
0.0
 10
53.8608692979799
 20
166.4889680847604
 30
0.0
 10
53.69787328111547
 20
166.4311633827708
 30
0.0
 10
53.60945620216535
 20
166.4061087002531
 30
0.0
 10
53.33633226464683
 20
166.3461833203804
 30
0.0
 10
53.13679452363741
 20
166.3248298583908
 30
0.0
 10
52.93529146641515
 20
166.3248298583913
 30
0.0
  0
LINE
  5
142
330
E8
100
AcDbEntity
  8
E422_5
  6
Continuous
 62
     7
100
AcDbLine
 10
52.9352914664
 20
166.3248298584
 30
0.0
 11
52.9352914664
 21
176.4352205531
 31
0.0
  0
ARC
  5
143
330
E8
100
AcDbEntity
  8
E422_5
  6
Continuous
 62
     7
100
AcDbCircle
 10
53.0108897179
 20
177.8604686407
 30
0.0
 40
1.427251626974566
100
AcDbArc
 50
266.9637528496
 51
356.378630682
  0
LINE
  5
144
330
E8
100
AcDbEntity
  8
E422_5
  6
Continuous
 62
     7
100
AcDbLine
 10
52.9352914664
 20
176.4352205531
 30
0.0
 11
43.8930264933
 21
176.4352205531
 31
0.0
  0
LINE
  5
145
330
E8
100
AcDbEntity
  8
E422_5
  6
Continuous
 62
     7
100
AcDbLine
 10
52.9352914664
 20
176.9411904409
 30
0.0
 11
52.9352914664
 21
176.4352205531
 31
0.0
  0
LINE
  5
146
330
E8
100
AcDbEntity
  8
E422_5
  6
Continuous
 62
     7
100
AcDbLine
 10
56.9352914664
 20
182.5411904409
 30
0.0
 11
55.4352914664
 21
182.5411904409
 31
0.0
  0
LINE
  5
147
330
E8
100
AcDbEntity
  8
E422_5
  6
Continuous
 62
     7
100
AcDbLine
 10
55.4352914664
 20
142.5411904409
 30
0.0
 11
56.9352914664
 21
142.5411904409
 31
0.0
  0
ARC
  5
148
330
E8
100
AcDbEntity
  8
E422_5
  6
Continuous
 62
     7
100
AcDbCircle
 10
55.4352914664
 20
181.5411904409
 30
0.0
 40
1.000000000000001
100
AcDbArc
 50
90.0
 51
180.0
  0
ARC
  5
149
330
E8
100
AcDbEntity
  8
E422_5
  6
Continuous
 62
     7
100
AcDbCircle
 10
55.4352914664
 20
143.5411904409
 30
0.0
 40
1.000000000000001
100
AcDbArc
 50
180.0
 51
270.0
  0
LINE
  5
14A
330
E8
100
AcDbEntity
  8
E422_5
  6
Continuous
 62
     7
100
AcDbLine
 10
43.8930264933
 20
148.1411904409
 30
0.0
 11
52.9352914664
 21
148.1411904409
 31
0.0
  0
ARC
  5
14B
330
E8
100
AcDbEntity
  8
E422_5
  6
Continuous
 62
     7
100
AcDbCircle
 10
52.9352914664
 20
146.6411904409
 30
0.0
 40
1.499999999999988
100
AcDbArc
 50
0.0
 51
90.0
  0
LINE
  5
14C
330
E8
100
AcDbEntity
  8
E422_5
  6
Continuous
 62
     7
100
AcDbLine
 10
52.9352914664
 20
176.9411904409
 30
0.0
 11
43.8930264933
 21
176.9411904409
 31
0.0
  0
ARC
  5
14D
330
E8
100
AcDbEntity
  8
E422_5
  6
Continuous
 62
     7
100
AcDbCircle
 10
52.9352914664
 20
178.4411904409
 30
0.0
 40
1.499999999999953
100
AcDbArc
 50
270.0
 51
0.0
  0
LINE
  5
14E
330
E8
100
AcDbEntity
  8
E428_5
  6
Continuous
 62
     7
100
AcDbLine
 10
43.8930264933
 20
146.5411904409
 30
0.0
 11
43.8930264933
 21
178.5411904409
 31
0.0
  0
LINE
  5
14F
330
E8
100
AcDbEntity
  8
E428_5
  6
Continuous
 62
     7
100
AcDbLine
 10
24.9191480405
 20
160.9911904409
 30
0.0
 11
24.9191480405
 21
164.0911904409
 31
0.0
  0
LINE
  5
150
330
E8
100
AcDbEntity
  8
E428_5
  6
Continuous
 62
     7
100
AcDbLine
 10
28.3017968855
 20
145.1634126631
 30
0.0
 11
28.3017968855
 21
179.9189682187
 31
0.0
  0
LINE
  5
151
330
E8
100
AcDbEntity
  8
E428_5
  6
Continuous
 62
     7
100
AcDbLine
 10
29.3634380556
 20
144.5504466147
 30
0.0
 11
29.3634380556
 21
180.5319342671
 31
0.0
  0
ARC
  5
152
330
E8
100
AcDbEntity
  8
E428_5
  6
Continuous
 62
     7
100
AcDbCircle
 10
70.8930264933
 20
162.5411904409
 30
0.0
 40
46.00000000000001
100
AcDbArc
 50
181.9309841807
 51
202.1961008568
  0
ARC
  5
153
330
E8
100
AcDbEntity
  8
E428_5
  6
Continuous
 62
     7
100
AcDbCircle
 10
70.8930264933
 20
162.5411904409
 30
0.0
 40
46.0
100
AcDbArc
 50
157.8038991432
 51
178.0690158193
  0
ARC
  5
154
330
E8
100
AcDbEntity
  8
E428_5
  6
Continuous
 62
     7
100
AcDbCircle
 10
29.2276931813
 20
179.5411904409
 30
0.0
 40
1.000000000000001
100
AcDbArc
 50
82.1983054483
 51
157.8038991432
  0
ARC
  5
155
330
E8
100
AcDbEntity
  8
E428_5
  6
Continuous
 62
     7
100
AcDbCircle
 10
29.2276931813
 20
145.5411904409
 30
0.0
 40
0.9999999999999977
100
AcDbArc
 50
202.1961008568
 51
277.8016945517
  0
LINE
  5
156
330
E8
100
AcDbEntity
  8
E428_5
  6
Continuous
 62
     7
100
AcDbLine
 10
29.3634380556
 20
144.5504466147
 30
0.0
 11
43.8930264933
 21
146.5411904409
 31
0.0
  0
LINE
  5
157
330
E8
100
AcDbEntity
  8
E428_5
  6
Continuous
 62
     7
100
AcDbLine
 10
43.8930264933
 20
178.5411904409
 30
0.0
 11
29.3634380556
 21
180.5319342671
 31
0.0
  0
ARC
  5
158
330
E8
100
AcDbEntity
  8
K207
  6
Continuous
 62
     7
100
AcDbCircle
 10
26.9191480405
 20
162.5411904409
 30
0.0
 40
2.499999999999986
100
AcDbArc
 50
143.1301023542
 51
216.8698976458
  0
LINE
  5
159
330
E8
100
AcDbEntity
  8
U111
  6
Continuous
 62
     7
100
AcDbLine
 10
92.4352914664
 20
202.5411904409
 30
0.0
 11
89.0296442342
 21
202.5411904409
 31
0.0
  0
LINE
  5
15A
330
E8
100
AcDbEntity
  8
U111
  6
Continuous
 62
     7
100
AcDbLine
 10
81.3409386986
 20
202.5411904409
 30
0.0
 11
74.5296442342
 21
202.5411904409
 31
0.0
  0
LINE
  5
15B
330
E8
100
AcDbEntity
  8
U111
  6
Continuous
 62
     7
100
AcDbLine
 10
66.8409386986
 20
202.5411904409
 30
0.0
 11
63.4352914664
 21
202.5411904409
 31
0.0
  0
LINE
  5
15C
330
E8
100
AcDbEntity
  8
U111
  6
Continuous
 62
     7
100
AcDbLine
 10
92.4352914664
 20
189.5411904409
 30
0.0
 11
89.0296442342
 21
189.5411904409
 31
0.0
  0
LINE
  5
15D
330
E8
100
AcDbEntity
  8
U111
  6
Continuous
 62
     7
100
AcDbLine
 10
81.3409386986
 20
189.5411904409
 30
0.0
 11
74.5296442342
 21
189.5411904409
 31
0.0
  0
LINE
  5
15E
330
E8
100
AcDbEntity
  8
U111
  6
Continuous
 62
     7
100
AcDbLine
 10
66.8409386986
 20
189.5411904409
 30
0.0
 11
63.4352914664
 21
189.5411904409
 31
0.0
  0
LINE
  5
15F
330
E8
100
AcDbEntity
  8
U111
  6
Continuous
 62
     7
100
AcDbLine
 10
92.4352914664
 20
202.5411904409
 30
0.0
 11
92.4352914664
 21
189.5411904409
 31
0.0
  0
LINE
  5
160
330
E8
100
AcDbEntity
  8
U111
  6
Continuous
 62
     7
100
AcDbLine
 10
81.3409386986
 20
202.5411904409
 30
0.0
 11
89.0296442342
 21
202.5411904409
 31
0.0
  0
ARC
  5
161
330
E8
100
AcDbEntity
  8
U111
  6
Continuous
 62
     7
100
AcDbCircle
 10
88.4519418986
 20
196.0411904409
 30
0.0
 40
9.634125103502738
100
AcDbArc
 50
137.5703041244
 51
222.4296958756
  0
LINE
  5
162
330
E8
100
AcDbEntity
  8
U111
  6
Continuous
 62
     7
100
AcDbLine
 10
66.8409386986
 20
202.5411904409
 30
0.0
 11
74.5296442342
 21
202.5411904409
 31
0.0
  0
ARC
  5
163
330
E8
100
AcDbEntity
  8
U111
  6
Continuous
 62
     7
100
AcDbCircle
 10
73.9520255335
 20
196.0411904409
 30
0.0
 40
9.634186835127434
100
AcDbArc
 50
137.5706397048
 51
222.4293602952
  0
ARC
  5
164
330
E8
100
AcDbEntity
  8
U111
  6
Continuous
 62
     7
100
AcDbCircle
 10
81.9186410343
 20
196.0411904409
 30
0.0
 40
9.634125103502742
100
AcDbArc
 50
317.5703041244
 51
42.4296958756
  0
ARC
  5
165
330
E8
100
AcDbEntity
  8
U111
  6
Continuous
 62
     7
100
AcDbCircle
 10
67.4187303106
 20
196.0411904409
 30
0.0
 40
9.634059208342569
100
AcDbArc
 50
317.5699459038
 51
42.4300540962
  0
LINE
  5
166
330
E8
100
AcDbEntity
  8
U111
  6
Continuous
 62
     7
100
AcDbLine
 10
63.4352914664
 20
189.5411904409
 30
0.0
 11
63.4352914664
 21
202.5411904409
 31
0.0
  0
LINE
  5
167
330
E8
100
AcDbEntity
  8
U111
  6
Continuous
 62
     7
100
AcDbLine
 10
81.3409386986
 20
189.5411904409
 30
0.0
 11
89.0296442342
 21
189.5411904409
 31
0.0
  0
LINE
  5
168
330
E8
100
AcDbEntity
  8
U111
  6
Continuous
 62
     7
100
AcDbLine
 10
66.8409386986
 20
189.5411904409
 30
0.0
 11
74.5296442342
 21
189.5411904409
 31
0.0
  0
LINE
  5
169
330
E8
100
AcDbEntity
  8
U111
  6
Continuous
 62
     7
100
AcDbLine
 10
89.0296442342
 20
121.8411904409
 30
0.0
 11
92.4352914664
 21
121.8411904409
 31
0.0
  0
LINE
  5
16A
330
E8
100
AcDbEntity
  8
U111
  6
Continuous
 62
     7
100
AcDbLine
 10
89.0296442342
 20
134.8411904409
 30
0.0
 11
92.4352914664
 21
134.8411904409
 31
0.0
  0
LINE
  5
16B
330
E8
100
AcDbEntity
  8
U111
  6
Continuous
 62
     7
100
AcDbLine
 10
63.4352914664
 20
121.8411904409
 30
0.0
 11
66.8409386986
 21
121.8411904409
 31
0.0
  0
LINE
  5
16C
330
E8
100
AcDbEntity
  8
U111
  6
Continuous
 62
     7
100
AcDbLine
 10
74.5296442342
 20
121.8411904409
 30
0.0
 11
81.3409386986
 21
121.8411904409
 31
0.0
  0
LINE
  5
16D
330
E8
100
AcDbEntity
  8
U111
  6
Continuous
 62
     7
100
AcDbLine
 10
63.4352914664
 20
134.8411904409
 30
0.0
 11
66.8409386986
 21
134.8411904409
 31
0.0
  0
LINE
  5
16E
330
E8
100
AcDbEntity
  8
U111
  6
Continuous
 62
     7
100
AcDbLine
 10
74.5296442342
 20
134.8411904409
 30
0.0
 11
81.3409386986
 21
134.8411904409
 31
0.0
  0
ARC
  5
16F
330
E8
100
AcDbEntity
  8
U111
  6
Continuous
 62
     7
100
AcDbCircle
 10
88.4520255335
 20
128.3411904409
 30
0.0
 40
9.634186835127414
100
AcDbArc
 50
137.5706397048
 51
222.4293602952
  0
LINE
  5
170
330
E8
100
AcDbEntity
  8
U111
  6
Continuous
 62
     7
100
AcDbLine
 10
63.4352914664
 20
121.8411904409
 30
0.0
 11
63.4352914664
 21
134.8411904409
 31
0.0
  0
LINE
  5
171
330
E8
100
AcDbEntity
  8
U111
  6
Continuous
 62
     7
100
AcDbLine
 10
74.5296442342
 20
121.8411904409
 30
0.0
 11
66.8409386986
 21
121.8411904409
 31
0.0
  0
ARC
  5
172
330
E8
100
AcDbEntity
  8
U111
  6
Continuous
 62
     7
100
AcDbCircle
 10
67.4186410343
 20
128.3411904409
 30
0.0
 40
9.634125103502724
100
AcDbArc
 50
317.5703041244
 51
42.4296958756
  0
LINE
  5
173
330
E8
100
AcDbEntity
  8
U111
  6
Continuous
 62
     7
100
AcDbLine
 10
89.0296442342
 20
121.8411904409
 30
0.0
 11
81.3409386986
 21
121.8411904409
 31
0.0
  0
ARC
  5
174
330
E8
100
AcDbEntity
  8
U111
  6
Continuous
 62
     7
100
AcDbCircle
 10
81.9187303106
 20
128.3411904409
 30
0.0
 40
9.63405920834254
100
AcDbArc
 50
317.5699459038
 51
42.4300540962
  0
LINE
  5
175
330
E8
100
AcDbEntity
  8
U111
  6
Continuous
 62
     7
100
AcDbLine
 10
92.4352914664
 20
134.8411904409
 30
0.0
 11
92.4352914664
 21
121.8411904409
 31
0.0
  0
ARC
  5
176
330
E8
100
AcDbEntity
  8
U111
  6
Continuous
 62
     7
100
AcDbCircle
 10
73.9519418986
 20
128.3411904409
 30
0.0
 40
9.634125103502722
100
AcDbArc
 50
137.5703041244
 51
222.4296958756
  0
LINE
  5
177
330
E8
100
AcDbEntity
  8
U111
  6
Continuous
 62
     7
100
AcDbLine
 10
89.0296442342
 20
134.8411904409
 30
0.0
 11
81.3409386986
 21
134.8411904409
 31
0.0
  0
LINE
  5
178
330
E8
100
AcDbEntity
  8
U111
  6
Continuous
 62
     7
100
AcDbLine
 10
74.5296442342
 20
134.8411904409
 30
0.0
 11
66.8409386986
 21
134.8411904409
 31
0.0
  0
LINE
  5
179
330
E8
100
AcDbEntity
  8
E111
  6
Continuous
 62
     7
100
AcDbLine
 10
109.9352914664
 20
192.5411904409
 30
0.0
 11
109.9352914664
 21
132.5411904409
 31
0.0
  0
LINE
  5
17A
330
E8
100
AcDbEntity
  8
E111
  6
Continuous
 62
     7
100
AcDbLine
 10
107.9352914664
 20
192.5411904409
 30
0.0
 11
107.9352914664
 21
132.5411904409
 31
0.0
  0
LINE
  5
17B
330
E8
100
AcDbEntity
  8
E111
  6
Continuous
 62
     7
100
AcDbLine
 10
107.07026667
 20
192.2666422358
 30
0.0
 11
107.07026667
 21
132.815738646
 31
0.0
  0
LINE
  5
17C
330
E8
100
AcDbEntity
  8
E111
  6
Continuous
 62
     7
100
AcDbLine
 10
98.57026667
 20
186.2666422358
 30
0.0
 11
98.57026667
 21
138.815738646
 31
0.0
  0
LINE
  5
17D
330
E8
100
AcDbEntity
  8
E111
  6
Continuous
 62
     7
100
AcDbLine
 10
97.9352914664
 20
185.0411904409
 30
0.0
 11
97.9352914664
 21
140.0411904409
 31
0.0
  0
LINE
  5
17E
330
E8
100
AcDbEntity
  8
E111
  6
Continuous
 62
     7
100
AcDbLine
 10
107.9352914664
 20
132.5411904409
 30
0.0
 11
109.9352914664
 21
132.5411904409
 31
0.0
  0
LINE
  5
17F
330
E8
100
AcDbEntity
  8
E111
  6
Continuous
 62
     7
100
AcDbLine
 10
109.9352914664
 20
192.5411904409
 30
0.0
 11
107.9352914664
 21
192.5411904409
 31
0.0
  0
ARC
  5
180
330
E8
100
AcDbEntity
  8
E111
  6
Continuous
 62
     7
100
AcDbCircle
 10
107.9352914664
 20
134.0411904409
 30
0.0
 40
1.500000000000004
100
AcDbArc
 50
234.7824070318
 51
270.0
  0
ARC
  5
181
330
E8
100
AcDbEntity
  8
E111
  6
Continuous
 62
     7
100
AcDbCircle
 10
107.9352914664
 20
191.0411904409
 30
0.0
 40
1.500000000000001
100
AcDbArc
 50
90.0
 51
125.2175929682
  0
LINE
  5
182
330
E8
100
AcDbEntity
  8
E111
  6
Continuous
 62
     7
100
AcDbLine
 10
107.07026667
 20
192.2666422358
 30
0.0
 11
98.57026667
 21
186.2666422358
 31
0.0
  0
LINE
  5
183
330
E8
100
AcDbEntity
  8
E111
  6
Continuous
 62
     7
100
AcDbLine
 10
98.57026667
 20
138.815738646
 30
0.0
 11
107.07026667
 21
132.815738646
 31
0.0
  0
ARC
  5
184
330
E8
100
AcDbEntity
  8
E111
  6
Continuous
 62
     7
100
AcDbCircle
 10
99.4352914664
 20
140.0411904409
 30
0.0
 40
1.500000000000001
100
AcDbArc
 50
180.0
 51
234.7824070318
  0
ARC
  5
185
330
E8
100
AcDbEntity
  8
E111
  6
Continuous
 62
     7
100
AcDbCircle
 10
99.4352914664
 20
185.0411904409
 30
0.0
 40
1.500000000000001
100
AcDbArc
 50
125.2175929682
 51
180.0
  0
ENDBLK
  5
187
330
E8
100
AcDbEntity
  8
0
100
AcDbBlockEnd
  0
BLOCK
  5
18A
330
189
100
AcDbEntity
  8
0
100
AcDbBlockBegin
  2
_OBLIQUE
 70
     0
 10
0.0
 20
0.0
 30
0.0
  3
_OBLIQUE
  1

  0
LINE
  5
18C
330
189
100
AcDbEntity
  8
0
  6
ByBlock
 62
     0
370
    -2
100
AcDbLine
 10
-0.5
 20
-0.5
 30
0.0
 11
0.5
 21
0.5
 31
0.0
  0
ENDBLK
  5
18B
330
189
100
AcDbEntity
  8
0
100
AcDbBlockEnd
  0
BLOCK
  5
18E
330
18D
100
AcDbEntity
  8
0
100
AcDbBlockBegin
  2
_DOT
 70
     0
 10
0.0
 20
0.0
 30
0.0
  3
_DOT
  1

  0
POLYLINE
  5
190
330
18D
100
AcDbEntity
  8
0
  6
ByBlock
 62
     0
100
AcDb2dPolyline
 66
     1
 10
0.0
 20
0.0
 30
0.0
 70
     1
 40
0.5
 41
0.5
  0
VERTEX
  5
192
330
190
100
AcDbEntity
  8
0
  6
ByBlock
 62
     0
100
AcDbVertex
100
AcDb2dVertex
 10
-0.25
 20
0.0
 30
0.0
 42
1.0
  0
VERTEX
  5
193
330
190
100
AcDbEntity
  8
0
  6
ByBlock
 62
     0
100
AcDbVertex
100
AcDb2dVertex
 10
0.25
 20
0.0
 30
0.0
 42
1.0
  0
SEQEND
  5
194
330
190
100
AcDbEntity
  8
0
  6
ByBlock
 62
     0
  0
LINE
  5
191
330
18D
100
AcDbEntity
  8
0
  6
ByBlock
 62
     0
370
    -2
100
AcDbLine
 10
-0.5
 20
0.0
 30
0.0
 11
-1.0
 21
0.0
 31
0.0
  0
ENDBLK
  5
18F
330
18D
100
AcDbEntity
  8
0
100
AcDbBlockEnd
  0
BLOCK
  5
198
330
195
100
AcDbEntity
  8
0
100
AcDbBlockBegin
  2
_SE_FILLED
 70
     0
 10
0.0
 20
0.0
 30
0.0
  3
_SE_FILLED
  1

  0
SOLID
  5
196
330
195
100
AcDbEntity
  8
0
 62
     0
100
AcDbTrace
 10
0.0
 20
0.0
 30
0.0
 11
-1.0
 21
-0.1665
 31
0.0
 12
-1.0
 22
0.1665
 32
0.0
 13
0.0
 23
0.0
 33
0.0
  0
LINE
  5
197
330
195
100
AcDbEntity
  8
0
 62
     0
100
AcDbLine
 10
0.0
 20
0.0
 30
0.0
 11
-1.0
 21
0.0
 31
0.0
  0
ENDBLK
  5
199
330
195
100
AcDbEntity
  8
0
100
AcDbBlockEnd
  0
BLOCK
  5
1A4
330
19D
100
AcDbEntity
  8
0
100
AcDbBlockBegin
  2
DMBLK4
 70
     0
 10
0.0
 20
0.0
 30
0.0
  3
DMBLK4
  1

  0
HATCH
  5
19E
330
19D
100
AcDbEntity
  8
Cartouche
  6
Continuous
 62
     7
100
AcDbHatch
 10
0.0
 20
0.0
 30
0.0
210
0.0
220
0.0
230
1.0
  2
SOLID
 70
     1
 71
     0
 91
        1
 92
        1
 93
        3
 72
     1
 10
15.60209835549218
 20
186.5411903366142
 11
19.60209839026155
 21
186.5411903366142
 72
     1
 10
19.60209839026155
 20
186.5411903366142
 11
17.60209837287686
 21
198.5411904409224
 72
     1
 10
17.60209837287686
 20
198.5411904409224
 11
15.60209835549218
 21
186.5411903366142
 97
        0
 75
     0
 76
     1
 98
        0
  0
HATCH
  5
19F
330
19D
100
AcDbEntity
  8
Cartouche
  6
Continuous
 62
     7
100
AcDbHatch
 10
0.0
 20
0.0
 30
0.0
210
0.0
220
0.0
230
1.0
  2
SOLID
 70
     1
 71
     0
 91
        1
 92
        1
 93
        3
 72
     1
 10
15.60209835549218
 20
138.541193644672
 11
17.60209837287687
 21
126.5411935403639
 72
     1
 10
17.60209837287686
 20
126.5411935403639
 11
19.60209839026155
 21
138.5411936446721
 72
     1
 10
19.60209839026155
 20
138.541193644672
 11
15.60209835549218
 21
138.541193644672
 97
        0
 75
     0
 76
     1
 98
        0
  0
LINE
  5
1A0
330
19D
100
AcDbEntity
  8
Cartouche
  6
Continuous
 62
     7
100
AcDbLine
 10
63.0352913524
 20
198.5411904409
 30
0.0
 11
16.0020984133
 21
198.5411904409
 31
0.0
  0
LINE
  5
1A1
330
19D
100
AcDbEntity
  8
Cartouche
  6
Continuous
 62
     7
100
AcDbLine
 10
63.0352914456
 20
126.5411904409
 30
0.0
 11
16.0020984133
 21
126.5411904409
 31
0.0
  0
LINE
  5
1A2
330
19D
100
AcDbEntity
  8
Cartouche
  6
Continuous
 62
     7
100
AcDbLine
 10
17.6020983729
 20
198.5411904409
 30
0.0
 11
17.6020983729
 21
126.5411935404
 31
0.0
  0
TEXT
  5
1A3
330
19D
100
AcDbEntity
  8
Cartouche
  6
Continuous
 62
     7
100
AcDbText
 10
15.6020983729
 20
156.4967475462
 30
0.0
 40
8.0
  1
72
 50
90.0
  7
SEACAD_arial_ttfB
 11
7.6020983729
 21
156.4967475462
 31
0.0
100
AcDbText
 73
     3
  0
ENDBLK
  5
1A5
330
19D
100
AcDbEntity
  8
0
100
AcDbBlockEnd
  0
BLOCK
  5
1AE
330
1A7
100
AcDbEntity
  8
0
100
AcDbBlockBegin
  2
DMBLK5
 70
     0
 10
0.0
 20
0.0
 30
0.0
  3
DMBLK5
  1

  0
HATCH
  5
1A8
330
1A7
100
AcDbEntity
  8
Cartouche
  6
Continuous
 62
     7
100
AcDbHatch
 10
0.0
 20
0.0
 30
0.0
210
0.0
220
0.0
230
1.0
  2
SOLID
 70
     1
 71
     0
 91
        1
 92
        1
 93
        3
 72
     1
 10
121.9352915707233
 20
213.3140756616686
 11
109.9352914664152
 21
211.3140756442839
 72
     1
 10
109.9352914664152
 20
211.3140756442839
 11
121.9352915707233
 21
209.3140756268992
 72
     1
 10
121.9352915707233
 20
209.3140756268992
 11
121.9352915707233
 21
213.3140756616686
 97
        0
 75
     0
 76
     1
 98
        0
  0
HATCH
  5
1A9
330
1A7
100
AcDbEntity
  8
Cartouche
  6
Continuous
 62
     7
100
AcDbHatch
 10
0.0
 20
0.0
 30
0.0
210
0.0
220
0.0
230
1.0
  2
SOLID
 70
     1
 71
     0
 91
        1
 92
        1
 93
        3
 72
     1
 10
65.93529136210702
 20
213.3140756616686
 11
65.93529136210702
 21
209.3140756268992
 72
     1
 10
65.93529136210702
 20
209.3140756268992
 11
77.93529146641515
 21
211.3140756442839
 72
     1
 10
77.93529146641515
 20
211.3140756442839
 11
65.93529136210702
 21
213.3140756616686
 97
        0
 75
     0
 76
     1
 98
        0
  0
LINE
  5
1AA
330
1A7
100
AcDbEntity
  8
Cartouche
  6
Continuous
 62
     7
100
AcDbLine
 10
109.9352914664
 20
194.9411905549
 30
0.0
 11
109.9352914664
 21
212.9140756039
 31
0.0
  0
LINE
  5
1AB
330
1A7
100
AcDbEntity
  8
Cartouche
  6
Continuous
 62
     7
100
AcDbLine
 10
77.9352914664
 20
151.6437896147
 30
0.0
 11
77.9352914664
 21
212.9140756039
 31
0.0
  0
LINE
  5
1AC
330
1A7
100
AcDbEntity
  8
Cartouche
  6
Continuous
 62
     7
100
AcDbLine
 10
133.935291675
 20
211.3140756443
 30
0.0
 11
53.9352897379
 21
211.3140756443
 31
0.0
  0
TEXT
  5
1AD
330
1A7
100
AcDbEntity
  8
Cartouche
  6
Continuous
 62
     7
100
AcDbText
 10
87.890846262
 20
213.3140756443
 30
0.0
 40
8.0
  1
32
  7
SEACAD_arial_ttfB
 11
87.890846262
 21
221.3140756443
 31
0.0
100
AcDbText
 73
     3
  0
ENDBLK
  5
1AF
330
1A7
100
AcDbEntity
  8
0
100
AcDbBlockEnd
  0
BLOCK
  5
1B8
330
1B1
100
AcDbEntity
  8
0
100
AcDbBlockBegin
  2
DMBLK6
 70
     0
 10
0.0
 20
0.0
 30
0.0
  3
DMBLK6
  1

  0
HATCH
  5
1B2
330
1B1
100
AcDbEntity
  8
Cartouche
  6
Continuous
 62
     7
100
AcDbHatch
 10
0.0
 20
0.0
 30
0.0
210
0.0
220
0.0
230
1.0
  2
SOLID
 70
     1
 71
     0
 91
        1
 92
        1
 93
        3
 72
     1
 10
97.93529136210705
 20
227.6349446604345
 11
97.93529136210705
 21
223.6349446256652
 72
     1
 10
97.93529136210705
 20
223.6349446256652
 11
109.9352914664152
 21
225.6349446430498
 72
     1
 10
109.9352914664152
 20
225.6349446430498
 11
97.93529136210705
 21
227.6349446604345
 97
        0
 75
     0
 76
     1
 98
        0
  0
HATCH
  5
1B3
330
1B1
100
AcDbEntity
  8
Cartouche
  6
Continuous
 62
     7
100
AcDbHatch
 10
0.0
 20
0.0
 30
0.0
210
0.0
220
0.0
230
1.0
  2
SOLID
 70
     1
 71
     0
 91
        1
 92
        1
 93
        3
 72
     1
 10
36.9191452685001
 20
227.6349446604345
 11
24.91914516419197
 21
225.6349446430498
 72
     1
 10
24.91914516419197
 20
225.6349446430498
 11
36.9191452685001
 21
223.6349446256652
 72
     1
 10
36.9191452685001
 20
223.6349446256652
 11
36.9191452685001
 21
227.6349446604345
 97
        0
 75
     0
 76
     1
 98
        0
  0
LINE
  5
1B4
330
1B1
100
AcDbEntity
  8
Cartouche
  6
Continuous
 62
     7
100
AcDbLine
 10
109.9352914664
 20
194.9411905549
 30
0.0
 11
109.9352914664
 21
227.2349446026
 31
0.0
  0
LINE
  5
1B5
330
1B1
100
AcDbEntity
  8
Cartouche
  6
Continuous
 62
     7
100
AcDbLine
 10
24.9191480405
 20
164.9411905549
 30
0.0
 11
24.9191480405
 21
227.2349446026
 31
0.0
  0
LINE
  5
1B6
330
1B1
100
AcDbEntity
  8
Cartouche
  6
Continuous
 62
     7
100
AcDbLine
 10
109.9352914664
 20
225.634944643
 30
0.0
 11
24.9191451642
 21
225.634944643
 31
0.0
  0
TEXT
  5
1B7
330
1B1
100
AcDbEntity
  8
Cartouche
  6
Continuous
 62
     7
100
AcDbText
 10
58.5827738709
 20
227.634944643
 30
0.0
 40
8.0
  1
86
  7
SEACAD_arial_ttfB
 11
58.5827738709
 21
235.634944643
 31
0.0
100
AcDbText
 73
     3
  0
ENDBLK
  5
1B9
330
1B1
100
AcDbEntity
  8
0
100
AcDbBlockEnd
  0
BLOCK
  5
1C3
330
1BA
100
AcDbEntity
  8
0
100
AcDbBlockBegin
  2
GDimGGroup
 70
     0
 10
0.0
 20
0.0
 30
0.0
  3
GDimGGroup
  1

  0
HATCH
  5
1BC
330
1BA
100
AcDbEntity
  8
Cartouche
  6
Continuous
 62
     7
100
AcDbHatch
 10
0.0
 20
0.0
 30
0.0
210
0.0
220
0.0
230
1.0
  2
SOLID
 70
     1
 71
     0
 91
        1
 92
        1
 93
        3
 72
     1
 10
134.0709403602285
 20
180.5411903366142
 11
132.0709403428438
 21
192.5411904409224
 72
     1
 10
132.0709403428438
 20
192.5411904409224
 11
130.0709403254591
 21
180.5411903366142
 72
     1
 10
130.0709403254591
 20
180.5411903366142
 11
134.0709403602285
 21
180.5411903366142
 97
        0
 75
     0
 76
     1
 98
        0
  0
HATCH
  5
1BD
330
1BA
100
AcDbEntity
  8
Cartouche
  6
Continuous
 62
     7
100
AcDbHatch
 10
0.0
 20
0.0
 30
0.0
210
0.0
220
0.0
230
1.0
  2
SOLID
 70
     1
 71
     0
 91
        1
 92
        1
 93
        3
 72
     1
 10
134.0709403602285
 20
144.541191886335
 11
130.0709403254591
 21
144.541191886335
 72
     1
 10
130.0709403254591
 20
144.541191886335
 11
132.0709403428438
 21
132.5411917820269
 72
     1
 10
132.0709403428438
 20
132.5411917820269
 11
134.0709403602285
 21
144.541191886335
 97
        0
 75
     0
 76
     1
 98
        0
  0
LINE
  5
1BE
330
1BA
100
AcDbEntity
  8
Cartouche
  6
Continuous
 62
     7
100
AcDbLine
 10
112.3352915804
 20
192.5411904409
 30
0.0
 11
133.6709403024
 21
192.5411904409
 31
0.0
  0
LINE
  5
1BF
330
1BA
100
AcDbEntity
  8
Cartouche
  6
Continuous
 62
     7
100
AcDbLine
 10
112.3352915804
 20
132.5411904409
 30
0.0
 11
133.6709403024
 21
132.5411904409
 31
0.0
  0
LINE
  5
1C0
330
1BA
100
AcDbEntity
  8
Cartouche
  6
Continuous
 62
     7
100
AcDbLine
 10
132.0709403428
 20
192.5411904409
 30
0.0
 11
132.0709403428
 21
132.541191782
 31
0.0
  0
TEXT
  5
1C1
330
1BA
100
AcDbEntity
  8
Cartouche
  6
Continuous
 62
     7
100
AcDbText
 10
130.0709403428
 20
149.4679257063
 30
0.0
 40
8.0
  1
O
 50
90.0
  7
SEACAD_semeca1_ttfB
 11
122.0709403428
 21
149.4679257063
 31
0.0
100
AcDbText
 73
     3
  0
TEXT
  5
1C2
330
1BA
100
AcDbEntity
  8
Cartouche
  6
Continuous
 62
     7
100
AcDbText
 10
130.0709403428
 20
163.5255676277
 30
0.0
 40
8.0
  1
60
 50
90.0
  7
SEACAD_arial_ttfB
 11
122.0709403428
 21
163.5255676277
 31
0.0
100
AcDbText
 73
     3
  0
ENDBLK
  5
1C4
330
1BA
100
AcDbEntity
  8
0
100
AcDbBlockEnd
  0
ENDSEC
  0
SECTION
  2
ENTITIES
  0
LINE
  5
3C
330
1F
100
AcDbEntity
  8
encadrement
  6
Continuous
 62
     7
100
AcDbLine
 10
10.0
 20
80.035459542
 30
0.0
 11
200.0
 21
80.035459542
 31
0.0
  0
LINE
  5
3D
330
1F
100
AcDbEntity
  8
encadrement
  6
Continuous
 62
     7
100
AcDbLine
 10
10.0
 20
65.035459542
 30
0.0
 11
200.0
 21
65.035459542
 31
0.0
  0
LINE
  5
3E
330
1F
100
AcDbEntity
  8
encadrement
  6
Continuous
 62
     7
100
AcDbLine
 10
10.0
 20
55.035459542
 30
0.0
 11
200.0
 21
55.035459542
 31
0.0
  0
LINE
  5
3F
330
1F
100
AcDbEntity
  8
encadrement
  6
Continuous
 62
     7
100
AcDbLine
 10
10.0
 20
45.035459542
 30
0.0
 11
200.0
 21
45.035459542
 31
0.0
  0
LINE
  5
40
330
1F
100
AcDbEntity
  8
encadrement
  6
Continuous
 62
     7
100
AcDbLine
 10
10.0
 20
35.035459542
 30
0.0
 11
200.0
 21
35.035459542
 31
0.0
  0
INSERT
  5
43
330
1F
100
AcDbEntity
  8
Défaut
100
AcDbBlockReference
  2
SEANNOT_GROUP
 10
0.0
 20
0.0
 30
0.0
  0
INSERT
  5
6B
330
1F
100
AcDbEntity
  8
Défaut
100
AcDbBlockReference
  2
SEANNOT_GROUP1
 10
0.0
 20
0.0
 30
0.0
  0
INSERT
  5
70
330
1F
100
AcDbEntity
  8
Défaut
100
AcDbBlockReference
  2
SEANNOT_GROUP2
 10
0.0
 20
0.0
 30
0.0
  0
INSERT
  5
75
330
1F
100
AcDbEntity
  8
Défaut
100
AcDbBlockReference
  2
SEANNOT_GROUP3
 10
0.0
 20
0.0
 30
0.0
  0
INSERT
  5
7B
330
1F
100
AcDbEntity
  8
Cartouche
100
AcDbBlockReference
  2
SEANNOT_GROUP4
 10
0.0
 20
0.0
 30
0.0
  0
INSERT
  5
86
330
1F
100
AcDbEntity
  8
Cartouche
100
AcDbBlockReference
  2
SE
 10
0.0
 20
0.0
 30
0.0
  0
INSERT
  5
E9
330
1F
100
AcDbEntity
  8
Cartouche
100
AcDbBlockReference
  2
SE1
 10
0.0
 20
0.0
 30
0.0
  0
DIMENSION
  5
19C
330
1F
100
AcDbEntity
  8
Cartouche
  6
Continuous
 62
     7
100
AcDbDimension
  2
DMBLK4
 10
17.6020983729
 20
126.5411904409
 30
0.0
 11
17.6020983729
 21
162.5411919906
 31
0.0
 70
   160
  1
\A1;<>
 71
     5
 42
-1.0
  3
presto
100
AcDbAlignedDimension
 13
65.4352914664
 23
198.5411904409
 33
0.0
 14
90.4352914664
 24
126.5411904409
 34
0.0
 50
90.0
100
AcDbRotatedDimension
  0
DIMENSION
  5
1A6
330
1F
100
AcDbEntity
  8
Cartouche
  6
Continuous
 62
     7
100
AcDbDimension
  2
DMBLK5
 10
77.9352914664
 20
211.3140756443
 30
0.0
 11
93.9352907065
 21
211.3140756443
 31
0.0
 70
   160
  1
\A1;<>
 71
     5
 42
-1.0
  3
presto
100
AcDbAlignedDimension
 13
109.9352914664
 23
192.5411904409
 33
0.0
 14
77.9352914664
 24
202.5411904409
 34
0.0
100
AcDbRotatedDimension
  0
DIMENSION
  5
1B0
330
1F
100
AcDbEntity
  8
Cartouche
  6
Continuous
 62
     7
100
AcDbDimension
  2
DMBLK6
 10
24.9191480405
 20
225.634944643
 30
0.0
 11
67.4272183153
 21
225.634944643
 31
0.0
 70
   160
  1
\A1;86 {}
 71
     5
 42
-1.0
  3
presto
100
AcDbAlignedDimension
 13
109.9352914664
 23
192.5411904409
 33
0.0
 14
24.9191480405
 24
162.5411904409
 34
0.0
100
AcDbRotatedDimension
  0
INSERT
  5
1BB
330
1F
100
AcDbEntity
  8
Cartouche
100
AcDbBlockReference
  2
GDimGGroup
 10
0.0
 20
0.0
 30
0.0
  0
ENDSEC
  0
SECTION
  2
OBJECTS
  0
DICTIONARY
  5
C
330
0
100
AcDbDictionary
281
     1
  3
ACAD_GROUP
350
D
  3
ACAD_LAYOUT
350
1A
  3
ACAD_MLEADERSTYLE
350
1C7
  3
ACAD_MLINESTYLE
350
17
  3
ACAD_PLOTSETTINGS
350
19
  3
ACAD_PLOTSTYLENAME
350
E
  3
ACAD_SCALELIST
350
44
  3
ACAD_VISUALSTYLE
350
2A
  3
AcDbVariableDictionary
350
1C5
  0
DICTIONARY
  5
D
102
{ACAD_REACTORS
330
C
102
}
330
C
100
AcDbDictionary
281
     1
  0
DICTIONARY
  5
1A
102
{ACAD_REACTORS
330
C
102
}
330
C
100
AcDbDictionary
281
     1
  3
Layout1
350
1E
  3
Model
350
22
  0
DICTIONARY
  5
1C7
102
{ACAD_REACTORS
330
C
102
}
330
C
100
AcDbDictionary
281
     1
  0
DICTIONARY
  5
17
102
{ACAD_REACTORS
330
C
102
}
330
C
100
AcDbDictionary
281
     1
  3
Standard
350
18
  0
DICTIONARY
  5
19
102
{ACAD_REACTORS
330
C
102
}
330
C
100
AcDbDictionary
281
     1
  0
ACDBDICTIONARYWDFLT
  5
E
102
{ACAD_REACTORS
330
C
102
}
330
C
100
AcDbDictionary
281
     1
  3
Normal
350
F
100
AcDbDictionaryWithDefault
340
F
  0
DICTIONARY
  5
44
102
{ACAD_REACTORS
330
C
102
}
330
C
100
AcDbDictionary
281
     1
  3
A0
350
45
  3
A1
350
46
  3
A2
350
47
  3
A3
350
48
  3
A4
350
49
  3
A5
350
4A
  3
A6
350
4B
  3
A7
350
4C
  3
A8
350
4D
  3
A9
350
4E
  3
B0
350
4F
  3
B1
350
50
  3
B2
350
51
  3
B3
350
52
  3
B4
350
53
  3
B5
350
54
  3
B6
350
55
  3
B7
350
56
  3
B8
350
57
  3
B9
350
58
  3
C0
350
59
  3
C1
350
5A
  3
C2
350
5B
  3
C3
350
5C
  3
C4
350
5D
  3
C5
350
5E
  3
C6
350
5F
  3
C7
350
60
  3
C8
350
61
  3
C9
350
62
  3
D0
350
63
  3
D1
350
64
  3
D2
350
65
  0
DICTIONARY
  5
2A
102
{ACAD_REACTORS
330
C
102
}
330
C
100
AcDbDictionary
281
     1
  3
2dWireframe
350
2F
  3
3D Hidden
350
31
  3
3dWireframe
350
30
  3
Basic
350
32
  3
Brighten
350
36
  3
ColorChange
350
3A
  3
Conceptual
350
34
  3
Dim
350
35
  3
Facepattern
350
39
  3
Flat
350
2B
  3
FlatWithEdges
350
2C
  3
Gouraud
350
2D
  3
GouraudWithEdges
350
2E
  3
Linepattern
350
38
  3
Realistic
350
33
  3
Thicken
350
37
  0
DICTIONARY
  5
1C5
102
{ACAD_REACTORS
330
C
102
}
330
C
100
AcDbDictionary
281
     1
  3
CANNOSCALE
350
1CA
  3
PSOLHEIGHT
350
1C9
  3
PSOLWIDTH
350
1C8
  0
LAYOUT
  5
1E
102
{ACAD_REACTORS
330
1A
102
}
330
1A
100
AcDbPlotSettings
  1

  2
none_device
  4

  6

 40
0.0
 41
0.0
 42
0.0
 43
0.0
 44
0.0
 45
0.0
 46
0.0
 47
0.0
 48
0.0
 49
0.0
140
0.0
141
0.0
142
1.0
143
1.0
 70
   688
 72
     0
 73
     0
 74
     5
  7

 75
    16
147
1.0
148
0.0
149
0.0
100
AcDbLayout
  1
Layout1
 70
     1
 71
     1
 10
0.0
 20
0.0
 11
210.0
 21
297.0
 12
0.0
 22
0.0
 32
0.0
 14
0.0
 24
0.0
 34
0.0
 15
210.0
 25
297.0
 35
0.0
146
0.0
 13
0.0
 23
0.0
 33
0.0
 16
1.0
 26
0.0
 36
0.0
 17
0.0
 27
1.0
 37
0.0
 76
     0
330
1B
  0
LAYOUT
  5
22
102
{ACAD_REACTORS
330
1A
102
}
330
1A
100
AcDbPlotSettings
  1

  2
none_device
  4

  6

 40
0.0
 41
0.0
 42
0.0
 43
0.0
 44
0.0
 45
0.0
 46
0.0
 47
0.0
 48
0.0
 49
0.0
140
0.0
141
0.0
142
1.0
143
1.0
 70
  1712
 72
     0
 73
     0
 74
     0
  7

 75
     0
147
1.0
148
0.0
149
0.0
100
AcDbLayout
  1
Model
 70
     1
 71
     0
 10
0.0
 20
0.0
 11
210.0
 21
297.0
 12
0.0
 22
0.0
 32
0.0
 14
0.0
 24
0.0
 34
0.0
 15
210.0
 25
297.0
 35
0.0
146
0.0
 13
0.0
 23
0.0
 33
0.0
 16
1.0
 26
0.0
 36
0.0
 17
0.0
 27
1.0
 37
0.0
 76
     0
330
1F
331
29
  0
MLINESTYLE
  5
18
102
{ACAD_REACTORS
330
17
102
}
330
17
100
AcDbMlineStyle
  2
Standard
 70
     0
  3

 62
   256
 51
90.0
 52
90.0
 71
     2
 49
0.5
 62
   256
  6
BYLAYER
 49
-0.5
 62
   256
  6
BYLAYER
  0
ACDBPLACEHOLDER
  5
F
102
{ACAD_REACTORS
330
E
102
}
330
E
  0
SCALE
  5
45
102
{ACAD_REACTORS
330
44
102
}
330
44
100
AcDbScale
 70
     0
300
1:1
140
1.0
141
1.0
290
     1
  0
SCALE
  5
46
102
{ACAD_REACTORS
330
44
102
}
330
44
100
AcDbScale
 70
     0
300
1:2
140
1.0
141
2.0
290
     0
  0
SCALE
  5
47
102
{ACAD_REACTORS
330
44
102
}
330
44
100
AcDbScale
 70
     0
300
1:4
140
1.0
141
4.0
290
     0
  0
SCALE
  5
48
102
{ACAD_REACTORS
330
44
102
}
330
44
100
AcDbScale
 70
     0
300
1:5
140
1.0
141
5.0
290
     0
  0
SCALE
  5
49
102
{ACAD_REACTORS
330
44
102
}
330
44
100
AcDbScale
 70
     0
300
1:8
140
1.0
141
8.0
290
     0
  0
SCALE
  5
4A
102
{ACAD_REACTORS
330
44
102
}
330
44
100
AcDbScale
 70
     0
300
1:10
140
1.0
141
10.0
290
     0
  0
SCALE
  5
4B
102
{ACAD_REACTORS
330
44
102
}
330
44
100
AcDbScale
 70
     0
300
1:16
140
1.0
141
16.0
290
     0
  0
SCALE
  5
4C
102
{ACAD_REACTORS
330
44
102
}
330
44
100
AcDbScale
 70
     0
300
1:20
140
1.0
141
20.0
290
     0
  0
SCALE
  5
4D
102
{ACAD_REACTORS
330
44
102
}
330
44
100
AcDbScale
 70
     0
300
1:30
140
1.0
141
30.0
290
     0
  0
SCALE
  5
4E
102
{ACAD_REACTORS
330
44
102
}
330
44
100
AcDbScale
 70
     0
300
1:40
140
1.0
141
40.0
290
     0
  0
SCALE
  5
4F
102
{ACAD_REACTORS
330
44
102
}
330
44
100
AcDbScale
 70
     0
300
1:50
140
1.0
141
50.0
290
     0
  0
SCALE
  5
50
102
{ACAD_REACTORS
330
44
102
}
330
44
100
AcDbScale
 70
     0
300
1:100
140
1.0
141
100.0
290
     0
  0
SCALE
  5
51
102
{ACAD_REACTORS
330
44
102
}
330
44
100
AcDbScale
 70
     0
300
2:1
140
2.0
141
1.0
290
     0
  0
SCALE
  5
52
102
{ACAD_REACTORS
330
44
102
}
330
44
100
AcDbScale
 70
     0
300
4:1
140
4.0
141
1.0
290
     0
  0
SCALE
  5
53
102
{ACAD_REACTORS
330
44
102
}
330
44
100
AcDbScale
 70
     0
300
8:1
140
8.0
141
1.0
290
     0
  0
SCALE
  5
54
102
{ACAD_REACTORS
330
44
102
}
330
44
100
AcDbScale
 70
     0
300
10:1
140
10.0
141
1.0
290
     0
  0
SCALE
  5
55
102
{ACAD_REACTORS
330
44
102
}
330
44
100
AcDbScale
 70
     0
300
100:1
140
100.0
141
1.0
290
     0
  0
SCALE
  5
56
102
{ACAD_REACTORS
330
44
102
}
330
44
100
AcDbScale
 70
     0
300
1/128" = 1'-0"
140
0.0078125
141
12.0
290
     0
  0
SCALE
  5
57
102
{ACAD_REACTORS
330
44
102
}
330
44
100
AcDbScale
 70
     0
300
1/64" = 1'-0"
140
0.015625
141
12.0
290
     0
  0
SCALE
  5
58
102
{ACAD_REACTORS
330
44
102
}
330
44
100
AcDbScale
 70
     0
300
1/32" = 1'-0"
140
0.03125
141
12.0
290
     0
  0
SCALE
  5
59
102
{ACAD_REACTORS
330
44
102
}
330
44
100
AcDbScale
 70
     0
300
1/16" = 1'-0"
140
0.0625
141
12.0
290
     0
  0
SCALE
  5
5A
102
{ACAD_REACTORS
330
44
102
}
330
44
100
AcDbScale
 70
     0
300
3/32" = 1'-0"
140
0.09375
141
12.0
290
     0
  0
SCALE
  5
5B
102
{ACAD_REACTORS
330
44
102
}
330
44
100
AcDbScale
 70
     0
300
1/8" = 1'-0"
140
0.125
141
12.0
290
     0
  0
SCALE
  5
5C
102
{ACAD_REACTORS
330
44
102
}
330
44
100
AcDbScale
 70
     0
300
3/16" = 1'-0"
140
0.1875
141
12.0
290
     0
  0
SCALE
  5
5D
102
{ACAD_REACTORS
330
44
102
}
330
44
100
AcDbScale
 70
     0
300
1/4" = 1'-0"
140
0.25
141
12.0
290
     0
  0
SCALE
  5
5E
102
{ACAD_REACTORS
330
44
102
}
330
44
100
AcDbScale
 70
     0
300
3/8" = 1'-0"
140
0.375
141
12.0
290
     0
  0
SCALE
  5
5F
102
{ACAD_REACTORS
330
44
102
}
330
44
100
AcDbScale
 70
     0
300
1/2" = 1'-0"
140
0.5
141
12.0
290
     0
  0
SCALE
  5
60
102
{ACAD_REACTORS
330
44
102
}
330
44
100
AcDbScale
 70
     0
300
3/4" = 1'-0"
140
0.75
141
12.0
290
     0
  0
SCALE
  5
61
102
{ACAD_REACTORS
330
44
102
}
330
44
100
AcDbScale
 70
     0
300
1" = 1'-0"
140
1.0
141
12.0
290
     0
  0
SCALE
  5
62
102
{ACAD_REACTORS
330
44
102
}
330
44
100
AcDbScale
 70
     0
300
1-1/2" = 1'-0"
140
1.5
141
12.0
290
     0
  0
SCALE
  5
63
102
{ACAD_REACTORS
330
44
102
}
330
44
100
AcDbScale
 70
     0
300
3" = 1'-0"
140
3.0
141
12.0
290
     0
  0
SCALE
  5
64
102
{ACAD_REACTORS
330
44
102
}
330
44
100
AcDbScale
 70
     0
300
6" = 1'-0"
140
6.0
141
12.0
290
     0
  0
SCALE
  5
65
102
{ACAD_REACTORS
330
44
102
}
330
44
100
AcDbScale
 70
     0
300
1'-0" = 1'-0"
140
12.0
141
12.0
290
     0
  0
VISUALSTYLE
  5
2F
102
{ACAD_REACTORS
330
2A
102
}
330
2A
100
AcDbVisualStyle
  2
2dWireframe
 70
     4
 71
     0
 72
     2
 73
     0
 90
        0
 40
-0.6
 41
-30.0
 62
     5
 63
     7
 74
     1
 91
        4
 64
     7
 65
   257
 75
     1
175
     1
 42
1.0
 92
        0
 66
   257
 43
1.0
 76
     1
 77
     6
 78
     2
 67
     7
 79
     5
170
     0
171
     0
290
     0
174
     0
 93
        1
 44
0.0
173
     0
291
     0
 45
0.0
1001
ACAD
1000
AcDbSavedByObjectVersion
1070
     0
  0
VISUALSTYLE
  5
31
102
{ACAD_REACTORS
330
2A
102
}
330
2A
100
AcDbVisualStyle
  2
3D Hidden
 70
     6
 71
     1
 72
     2
 73
     2
 90
        0
 40
-0.6
 41
-30.0
 62
     5
 63
     7
 74
     2
 91
        2
 64
     7
 65
   257
 75
     2
175
     1
 42
40.0
 92
        0
 66
   257
 43
1.0
 76
     1
 77
     6
 78
     2
 67
     7
 79
     3
170
     0
171
     0
290
     0
174
     0
 93
        1
 44
0.0
173
     0
291
     0
 45
0.0
1001
ACAD
1000
AcDbSavedByObjectVersion
1070
     0
  0
VISUALSTYLE
  5
30
102
{ACAD_REACTORS
330
2A
102
}
330
2A
100
AcDbVisualStyle
  2
3dWireframe
 70
     5
 71
     0
 72
     2
 73
     0
 90
        0
 40
-0.6
 41
-30.0
 62
     5
 63
     7
 74
     1
 91
        4
 64
     7
 65
   257
 75
     1
175
     1
 42
1.0
 92
        0
 66
   257
 43
1.0
 76
     1
 77
     6
 78
     2
 67
     7
 79
     5
170
     0
171
     0
290
     0
174
     0
 93
        1
 44
0.0
173
     0
291
     0
 45
0.0
1001
ACAD
1000
AcDbSavedByObjectVersion
1070
     0
  0
VISUALSTYLE
  5
32
102
{ACAD_REACTORS
330
2A
102
}
330
2A
100
AcDbVisualStyle
  2
Basic
 70
     7
 71
     1
 72
     0
 73
     1
 90
        0
 40
-0.6
 41
-30.0
 62
     5
 63
     7
 74
     0
 91
        4
 64
     7
 65
   257
 75
     1
175
     1
 42
1.0
 92
        8
 66
     7
 43
1.0
 76
     1
 77
     6
 78
     2
 67
     7
 79
     5
170
     0
171
     0
290
     0
174
     0
 93
        1
 44
0.0
173
     0
291
     1
 45
0.0
1001
ACAD
1000
AcDbSavedByObjectVersion
1070
     0
  0
VISUALSTYLE
  5
36
102
{ACAD_REACTORS
330
2A
102
}
330
2A
100
AcDbVisualStyle
  2
Brighten
 70
    12
 71
     2
 72
     2
 73
     0
 90
        0
 40
-0.6
 41
-30.0
 62
     5
 63
     7
 74
     1
 91
        4
 64
     7
 65
   257
 75
     1
175
     1
 42
1.0
 92
        8
 66
     7
 43
1.0
 76
     1
 77
     6
 78
     2
 67
     7
 79
     5
170
     0
171
     0
290
     0
174
     0
 93
        1
 44
50.0
173
     0
291
     1
 45
0.0
1001
ACAD
1000
AcDbSavedByObjectVersion
1070
     0
  0
VISUALSTYLE
  5
3A
102
{ACAD_REACTORS
330
2A
102
}
330
2A
100
AcDbVisualStyle
  2
ColorChange
 70
    16
 71
     2
 72
     2
 73
     3
 90
        0
 40
-0.6
 41
-30.0
 62
     5
 63
     8
 74
     1
 91
        4
 64
     7
 65
   257
 75
     1
175
     1
 42
1.0
 92
        8
 66
     8
 43
1.0
 76
     1
 77
     6
 78
     2
 67
     7
 79
     5
170
     0
171
     0
290
     0
174
     0
 93
        1
 44
0.0
173
     0
291
     1
 45
0.0
1001
ACAD
1000
AcDbSavedByObjectVersion
1070
     0
  0
VISUALSTYLE
  5
34
102
{ACAD_REACTORS
330
2A
102
}
330
2A
100
AcDbVisualStyle
  2
Conceptual
 70
     9
 71
     3
 72
     2
 73
     0
 90
        0
 40
-0.6
 41
-30.0
 62
     5
 63
     7
 74
     2
 91
        2
 64
     7
 65
   257
 75
     1
175
     1
 42
40.0
 92
        8
 66
     7
 43
1.0
 76
     1
 77
     6
 78
     2
 67
     7
 79
     3
170
     0
171
     0
290
     0
174
     0
 93
        1
 44
0.0
173
     0
291
     0
 45
0.0
1001
ACAD
1000
AcDbSavedByObjectVersion
1070
     0
  0
VISUALSTYLE
  5
35
102
{ACAD_REACTORS
330
2A
102
}
330
2A
100
AcDbVisualStyle
  2
Dim
 70
    11
 71
     2
 72
     2
 73
     0
 90
        0
 40
-0.6
 41
-30.0
 62
     5
 63
     7
 74
     1
 91
        4
 64
     7
 65
   257
 75
     1
175
     1
 42
1.0
 92
        8
 66
     7
 43
1.0
 76
     1
 77
     6
 78
     2
 67
     7
 79
     5
170
     0
171
     0
290
     0
174
     0
 93
        1
 44
-50.0
173
     0
291
     1
 45
0.0
1001
ACAD
1000
AcDbSavedByObjectVersion
1070
     0
  0
VISUALSTYLE
  5
39
102
{ACAD_REACTORS
330
2A
102
}
330
2A
100
AcDbVisualStyle
  2
Facepattern
 70
    15
 71
     2
 72
     2
 73
     0
 90
        0
 40
-0.6
 41
-30.0
 62
     5
 63
     7
 74
     1
 91
        4
 64
     7
 65
   257
 75
     1
175
     1
 42
1.0
 92
        8
 66
     7
 43
1.0
 76
     1
 77
     6
 78
     2
 67
     7
 79
     5
170
     0
171
     0
290
     0
174
     0
 93
        1
 44
0.0
173
     0
291
     1
 45
0.0
1001
ACAD
1000
AcDbSavedByObjectVersion
1070
     0
  0
VISUALSTYLE
  5
2B
102
{ACAD_REACTORS
330
2A
102
}
330
2A
100
AcDbVisualStyle
  2
Flat
 70
     0
 71
     2
 72
     1
 73
     1
 90
        2
 40
-0.6
 41
30.0
 62
     5
 63
     7
 74
     0
 91
        4
 64
     7
 65
   257
 75
     1
175
     1
 42
1.0
 92
        8
 66
     7
 43
1.0
 76
     1
 77
     6
 78
     2
 67
     7
 79
     5
170
     0
171
     0
290
     0
174
     0
 93
       13
 44
0.0
173
     0
291
     1
 45
0.0
1001
ACAD
1000
AcDbSavedByObjectVersion
1070
     0
  0
VISUALSTYLE
  5
2C
102
{ACAD_REACTORS
330
2A
102
}
330
2A
100
AcDbVisualStyle
  2
FlatWithEdges
 70
     1
 71
     2
 72
     1
 73
     1
 90
        2
 40
-0.6
 41
30.0
 62
     5
 63
     7
 74
     1
 91
        4
 64
     7
 65
   257
 75
     1
175
     1
 42
1.0
 92
        0
 66
   257
 43
1.0
 76
     1
 77
     6
 78
     2
 67
     7
 79
     5
170
     0
171
     0
290
     0
174
     0
 93
       13
 44
0.0
173
     0
291
     1
 45
0.0
1001
ACAD
1000
AcDbSavedByObjectVersion
1070
     0
  0
VISUALSTYLE
  5
2D
102
{ACAD_REACTORS
330
2A
102
}
330
2A
100
AcDbVisualStyle
  2
Gouraud
 70
     2
 71
     2
 72
     2
 73
     1
 90
        2
 40
-0.6
 41
30.0
 62
     5
 63
     7
 74
     0
 91
        4
 64
     7
 65
   257
 75
     1
175
     1
 42
1.0
 92
        0
 66
     7
 43
1.0
 76
     1
 77
     6
 78
     2
 67
     7
 79
     5
170
     0
171
     0
290
     0
174
     0
 93
       13
 44
0.0
173
     0
291
     1
 45
0.0
1001
ACAD
1000
AcDbSavedByObjectVersion
1070
     0
  0
VISUALSTYLE
  5
2E
102
{ACAD_REACTORS
330
2A
102
}
330
2A
100
AcDbVisualStyle
  2
GouraudWithEdges
 70
     3
 71
     2
 72
     2
 73
     1
 90
        2
 40
-0.6
 41
30.0
 62
     5
 63
     7
 74
     1
 91
        4
 64
     7
 65
   257
 75
     1
175
     1
 42
1.0
 92
        0
 66
   257
 43
1.0
 76
     1
 77
     6
 78
     2
 67
     7
 79
     5
170
     0
171
     0
290
     0
174
     0
 93
       13
 44
0.0
173
     0
291
     1
 45
0.0
1001
ACAD
1000
AcDbSavedByObjectVersion
1070
     0
  0
VISUALSTYLE
  5
38
102
{ACAD_REACTORS
330
2A
102
}
330
2A
100
AcDbVisualStyle
  2
Linepattern
 70
    14
 71
     2
 72
     2
 73
     0
 90
        0
 40
-0.6
 41
-30.0
 62
     5
 63
     7
 74
     1
 91
        4
 64
     7
 65
   257
 75
     7
175
     7
 42
1.0
 92
        8
 66
     7
 43
1.0
 76
     1
 77
     6
 78
     2
 67
     7
 79
     5
170
     0
171
     0
290
     0
174
     0
 93
        1
 44
0.0
173
     0
291
     1
 45
0.0
1001
ACAD
1000
AcDbSavedByObjectVersion
1070
     0
  0
VISUALSTYLE
  5
33
102
{ACAD_REACTORS
330
2A
102
}
330
2A
100
AcDbVisualStyle
  2
Realistic
 70
     8
 71
     2
 72
     2
 73
     0
 90
        0
 40
-0.6
 41
-30.0
 62
     5
 63
     7
 74
     1
 91
        0
 64
     7
 65
   257
 75
     1
175
     1
 42
1.0
 92
        8
 66
     8
 43
1.0
 76
     1
 77
     6
 78
     2
 67
     7
 79
     5
170
     0
171
     0
290
     0
174
     0
 93
       13
 44
0.0
173
     0
291
     0
 45
0.0
1001
ACAD
1000
AcDbSavedByObjectVersion
1070
     0
  0
VISUALSTYLE
  5
37
102
{ACAD_REACTORS
330
2A
102
}
330
2A
100
AcDbVisualStyle
  2
Thicken
 70
    13
 71
     2
 72
     2
 73
     0
 90
        0
 40
-0.6
 41
-30.0
 62
     5
 63
     7
 74
     1
 91
        4
 64
     7
 65
   257
 75
     1
175
     1
 42
1.0
 92
       12
 66
     7
 43
1.0
 76
     1
 77
     6
 78
     2
 67
     7
 79
     5
170
     0
171
     0
290
     0
174
     0
 93
        1
 44
0.0
173
     0
291
     1
 45
0.0
1001
ACAD
1000
AcDbSavedByObjectVersion
1070
     0
  0
DICTIONARYVAR
  5
1CA
102
{ACAD_REACTORS
330
1C5
102
}
330
1C5
100
DictionaryVariables
280
     0
  1
1:1
  0
DICTIONARYVAR
  5
1C9
102
{ACAD_REACTORS
330
1C5
102
}
330
1C5
100
DictionaryVariables
280
     0
  1
80.000000
  0
DICTIONARYVAR
  5
1C8
102
{ACAD_REACTORS
330
1C5
102
}
330
1C5
100
DictionaryVariables
280
     0
  1
5.000000
  0
ENDSEC
  0
EOF
