  0
SECTION
  2
HEADER
  9
$ACADVER
  1
AC1015
  9
$ACADMAINTVER
 70
     6
  9
$DWGCODEPAGE
  3
ANSI_1252
  9
$INSBASE
 10
0.0
 20
0.0
 30
0.0
  9
$EXTMIN
 10
0.0
 20
0.0
 30
0.0
  9
$EXTMAX
 10
210.0
 20
297.0
 30
0.0
  9
$LIMMIN
 10
0.0
 20
0.0
  9
$LIMMAX
 10
210.0
 20
297.0
  9
$ORTHOMODE
 70
     0
  9
$REGENMODE
 70
     1
  9
$FILLMODE
 70
     1
  9
$QTEXTMODE
 70
     0
  9
$MIRRTEXT
 70
     1
  9
$LTSCALE
 40
1.0
  9
$ATTMODE
 70
     1
  9
$TEXTSIZE
 40
2.5
  9
$TRACEWID
 40
1.0
  9
$TEXTSTYLE
  7
Standard
  9
$CLAYER
  8
0
  9
$CELTYPE
  6
ByLayer
  9
$CECOLOR
 62
   256
  9
$CELTSCALE
 40
1.0
  9
$DISPSILH
 70
     0
  9
$DIMSCALE
 40
1.0
  9
$DIMASZ
 40
2.5
  9
$DIMEXO
 40
0.625
  9
$DIMDLI
 40
3.75
  9
$DIMRND
 40
0.0
  9
$DIMDLE
 40
0.0
  9
$DIMEXE
 40
1.25
  9
$DIMTP
 40
0.0
  9
$DIMTM
 40
0.0
  9
$DIMTXT
 40
2.5
  9
$DIMCEN
 40
2.5
  9
$DIMTSZ
 40
0.0
  9
$DIMTOL
 70
     0
  9
$DIMLIM
 70
     0
  9
$DIMTIH
 70
     0
  9
$DIMTOH
 70
     0
  9
$DIMSE1
 70
     0
  9
$DIMSE2
 70
     0
  9
$DIMTAD
 70
     1
  9
$DIMZIN
 70
     8
  9
$DIMBLK
  1

  9
$DIMASO
 70
     1
  9
$DIMSHO
 70
     1
  9
$DIMPOST
  1

  9
$DIMAPOST
  1

  9
$DIMALT
 70
     0
  9
$DIMALTD
 70
     3
  9
$DIMALTF
 40
0.0393700787
  9
$DIMLFAC
 40
1.0
  9
$DIMTOFL
 70
     1
  9
$DIMTVP
 40
0.0
  9
$DIMTIX
 70
     0
  9
$DIMSOXD
 70
     0
  9
$DIMSAH
 70
     0
  9
$DIMBLK1
  1

  9
$DIMBLK2
  1

  9
$DIMSTYLE
  2
ISO-25
  9
$DIMCLRD
 70
     0
  9
$DIMCLRE
 70
     0
  9
$DIMCLRT
 70
     0
  9
$DIMTFAC
 40
1.0
  9
$DIMGAP
 40
0.625
  9
$DIMJUST
 70
     0
  9
$DIMSD1
 70
     0
  9
$DIMSD2
 70
     0
  9
$DIMTOLJ
 70
     0
  9
$DIMTZIN
 70
     8
  9
$DIMALTZ
 70
     0
  9
$DIMALTTZ
 70
     0
  9
$DIMUPT
 70
     0
  9
$DIMDEC
 70
     2
  9
$DIMTDEC
 70
     2
  9
$DIMALTU
 70
     2
  9
$DIMALTTD
 70
     3
  9
$DIMTXSTY
  7
Standard
  9
$DIMAUNIT
 70
     0
  9
$DIMADEC
 70
     0
  9
$DIMALTRND
 40
0.0
  9
$DIMAZIN
 70
     0
  9
$DIMDSEP
 70
    44
  9
$DIMATFIT
 70
     3
  9
$DIMFRAC
 70
     0
  9
$DIMLDRBLK
  1

  9
$DIMLUNIT
 70
     2
  9
$DIMLWD
 70
    -2
  9
$DIMLWE
 70
    -2
  9
$DIMTMOVE
 70
     0
  9
$LUNITS
 70
     2
  9
$LUPREC
 70
     4
  9
$SKETCHINC
 40
1.0
  9
$FILLETRAD
 40
10.0
  9
$AUNITS
 70
     0
  9
$AUPREC
 70
     0
  9
$MENU
  1
.
  9
$ELEVATION
 40
0.0
  9
$PELEVATION
 40
0.0
  9
$THICKNESS
 40
0.0
  9
$LIMCHECK
 70
     0
  9
$CHAMFERA
 40
10.0
  9
$CHAMFERB
 40
10.0
  9
$CHAMFERC
 40
20.0
  9
$CHAMFERD
 40
0.0
  9
$SKPOLY
 70
     0
  9
$TDCREATE
 40
2455770.478182303
  9
$TDUCREATE
 40
2455770.39484897
  9
$TDUPDATE
 40
2455770.478182315
  9
$TDUUPDATE
 40
2455770.394848981
  9
$TDINDWG
 40
0.0000000116
  9
$TDUSRTIMER
 40
0.0000000116
  9
$USRTIMER
 70
     1
  9
$ANGBASE
 50
0.0
  9
$ANGDIR
 70
     0
  9
$PDMODE
 70
     0
  9
$PDSIZE
 40
0.0
  9
$PLINEWID
 40
0.0
  9
$SPLFRAME
 70
     0
  9
$SPLINETYPE
 70
     6
  9
$SPLINESEGS
 70
     8
  9
$HANDSEED
  5
E2
  9
$SURFTAB1
 70
     6
  9
$SURFTAB2
 70
     6
  9
$SURFTYPE
 70
     6
  9
$SURFU
 70
     6
  9
$SURFV
 70
     6
  9
$UCSBASE
  2

  9
$UCSNAME
  2

  9
$UCSORG
 10
0.0
 20
0.0
 30
0.0
  9
$UCSXDIR
 10
1.0
 20
0.0
 30
0.0
  9
$UCSYDIR
 10
0.0
 20
1.0
 30
0.0
  9
$UCSORTHOREF
  2

  9
$UCSORTHOVIEW
 70
     0
  9
$UCSORGTOP
 10
0.0
 20
0.0
 30
0.0
  9
$UCSORGBOTTOM
 10
0.0
 20
0.0
 30
0.0
  9
$UCSORGLEFT
 10
0.0
 20
0.0
 30
0.0
  9
$UCSORGRIGHT
 10
0.0
 20
0.0
 30
0.0
  9
$UCSORGFRONT
 10
0.0
 20
0.0
 30
0.0
  9
$UCSORGBACK
 10
0.0
 20
0.0
 30
0.0
  9
$PUCSBASE
  2

  9
$PUCSNAME
  2

  9
$PUCSORG
 10
0.0
 20
0.0
 30
0.0
  9
$PUCSXDIR
 10
1.0
 20
0.0
 30
0.0
  9
$PUCSYDIR
 10
0.0
 20
1.0
 30
0.0
  9
$PUCSORTHOREF
  2

  9
$PUCSORTHOVIEW
 70
     0
  9
$PUCSORGTOP
 10
0.0
 20
0.0
 30
0.0
  9
$PUCSORGBOTTOM
 10
0.0
 20
0.0
 30
0.0
  9
$PUCSORGLEFT
 10
0.0
 20
0.0
 30
0.0
  9
$PUCSORGRIGHT
 10
0.0
 20
0.0
 30
0.0
  9
$PUCSORGFRONT
 10
0.0
 20
0.0
 30
0.0
  9
$PUCSORGBACK
 10
0.0
 20
0.0
 30
0.0
  9
$USERI1
 70
     0
  9
$USERI2
 70
     0
  9
$USERI3
 70
     0
  9
$USERI4
 70
     0
  9
$USERI5
 70
     0
  9
$USERR1
 40
0.0
  9
$USERR2
 40
0.0
  9
$USERR3
 40
0.0
  9
$USERR4
 40
0.0
  9
$USERR5
 40
0.0
  9
$WORLDVIEW
 70
     1
  9
$SHADEDGE
 70
     3
  9
$SHADEDIF
 70
    70
  9
$TILEMODE
 70
     1
  9
$MAXACTVP
 70
    64
  9
$PINSBASE
 10
0.0
 20
0.0
 30
0.0
  9
$PLIMCHECK
 70
     0
  9
$PEXTMIN
 10
0.0
 20
0.0
 30
0.0
  9
$PEXTMAX
 10
210.0
 20
297.0
 30
0.0
  9
$PLIMMIN
 10
0.0
 20
0.0
  9
$PLIMMAX
 10
210.0
 20
297.0
  9
$UNITMODE
 70
     0
  9
$VISRETAIN
 70
     1
  9
$PLINEGEN
 70
     0
  9
$PSLTSCALE
 70
     1
  9
$TREEDEPTH
 70
  3020
  9
$CMLSTYLE
  2
Standard
  9
$CMLJUST
 70
     0
  9
$CMLSCALE
 40
20.0
  9
$PROXYGRAPHICS
 70
     1
  9
$MEASUREMENT
 70
     1
  9
$CELWEIGHT
370
    -1
  9
$ENDCAPS
280
     0
  9
$JOINSTYLE
280
     0
  9
$LWDISPLAY
290
     0
  9
$INSUNITS
 70
     4
  9
$HYPERLINKBASE
  1

  9
$STYLESHEET
  1

  9
$XEDIT
290
     1
  9
$CEPSNTYPE
380
     0
  9
$PSTYLEMODE
290
     1
  9
$FINGERPRINTGUID
  2
{D4C382FD-EC7E-4225-901E-885839ED7E92}
  9
$VERSIONGUID
  2
{FAEB1C32-E019-11D5-929B-00C0DF256EC4}
  9
$EXTNAMES
290
     1
  9
$PSVPSCALE
 40
0.0
  9
$OLESTARTUP
290
     0
  0
ENDSEC
  0
SECTION
  2
CLASSES
  0
CLASS
  1
ACDBDICTIONARYWDFLT
  2
AcDbDictionaryWithDefault
  3
ObjectDBX Classes
 90
        0
280
     0
281
     0
  0
CLASS
  1
VISUALSTYLE
  2
AcDbVisualStyle
  3
ObjectDBX Classes
 90
     4095
280
     0
281
     0
  0
CLASS
  1
SCALE
  2
AcDbScale
  3
ObjectDBX Classes
 90
     1153
280
     0
281
     0
  0
CLASS
  1
DICTIONARYVAR
  2
AcDbDictionaryVar
  3
ObjectDBX Classes
 90
        0
280
     0
281
     0
  0
CLASS
  1
ACDBPLACEHOLDER
  2
AcDbPlaceHolder
  3
ObjectDBX Classes
 90
        0
280
     0
281
     0
  0
CLASS
  1
LAYOUT
  2
AcDbLayout
  3
ObjectDBX Classes
 90
        0
280
     0
281
     0
  0
ENDSEC
  0
SECTION
  2
TABLES
  0
TABLE
  2
VPORT
  5
8
330
0
100
AcDbSymbolTable
 70
     1
  0
VPORT
  5
29
330
8
100
AcDbSymbolTableRecord
100
AcDbViewportTableRecord
  2
*Active
 70
     0
 10
0.0
 20
0.0
 11
1.0
 21
1.0
 12
344.1869158879
 22
148.5
 13
0.0
 23
0.0
 14
10.0
 24
10.0
 15
10.0
 25
10.0
 16
0.0
 26
0.0
 36
1.0
 17
0.0
 27
0.0
 37
0.0
 40
297.0
 41
1.9729729729
 42
50.0
 43
0.0
 44
0.0
 50
0.0
 51
0.0
 71
     0
 72
   100
 73
     1
 74
     3
 75
     0
 76
     0
 77
     0
 78
     0
281
     0
 65
     1
110
0.0
120
0.0
130
0.0
111
1.0
121
0.0
131
0.0
112
0.0
122
1.0
132
0.0
 79
     0
146
0.0
  0
ENDTAB
  0
TABLE
  2
LTYPE
  5
5
330
0
100
AcDbSymbolTable
 70
     1
  0
LTYPE
  5
14
330
5
100
AcDbSymbolTableRecord
100
AcDbLinetypeTableRecord
  2
ByBlock
 70
     0
  3

 72
    65
 73
     0
 40
0.0
  0
LTYPE
  5
15
330
5
100
AcDbSymbolTableRecord
100
AcDbLinetypeTableRecord
  2
ByLayer
 70
     0
  3

 72
    65
 73
     0
 40
0.0
  0
LTYPE
  5
16
330
5
100
AcDbSymbolTableRecord
100
AcDbLinetypeTableRecord
  2
Continuous
 70
     0
  3
Solid line
 72
    65
 73
     0
 40
0.0
  0
ENDTAB
  0
TABLE
  2
LAYER
  5
2
330
0
100
AcDbSymbolTable
 70
     6
  0
LAYER
  5
10
330
2
100
AcDbSymbolTableRecord
100
AcDbLayerTableRecord
  2
0
 70
     0
 62
     7
  6
Continuous
370
    -3
390
F
  0
LAYER
  5
3B
330
2
100
AcDbSymbolTableRecord
100
AcDbLayerTableRecord
  2
encadrement
 70
     1
 62
    -7
  6
Continuous
370
    -3
390
F
  0
LAYER
  5
41
330
2
100
AcDbSymbolTableRecord
100
AcDbLayerTableRecord
  2
Défaut
 70
     0
 62
     7
  6
Continuous
370
    -3
390
F
  0
LAYER
  5
79
330
2
100
AcDbSymbolTableRecord
100
AcDbLayerTableRecord
  2
Cartouche
 70
     0
 62
     7
  6
Continuous
370
    -3
390
F
  0
LAYER
  5
7C
330
2
100
AcDbSymbolTableRecord
100
AcDbLayerTableRecord
  2
U756
 70
     0
 62
     7
  6
Continuous
370
    -3
390
F
  0
LAYER
  5
89
330
2
100
AcDbSymbolTableRecord
100
AcDbLayerTableRecord
  2
U764
 70
     0
 62
     7
  6
Continuous
370
    -3
390
F
  0
ENDTAB
  0
TABLE
  2
STYLE
  5
3
330
0
100
AcDbSymbolTable
 70
     4
  0
STYLE
  5
11
330
3
100
AcDbSymbolTableRecord
100
AcDbTextStyleTableRecord
  2
Standard
 70
     0
 40
0.0
 41
1.0
 50
0.0
 71
     0
 42
2.5
  3
txt
  4

  0
STYLE
  5
66
330
3
100
AcDbSymbolTableRecord
100
AcDbTextStyleTableRecord
  2
SEACAD_arial_ttfB
 70
     0
 40
0.0
 41
1.0
 50
0.0
 71
     0
 42
0.2
  3
arial.ttf
  4

  0
STYLE
  5
AE
330
3
100
AcDbSymbolTableRecord
100
AcDbTextStyleTableRecord
  2
SEACAD_arial_ttf
 70
     0
 40
0.0
 41
1.0
 50
0.0
 71
     0
 42
0.2
  3
arial.ttf
  4

  0
STYLE
  5
B1
330
3
100
AcDbSymbolTableRecord
100
AcDbTextStyleTableRecord
  2
SEACAD_semeca1_ttfB
 70
     0
 40
0.0
 41
1.0
 50
0.0
 71
     0
 42
0.2
  3
semeca1.ttf
  4

  0
ENDTAB
  0
TABLE
  2
VIEW
  5
6
330
0
100
AcDbSymbolTable
 70
     0
  0
ENDTAB
  0
TABLE
  2
UCS
  5
7
330
0
100
AcDbSymbolTable
 70
     0
  0
ENDTAB
  0
TABLE
  2
APPID
  5
9
330
0
100
AcDbSymbolTable
 70
     1
  0
APPID
  5
12
330
9
100
AcDbSymbolTableRecord
100
AcDbRegAppTableRecord
  2
ACAD
 70
     0
  0
ENDTAB
  0
TABLE
  2
DIMSTYLE
  5
A
330
0
100
AcDbSymbolTable
 70
     3
100
AcDbDimStyleTable
  0
DIMSTYLE
105
27
330
A
100
AcDbSymbolTableRecord
100
AcDbDimStyleTableRecord
  2
ISO-25
 70
     0
 41
2.5
 42
0.625
 43
3.75
 44
1.25
 73
     0
 74
     0
 77
     1
 78
     8
140
2.5
141
2.5
143
0.0393700787
147
0.625
171
     3
172
     1
271
     2
272
     2
274
     3
278
    44
283
     0
284
     8
340
11
  0
DIMSTYLE
105
9C
330
A
100
AcDbSymbolTableRecord
100
AcDbDimStyleTableRecord
  2
Standard
 70
     0
340
11
  0
DIMSTYLE
105
AF
102
{ACAD_REACTORS
330
B0
330
BC
330
C7
330
D1
102
}
330
A
100
AcDbSymbolTableRecord
100
AcDbDimStyleTableRecord
  2
presto
 70
     0
 41
12.0
 42
2.4
 44
1.6
 73
     0
 74
     0
 77
     1
 78
     8
140
8.0
141
0.0
147
4.0
172
     1
173
     1
271
     2
272
     2
278
    44
284
     8
340
AE
343
A9
344
A9
  0
ENDTAB
  0
TABLE
  2
BLOCK_RECORD
  5
1
330
0
100
AcDbSymbolTable
 70
    13
  0
BLOCK_RECORD
  5
1F
330
1
100
AcDbSymbolTableRecord
100
AcDbBlockTableRecord
  2
*Model_Space
340
22
  0
BLOCK_RECORD
  5
1B
330
1
100
AcDbSymbolTableRecord
100
AcDbBlockTableRecord
  2
*Paper_Space
340
1E
  0
BLOCK_RECORD
  5
42
330
1
100
AcDbSymbolTableRecord
100
AcDbBlockTableRecord
  2
SEANNOT_GROUP
340
0
102
{BLKREFS
331
43
102
}
  0
BLOCK_RECORD
  5
6A
330
1
100
AcDbSymbolTableRecord
100
AcDbBlockTableRecord
  2
SEANNOT_GROUP1
340
0
102
{BLKREFS
331
6B
102
}
  0
BLOCK_RECORD
  5
6F
330
1
100
AcDbSymbolTableRecord
100
AcDbBlockTableRecord
  2
SEANNOT_GROUP2
340
0
102
{BLKREFS
331
70
102
}
  0
BLOCK_RECORD
  5
74
330
1
100
AcDbSymbolTableRecord
100
AcDbBlockTableRecord
  2
SEANNOT_GROUP3
340
0
102
{BLKREFS
331
75
102
}
  0
BLOCK_RECORD
  5
7A
330
1
100
AcDbSymbolTableRecord
100
AcDbBlockTableRecord
  2
SE
340
0
102
{BLKREFS
331
7B
102
}
  0
BLOCK_RECORD
  5
9D
330
1
100
AcDbSymbolTableRecord
100
AcDbBlockTableRecord
  2
_OBLIQUE
340
0
  0
BLOCK_RECORD
  5
A1
330
1
100
AcDbSymbolTableRecord
100
AcDbBlockTableRecord
  2
_DOT
340
0
  0
BLOCK_RECORD
  5
A9
330
1
100
AcDbSymbolTableRecord
100
AcDbBlockTableRecord
  2
_SE_FILLED
340
0
  0
BLOCK_RECORD
  5
B2
330
1
100
AcDbSymbolTableRecord
100
AcDbBlockTableRecord
  2
DMBLK5
340
0
  0
BLOCK_RECORD
  5
BD
330
1
100
AcDbSymbolTableRecord
100
AcDbBlockTableRecord
  2
DMBLK6
340
0
  0
BLOCK_RECORD
  5
C8
330
1
100
AcDbSymbolTableRecord
100
AcDbBlockTableRecord
  2
DMBLK7
340
0
  0
BLOCK_RECORD
  5
D2
330
1
100
AcDbSymbolTableRecord
100
AcDbBlockTableRecord
  2
DMBLK8
340
0
  0
ENDTAB
  0
ENDSEC
  0
SECTION
  2
BLOCKS
  0
BLOCK
  5
20
330
1F
100
AcDbEntity
  8
0
100
AcDbBlockBegin
  2
*Model_Space
 70
     0
 10
0.0
 20
0.0
 30
0.0
  3
*Model_Space
  1

  0
ENDBLK
  5
21
330
1F
100
AcDbEntity
  8
0
100
AcDbBlockEnd
  0
BLOCK
  5
1C
330
1B
100
AcDbEntity
 67
     1
  8
0
100
AcDbBlockBegin
  2
*Paper_Space
 70
     0
 10
0.0
 20
0.0
 30
0.0
  3
*Paper_Space
  1

  0
ENDBLK
  5
1D
330
1B
100
AcDbEntity
 67
     1
  8
0
100
AcDbBlockEnd
  0
BLOCK
  5
68
330
42
100
AcDbEntity
  8
0
100
AcDbBlockBegin
  2
SEANNOT_GROUP
 70
     0
 10
0.0
 20
0.0
 30
0.0
  3
SEANNOT_GROUP
  1

  0
TEXT
  5
67
330
42
100
AcDbEntity
  8
Défaut
  6
Continuous
 62
     7
100
AcDbText
 10
40.4973880795
 20
26.658892213
 30
0.0
 40
3.0
  1
Siphon urinoir complet sortie verticale Ø48/52 et Ø32
  7
SEACAD_arial_ttfB
 11
40.4973880795
 21
29.658892213
 31
0.0
100
AcDbText
 73
     3
  0
ENDBLK
  5
69
330
42
100
AcDbEntity
  8
0
100
AcDbBlockEnd
  0
BLOCK
  5
6D
330
6A
100
AcDbEntity
  8
0
100
AcDbBlockBegin
  2
SEANNOT_GROUP1
 70
     0
 10
0.0
 20
0.0
 30
0.0
  3
SEANNOT_GROUP1
  1

  0
TEXT
  5
6C
330
6A
100
AcDbEntity
  8
Défaut
  6
Continuous
 62
     7
100
AcDbText
 10
19.3291911396
 20
25.658892213
 30
0.0
 40
5.0
  1
39105
  7
SEACAD_arial_ttfB
 11
19.3291911396
 21
30.658892213
 31
0.0
100
AcDbText
 73
     3
  0
ENDBLK
  5
6E
330
6A
100
AcDbEntity
  8
0
100
AcDbBlockEnd
  0
BLOCK
  5
72
330
6F
100
AcDbEntity
  8
0
100
AcDbBlockBegin
  2
SEANNOT_GROUP2
 70
     0
 10
0.0
 20
0.0
 30
0.0
  3
SEANNOT_GROUP2
  1

  0
TEXT
  5
71
330
6F
100
AcDbEntity
  8
Défaut
  6
Continuous
 62
     7
100
AcDbText
 10
19.7071946564
 20
12.6727620919
 30
0.0
 40
3.0
  1
\\Srvpresto04\Recherche\Std presto\Std\_DOC\39105c\39105.asm
  7
SEACAD_arial_ttfB
 11
19.7071946564
 21
15.6727620919
 31
0.0
100
AcDbText
 73
     3
  0
ENDBLK
  5
73
330
6F
100
AcDbEntity
  8
0
100
AcDbBlockEnd
  0
BLOCK
  5
77
330
74
100
AcDbEntity
  8
0
100
AcDbBlockBegin
  2
SEANNOT_GROUP3
 70
     0
 10
0.0
 20
0.0
 30
0.0
  3
SEANNOT_GROUP3
  1

  0
TEXT
  5
76
330
74
100
AcDbEntity
  8
Défaut
  6
Continuous
 62
     7
100
AcDbText
 10
20.0851981732
 20
19.0988218773
 30
0.0
 40
3.0
  1
\\Srvpresto04\Recherche\Std presto\Std\_DOC\39105c\39105_C_1_0.dft
  7
SEACAD_arial_ttfB
 11
20.0851981732
 21
22.0988218773
 31
0.0
100
AcDbText
 73
     3
  0
ENDBLK
  5
78
330
74
100
AcDbEntity
  8
0
100
AcDbBlockEnd
  0
BLOCK
  5
9A
330
7A
100
AcDbEntity
  8
0
100
AcDbBlockBegin
  2
SE
 70
     0
 10
0.0
 20
0.0
 30
0.0
  3
SE
  1

  0
LINE
  5
7D
330
7A
100
AcDbEntity
  8
U756
  6
Continuous
 62
     7
100
AcDbLine
 10
74.47
 20
239.6873157795
 30
0.0
 11
138.07
 21
239.6873157795
 31
0.0
  0
LINE
  5
7E
330
7A
100
AcDbEntity
  8
U756
  6
Continuous
 62
     7
100
AcDbLine
 10
85.27
 20
125.6873157795
 30
0.0
 11
127.27
 21
125.6873157795
 31
0.0
  0
LINE
  5
7F
330
7A
100
AcDbEntity
  8
U756
  6
Continuous
 62
     7
100
AcDbLine
 10
82.4132879668
 20
130.6352861635
 30
0.0
 11
130.1267120332
 21
130.6352861635
 31
0.0
  0
LINE
  5
80
330
7A
100
AcDbEntity
  8
U756
  6
Continuous
 62
     7
100
AcDbLine
 10
70.4957125773
 20
235.2345029244
 30
0.0
 11
142.0442874227
 21
235.2345029244
 31
0.0
  0
LINE
  5
81
330
7A
100
AcDbEntity
  8
U756
  6
Continuous
 62
     7
100
AcDbLine
 10
127.27
 20
121.9131414025
 30
0.0
 11
127.27
 21
125.6873157795
 31
0.0
  0
LINE
  5
82
330
7A
100
AcDbEntity
  8
U756
  6
Continuous
 62
     7
100
AcDbLine
 10
85.27
 20
125.6873157795
 30
0.0
 11
85.27
 21
121.9131414025
 31
0.0
  0
LINE
  5
83
330
7A
100
AcDbEntity
  8
U756
  6
Continuous
 62
     7
100
AcDbLine
 10
82.4132879668
 20
130.6352861635
 30
0.0
 11
85.27
 21
125.6873157795
 31
0.0
  0
LINE
  5
84
330
7A
100
AcDbEntity
  8
U756
  6
Continuous
 62
     7
100
AcDbLine
 10
127.27
 20
125.6873157795
 30
0.0
 11
130.1267120332
 21
130.6352861635
 31
0.0
  0
LINE
  5
85
330
7A
100
AcDbEntity
  8
U756
  6
Continuous
 62
     7
100
AcDbLine
 10
70.4957125773
 20
235.2345029244
 30
0.0
 11
82.4132879668
 21
130.6352861635
 31
0.0
  0
LINE
  5
86
330
7A
100
AcDbEntity
  8
U756
  6
Continuous
 62
     7
100
AcDbLine
 10
130.1267120332
 20
130.6352861635
 30
0.0
 11
142.0442874227
 21
235.2345029244
 31
0.0
  0
ARC
  5
87
330
7A
100
AcDbEntity
  8
U756
  6
Continuous
 62
     7
100
AcDbCircle
 10
138.07
 20
235.6873157795
 30
0.0
 40
3.999999999999998
100
AcDbArc
 50
353.5
 51
90.0
  0
ARC
  5
88
330
7A
100
AcDbEntity
  8
U756
  6
Continuous
 62
     7
100
AcDbCircle
 10
74.47
 20
235.6873157795
 30
0.0
 40
4.000000000000004
100
AcDbArc
 50
90.0
 51
186.5
  0
LINE
  5
8A
330
7A
100
AcDbEntity
  8
U764
  6
Continuous
 62
     7
100
AcDbLine
 10
128.77
 20
121.9131414025
 30
0.0
 11
123.6628311877
 21
121.9131414025
 31
0.0
  0
LINE
  5
8B
330
7A
100
AcDbEntity
  8
U764
  6
Continuous
 62
     7
100
AcDbLine
 10
111.3771688123
 20
121.9131414025
 30
0.0
 11
101.1628311877
 21
121.9131414025
 31
0.0
  0
LINE
  5
8C
330
7A
100
AcDbEntity
  8
U764
  6
Continuous
 62
     7
100
AcDbLine
 10
88.8771688123
 20
121.9131414025
 30
0.0
 11
83.77
 21
121.9131414025
 31
0.0
  0
LINE
  5
8D
330
7A
100
AcDbEntity
  8
U764
  6
Continuous
 62
     7
100
AcDbLine
 10
128.77
 20
103.9131414025
 30
0.0
 11
123.6628311877
 21
103.9131414025
 31
0.0
  0
LINE
  5
8E
330
7A
100
AcDbEntity
  8
U764
  6
Continuous
 62
     7
100
AcDbLine
 10
111.3771688123
 20
103.9131414025
 30
0.0
 11
101.1628311877
 21
103.9131414025
 31
0.0
  0
LINE
  5
8F
330
7A
100
AcDbEntity
  8
U764
  6
Continuous
 62
     7
100
AcDbLine
 10
88.8771688123
 20
103.9131414025
 30
0.0
 11
83.77
 21
103.9131414025
 31
0.0
  0
ELLIPSE
  5
90
330
7A
100
AcDbEntity
  8
U764
  6
Continuous
 62
     7
100
AcDbEllipse
 10
117.52
 20
112.9131414025
 30
0.0
 11
-5.204170427930420E-15
 21
11.45916663636586
 31
0.0
210
0.0
220
0.0
230
1.0
 40
0.8660254038
 41
0.6674584045407699
 42
2.474134249049025
  0
ELLIPSE
  5
91
330
7A
100
AcDbEntity
  8
U764
  6
Continuous
 62
     7
100
AcDbEllipse
 10
95.02
 20
112.9131414025
 30
0.0
 11
1.387778780781446E-14
 21
11.45916663636585
 31
0.0
210
0.0
220
0.0
230
1.0
 40
0.8660254038
 41
0.6674584045407683
 42
2.474134249049025
  0
LINE
  5
92
330
7A
100
AcDbEntity
  8
U764
  6
Continuous
 62
     7
100
AcDbLine
 10
128.77
 20
121.9131414025
 30
0.0
 11
128.77
 21
103.9131414025
 31
0.0
  0
LINE
  5
93
330
7A
100
AcDbEntity
  8
U764
  6
Continuous
 62
     7
100
AcDbLine
 10
123.6628311877
 20
103.9131414025
 30
0.0
 11
111.3771688123
 21
103.9131414025
 31
0.0
  0
ELLIPSE
  5
94
330
7A
100
AcDbEntity
  8
U764
  6
Continuous
 62
     7
100
AcDbEllipse
 10
117.52
 20
112.9131414025
 30
0.0
 11
-3.816391647148976E-14
 21
-11.45916663636586
 31
0.0
210
0.0
220
0.0
230
1.0
 40
0.8660254038
 41
0.6674584045407731
 42
2.474134249049028
  0
LINE
  5
95
330
7A
100
AcDbEntity
  8
U764
  6
Continuous
 62
     7
100
AcDbLine
 10
101.1628311877
 20
103.9131414025
 30
0.0
 11
88.8771688123
 21
103.9131414025
 31
0.0
  0
ELLIPSE
  5
96
330
7A
100
AcDbEntity
  8
U764
  6
Continuous
 62
     7
100
AcDbEllipse
 10
95.02
 20
112.9131414025
 30
0.0
 11
-3.295974604355933E-14
 21
-11.45916663636586
 31
0.0
210
0.0
220
0.0
230
1.0
 40
0.8660254038
 41
0.6674584045407701
 42
2.474134249049026
  0
LINE
  5
97
330
7A
100
AcDbEntity
  8
U764
  6
Continuous
 62
     7
100
AcDbLine
 10
83.77
 20
103.9131414025
 30
0.0
 11
83.77
 21
121.9131414025
 31
0.0
  0
LINE
  5
98
330
7A
100
AcDbEntity
  8
U764
  6
Continuous
 62
     7
100
AcDbLine
 10
123.6628311877
 20
121.9131414025
 30
0.0
 11
111.3771688123
 21
121.9131414025
 31
0.0
  0
LINE
  5
99
330
7A
100
AcDbEntity
  8
U764
  6
Continuous
 62
     7
100
AcDbLine
 10
101.1628311877
 20
121.9131414025
 30
0.0
 11
88.8771688123
 21
121.9131414025
 31
0.0
  0
ENDBLK
  5
9B
330
7A
100
AcDbEntity
  8
0
100
AcDbBlockEnd
  0
BLOCK
  5
9E
330
9D
100
AcDbEntity
  8
0
100
AcDbBlockBegin
  2
_OBLIQUE
 70
     0
 10
0.0
 20
0.0
 30
0.0
  3
_OBLIQUE
  1

  0
LINE
  5
A0
330
9D
100
AcDbEntity
  8
0
  6
ByBlock
 62
     0
370
    -2
100
AcDbLine
 10
-0.5
 20
-0.5
 30
0.0
 11
0.5
 21
0.5
 31
0.0
  0
ENDBLK
  5
9F
330
9D
100
AcDbEntity
  8
0
100
AcDbBlockEnd
  0
BLOCK
  5
A2
330
A1
100
AcDbEntity
  8
0
100
AcDbBlockBegin
  2
_DOT
 70
     0
 10
0.0
 20
0.0
 30
0.0
  3
_DOT
  1

  0
POLYLINE
  5
A4
330
A1
100
AcDbEntity
  8
0
  6
ByBlock
 62
     0
100
AcDb2dPolyline
 66
     1
 10
0.0
 20
0.0
 30
0.0
 70
     1
 40
0.5
 41
0.5
  0
VERTEX
  5
A6
330
A4
100
AcDbEntity
  8
0
  6
ByBlock
 62
     0
100
AcDbVertex
100
AcDb2dVertex
 10
-0.25
 20
0.0
 30
0.0
 42
1.0
  0
VERTEX
  5
A7
330
A4
100
AcDbEntity
  8
0
  6
ByBlock
 62
     0
100
AcDbVertex
100
AcDb2dVertex
 10
0.25
 20
0.0
 30
0.0
 42
1.0
  0
SEQEND
  5
A8
330
A4
100
AcDbEntity
  8
0
  6
ByBlock
 62
     0
  0
LINE
  5
A5
330
A1
100
AcDbEntity
  8
0
  6
ByBlock
 62
     0
370
    -2
100
AcDbLine
 10
-0.5
 20
0.0
 30
0.0
 11
-1.0
 21
0.0
 31
0.0
  0
ENDBLK
  5
A3
330
A1
100
AcDbEntity
  8
0
100
AcDbBlockEnd
  0
BLOCK
  5
AC
330
A9
100
AcDbEntity
  8
0
100
AcDbBlockBegin
  2
_SE_FILLED
 70
     0
 10
0.0
 20
0.0
 30
0.0
  3
_SE_FILLED
  1

  0
SOLID
  5
AA
330
A9
100
AcDbEntity
  8
0
 62
     0
100
AcDbTrace
 10
0.0
 20
0.0
 30
0.0
 11
-1.0
 21
-0.1665
 31
0.0
 12
-1.0
 22
0.1665
 32
0.0
 13
0.0
 23
0.0
 33
0.0
  0
LINE
  5
AB
330
A9
100
AcDbEntity
  8
0
 62
     0
100
AcDbLine
 10
0.0
 20
0.0
 30
0.0
 11
-1.0
 21
0.0
 31
0.0
  0
ENDBLK
  5
AD
330
A9
100
AcDbEntity
  8
0
100
AcDbBlockEnd
  0
BLOCK
  5
BA
330
B2
100
AcDbEntity
  8
0
100
AcDbBlockBegin
  2
DMBLK5
 70
     0
 10
0.0
 20
0.0
 30
0.0
  3
DMBLK5
  1

  0
HATCH
  5
B3
330
B2
100
AcDbEntity
  8
Cartouche
  6
Continuous
 62
     7
100
AcDbHatch
 10
0.0
 20
0.0
 30
0.0
210
0.0
220
0.0
230
1.0
  2
SOLID
 70
     1
 71
     0
 91
        1
 92
        1
 93
        3
 72
     1
 10
72.26999989569187
 20
253.2981033673411
 11
72.26999989569187
 21
249.2981033325717
 72
     1
 10
72.26999989569187
 20
249.2981033325717
 11
84.27
 21
251.2981033499564
 72
     1
 10
84.27
 20
251.2981033499564
 11
72.26999989569187
 21
253.2981033673411
 97
        0
 75
     0
 76
     1
 98
        0
  0
HATCH
  5
B4
330
B2
100
AcDbEntity
  8
Cartouche
  6
Continuous
 62
     7
100
AcDbHatch
 10
0.0
 20
0.0
 30
0.0
210
0.0
220
0.0
230
1.0
  2
SOLID
 70
     1
 71
     0
 91
        1
 92
        1
 93
        3
 72
     1
 10
140.2700001043081
 20
253.2981033673411
 11
128.27
 21
251.2981033499564
 72
     1
 10
128.27
 20
251.2981033499564
 11
140.2700001043081
 21
249.2981033325717
 72
     1
 10
140.2700001043081
 20
249.2981033325717
 11
140.2700001043081
 21
253.2981033673411
 97
        0
 75
     0
 76
     1
 98
        0
  0
LINE
  5
B5
330
B2
100
AcDbEntity
  8
Cartouche
  6
Continuous
 62
     7
100
AcDbLine
 10
84.27
 20
218.0873158935
 30
0.0
 11
84.27
 21
252.8981033095
 31
0.0
  0
LINE
  5
B6
330
B2
100
AcDbEntity
  8
Cartouche
  6
Continuous
 62
     7
100
AcDbLine
 10
128.27
 20
218.0873158935
 30
0.0
 11
128.27
 21
252.8981033095
 31
0.0
  0
LINE
  5
B7
330
B2
100
AcDbEntity
  8
Cartouche
  6
Continuous
 62
     7
100
AcDbLine
 10
60.2699997914
 20
251.29810335
 30
0.0
 11
152.2700036955
 21
251.29810335
 31
0.0
  0
TEXT
  5
B8
330
B2
100
AcDbEntity
  8
Cartouche
  6
Continuous
 62
     7
100
AcDbText
 10
80.7078455868
 20
253.29810335
 30
0.0
 40
8.0
  1
O
  7
SEACAD_semeca1_ttfB
 11
80.7078455868
 21
261.29810335
 31
0.0
100
AcDbText
 73
     3
  0
TEXT
  5
B9
330
B2
100
AcDbEntity
  8
Cartouche
  6
Continuous
 62
     7
100
AcDbText
 10
89.8306526043
 20
253.29810335
 30
0.0
 40
8.0
  1
48 à 52
  7
SEACAD_arial_ttfB
 11
89.8306526043
 21
261.29810335
 31
0.0
100
AcDbText
 73
     3
  0
ENDBLK
  5
BB
330
B2
100
AcDbEntity
  8
0
100
AcDbBlockEnd
  0
BLOCK
  5
C5
330
BD
100
AcDbEntity
  8
0
100
AcDbBlockBegin
  2
DMBLK6
 70
     0
 10
0.0
 20
0.0
 30
0.0
  3
DMBLK6
  1

  0
HATCH
  5
BE
330
BD
100
AcDbEntity
  8
Cartouche
  6
Continuous
 62
     7
100
AcDbHatch
 10
0.0
 20
0.0
 30
0.0
210
0.0
220
0.0
230
1.0
  2
SOLID
 70
     1
 71
     0
 91
        1
 92
        1
 93
        3
 72
     1
 10
78.51999989569187
 20
88.70089208818581
 11
90.52
 21
90.7008921055705
 72
     1
 10
90.52
 20
90.7008921055705
 11
78.51999989569187
 21
92.7008921229552
 72
     1
 10
78.51999989569187
 20
92.7008921229552
 11
78.51999989569187
 21
88.70089208818581
 97
        0
 75
     0
 76
     1
 98
        0
  0
HATCH
  5
BF
330
BD
100
AcDbEntity
  8
Cartouche
  6
Continuous
 62
     7
100
AcDbHatch
 10
0.0
 20
0.0
 30
0.0
210
0.0
220
0.0
230
1.0
  2
SOLID
 70
     1
 71
     0
 91
        1
 92
        1
 93
        3
 72
     1
 10
134.0200001043081
 20
88.70089208818581
 11
134.0200001043081
 21
92.7008921229552
 72
     1
 10
134.0200001043081
 20
92.7008921229552
 11
122.02
 21
90.7008921055705
 72
     1
 10
122.02
 20
90.7008921055705
 11
134.0200001043081
 21
88.70089208818581
 97
        0
 75
     0
 76
     1
 98
        0
  0
LINE
  5
C0
330
BD
100
AcDbEntity
  8
Cartouche
  6
Continuous
 62
     7
100
AcDbLine
 10
90.52
 20
104.01314155
 30
0.0
 11
90.52
 21
89.100892146
 31
0.0
  0
LINE
  5
C1
330
BD
100
AcDbEntity
  8
Cartouche
  6
Continuous
 62
     7
100
AcDbLine
 10
122.02
 20
104.01314155
 30
0.0
 11
122.02
 21
89.100892146
 31
0.0
  0
LINE
  5
C2
330
BD
100
AcDbEntity
  8
Cartouche
  6
Continuous
 62
     7
100
AcDbLine
 10
66.5199997914
 20
90.7008921056
 30
0.0
 11
146.0200007153
 21
90.7008921056
 31
0.0
  0
TEXT
  5
C3
330
BD
100
AcDbEntity
  8
Cartouche
  6
Continuous
 62
     7
100
AcDbText
 10
95.2383720662
 20
92.7008921056
 30
0.0
 40
8.0
  1
O
  7
SEACAD_semeca1_ttfB
 11
95.2383720662
 21
100.7008921056
 31
0.0
100
AcDbText
 73
     3
  0
TEXT
  5
C4
330
BD
100
AcDbEntity
  8
Cartouche
  6
Continuous
 62
     7
100
AcDbText
 10
104.3611790837
 20
92.7008921056
 30
0.0
 40
8.0
  1
32
  7
SEACAD_arial_ttfB
 11
104.3611790837
 21
100.7008921056
 31
0.0
100
AcDbText
 73
     3
  0
ENDBLK
  5
C6
330
BD
100
AcDbEntity
  8
0
100
AcDbBlockEnd
  0
BLOCK
  5
CF
330
C8
100
AcDbEntity
  8
0
100
AcDbBlockBegin
  2
DMBLK7
 70
     0
 10
0.0
 20
0.0
 30
0.0
  3
DMBLK7
  1

  0
HATCH
  5
C9
330
C8
100
AcDbEntity
  8
Cartouche
  6
Continuous
 62
     7
100
AcDbHatch
 10
0.0
 20
0.0
 30
0.0
210
0.0
220
0.0
230
1.0
  2
SOLID
 70
     1
 71
     0
 91
        1
 92
        1
 93
        3
 72
     1
 10
54.3637349890672
 20
227.6873156751718
 11
58.36373502383658
 21
227.6873156751718
 72
     1
 10
58.36373502383658
 20
227.6873156751718
 11
56.36373500645189
 21
239.6873157794799
 72
     1
 10
56.36373500645189
 20
239.6873157794799
 11
54.3637349890672
 21
227.6873156751718
 97
        0
 75
     0
 76
     1
 98
        0
  0
HATCH
  5
CA
330
C8
100
AcDbEntity
  8
Cartouche
  6
Continuous
 62
     7
100
AcDbHatch
 10
0.0
 20
0.0
 30
0.0
210
0.0
220
0.0
230
1.0
  2
SOLID
 70
     1
 71
     0
 91
        1
 92
        1
 93
        3
 72
     1
 10
54.3637349890672
 20
115.9131355907048
 11
56.36373500645189
 21
103.9131354863967
 72
     1
 10
56.36373500645189
 20
103.9131354863967
 11
58.36373502383658
 21
115.9131355907048
 72
     1
 10
58.36373502383658
 20
115.9131355907048
 11
54.3637349890672
 21
115.9131355907048
 97
        0
 75
     0
 76
     1
 98
        0
  0
LINE
  5
CB
330
C8
100
AcDbEntity
  8
Cartouche
  6
Continuous
 62
     7
100
AcDbLine
 10
72.069999886
 20
239.6873157795
 30
0.0
 11
54.7637350469
 21
239.6873157795
 31
0.0
  0
LINE
  5
CC
330
C8
100
AcDbEntity
  8
Cartouche
  6
Continuous
 62
     7
100
AcDbLine
 10
92.619999886
 20
103.9131414025
 30
0.0
 11
54.7637350469
 21
103.9131414025
 31
0.0
  0
LINE
  5
CD
330
C8
100
AcDbEntity
  8
Cartouche
  6
Continuous
 62
     7
100
AcDbLine
 10
56.3637350065
 20
239.6873157795
 30
0.0
 11
56.3637350065
 21
103.9131354864
 31
0.0
  0
TEXT
  5
CE
330
C8
100
AcDbEntity
  8
Cartouche
  6
Continuous
 62
     7
100
AcDbText
 10
54.3637350065
 20
159.9335589663
 30
0.0
 40
8.0
  1
135
 50
90.0
  7
SEACAD_arial_ttfB
 11
46.3637350065
 21
159.9335589663
 31
0.0
100
AcDbText
 73
     3
  0
ENDBLK
  5
D0
330
C8
100
AcDbEntity
  8
0
100
AcDbBlockEnd
  0
BLOCK
  5
DA
330
D2
100
AcDbEntity
  8
0
100
AcDbBlockBegin
  2
DMBLK8
 70
     0
 10
0.0
 20
0.0
 30
0.0
  3
DMBLK8
  1

  0
HATCH
  5
D3
330
D2
100
AcDbEntity
  8
Cartouche
  6
Continuous
 62
     7
100
AcDbHatch
 10
0.0
 20
0.0
 30
0.0
210
0.0
220
0.0
230
1.0
  2
SOLID
 70
     1
 71
     0
 91
        1
 92
        1
 93
        3
 72
     1
 10
82.49571268160174
 20
270.7072644535956
 11
70.49571257729362
 21
268.7072644362109
 72
     1
 10
70.49571257729362
 20
268.7072644362109
 11
82.49571268160174
 21
266.7072644188262
 72
     1
 10
82.49571268160174
 20
266.7072644188262
 11
82.49571268160174
 21
270.7072644535956
 97
        0
 75
     0
 76
     1
 98
        0
  0
HATCH
  5
D4
330
D2
100
AcDbEntity
  8
Cartouche
  6
Continuous
 62
     7
100
AcDbHatch
 10
0.0
 20
0.0
 30
0.0
210
0.0
220
0.0
230
1.0
  2
SOLID
 70
     1
 71
     0
 91
        1
 92
        1
 93
        3
 72
     1
 10
130.044286145757
 20
270.7072644535956
 11
130.044286145757
 21
266.7072644188262
 72
     1
 10
130.044286145757
 20
266.7072644188262
 11
142.0442862500651
 21
268.7072644362109
 72
     1
 10
142.0442862500651
 20
268.7072644362109
 11
130.044286145757
 21
270.7072644535956
 97
        0
 75
     0
 76
     1
 98
        0
  0
LINE
  5
D5
330
D2
100
AcDbEntity
  8
Cartouche
  6
Continuous
 62
     7
100
AcDbLine
 10
70.4957125773
 20
237.6345030384
 30
0.0
 11
70.4957125773
 21
270.3072643958
 31
0.0
  0
LINE
  5
D6
330
D2
100
AcDbEntity
  8
Cartouche
  6
Continuous
 62
     7
100
AcDbLine
 10
142.0442874227
 20
237.6345030384
 30
0.0
 11
142.0442874227
 21
270.3072643958
 31
0.0
  0
LINE
  5
D7
330
D2
100
AcDbEntity
  8
Cartouche
  6
Continuous
 62
     7
100
AcDbLine
 10
70.4957125773
 20
268.7072644362
 30
0.0
 11
142.0442862501
 21
268.7072644362
 31
0.0
  0
TEXT
  5
D8
330
D2
100
AcDbEntity
  8
Cartouche
  6
Continuous
 62
     7
100
AcDbText
 10
107.6543759299
 20
270.7072644362
 30
0.0
 40
8.0
  1
72
  7
SEACAD_arial_ttfB
 11
107.6543759299
 21
278.7072644362
 31
0.0
100
AcDbText
 73
     3
  0
TEXT
  5
D9
330
D2
100
AcDbEntity
  8
Cartouche
  6
Continuous
 62
     7
100
AcDbText
 10
92.7967340085
 20
270.7072644362
 30
0.0
 40
8.0
  1
O
  7
SEACAD_semeca1_ttfB
 11
92.7967340085
 21
278.7072644362
 31
0.0
100
AcDbText
 73
     3
  0
ENDBLK
  5
DB
330
D2
100
AcDbEntity
  8
0
100
AcDbBlockEnd
  0
ENDSEC
  0
SECTION
  2
ENTITIES
  0
LINE
  5
3C
330
1F
100
AcDbEntity
  8
encadrement
  6
Continuous
 62
     7
100
AcDbLine
 10
10.0
 20
80.035459542
 30
0.0
 11
200.0
 21
80.035459542
 31
0.0
  0
LINE
  5
3D
330
1F
100
AcDbEntity
  8
encadrement
  6
Continuous
 62
     7
100
AcDbLine
 10
10.0
 20
65.035459542
 30
0.0
 11
200.0
 21
65.035459542
 31
0.0
  0
LINE
  5
3E
330
1F
100
AcDbEntity
  8
encadrement
  6
Continuous
 62
     7
100
AcDbLine
 10
10.0
 20
55.035459542
 30
0.0
 11
200.0
 21
55.035459542
 31
0.0
  0
LINE
  5
3F
330
1F
100
AcDbEntity
  8
encadrement
  6
Continuous
 62
     7
100
AcDbLine
 10
10.0
 20
45.035459542
 30
0.0
 11
200.0
 21
45.035459542
 31
0.0
  0
LINE
  5
40
330
1F
100
AcDbEntity
  8
encadrement
  6
Continuous
 62
     7
100
AcDbLine
 10
10.0
 20
35.035459542
 30
0.0
 11
200.0
 21
35.035459542
 31
0.0
  0
INSERT
  5
43
330
1F
100
AcDbEntity
  8
Défaut
100
AcDbBlockReference
  2
SEANNOT_GROUP
 10
0.0
 20
0.0
 30
0.0
  0
INSERT
  5
6B
330
1F
100
AcDbEntity
  8
Défaut
100
AcDbBlockReference
  2
SEANNOT_GROUP1
 10
0.0
 20
0.0
 30
0.0
  0
INSERT
  5
70
330
1F
100
AcDbEntity
  8
Défaut
100
AcDbBlockReference
  2
SEANNOT_GROUP2
 10
0.0
 20
0.0
 30
0.0
  0
INSERT
  5
75
330
1F
100
AcDbEntity
  8
Défaut
100
AcDbBlockReference
  2
SEANNOT_GROUP3
 10
0.0
 20
0.0
 30
0.0
  0
INSERT
  5
7B
330
1F
100
AcDbEntity
  8
Cartouche
100
AcDbBlockReference
  2
SE
 10
0.0
 20
0.0
 30
0.0
  0
DIMENSION
  5
B0
330
1F
100
AcDbEntity
  8
Cartouche
  6
Continuous
 62
     7
100
AcDbDimension
  2
DMBLK5
 10
84.27
 20
251.29810335
 30
0.0
 11
106.2699998808
 21
251.29810335
 31
0.0
 70
   161
  1
\A1;%%C48 à 52 {}
 71
     5
 42
-1.0
  3
presto
100
AcDbAlignedDimension
 13
84.27
 23
215.6873157795
 33
0.0
 14
128.27
 24
215.6873157795
 34
0.0
  0
DIMENSION
  5
BC
330
1F
100
AcDbEntity
  8
Cartouche
  6
Continuous
 62
     7
100
AcDbDimension
  2
DMBLK6
 10
90.52
 20
90.7008921056
 30
0.0
 11
108.7116374713
 21
90.7008921056
 31
0.0
 70
   161
  1
\A1;%%C32 {}
 71
     5
 42
-1.0
  3
presto
100
AcDbAlignedDimension
 13
90.52
 23
115.6131414025
 33
0.0
 14
122.02
 24
115.6131414025
 34
0.0
  0
DIMENSION
  5
C7
330
1F
100
AcDbEntity
  8
Cartouche
  6
Continuous
 62
     7
100
AcDbDimension
  2
DMBLK7
 10
56.3637350065
 20
103.9131414025
 30
0.0
 11
56.3637350065
 21
171.8002256329
 31
0.0
 70
   160
  1
\A1;135 {}
 71
     5
 42
-1.0
  3
presto
100
AcDbAlignedDimension
 13
74.47
 23
239.6873157795
 33
0.0
 14
95.02
 24
103.9131414025
 34
0.0
 50
90.0
100
AcDbRotatedDimension
  0
DIMENSION
  5
D1
330
1F
100
AcDbEntity
  8
Cartouche
  6
Continuous
 62
     7
100
AcDbDimension
  2
DMBLK8
 10
70.4957125773
 20
268.7072644362
 30
0.0
 11
106.2699994137
 21
268.7072644362
 31
0.0
 70
   161
  1
\A1;%%C <>
 71
     5
 42
-1.0
  3
presto
100
AcDbAlignedDimension
 13
70.4957125773
 23
235.2345029244
 33
0.0
 14
142.0442874227
 24
235.2345029244
 34
0.0
1001
ACAD
1000
DSTYLE
1002
{
1070
   271
1070
     0
1070
   272
1070
     0
1070
     0
1002
}
  0
ENDSEC
  0
SECTION
  2
OBJECTS
  0
DICTIONARY
  5
C
330
0
100
AcDbDictionary
281
     1
  3
ACAD_GROUP
350
D
  3
ACAD_LAYOUT
350
1A
  3
ACAD_MLEADERSTYLE
350
DE
  3
ACAD_MLINESTYLE
350
17
  3
ACAD_PLOTSETTINGS
350
19
  3
ACAD_PLOTSTYLENAME
350
E
  3
ACAD_SCALELIST
350
44
  3
ACAD_VISUALSTYLE
350
2A
  3
AcDbVariableDictionary
350
DC
  0
DICTIONARY
  5
D
102
{ACAD_REACTORS
330
C
102
}
330
C
100
AcDbDictionary
281
     1
  0
DICTIONARY
  5
1A
102
{ACAD_REACTORS
330
C
102
}
330
C
100
AcDbDictionary
281
     1
  3
Layout1
350
1E
  3
Model
350
22
  0
DICTIONARY
  5
DE
102
{ACAD_REACTORS
330
C
102
}
330
C
100
AcDbDictionary
281
     1
  0
DICTIONARY
  5
17
102
{ACAD_REACTORS
330
C
102
}
330
C
100
AcDbDictionary
281
     1
  3
Standard
350
18
  0
DICTIONARY
  5
19
102
{ACAD_REACTORS
330
C
102
}
330
C
100
AcDbDictionary
281
     1
  0
ACDBDICTIONARYWDFLT
  5
E
102
{ACAD_REACTORS
330
C
102
}
330
C
100
AcDbDictionary
281
     1
  3
Normal
350
F
100
AcDbDictionaryWithDefault
340
F
  0
DICTIONARY
  5
44
102
{ACAD_REACTORS
330
C
102
}
330
C
100
AcDbDictionary
281
     1
  3
A0
350
45
  3
A1
350
46
  3
A2
350
47
  3
A3
350
48
  3
A4
350
49
  3
A5
350
4A
  3
A6
350
4B
  3
A7
350
4C
  3
A8
350
4D
  3
A9
350
4E
  3
B0
350
4F
  3
B1
350
50
  3
B2
350
51
  3
B3
350
52
  3
B4
350
53
  3
B5
350
54
  3
B6
350
55
  3
B7
350
56
  3
B8
350
57
  3
B9
350
58
  3
C0
350
59
  3
C1
350
5A
  3
C2
350
5B
  3
C3
350
5C
  3
C4
350
5D
  3
C5
350
5E
  3
C6
350
5F
  3
C7
350
60
  3
C8
350
61
  3
C9
350
62
  3
D0
350
63
  3
D1
350
64
  3
D2
350
65
  0
DICTIONARY
  5
2A
102
{ACAD_REACTORS
330
C
102
}
330
C
100
AcDbDictionary
281
     1
  3
2dWireframe
350
2F
  3
3D Hidden
350
31
  3
3dWireframe
350
30
  3
Basic
350
32
  3
Brighten
350
36
  3
ColorChange
350
3A
  3
Conceptual
350
34
  3
Dim
350
35
  3
Facepattern
350
39
  3
Flat
350
2B
  3
FlatWithEdges
350
2C
  3
Gouraud
350
2D
  3
GouraudWithEdges
350
2E
  3
Linepattern
350
38
  3
Realistic
350
33
  3
Thicken
350
37
  0
DICTIONARY
  5
DC
102
{ACAD_REACTORS
330
C
102
}
330
C
100
AcDbDictionary
281
     1
  3
CANNOSCALE
350
E1
  3
PSOLHEIGHT
350
E0
  3
PSOLWIDTH
350
DF
  0
LAYOUT
  5
1E
102
{ACAD_REACTORS
330
1A
102
}
330
1A
100
AcDbPlotSettings
  1

  2
none_device
  4

  6

 40
0.0
 41
0.0
 42
0.0
 43
0.0
 44
0.0
 45
0.0
 46
0.0
 47
0.0
 48
0.0
 49
0.0
140
0.0
141
0.0
142
1.0
143
1.0
 70
   688
 72
     0
 73
     0
 74
     5
  7

 75
    16
147
1.0
148
0.0
149
0.0
100
AcDbLayout
  1
Layout1
 70
     1
 71
     1
 10
0.0
 20
0.0
 11
210.0
 21
297.0
 12
0.0
 22
0.0
 32
0.0
 14
0.0
 24
0.0
 34
0.0
 15
210.0
 25
297.0
 35
0.0
146
0.0
 13
0.0
 23
0.0
 33
0.0
 16
1.0
 26
0.0
 36
0.0
 17
0.0
 27
1.0
 37
0.0
 76
     0
330
1B
  0
LAYOUT
  5
22
102
{ACAD_REACTORS
330
1A
102
}
330
1A
100
AcDbPlotSettings
  1

  2
none_device
  4

  6

 40
0.0
 41
0.0
 42
0.0
 43
0.0
 44
0.0
 45
0.0
 46
0.0
 47
0.0
 48
0.0
 49
0.0
140
0.0
141
0.0
142
1.0
143
1.0
 70
  1712
 72
     0
 73
     0
 74
     0
  7

 75
     0
147
1.0
148
0.0
149
0.0
100
AcDbLayout
  1
Model
 70
     1
 71
     0
 10
0.0
 20
0.0
 11
210.0
 21
297.0
 12
0.0
 22
0.0
 32
0.0
 14
0.0
 24
0.0
 34
0.0
 15
210.0
 25
297.0
 35
0.0
146
0.0
 13
0.0
 23
0.0
 33
0.0
 16
1.0
 26
0.0
 36
0.0
 17
0.0
 27
1.0
 37
0.0
 76
     0
330
1F
331
29
  0
MLINESTYLE
  5
18
102
{ACAD_REACTORS
330
17
102
}
330
17
100
AcDbMlineStyle
  2
Standard
 70
     0
  3

 62
   256
 51
90.0
 52
90.0
 71
     2
 49
0.5
 62
   256
  6
BYLAYER
 49
-0.5
 62
   256
  6
BYLAYER
  0
ACDBPLACEHOLDER
  5
F
102
{ACAD_REACTORS
330
E
102
}
330
E
  0
SCALE
  5
45
102
{ACAD_REACTORS
330
44
102
}
330
44
100
AcDbScale
 70
     0
300
1:1
140
1.0
141
1.0
290
     1
  0
SCALE
  5
46
102
{ACAD_REACTORS
330
44
102
}
330
44
100
AcDbScale
 70
     0
300
1:2
140
1.0
141
2.0
290
     0
  0
SCALE
  5
47
102
{ACAD_REACTORS
330
44
102
}
330
44
100
AcDbScale
 70
     0
300
1:4
140
1.0
141
4.0
290
     0
  0
SCALE
  5
48
102
{ACAD_REACTORS
330
44
102
}
330
44
100
AcDbScale
 70
     0
300
1:5
140
1.0
141
5.0
290
     0
  0
SCALE
  5
49
102
{ACAD_REACTORS
330
44
102
}
330
44
100
AcDbScale
 70
     0
300
1:8
140
1.0
141
8.0
290
     0
  0
SCALE
  5
4A
102
{ACAD_REACTORS
330
44
102
}
330
44
100
AcDbScale
 70
     0
300
1:10
140
1.0
141
10.0
290
     0
  0
SCALE
  5
4B
102
{ACAD_REACTORS
330
44
102
}
330
44
100
AcDbScale
 70
     0
300
1:16
140
1.0
141
16.0
290
     0
  0
SCALE
  5
4C
102
{ACAD_REACTORS
330
44
102
}
330
44
100
AcDbScale
 70
     0
300
1:20
140
1.0
141
20.0
290
     0
  0
SCALE
  5
4D
102
{ACAD_REACTORS
330
44
102
}
330
44
100
AcDbScale
 70
     0
300
1:30
140
1.0
141
30.0
290
     0
  0
SCALE
  5
4E
102
{ACAD_REACTORS
330
44
102
}
330
44
100
AcDbScale
 70
     0
300
1:40
140
1.0
141
40.0
290
     0
  0
SCALE
  5
4F
102
{ACAD_REACTORS
330
44
102
}
330
44
100
AcDbScale
 70
     0
300
1:50
140
1.0
141
50.0
290
     0
  0
SCALE
  5
50
102
{ACAD_REACTORS
330
44
102
}
330
44
100
AcDbScale
 70
     0
300
1:100
140
1.0
141
100.0
290
     0
  0
SCALE
  5
51
102
{ACAD_REACTORS
330
44
102
}
330
44
100
AcDbScale
 70
     0
300
2:1
140
2.0
141
1.0
290
     0
  0
SCALE
  5
52
102
{ACAD_REACTORS
330
44
102
}
330
44
100
AcDbScale
 70
     0
300
4:1
140
4.0
141
1.0
290
     0
  0
SCALE
  5
53
102
{ACAD_REACTORS
330
44
102
}
330
44
100
AcDbScale
 70
     0
300
8:1
140
8.0
141
1.0
290
     0
  0
SCALE
  5
54
102
{ACAD_REACTORS
330
44
102
}
330
44
100
AcDbScale
 70
     0
300
10:1
140
10.0
141
1.0
290
     0
  0
SCALE
  5
55
102
{ACAD_REACTORS
330
44
102
}
330
44
100
AcDbScale
 70
     0
300
100:1
140
100.0
141
1.0
290
     0
  0
SCALE
  5
56
102
{ACAD_REACTORS
330
44
102
}
330
44
100
AcDbScale
 70
     0
300
1/128" = 1'-0"
140
0.0078125
141
12.0
290
     0
  0
SCALE
  5
57
102
{ACAD_REACTORS
330
44
102
}
330
44
100
AcDbScale
 70
     0
300
1/64" = 1'-0"
140
0.015625
141
12.0
290
     0
  0
SCALE
  5
58
102
{ACAD_REACTORS
330
44
102
}
330
44
100
AcDbScale
 70
     0
300
1/32" = 1'-0"
140
0.03125
141
12.0
290
     0
  0
SCALE
  5
59
102
{ACAD_REACTORS
330
44
102
}
330
44
100
AcDbScale
 70
     0
300
1/16" = 1'-0"
140
0.0625
141
12.0
290
     0
  0
SCALE
  5
5A
102
{ACAD_REACTORS
330
44
102
}
330
44
100
AcDbScale
 70
     0
300
3/32" = 1'-0"
140
0.09375
141
12.0
290
     0
  0
SCALE
  5
5B
102
{ACAD_REACTORS
330
44
102
}
330
44
100
AcDbScale
 70
     0
300
1/8" = 1'-0"
140
0.125
141
12.0
290
     0
  0
SCALE
  5
5C
102
{ACAD_REACTORS
330
44
102
}
330
44
100
AcDbScale
 70
     0
300
3/16" = 1'-0"
140
0.1875
141
12.0
290
     0
  0
SCALE
  5
5D
102
{ACAD_REACTORS
330
44
102
}
330
44
100
AcDbScale
 70
     0
300
1/4" = 1'-0"
140
0.25
141
12.0
290
     0
  0
SCALE
  5
5E
102
{ACAD_REACTORS
330
44
102
}
330
44
100
AcDbScale
 70
     0
300
3/8" = 1'-0"
140
0.375
141
12.0
290
     0
  0
SCALE
  5
5F
102
{ACAD_REACTORS
330
44
102
}
330
44
100
AcDbScale
 70
     0
300
1/2" = 1'-0"
140
0.5
141
12.0
290
     0
  0
SCALE
  5
60
102
{ACAD_REACTORS
330
44
102
}
330
44
100
AcDbScale
 70
     0
300
3/4" = 1'-0"
140
0.75
141
12.0
290
     0
  0
SCALE
  5
61
102
{ACAD_REACTORS
330
44
102
}
330
44
100
AcDbScale
 70
     0
300
1" = 1'-0"
140
1.0
141
12.0
290
     0
  0
SCALE
  5
62
102
{ACAD_REACTORS
330
44
102
}
330
44
100
AcDbScale
 70
     0
300
1-1/2" = 1'-0"
140
1.5
141
12.0
290
     0
  0
SCALE
  5
63
102
{ACAD_REACTORS
330
44
102
}
330
44
100
AcDbScale
 70
     0
300
3" = 1'-0"
140
3.0
141
12.0
290
     0
  0
SCALE
  5
64
102
{ACAD_REACTORS
330
44
102
}
330
44
100
AcDbScale
 70
     0
300
6" = 1'-0"
140
6.0
141
12.0
290
     0
  0
SCALE
  5
65
102
{ACAD_REACTORS
330
44
102
}
330
44
100
AcDbScale
 70
     0
300
1'-0" = 1'-0"
140
12.0
141
12.0
290
     0
  0
VISUALSTYLE
  5
2F
102
{ACAD_REACTORS
330
2A
102
}
330
2A
100
AcDbVisualStyle
  2
2dWireframe
 70
     4
 71
     0
 72
     2
 73
     0
 90
        0
 40
-0.6
 41
-30.0
 62
     5
 63
     7
 74
     1
 91
        4
 64
     7
 65
   257
 75
     1
175
     1
 42
1.0
 92
        0
 66
   257
 43
1.0
 76
     1
 77
     6
 78
     2
 67
     7
 79
     5
170
     0
171
     0
290
     0
174
     0
 93
        1
 44
0.0
173
     0
291
     0
 45
0.0
1001
ACAD
1000
AcDbSavedByObjectVersion
1070
     0
  0
VISUALSTYLE
  5
31
102
{ACAD_REACTORS
330
2A
102
}
330
2A
100
AcDbVisualStyle
  2
3D Hidden
 70
     6
 71
     1
 72
     2
 73
     2
 90
        0
 40
-0.6
 41
-30.0
 62
     5
 63
     7
 74
     2
 91
        2
 64
     7
 65
   257
 75
     2
175
     1
 42
40.0
 92
        0
 66
   257
 43
1.0
 76
     1
 77
     6
 78
     2
 67
     7
 79
     3
170
     0
171
     0
290
     0
174
     0
 93
        1
 44
0.0
173
     0
291
     0
 45
0.0
1001
ACAD
1000
AcDbSavedByObjectVersion
1070
     0
  0
VISUALSTYLE
  5
30
102
{ACAD_REACTORS
330
2A
102
}
330
2A
100
AcDbVisualStyle
  2
3dWireframe
 70
     5
 71
     0
 72
     2
 73
     0
 90
        0
 40
-0.6
 41
-30.0
 62
     5
 63
     7
 74
     1
 91
        4
 64
     7
 65
   257
 75
     1
175
     1
 42
1.0
 92
        0
 66
   257
 43
1.0
 76
     1
 77
     6
 78
     2
 67
     7
 79
     5
170
     0
171
     0
290
     0
174
     0
 93
        1
 44
0.0
173
     0
291
     0
 45
0.0
1001
ACAD
1000
AcDbSavedByObjectVersion
1070
     0
  0
VISUALSTYLE
  5
32
102
{ACAD_REACTORS
330
2A
102
}
330
2A
100
AcDbVisualStyle
  2
Basic
 70
     7
 71
     1
 72
     0
 73
     1
 90
        0
 40
-0.6
 41
-30.0
 62
     5
 63
     7
 74
     0
 91
        4
 64
     7
 65
   257
 75
     1
175
     1
 42
1.0
 92
        8
 66
     7
 43
1.0
 76
     1
 77
     6
 78
     2
 67
     7
 79
     5
170
     0
171
     0
290
     0
174
     0
 93
        1
 44
0.0
173
     0
291
     1
 45
0.0
1001
ACAD
1000
AcDbSavedByObjectVersion
1070
     0
  0
VISUALSTYLE
  5
36
102
{ACAD_REACTORS
330
2A
102
}
330
2A
100
AcDbVisualStyle
  2
Brighten
 70
    12
 71
     2
 72
     2
 73
     0
 90
        0
 40
-0.6
 41
-30.0
 62
     5
 63
     7
 74
     1
 91
        4
 64
     7
 65
   257
 75
     1
175
     1
 42
1.0
 92
        8
 66
     7
 43
1.0
 76
     1
 77
     6
 78
     2
 67
     7
 79
     5
170
     0
171
     0
290
     0
174
     0
 93
        1
 44
50.0
173
     0
291
     1
 45
0.0
1001
ACAD
1000
AcDbSavedByObjectVersion
1070
     0
  0
VISUALSTYLE
  5
3A
102
{ACAD_REACTORS
330
2A
102
}
330
2A
100
AcDbVisualStyle
  2
ColorChange
 70
    16
 71
     2
 72
     2
 73
     3
 90
        0
 40
-0.6
 41
-30.0
 62
     5
 63
     8
 74
     1
 91
        4
 64
     7
 65
   257
 75
     1
175
     1
 42
1.0
 92
        8
 66
     8
 43
1.0
 76
     1
 77
     6
 78
     2
 67
     7
 79
     5
170
     0
171
     0
290
     0
174
     0
 93
        1
 44
0.0
173
     0
291
     1
 45
0.0
1001
ACAD
1000
AcDbSavedByObjectVersion
1070
     0
  0
VISUALSTYLE
  5
34
102
{ACAD_REACTORS
330
2A
102
}
330
2A
100
AcDbVisualStyle
  2
Conceptual
 70
     9
 71
     3
 72
     2
 73
     0
 90
        0
 40
-0.6
 41
-30.0
 62
     5
 63
     7
 74
     2
 91
        2
 64
     7
 65
   257
 75
     1
175
     1
 42
40.0
 92
        8
 66
     7
 43
1.0
 76
     1
 77
     6
 78
     2
 67
     7
 79
     3
170
     0
171
     0
290
     0
174
     0
 93
        1
 44
0.0
173
     0
291
     0
 45
0.0
1001
ACAD
1000
AcDbSavedByObjectVersion
1070
     0
  0
VISUALSTYLE
  5
35
102
{ACAD_REACTORS
330
2A
102
}
330
2A
100
AcDbVisualStyle
  2
Dim
 70
    11
 71
     2
 72
     2
 73
     0
 90
        0
 40
-0.6
 41
-30.0
 62
     5
 63
     7
 74
     1
 91
        4
 64
     7
 65
   257
 75
     1
175
     1
 42
1.0
 92
        8
 66
     7
 43
1.0
 76
     1
 77
     6
 78
     2
 67
     7
 79
     5
170
     0
171
     0
290
     0
174
     0
 93
        1
 44
-50.0
173
     0
291
     1
 45
0.0
1001
ACAD
1000
AcDbSavedByObjectVersion
1070
     0
  0
VISUALSTYLE
  5
39
102
{ACAD_REACTORS
330
2A
102
}
330
2A
100
AcDbVisualStyle
  2
Facepattern
 70
    15
 71
     2
 72
     2
 73
     0
 90
        0
 40
-0.6
 41
-30.0
 62
     5
 63
     7
 74
     1
 91
        4
 64
     7
 65
   257
 75
     1
175
     1
 42
1.0
 92
        8
 66
     7
 43
1.0
 76
     1
 77
     6
 78
     2
 67
     7
 79
     5
170
     0
171
     0
290
     0
174
     0
 93
        1
 44
0.0
173
     0
291
     1
 45
0.0
1001
ACAD
1000
AcDbSavedByObjectVersion
1070
     0
  0
VISUALSTYLE
  5
2B
102
{ACAD_REACTORS
330
2A
102
}
330
2A
100
AcDbVisualStyle
  2
Flat
 70
     0
 71
     2
 72
     1
 73
     1
 90
        2
 40
-0.6
 41
30.0
 62
     5
 63
     7
 74
     0
 91
        4
 64
     7
 65
   257
 75
     1
175
     1
 42
1.0
 92
        8
 66
     7
 43
1.0
 76
     1
 77
     6
 78
     2
 67
     7
 79
     5
170
     0
171
     0
290
     0
174
     0
 93
       13
 44
0.0
173
     0
291
     1
 45
0.0
1001
ACAD
1000
AcDbSavedByObjectVersion
1070
     0
  0
VISUALSTYLE
  5
2C
102
{ACAD_REACTORS
330
2A
102
}
330
2A
100
AcDbVisualStyle
  2
FlatWithEdges
 70
     1
 71
     2
 72
     1
 73
     1
 90
        2
 40
-0.6
 41
30.0
 62
     5
 63
     7
 74
     1
 91
        4
 64
     7
 65
   257
 75
     1
175
     1
 42
1.0
 92
        0
 66
   257
 43
1.0
 76
     1
 77
     6
 78
     2
 67
     7
 79
     5
170
     0
171
     0
290
     0
174
     0
 93
       13
 44
0.0
173
     0
291
     1
 45
0.0
1001
ACAD
1000
AcDbSavedByObjectVersion
1070
     0
  0
VISUALSTYLE
  5
2D
102
{ACAD_REACTORS
330
2A
102
}
330
2A
100
AcDbVisualStyle
  2
Gouraud
 70
     2
 71
     2
 72
     2
 73
     1
 90
        2
 40
-0.6
 41
30.0
 62
     5
 63
     7
 74
     0
 91
        4
 64
     7
 65
   257
 75
     1
175
     1
 42
1.0
 92
        0
 66
     7
 43
1.0
 76
     1
 77
     6
 78
     2
 67
     7
 79
     5
170
     0
171
     0
290
     0
174
     0
 93
       13
 44
0.0
173
     0
291
     1
 45
0.0
1001
ACAD
1000
AcDbSavedByObjectVersion
1070
     0
  0
VISUALSTYLE
  5
2E
102
{ACAD_REACTORS
330
2A
102
}
330
2A
100
AcDbVisualStyle
  2
GouraudWithEdges
 70
     3
 71
     2
 72
     2
 73
     1
 90
        2
 40
-0.6
 41
30.0
 62
     5
 63
     7
 74
     1
 91
        4
 64
     7
 65
   257
 75
     1
175
     1
 42
1.0
 92
        0
 66
   257
 43
1.0
 76
     1
 77
     6
 78
     2
 67
     7
 79
     5
170
     0
171
     0
290
     0
174
     0
 93
       13
 44
0.0
173
     0
291
     1
 45
0.0
1001
ACAD
1000
AcDbSavedByObjectVersion
1070
     0
  0
VISUALSTYLE
  5
38
102
{ACAD_REACTORS
330
2A
102
}
330
2A
100
AcDbVisualStyle
  2
Linepattern
 70
    14
 71
     2
 72
     2
 73
     0
 90
        0
 40
-0.6
 41
-30.0
 62
     5
 63
     7
 74
     1
 91
        4
 64
     7
 65
   257
 75
     7
175
     7
 42
1.0
 92
        8
 66
     7
 43
1.0
 76
     1
 77
     6
 78
     2
 67
     7
 79
     5
170
     0
171
     0
290
     0
174
     0
 93
        1
 44
0.0
173
     0
291
     1
 45
0.0
1001
ACAD
1000
AcDbSavedByObjectVersion
1070
     0
  0
VISUALSTYLE
  5
33
102
{ACAD_REACTORS
330
2A
102
}
330
2A
100
AcDbVisualStyle
  2
Realistic
 70
     8
 71
     2
 72
     2
 73
     0
 90
        0
 40
-0.6
 41
-30.0
 62
     5
 63
     7
 74
     1
 91
        0
 64
     7
 65
   257
 75
     1
175
     1
 42
1.0
 92
        8
 66
     8
 43
1.0
 76
     1
 77
     6
 78
     2
 67
     7
 79
     5
170
     0
171
     0
290
     0
174
     0
 93
       13
 44
0.0
173
     0
291
     0
 45
0.0
1001
ACAD
1000
AcDbSavedByObjectVersion
1070
     0
  0
VISUALSTYLE
  5
37
102
{ACAD_REACTORS
330
2A
102
}
330
2A
100
AcDbVisualStyle
  2
Thicken
 70
    13
 71
     2
 72
     2
 73
     0
 90
        0
 40
-0.6
 41
-30.0
 62
     5
 63
     7
 74
     1
 91
        4
 64
     7
 65
   257
 75
     1
175
     1
 42
1.0
 92
       12
 66
     7
 43
1.0
 76
     1
 77
     6
 78
     2
 67
     7
 79
     5
170
     0
171
     0
290
     0
174
     0
 93
        1
 44
0.0
173
     0
291
     1
 45
0.0
1001
ACAD
1000
AcDbSavedByObjectVersion
1070
     0
  0
DICTIONARYVAR
  5
E1
102
{ACAD_REACTORS
330
DC
102
}
330
DC
100
DictionaryVariables
280
     0
  1
1:1
  0
DICTIONARYVAR
  5
E0
102
{ACAD_REACTORS
330
DC
102
}
330
DC
100
DictionaryVariables
280
     0
  1
80.000000
  0
DICTIONARYVAR
  5
DF
102
{ACAD_REACTORS
330
DC
102
}
330
DC
100
DictionaryVariables
280
     0
  1
5.000000
  0
ENDSEC
  0
EOF
