  0
SECTION
  2
HEADER
  9
$ACADVER
  1
AC1015
  9
$ACADMAINTVER
 70
     6
  9
$DWGCODEPAGE
  3
ANSI_1252
  9
$INSBASE
 10
0.0
 20
0.0
 30
0.0
  9
$EXTMIN
 10
0.0
 20
0.0
 30
0.0
  9
$EXTMAX
 10
210.0
 20
297.0
 30
0.0
  9
$LIMMIN
 10
0.0
 20
0.0
  9
$LIMMAX
 10
210.0
 20
297.0
  9
$ORTHOMODE
 70
     0
  9
$REGENMODE
 70
     1
  9
$FILLMODE
 70
     1
  9
$QTEXTMODE
 70
     0
  9
$MIRRTEXT
 70
     1
  9
$LTSCALE
 40
1.0
  9
$ATTMODE
 70
     1
  9
$TEXTSIZE
 40
2.5
  9
$TRACEWID
 40
1.0
  9
$TEXTSTYLE
  7
Standard
  9
$CLAYER
  8
0
  9
$CELTYPE
  6
ByLayer
  9
$CECOLOR
 62
   256
  9
$CELTSCALE
 40
1.0
  9
$DISPSILH
 70
     0
  9
$DIMSCALE
 40
1.0
  9
$DIMASZ
 40
2.5
  9
$DIMEXO
 40
0.625
  9
$DIMDLI
 40
3.75
  9
$DIMRND
 40
0.0
  9
$DIMDLE
 40
0.0
  9
$DIMEXE
 40
1.25
  9
$DIMTP
 40
0.0
  9
$DIMTM
 40
0.0
  9
$DIMTXT
 40
2.5
  9
$DIMCEN
 40
2.5
  9
$DIMTSZ
 40
0.0
  9
$DIMTOL
 70
     0
  9
$DIMLIM
 70
     0
  9
$DIMTIH
 70
     0
  9
$DIMTOH
 70
     0
  9
$DIMSE1
 70
     0
  9
$DIMSE2
 70
     0
  9
$DIMTAD
 70
     1
  9
$DIMZIN
 70
     8
  9
$DIMBLK
  1

  9
$DIMASO
 70
     1
  9
$DIMSHO
 70
     1
  9
$DIMPOST
  1

  9
$DIMAPOST
  1

  9
$DIMALT
 70
     0
  9
$DIMALTD
 70
     3
  9
$DIMALTF
 40
0.0393700787
  9
$DIMLFAC
 40
1.0
  9
$DIMTOFL
 70
     1
  9
$DIMTVP
 40
0.0
  9
$DIMTIX
 70
     0
  9
$DIMSOXD
 70
     0
  9
$DIMSAH
 70
     0
  9
$DIMBLK1
  1

  9
$DIMBLK2
  1

  9
$DIMSTYLE
  2
ISO-25
  9
$DIMCLRD
 70
     0
  9
$DIMCLRE
 70
     0
  9
$DIMCLRT
 70
     0
  9
$DIMTFAC
 40
1.0
  9
$DIMGAP
 40
0.625
  9
$DIMJUST
 70
     0
  9
$DIMSD1
 70
     0
  9
$DIMSD2
 70
     0
  9
$DIMTOLJ
 70
     0
  9
$DIMTZIN
 70
     8
  9
$DIMALTZ
 70
     0
  9
$DIMALTTZ
 70
     0
  9
$DIMUPT
 70
     0
  9
$DIMDEC
 70
     2
  9
$DIMTDEC
 70
     2
  9
$DIMALTU
 70
     2
  9
$DIMALTTD
 70
     3
  9
$DIMTXSTY
  7
Standard
  9
$DIMAUNIT
 70
     0
  9
$DIMADEC
 70
     0
  9
$DIMALTRND
 40
0.0
  9
$DIMAZIN
 70
     0
  9
$DIMDSEP
 70
    44
  9
$DIMATFIT
 70
     3
  9
$DIMFRAC
 70
     0
  9
$DIMLDRBLK
  1

  9
$DIMLUNIT
 70
     2
  9
$DIMLWD
 70
    -2
  9
$DIMLWE
 70
    -2
  9
$DIMTMOVE
 70
     0
  9
$LUNITS
 70
     2
  9
$LUPREC
 70
     4
  9
$SKETCHINC
 40
1.0
  9
$FILLETRAD
 40
10.0
  9
$AUNITS
 70
     0
  9
$AUPREC
 70
     0
  9
$MENU
  1
.
  9
$ELEVATION
 40
0.0
  9
$PELEVATION
 40
0.0
  9
$THICKNESS
 40
0.0
  9
$LIMCHECK
 70
     0
  9
$CHAMFERA
 40
10.0
  9
$CHAMFERB
 40
10.0
  9
$CHAMFERC
 40
20.0
  9
$CHAMFERD
 40
0.0
  9
$SKPOLY
 70
     0
  9
$TDCREATE
 40
2455770.488147662
  9
$TDUCREATE
 40
2455770.404814329
  9
$TDUPDATE
 40
2455770.488147674
  9
$TDUUPDATE
 40
2455770.40481434
  9
$TDINDWG
 40
0.0000000116
  9
$TDUSRTIMER
 40
0.0000000116
  9
$USRTIMER
 70
     1
  9
$ANGBASE
 50
0.0
  9
$ANGDIR
 70
     0
  9
$PDMODE
 70
     0
  9
$PDSIZE
 40
0.0
  9
$PLINEWID
 40
0.0
  9
$SPLFRAME
 70
     0
  9
$SPLINETYPE
 70
     6
  9
$SPLINESEGS
 70
     8
  9
$HANDSEED
  5
D9
  9
$SURFTAB1
 70
     6
  9
$SURFTAB2
 70
     6
  9
$SURFTYPE
 70
     6
  9
$SURFU
 70
     6
  9
$SURFV
 70
     6
  9
$UCSBASE
  2

  9
$UCSNAME
  2

  9
$UCSORG
 10
0.0
 20
0.0
 30
0.0
  9
$UCSXDIR
 10
1.0
 20
0.0
 30
0.0
  9
$UCSYDIR
 10
0.0
 20
1.0
 30
0.0
  9
$UCSORTHOREF
  2

  9
$UCSORTHOVIEW
 70
     0
  9
$UCSORGTOP
 10
0.0
 20
0.0
 30
0.0
  9
$UCSORGBOTTOM
 10
0.0
 20
0.0
 30
0.0
  9
$UCSORGLEFT
 10
0.0
 20
0.0
 30
0.0
  9
$UCSORGRIGHT
 10
0.0
 20
0.0
 30
0.0
  9
$UCSORGFRONT
 10
0.0
 20
0.0
 30
0.0
  9
$UCSORGBACK
 10
0.0
 20
0.0
 30
0.0
  9
$PUCSBASE
  2

  9
$PUCSNAME
  2

  9
$PUCSORG
 10
0.0
 20
0.0
 30
0.0
  9
$PUCSXDIR
 10
1.0
 20
0.0
 30
0.0
  9
$PUCSYDIR
 10
0.0
 20
1.0
 30
0.0
  9
$PUCSORTHOREF
  2

  9
$PUCSORTHOVIEW
 70
     0
  9
$PUCSORGTOP
 10
0.0
 20
0.0
 30
0.0
  9
$PUCSORGBOTTOM
 10
0.0
 20
0.0
 30
0.0
  9
$PUCSORGLEFT
 10
0.0
 20
0.0
 30
0.0
  9
$PUCSORGRIGHT
 10
0.0
 20
0.0
 30
0.0
  9
$PUCSORGFRONT
 10
0.0
 20
0.0
 30
0.0
  9
$PUCSORGBACK
 10
0.0
 20
0.0
 30
0.0
  9
$USERI1
 70
     0
  9
$USERI2
 70
     0
  9
$USERI3
 70
     0
  9
$USERI4
 70
     0
  9
$USERI5
 70
     0
  9
$USERR1
 40
0.0
  9
$USERR2
 40
0.0
  9
$USERR3
 40
0.0
  9
$USERR4
 40
0.0
  9
$USERR5
 40
0.0
  9
$WORLDVIEW
 70
     1
  9
$SHADEDGE
 70
     3
  9
$SHADEDIF
 70
    70
  9
$TILEMODE
 70
     1
  9
$MAXACTVP
 70
    64
  9
$PINSBASE
 10
0.0
 20
0.0
 30
0.0
  9
$PLIMCHECK
 70
     0
  9
$PEXTMIN
 10
0.0
 20
0.0
 30
0.0
  9
$PEXTMAX
 10
210.0
 20
297.0
 30
0.0
  9
$PLIMMIN
 10
0.0
 20
0.0
  9
$PLIMMAX
 10
210.0
 20
297.0
  9
$UNITMODE
 70
     0
  9
$VISRETAIN
 70
     1
  9
$PLINEGEN
 70
     0
  9
$PSLTSCALE
 70
     1
  9
$TREEDEPTH
 70
  3020
  9
$CMLSTYLE
  2
Standard
  9
$CMLJUST
 70
     0
  9
$CMLSCALE
 40
20.0
  9
$PROXYGRAPHICS
 70
     1
  9
$MEASUREMENT
 70
     1
  9
$CELWEIGHT
370
    -1
  9
$ENDCAPS
280
     0
  9
$JOINSTYLE
280
     0
  9
$LWDISPLAY
290
     0
  9
$INSUNITS
 70
     4
  9
$HYPERLINKBASE
  1

  9
$STYLESHEET
  1

  9
$XEDIT
290
     1
  9
$CEPSNTYPE
380
     0
  9
$PSTYLEMODE
290
     1
  9
$FINGERPRINTGUID
  2
{AF7DB05D-9D60-47E4-A793-E5BAF29B81FE}
  9
$VERSIONGUID
  2
{FAEB1C32-E019-11D5-929B-00C0DF256EC4}
  9
$EXTNAMES
290
     1
  9
$PSVPSCALE
 40
0.0
  9
$OLESTARTUP
290
     0
  0
ENDSEC
  0
SECTION
  2
CLASSES
  0
CLASS
  1
ACDBDICTIONARYWDFLT
  2
AcDbDictionaryWithDefault
  3
ObjectDBX Classes
 90
        0
280
     0
281
     0
  0
CLASS
  1
VISUALSTYLE
  2
AcDbVisualStyle
  3
ObjectDBX Classes
 90
     4095
280
     0
281
     0
  0
CLASS
  1
SCALE
  2
AcDbScale
  3
ObjectDBX Classes
 90
     1153
280
     0
281
     0
  0
CLASS
  1
DICTIONARYVAR
  2
AcDbDictionaryVar
  3
ObjectDBX Classes
 90
        0
280
     0
281
     0
  0
CLASS
  1
ACDBPLACEHOLDER
  2
AcDbPlaceHolder
  3
ObjectDBX Classes
 90
        0
280
     0
281
     0
  0
CLASS
  1
LAYOUT
  2
AcDbLayout
  3
ObjectDBX Classes
 90
        0
280
     0
281
     0
  0
ENDSEC
  0
SECTION
  2
TABLES
  0
TABLE
  2
VPORT
  5
8
330
0
100
AcDbSymbolTable
 70
     1
  0
VPORT
  5
29
330
8
100
AcDbSymbolTableRecord
100
AcDbViewportTableRecord
  2
*Active
 70
     0
 10
0.0
 20
0.0
 11
1.0
 21
1.0
 12
344.1869158879
 22
148.5
 13
0.0
 23
0.0
 14
10.0
 24
10.0
 15
10.0
 25
10.0
 16
0.0
 26
0.0
 36
1.0
 17
0.0
 27
0.0
 37
0.0
 40
297.0
 41
1.9729729729
 42
50.0
 43
0.0
 44
0.0
 50
0.0
 51
0.0
 71
     0
 72
   100
 73
     1
 74
     3
 75
     0
 76
     0
 77
     0
 78
     0
281
     0
 65
     1
110
0.0
120
0.0
130
0.0
111
1.0
121
0.0
131
0.0
112
0.0
122
1.0
132
0.0
 79
     0
146
0.0
  0
ENDTAB
  0
TABLE
  2
LTYPE
  5
5
330
0
100
AcDbSymbolTable
 70
     1
  0
LTYPE
  5
14
330
5
100
AcDbSymbolTableRecord
100
AcDbLinetypeTableRecord
  2
ByBlock
 70
     0
  3

 72
    65
 73
     0
 40
0.0
  0
LTYPE
  5
15
330
5
100
AcDbSymbolTableRecord
100
AcDbLinetypeTableRecord
  2
ByLayer
 70
     0
  3

 72
    65
 73
     0
 40
0.0
  0
LTYPE
  5
16
330
5
100
AcDbSymbolTableRecord
100
AcDbLinetypeTableRecord
  2
Continuous
 70
     0
  3
Solid line
 72
    65
 73
     0
 40
0.0
  0
ENDTAB
  0
TABLE
  2
LAYER
  5
2
330
0
100
AcDbSymbolTable
 70
     4
  0
LAYER
  5
10
330
2
100
AcDbSymbolTableRecord
100
AcDbLayerTableRecord
  2
0
 70
     0
 62
     7
  6
Continuous
370
    -3
390
F
  0
LAYER
  5
3B
330
2
100
AcDbSymbolTableRecord
100
AcDbLayerTableRecord
  2
Default
 70
     0
 62
     7
  6
Continuous
370
    -3
390
F
  0
LAYER
  5
85
330
2
100
AcDbSymbolTableRecord
100
AcDbLayerTableRecord
  2
U761
 70
     0
 62
     7
  6
Continuous
370
    -3
390
F
  0
LAYER
  5
98
330
2
100
AcDbSymbolTableRecord
100
AcDbLayerTableRecord
  2
U141
 70
     0
 62
     7
  6
Continuous
370
    -3
390
F
  0
ENDTAB
  0
TABLE
  2
STYLE
  5
3
330
0
100
AcDbSymbolTable
 70
     4
  0
STYLE
  5
11
330
3
100
AcDbSymbolTableRecord
100
AcDbTextStyleTableRecord
  2
Standard
 70
     0
 40
0.0
 41
1.0
 50
0.0
 71
     0
 42
2.5
  3
txt
  4

  0
STYLE
  5
60
330
3
100
AcDbSymbolTableRecord
100
AcDbTextStyleTableRecord
  2
SEACAD_arial_ttf
 70
     0
 40
0.0
 41
1.0
 50
0.0
 71
     0
 42
0.2
  3
arial.ttf
  4

  0
STYLE
  5
79
330
3
100
AcDbSymbolTableRecord
100
AcDbTextStyleTableRecord
  2
SEACAD_arial_ttfB
 70
     0
 40
0.0
 41
1.0
 50
0.0
 71
     0
 42
0.2
  3
arial.ttf
  4

  0
STYLE
  5
C3
330
3
100
AcDbSymbolTableRecord
100
AcDbTextStyleTableRecord
  2
SEACAD_semeca1_ttfB
 70
     0
 40
0.0
 41
1.0
 50
0.0
 71
     0
 42
0.2
  3
semeca1.ttf
  4

  0
ENDTAB
  0
TABLE
  2
VIEW
  5
6
330
0
100
AcDbSymbolTable
 70
     0
  0
ENDTAB
  0
TABLE
  2
UCS
  5
7
330
0
100
AcDbSymbolTable
 70
     0
  0
ENDTAB
  0
TABLE
  2
APPID
  5
9
330
0
100
AcDbSymbolTable
 70
     1
  0
APPID
  5
12
330
9
100
AcDbSymbolTableRecord
100
AcDbRegAppTableRecord
  2
ACAD
 70
     0
  0
ENDTAB
  0
TABLE
  2
DIMSTYLE
  5
A
330
0
100
AcDbSymbolTable
 70
     3
100
AcDbDimStyleTable
  0
DIMSTYLE
105
27
330
A
100
AcDbSymbolTableRecord
100
AcDbDimStyleTableRecord
  2
ISO-25
 70
     0
 41
2.5
 42
0.625
 43
3.75
 44
1.25
 73
     0
 74
     0
 77
     1
 78
     8
140
2.5
141
2.5
143
0.0393700787
147
0.625
171
     3
172
     1
271
     2
272
     2
274
     3
278
    44
283
     0
284
     8
340
11
  0
DIMSTYLE
105
65
330
A
100
AcDbSymbolTableRecord
100
AcDbDimStyleTableRecord
  2
Standard
 70
     0
340
11
  0
DIMSTYLE
105
77
102
{ACAD_REACTORS
330
78
330
B2
102
}
330
A
100
AcDbSymbolTableRecord
100
AcDbDimStyleTableRecord
  2
AA
 70
     0
 41
12.0
 42
4.0
 44
4.0
 73
     0
 74
     0
 77
     1
 78
     8
140
8.0
141
0.0
147
4.0
172
     1
173
     1
271
     0
272
     0
278
    44
284
     8
340
60
343
72
344
72
  0
ENDTAB
  0
TABLE
  2
BLOCK_RECORD
  5
1
330
0
100
AcDbSymbolTable
 70
    10
  0
BLOCK_RECORD
  5
1F
330
1
100
AcDbSymbolTableRecord
100
AcDbBlockTableRecord
  2
*Model_Space
340
22
  0
BLOCK_RECORD
  5
1B
330
1
100
AcDbSymbolTableRecord
100
AcDbBlockTableRecord
  2
*Paper_Space
340
1E
  0
BLOCK_RECORD
  5
3C
330
1
100
AcDbSymbolTableRecord
100
AcDbBlockTableRecord
  2
SEANNOT_GROUP
340
0
102
{BLKREFS
331
3D
102
}
  0
BLOCK_RECORD
  5
66
330
1
100
AcDbSymbolTableRecord
100
AcDbBlockTableRecord
  2
_OBLIQUE
340
0
  0
BLOCK_RECORD
  5
6A
330
1
100
AcDbSymbolTableRecord
100
AcDbBlockTableRecord
  2
_DOT
340
0
  0
BLOCK_RECORD
  5
72
330
1
100
AcDbSymbolTableRecord
100
AcDbBlockTableRecord
  2
_SE_FILLED
340
0
  0
BLOCK_RECORD
  5
7A
330
1
100
AcDbSymbolTableRecord
100
AcDbBlockTableRecord
  2
DMBLK3
340
0
  0
BLOCK_RECORD
  5
83
330
1
100
AcDbSymbolTableRecord
100
AcDbBlockTableRecord
  2
SE
340
0
102
{BLKREFS
331
84
102
}
  0
BLOCK_RECORD
  5
B3
330
1
100
AcDbSymbolTableRecord
100
AcDbBlockTableRecord
  2
DMBLK4
340
0
  0
BLOCK_RECORD
  5
BC
330
1
100
AcDbSymbolTableRecord
100
AcDbBlockTableRecord
  2
GDimGGroup
340
0
102
{BLKREFS
331
BD
102
}
  0
BLOCK_RECORD
  5
C8
330
1
100
AcDbSymbolTableRecord
100
AcDbBlockTableRecord
  2
GDimGGroup1
340
0
102
{BLKREFS
331
C9
102
}
  0
ENDTAB
  0
ENDSEC
  0
SECTION
  2
BLOCKS
  0
BLOCK
  5
20
330
1F
100
AcDbEntity
  8
0
100
AcDbBlockBegin
  2
*Model_Space
 70
     0
 10
0.0
 20
0.0
 30
0.0
  3
*Model_Space
  1

  0
ENDBLK
  5
21
330
1F
100
AcDbEntity
  8
0
100
AcDbBlockEnd
  0
BLOCK
  5
1C
330
1B
100
AcDbEntity
 67
     1
  8
0
100
AcDbBlockBegin
  2
*Paper_Space
 70
     0
 10
0.0
 20
0.0
 30
0.0
  3
*Paper_Space
  1

  0
ENDBLK
  5
1D
330
1B
100
AcDbEntity
 67
     1
  8
0
100
AcDbBlockEnd
  0
BLOCK
  5
63
330
3C
100
AcDbEntity
  8
0
100
AcDbBlockBegin
  2
SEANNOT_GROUP
 70
     0
 10
0.0
 20
0.0
 30
0.0
  3
SEANNOT_GROUP
  1

  0
TEXT
  5
61
330
3C
100
AcDbEntity
  8
Default
  6
Continuous
 62
     7
100
AcDbText
 10
81.5048149675
 20
77.546720037
 30
0.0
 40
4.0
  1
Raccord siphon urinoir
  7
SEACAD_arial_ttf
 11
81.5048149675
 21
81.546720037
 31
0.0
100
AcDbText
 73
     3
  0
TEXT
  5
62
330
3C
100
AcDbEntity
  8
Default
  6
Continuous
 62
     7
100
AcDbText
 10
81.5048149675
 20
65.546720037
 30
0.0
 40
4.0
  1
Réf.  39106
  7
SEACAD_arial_ttf
 11
81.5048149675
 21
69.546720037
 31
0.0
100
AcDbText
 73
     3
  0
ENDBLK
  5
64
330
3C
100
AcDbEntity
  8
0
100
AcDbBlockEnd
  0
BLOCK
  5
67
330
66
100
AcDbEntity
  8
0
100
AcDbBlockBegin
  2
_OBLIQUE
 70
     0
 10
0.0
 20
0.0
 30
0.0
  3
_OBLIQUE
  1

  0
LINE
  5
69
330
66
100
AcDbEntity
  8
0
  6
ByBlock
 62
     0
370
    -2
100
AcDbLine
 10
-0.5
 20
-0.5
 30
0.0
 11
0.5
 21
0.5
 31
0.0
  0
ENDBLK
  5
68
330
66
100
AcDbEntity
  8
0
100
AcDbBlockEnd
  0
BLOCK
  5
6B
330
6A
100
AcDbEntity
  8
0
100
AcDbBlockBegin
  2
_DOT
 70
     0
 10
0.0
 20
0.0
 30
0.0
  3
_DOT
  1

  0
POLYLINE
  5
6D
330
6A
100
AcDbEntity
  8
0
  6
ByBlock
 62
     0
100
AcDb2dPolyline
 66
     1
 10
0.0
 20
0.0
 30
0.0
 70
     1
 40
0.5
 41
0.5
  0
VERTEX
  5
6F
330
6D
100
AcDbEntity
  8
0
  6
ByBlock
 62
     0
100
AcDbVertex
100
AcDb2dVertex
 10
-0.25
 20
0.0
 30
0.0
 42
1.0
  0
VERTEX
  5
70
330
6D
100
AcDbEntity
  8
0
  6
ByBlock
 62
     0
100
AcDbVertex
100
AcDb2dVertex
 10
0.25
 20
0.0
 30
0.0
 42
1.0
  0
SEQEND
  5
71
330
6D
100
AcDbEntity
  8
0
  6
ByBlock
 62
     0
  0
LINE
  5
6E
330
6A
100
AcDbEntity
  8
0
  6
ByBlock
 62
     0
370
    -2
100
AcDbLine
 10
-0.5
 20
0.0
 30
0.0
 11
-1.0
 21
0.0
 31
0.0
  0
ENDBLK
  5
6C
330
6A
100
AcDbEntity
  8
0
100
AcDbBlockEnd
  0
BLOCK
  5
75
330
72
100
AcDbEntity
  8
0
100
AcDbBlockBegin
  2
_SE_FILLED
 70
     0
 10
0.0
 20
0.0
 30
0.0
  3
_SE_FILLED
  1

  0
SOLID
  5
73
330
72
100
AcDbEntity
  8
0
 62
     0
100
AcDbTrace
 10
0.0
 20
0.0
 30
0.0
 11
-1.0
 21
-0.1665
 31
0.0
 12
-1.0
 22
0.1665
 32
0.0
 13
0.0
 23
0.0
 33
0.0
  0
LINE
  5
74
330
72
100
AcDbEntity
  8
0
 62
     0
100
AcDbLine
 10
0.0
 20
0.0
 30
0.0
 11
-1.0
 21
0.0
 31
0.0
  0
ENDBLK
  5
76
330
72
100
AcDbEntity
  8
0
100
AcDbBlockEnd
  0
BLOCK
  5
81
330
7A
100
AcDbEntity
  8
0
100
AcDbBlockBegin
  2
DMBLK3
 70
     0
 10
0.0
 20
0.0
 30
0.0
  3
DMBLK3
  1

  0
HATCH
  5
7B
330
7A
100
AcDbEntity
  8
Default
  6
Continuous
 62
     7
100
AcDbHatch
 10
0.0
 20
0.0
 30
0.0
210
0.0
220
0.0
230
1.0
  2
SOLID
 70
     1
 71
     0
 91
        1
 92
        1
 93
        3
 72
     1
 10
53.58999449131479
 20
192.5200931220132
 11
57.58999452608416
 21
192.5200931220132
 72
     1
 10
57.58999452608416
 20
192.5200931220132
 11
55.58999450869948
 21
204.5200932263213
 72
     1
 10
55.58999450869948
 20
204.5200932263213
 11
53.58999449131479
 21
192.5200931220132
 97
        0
 75
     0
 76
     1
 98
        0
  0
HATCH
  5
7C
330
7A
100
AcDbEntity
  8
Default
  6
Continuous
 62
     7
100
AcDbHatch
 10
0.0
 20
0.0
 30
0.0
210
0.0
220
0.0
230
1.0
  2
SOLID
 70
     1
 71
     0
 91
        1
 92
        1
 93
        3
 72
     1
 10
53.58999449131479
 20
156.5200946717339
 11
55.58999450869948
 21
144.5200945674258
 72
     1
 10
55.58999450869948
 20
144.5200945674258
 11
57.58999452608416
 21
156.5200946717339
 72
     1
 10
57.58999452608416
 20
156.5200946717339
 11
53.58999449131479
 21
156.5200946717339
 97
        0
 75
     0
 76
     1
 98
        0
  0
LINE
  5
7D
330
7A
100
AcDbEntity
  8
Default
  6
Continuous
 62
     7
100
AcDbLine
 10
68.3106580748
 20
204.5200932263
 30
0.0
 11
51.5899943187
 21
204.5200932263
 31
0.0
  0
LINE
  5
7E
330
7A
100
AcDbEntity
  8
Default
  6
Continuous
 62
     7
100
AcDbLine
 10
81.8250864897
 20
144.5200932263
 30
0.0
 11
51.5899943187
 21
144.5200932263
 31
0.0
  0
LINE
  5
7F
330
7A
100
AcDbEntity
  8
Default
  6
Continuous
 62
     7
100
AcDbLine
 10
55.5899945087
 20
204.5200932263
 30
0.0
 11
55.5899945087
 21
144.5200945674
 31
0.0
  0
TEXT
  5
80
330
7A
100
AcDbEntity
  8
Default
  6
Continuous
 62
     7
100
AcDbText
 10
50.7899945087
 20
168.2592243317
 30
0.0
 40
8.0
  1
60
 50
90.0
  7
SEACAD_arial_ttfB
 11
42.7899945087
 21
168.2592243317
 31
0.0
100
AcDbText
 73
     3
  0
ENDBLK
  5
82
330
7A
100
AcDbEntity
  8
0
100
AcDbBlockEnd
  0
BLOCK
  5
B0
330
83
100
AcDbEntity
  8
0
100
AcDbBlockBegin
  2
SE
 70
     0
 10
0.0
 20
0.0
 30
0.0
  3
SE
  1

  0
LINE
  5
86
330
83
100
AcDbEntity
  8
U761
  6
Continuous
 62
     7
100
AcDbLine
 10
72.3106582648
 20
204.5200932263
 30
0.0
 11
138.3106582648
 21
204.5200932263
 31
0.0
  0
LINE
  5
87
330
83
100
AcDbEntity
  8
U761
  6
Continuous
 62
     7
100
AcDbLine
 10
81.2744896999
 20
166.5200932263
 30
0.0
 11
129.3468268297
 21
166.5200932263
 31
0.0
  0
LINE
  5
88
330
83
100
AcDbEntity
  8
U761
  6
Continuous
 62
     7
100
AcDbLine
 10
69.3106582648
 20
201.5200932263
 30
0.0
 11
141.3106582648
 21
201.5200932263
 31
0.0
  0
LINE
  5
89
330
83
100
AcDbEntity
  8
U761
  6
Continuous
 62
     7
100
AcDbLine
 10
71.0303631199
 20
175.4251766029
 30
0.0
 11
139.5909534098
 21
175.4251766029
 31
0.0
  0
LINE
  5
8A
330
83
100
AcDbEntity
  8
U761
  6
Continuous
 62
     7
100
AcDbLine
 10
69.3106582648
 20
179.198724504
 30
0.0
 11
141.3106582648
 21
179.198724504
 31
0.0
  0
LINE
  5
8B
330
83
100
AcDbEntity
  8
U761
  6
Continuous
 62
     7
100
AcDbLine
 10
126.3106582648
 20
162.5200932263
 30
0.0
 11
126.3106582648
 21
166.5200932263
 31
0.0
  0
LINE
  5
8C
330
83
100
AcDbEntity
  8
U761
  6
Continuous
 62
     7
100
AcDbLine
 10
84.3106582648
 20
166.5200932263
 30
0.0
 11
84.3106582648
 21
162.5200932263
 31
0.0
  0
LINE
  5
8D
330
83
100
AcDbEntity
  8
U761
  6
Continuous
 62
     7
100
AcDbLine
 10
71.0303631199
 20
175.4251766029
 30
0.0
 11
81.2744896999
 21
166.5200932263
 31
0.0
  0
LINE
  5
8E
330
83
100
AcDbEntity
  8
U761
  6
Continuous
 62
     7
100
AcDbLine
 10
129.3468268297
 20
166.5200932263
 30
0.0
 11
139.5909534098
 21
175.4251766029
 31
0.0
  0
LINE
  5
8F
330
83
100
AcDbEntity
  8
U761
  6
Continuous
 62
     7
100
AcDbLine
 10
141.3106582648
 20
179.198724504
 30
0.0
 11
141.3106582648
 21
201.5200932263
 31
0.0
  0
LINE
  5
90
330
83
100
AcDbEntity
  8
U761
  6
Continuous
 62
     7
100
AcDbLine
 10
69.3106582648
 20
201.5200932263
 30
0.0
 11
69.3106582648
 21
179.198724504
 31
0.0
  0
ARC
  5
91
330
83
100
AcDbEntity
  8
U761
  6
Continuous
 62
     7
100
AcDbCircle
 10
138.3106582648
 20
201.5200932263
 30
0.0
 40
3.000000000000003
100
AcDbArc
 50
0.0
 51
90.0
  0
ARC
  5
92
330
83
100
AcDbEntity
  8
U761
  6
Continuous
 62
     7
100
AcDbCircle
 10
72.3106582648
 20
201.5200932263
 30
0.0
 40
3.00000000000001
100
AcDbArc
 50
90.0
 51
180.0
  0
ARC
  5
93
330
83
100
AcDbEntity
  8
U761
  6
Continuous
 62
     7
100
AcDbCircle
 10
74.3106582648
 20
179.198724504
 30
0.0
 40
5.000000000000004
100
AcDbArc
 50
180.0
 51
229.0
  0
ARC
  5
94
330
83
100
AcDbEntity
  8
U761
  6
Continuous
 62
     7
100
AcDbCircle
 10
136.3106582648
 20
179.198724504
 30
0.0
 40
4.999999999999999
100
AcDbArc
 50
311.0
 51
0.0
  0
LINE
  5
95
330
83
100
AcDbEntity
  8
U761
  6
Continuous
 62
     7
100
AcDbLine
 10
85.8346582648
 20
162.5200932263
 30
0.0
 11
85.8346582648
 21
164.5200932263
 31
0.0
  0
LINE
  5
96
330
83
100
AcDbEntity
  8
U761
  6
Continuous
 62
     7
100
AcDbLine
 10
124.7866582648
 20
162.5200932263
 30
0.0
 11
124.7866582648
 21
164.5200932263
 31
0.0
  0
LINE
  5
97
330
83
100
AcDbEntity
  8
U761
  6
Continuous
 62
     7
100
AcDbLine
 10
126.3106582648
 20
164.5200932263
 30
0.0
 11
84.3106582648
 21
164.5200932263
 31
0.0
  0
LINE
  5
99
330
83
100
AcDbEntity
  8
U141
  6
Continuous
 62
     7
100
AcDbLine
 10
121.2496646102
 20
162.5200932263
 30
0.0
 11
112.4037887444
 21
162.5200932263
 31
0.0
  0
LINE
  5
9A
330
83
100
AcDbEntity
  8
U141
  6
Continuous
 62
     7
100
AcDbLine
 10
121.2496646102
 20
144.5200932263
 30
0.0
 11
112.4037887444
 21
144.5200932263
 31
0.0
  0
LINE
  5
9B
330
83
100
AcDbEntity
  8
U141
  6
Continuous
 62
     7
100
AcDbLine
 10
98.2175277853
 20
162.5200932263
 30
0.0
 11
89.3716519195
 21
162.5200932263
 31
0.0
  0
LINE
  5
9C
330
83
100
AcDbEntity
  8
U141
  6
Continuous
 62
     7
100
AcDbLine
 10
82.2785214399
 20
162.5200932263
 30
0.0
 11
81.7190813782
 21
162.5200932263
 31
0.0
  0
LINE
  5
9D
330
83
100
AcDbEntity
  8
U141
  6
Continuous
 62
     7
100
AcDbLine
 10
128.9022351515
 20
162.5200932263
 30
0.0
 11
128.3427950898
 21
162.5200932263
 31
0.0
  0
LINE
  5
9E
330
83
100
AcDbEntity
  8
U141
  6
Continuous
 62
     7
100
AcDbLine
 10
98.2175277853
 20
144.5200932263
 30
0.0
 11
89.3716519195
 21
144.5200932263
 31
0.0
  0
LINE
  5
9F
330
83
100
AcDbEntity
  8
U141
  6
Continuous
 62
     7
100
AcDbLine
 10
82.2785214399
 20
144.5200932263
 30
0.0
 11
81.7190813782
 21
144.5200932263
 31
0.0
  0
LINE
  5
A0
330
83
100
AcDbEntity
  8
U141
  6
Continuous
 62
     7
100
AcDbLine
 10
128.9022351515
 20
144.5200932263
 30
0.0
 11
128.3427950898
 21
144.5200932263
 31
0.0
  0
ELLIPSE
  5
A1
330
83
100
AcDbEntity
  8
U141
  6
Continuous
 62
     7
100
AcDbEllipse
 10
124.79622985
 20
153.5200932263
 30
0.0
 11
0.0
 21
11.45916663636584
 31
0.0
210
0.0
220
0.0
230
1.0
 40
0.5
 41
0.6674584045407614
 42
2.474134249049024
  0
ARC
  5
A2
330
83
100
AcDbEntity
  8
U141
  6
Continuous
 62
     7
100
AcDbCircle
 10
105.3106582648
 20
153.5200932263
 30
0.0
 40
11.45916663636587
100
AcDbArc
 50
128.2425495807
 51
231.7574504193
  0
ELLIPSE
  5
A3
330
83
100
AcDbEntity
  8
U141
  6
Continuous
 62
     7
100
AcDbEllipse
 10
85.8250866797
 20
153.5200932263
 30
0.0
 11
0.0
 21
11.45916663636586
 31
0.0
210
0.0
220
0.0
230
1.0
 40
0.5
 41
0.6674584045407687
 42
2.474134249049025
  0
LINE
  5
A4
330
83
100
AcDbEntity
  8
U141
  6
Continuous
 62
     7
100
AcDbLine
 10
128.3427950898
 20
144.5200932263
 30
0.0
 11
121.2496646102
 21
144.5200932263
 31
0.0
  0
ELLIPSE
  5
A5
330
83
100
AcDbEntity
  8
U141
  6
Continuous
 62
     7
100
AcDbEllipse
 10
124.79622985
 20
153.5200932263
 30
0.0
 11
0.0
 21
-11.45916663636583
 31
0.0
210
0.0
220
0.0
230
1.0
 40
0.5
 41
0.6674584045407692
 42
2.474134249049032
  0
LINE
  5
A6
330
83
100
AcDbEntity
  8
U141
  6
Continuous
 62
     7
100
AcDbLine
 10
112.4037887444
 20
144.5200932263
 30
0.0
 11
98.2175277853
 21
144.5200932263
 31
0.0
  0
ARC
  5
A7
330
83
100
AcDbEntity
  8
U141
  6
Continuous
 62
     7
100
AcDbCircle
 10
105.3106582648
 20
153.5200932263
 30
0.0
 40
11.45916663636587
100
AcDbArc
 50
308.2425495807
 51
51.7574504193
  0
LINE
  5
A8
330
83
100
AcDbEntity
  8
U141
  6
Continuous
 62
     7
100
AcDbLine
 10
89.3716519195
 20
144.5200932263
 30
0.0
 11
82.2785214399
 21
144.5200932263
 31
0.0
  0
ELLIPSE
  5
A9
330
83
100
AcDbEntity
  8
U141
  6
Continuous
 62
     7
100
AcDbEllipse
 10
85.8250866797
 20
153.5200932263
 30
0.0
 11
3.469446951953614E-15
 21
-11.45916663636586
 31
0.0
210
0.0
220
0.0
230
1.0
 40
0.5
 41
0.6674584045407681
 42
2.474134249049025
  0
LINE
  5
AA
330
83
100
AcDbEntity
  8
U141
  6
Continuous
 62
     7
100
AcDbLine
 10
128.3427950898
 20
162.5200932263
 30
0.0
 11
121.2496646102
 21
162.5200932263
 31
0.0
  0
LINE
  5
AB
330
83
100
AcDbEntity
  8
U141
  6
Continuous
 62
     7
100
AcDbLine
 10
112.4037887444
 20
162.5200932263
 30
0.0
 11
98.2175277853
 21
162.5200932263
 31
0.0
  0
LINE
  5
AC
330
83
100
AcDbEntity
  8
U141
  6
Continuous
 62
     7
100
AcDbLine
 10
89.3716519195
 20
162.5200932263
 30
0.0
 11
82.2785214399
 21
162.5200932263
 31
0.0
  0
ARC
  5
AD
330
83
100
AcDbEntity
  8
U141
  6
Continuous
 62
     7
100
AcDbCircle
 10
105.3106582648
 20
153.5200932263
 30
0.0
 40
25.25
100
AcDbArc
 50
339.1185426629
 51
0.0
  0
ARC
  5
AE
330
83
100
AcDbEntity
  8
U141
  6
Continuous
 62
     7
100
AcDbCircle
 10
105.3106582648
 20
153.5200932263
 30
0.0
 40
25.25
100
AcDbArc
 50
0.0
 51
20.8814573371
  0
ARC
  5
AF
330
83
100
AcDbEntity
  8
U141
  6
Continuous
 62
     7
100
AcDbCircle
 10
105.3106582648
 20
153.5200932263
 30
0.0
 40
25.25
100
AcDbArc
 50
159.1185426629
 51
200.8814573371
  0
ENDBLK
  5
B1
330
83
100
AcDbEntity
  8
0
100
AcDbBlockEnd
  0
BLOCK
  5
BA
330
B3
100
AcDbEntity
  8
0
100
AcDbBlockBegin
  2
DMBLK4
 70
     0
 10
0.0
 20
0.0
 30
0.0
  3
DMBLK4
  1

  0
HATCH
  5
B4
330
B3
100
AcDbEntity
  8
Default
  6
Continuous
 62
     7
100
AcDbHatch
 10
0.0
 20
0.0
 30
0.0
210
0.0
220
0.0
230
1.0
  2
SOLID
 70
     1
 71
     0
 91
        1
 92
        1
 93
        3
 72
     1
 10
95.31065836913942
 20
214.2242061310885
 11
83.31065826483129
 21
212.2242061137038
 72
     1
 10
83.31065826483129
 20
212.2242061137038
 11
95.31065836913942
 21
210.2242060963191
 72
     1
 10
95.31065836913942
 20
210.2242060963191
 11
95.31065836913942
 21
214.2242061310885
 97
        0
 75
     0
 76
     1
 98
        0
  0
HATCH
  5
B5
330
B3
100
AcDbEntity
  8
Default
  6
Continuous
 62
     7
100
AcDbHatch
 10
0.0
 20
0.0
 30
0.0
210
0.0
220
0.0
230
1.0
  2
SOLID
 70
     1
 71
     0
 91
        1
 92
        1
 93
        3
 72
     1
 10
115.3106579221046
 20
214.2242061310885
 11
115.3106579221046
 21
210.2242060963191
 72
     1
 10
115.3106579221046
 20
210.2242060963191
 11
127.3106580264127
 21
212.2242061137038
 72
     1
 10
127.3106580264127
 20
212.2242061137038
 11
115.3106579221046
 21
214.2242061310885
 97
        0
 75
     0
 76
     1
 98
        0
  0
LINE
  5
B6
330
B3
100
AcDbEntity
  8
Default
  6
Continuous
 62
     7
100
AcDbLine
 10
83.3106582648
 20
198.3089634864
 30
0.0
 11
83.3106582648
 21
216.2242063037
 31
0.0
  0
LINE
  5
B7
330
B3
100
AcDbEntity
  8
Default
  6
Continuous
 62
     7
100
AcDbLine
 10
127.3106582648
 20
198.5653770803
 30
0.0
 11
127.3106582648
 21
216.2242063037
 31
0.0
  0
LINE
  5
B8
330
B3
100
AcDbEntity
  8
Default
  6
Continuous
 62
     7
100
AcDbLine
 10
83.3106582648
 20
212.2242061137
 30
0.0
 11
127.3106580264
 21
212.2242061137
 31
0.0
  0
TEXT
  5
B9
330
B3
100
AcDbEntity
  8
Default
  6
Continuous
 62
     7
100
AcDbText
 10
83.4592709535
 20
217.0242061137
 30
0.0
 40
8.0
  1
Ø48 à 52
  7
SEACAD_arial_ttfB
 11
83.4592709535
 21
225.0242061137
 31
0.0
100
AcDbText
 73
     3
  0
ENDBLK
  5
BB
330
B3
100
AcDbEntity
  8
0
100
AcDbBlockEnd
  0
BLOCK
  5
C6
330
BC
100
AcDbEntity
  8
0
100
AcDbBlockBegin
  2
GDimGGroup
 70
     0
 10
0.0
 20
0.0
 30
0.0
  3
GDimGGroup
  1

  0
HATCH
  5
BE
330
BC
100
AcDbEntity
  8
Default
  6
Continuous
 62
     7
100
AcDbHatch
 10
0.0
 20
0.0
 30
0.0
210
0.0
220
0.0
230
1.0
  2
SOLID
 70
     1
 71
     0
 91
        1
 92
        1
 93
        3
 72
     1
 10
101.3106583691394
 20
127.8208385471381
 11
101.3106583691394
 21
131.8208385819075
 72
     1
 10
101.3106583691394
 20
131.8208385819075
 11
89.31065826483129
 21
129.8208385645228
 72
     1
 10
89.31065826483129
 20
129.8208385645228
 11
101.3106583691394
 21
127.8208385471381
 97
        0
 75
     0
 76
     1
 98
        0
  0
HATCH
  5
BF
330
BC
100
AcDbEntity
  8
Default
  6
Continuous
 62
     7
100
AcDbHatch
 10
0.0
 20
0.0
 30
0.0
210
0.0
220
0.0
230
1.0
  2
SOLID
 70
     1
 71
     0
 91
        1
 92
        1
 93
        3
 72
     1
 10
109.3106596804416
 20
127.8208385471381
 11
121.3106597847497
 21
129.8208385645228
 72
     1
 10
121.3106597847497
 20
129.8208385645228
 11
109.3106596804416
 21
131.8208385819075
 72
     1
 10
109.3106596804416
 20
131.8208385819075
 11
109.3106596804416
 21
127.8208385471381
 97
        0
 75
     0
 76
     1
 98
        0
  0
LINE
  5
C0
330
BC
100
AcDbEntity
  8
Default
  6
Continuous
 62
     7
100
AcDbLine
 10
89.3106582648
 20
141.2956491052
 30
0.0
 11
89.3106582648
 21
125.8208383745
 31
0.0
  0
LINE
  5
C1
330
BC
100
AcDbEntity
  8
Default
  6
Continuous
 62
     7
100
AcDbLine
 10
121.3106582648
 20
141.8507546126
 30
0.0
 11
121.3106582648
 21
125.8208383745
 31
0.0
  0
LINE
  5
C2
330
BC
100
AcDbEntity
  8
Default
  6
Continuous
 62
     7
100
AcDbLine
 10
89.3106582648
 20
129.8208385645
 30
0.0
 11
121.3106597847
 21
129.8208385645
 31
0.0
  0
TEXT
  5
C4
330
BC
100
AcDbEntity
  8
Default
  6
Continuous
 62
     7
100
AcDbText
 10
92.0883859508
 20
134.6208385645
 30
0.0
 40
8.0
  1
O
  7
SEACAD_semeca1_ttfB
 11
92.0883859508
 21
142.6208385645
 31
0.0
100
AcDbText
 73
     3
  0
TEXT
  5
C5
330
BC
100
AcDbEntity
  8
Default
  6
Continuous
 62
     7
100
AcDbText
 10
106.0111929683
 20
134.6208385645
 30
0.0
 40
8.0
  1
32
  7
SEACAD_arial_ttfB
 11
106.0111929683
 21
142.6208385645
 31
0.0
100
AcDbText
 73
     3
  0
ENDBLK
  5
C7
330
BC
100
AcDbEntity
  8
0
100
AcDbBlockEnd
  0
BLOCK
  5
D1
330
C8
100
AcDbEntity
  8
0
100
AcDbBlockBegin
  2
GDimGGroup1
 70
     0
 10
0.0
 20
0.0
 30
0.0
  3
GDimGGroup1
  1

  0
HATCH
  5
CA
330
C8
100
AcDbEntity
  8
Default
  6
Continuous
 62
     7
100
AcDbHatch
 10
0.0
 20
0.0
 30
0.0
210
0.0
220
0.0
230
1.0
  2
SOLID
 70
     1
 71
     0
 91
        1
 92
        1
 93
        3
 72
     1
 10
129.3106581605232
 20
232.793977614629
 11
129.3106581605232
 21
228.7939775798596
 72
     1
 10
129.3106581605232
 20
228.7939775798596
 11
141.3106582648313
 21
230.7939775972443
 72
     1
 10
141.3106582648313
 20
230.7939775972443
 11
129.3106581605232
 21
232.793977614629
 97
        0
 75
     0
 76
     1
 98
        0
  0
HATCH
  5
CB
330
C8
100
AcDbEntity
  8
Default
  6
Continuous
 62
     7
100
AcDbHatch
 10
0.0
 20
0.0
 30
0.0
210
0.0
220
0.0
230
1.0
  2
SOLID
 70
     1
 71
     0
 91
        1
 92
        1
 93
        3
 72
     1
 10
81.31066146858096
 20
232.793977614629
 11
69.31066136427283
 21
230.7939775972443
 72
     1
 10
69.31066136427283
 20
230.7939775972443
 11
81.31066146858096
 21
228.7939775798596
 72
     1
 10
81.31066146858096
 20
228.7939775798596
 11
81.31066146858096
 21
232.793977614629
 97
        0
 75
     0
 76
     1
 98
        0
  0
LINE
  5
CC
330
C8
100
AcDbEntity
  8
Default
  6
Continuous
 62
     7
100
AcDbLine
 10
141.3106582648
 20
205.5200934163
 30
0.0
 11
141.3106582648
 21
234.7939777872
 31
0.0
  0
LINE
  5
CD
330
C8
100
AcDbEntity
  8
Default
  6
Continuous
 62
     7
100
AcDbLine
 10
69.3106582648
 20
205.5200934163
 30
0.0
 11
69.3106582648
 21
234.7939777872
 31
0.0
  0
LINE
  5
CE
330
C8
100
AcDbEntity
  8
Default
  6
Continuous
 62
     7
100
AcDbLine
 10
141.3106582648
 20
230.7939775972
 30
0.0
 11
69.3106613643
 21
230.7939775972
 31
0.0
  0
TEXT
  5
CF
330
C8
100
AcDbEntity
  8
Default
  6
Continuous
 62
     7
100
AcDbText
 10
90.65452623
 20
235.5939775972
 30
0.0
 40
8.0
  1
O
  7
SEACAD_semeca1_ttfB
 11
90.65452623
 21
243.5939775972
 31
0.0
100
AcDbText
 73
     3
  0
TEXT
  5
D0
330
C8
100
AcDbEntity
  8
Default
  6
Continuous
 62
     7
100
AcDbText
 10
104.5773332475
 20
235.5939775972
 30
0.0
 40
8.0
  1
72
  7
SEACAD_arial_ttfB
 11
104.5773332475
 21
243.5939775972
 31
0.0
100
AcDbText
 73
     3
  0
ENDBLK
  5
D2
330
C8
100
AcDbEntity
  8
0
100
AcDbBlockEnd
  0
ENDSEC
  0
SECTION
  2
ENTITIES
  0
INSERT
  5
3D
330
1F
100
AcDbEntity
  8
Default
100
AcDbBlockReference
  2
SEANNOT_GROUP
 10
0.0
 20
0.0
 30
0.0
  0
DIMENSION
  5
78
330
1F
100
AcDbEntity
  8
Default
  6
Continuous
 62
     7
100
AcDbDimension
  2
DMBLK3
 10
55.5899945087
 20
144.5200932263
 30
0.0
 11
55.5899945087
 21
174.5200938969
 31
0.0
 70
   160
  1
\A1;<>
 71
     5
 42
-1.0
  3
AA
100
AcDbAlignedDimension
 13
72.3106582648
 23
204.5200932263
 33
0.0
 14
85.8250866797
 24
144.5200932263
 34
0.0
 50
90.0
100
AcDbRotatedDimension
  0
INSERT
  5
84
330
1F
100
AcDbEntity
  8
0
100
AcDbBlockReference
  2
SE
 10
0.0
 20
0.0
 30
0.0
  0
DIMENSION
  5
B2
330
1F
100
AcDbEntity
  8
Default
  6
Continuous
 62
     7
100
AcDbDimension
  2
DMBLK4
 10
83.3106582648
 20
212.2242061137
 30
0.0
 11
109.3897057361
 21
212.2242061137
 31
0.0
 70
   161
  1
\A1;Ø48 à 52 {}
 71
     5
 42
-1.0
  3
AA
100
AcDbAlignedDimension
 13
83.3106582648
 23
180.5200932263
 33
0.0
 14
127.3106582648
 24
180.5200932263
 34
0.0
1001
ACAD
1000
DSTYLE
1002
{
1070
   271
1070
     2
1070
   272
1070
     2
1070
     0
1002
}
  0
INSERT
  5
BD
330
1F
100
AcDbEntity
  8
Default
100
AcDbBlockReference
  2
GDimGGroup
 10
0.0
 20
0.0
 30
0.0
  0
INSERT
  5
C9
330
1F
100
AcDbEntity
  8
Default
100
AcDbBlockReference
  2
GDimGGroup1
 10
0.0
 20
0.0
 30
0.0
  0
ENDSEC
  0
SECTION
  2
OBJECTS
  0
DICTIONARY
  5
C
330
0
100
AcDbDictionary
281
     1
  3
ACAD_GROUP
350
D
  3
ACAD_LAYOUT
350
1A
  3
ACAD_MLEADERSTYLE
350
D5
  3
ACAD_MLINESTYLE
350
17
  3
ACAD_PLOTSETTINGS
350
19
  3
ACAD_PLOTSTYLENAME
350
E
  3
ACAD_SCALELIST
350
3E
  3
ACAD_VISUALSTYLE
350
2A
  3
AcDbVariableDictionary
350
D3
  0
DICTIONARY
  5
D
102
{ACAD_REACTORS
330
C
102
}
330
C
100
AcDbDictionary
281
     1
  0
DICTIONARY
  5
1A
102
{ACAD_REACTORS
330
C
102
}
330
C
100
AcDbDictionary
281
     1
  3
Layout1
350
1E
  3
Model
350
22
  0
DICTIONARY
  5
D5
102
{ACAD_REACTORS
330
C
102
}
330
C
100
AcDbDictionary
281
     1
  0
DICTIONARY
  5
17
102
{ACAD_REACTORS
330
C
102
}
330
C
100
AcDbDictionary
281
     1
  3
Standard
350
18
  0
DICTIONARY
  5
19
102
{ACAD_REACTORS
330
C
102
}
330
C
100
AcDbDictionary
281
     1
  0
ACDBDICTIONARYWDFLT
  5
E
102
{ACAD_REACTORS
330
C
102
}
330
C
100
AcDbDictionary
281
     1
  3
Normal
350
F
100
AcDbDictionaryWithDefault
340
F
  0
DICTIONARY
  5
3E
102
{ACAD_REACTORS
330
C
102
}
330
C
100
AcDbDictionary
281
     1
  3
A0
350
3F
  3
A1
350
40
  3
A2
350
41
  3
A3
350
42
  3
A4
350
43
  3
A5
350
44
  3
A6
350
45
  3
A7
350
46
  3
A8
350
47
  3
A9
350
48
  3
B0
350
49
  3
B1
350
4A
  3
B2
350
4B
  3
B3
350
4C
  3
B4
350
4D
  3
B5
350
4E
  3
B6
350
4F
  3
B7
350
50
  3
B8
350
51
  3
B9
350
52
  3
C0
350
53
  3
C1
350
54
  3
C2
350
55
  3
C3
350
56
  3
C4
350
57
  3
C5
350
58
  3
C6
350
59
  3
C7
350
5A
  3
C8
350
5B
  3
C9
350
5C
  3
D0
350
5D
  3
D1
350
5E
  3
D2
350
5F
  0
DICTIONARY
  5
2A
102
{ACAD_REACTORS
330
C
102
}
330
C
100
AcDbDictionary
281
     1
  3
2dWireframe
350
2F
  3
3D Hidden
350
31
  3
3dWireframe
350
30
  3
Basic
350
32
  3
Brighten
350
36
  3
ColorChange
350
3A
  3
Conceptual
350
34
  3
Dim
350
35
  3
Facepattern
350
39
  3
Flat
350
2B
  3
FlatWithEdges
350
2C
  3
Gouraud
350
2D
  3
GouraudWithEdges
350
2E
  3
Linepattern
350
38
  3
Realistic
350
33
  3
Thicken
350
37
  0
DICTIONARY
  5
D3
102
{ACAD_REACTORS
330
C
102
}
330
C
100
AcDbDictionary
281
     1
  3
CANNOSCALE
350
D8
  3
PSOLHEIGHT
350
D7
  3
PSOLWIDTH
350
D6
  0
LAYOUT
  5
1E
102
{ACAD_REACTORS
330
1A
102
}
330
1A
100
AcDbPlotSettings
  1

  2
none_device
  4

  6

 40
0.0
 41
0.0
 42
0.0
 43
0.0
 44
0.0
 45
0.0
 46
0.0
 47
0.0
 48
0.0
 49
0.0
140
0.0
141
0.0
142
1.0
143
1.0
 70
   688
 72
     0
 73
     0
 74
     5
  7

 75
    16
147
1.0
148
0.0
149
0.0
100
AcDbLayout
  1
Layout1
 70
     1
 71
     1
 10
0.0
 20
0.0
 11
210.0
 21
297.0
 12
0.0
 22
0.0
 32
0.0
 14
0.0
 24
0.0
 34
0.0
 15
210.0
 25
297.0
 35
0.0
146
0.0
 13
0.0
 23
0.0
 33
0.0
 16
1.0
 26
0.0
 36
0.0
 17
0.0
 27
1.0
 37
0.0
 76
     0
330
1B
  0
LAYOUT
  5
22
102
{ACAD_REACTORS
330
1A
102
}
330
1A
100
AcDbPlotSettings
  1

  2
none_device
  4

  6

 40
0.0
 41
0.0
 42
0.0
 43
0.0
 44
0.0
 45
0.0
 46
0.0
 47
0.0
 48
0.0
 49
0.0
140
0.0
141
0.0
142
1.0
143
1.0
 70
  1712
 72
     0
 73
     0
 74
     0
  7

 75
     0
147
1.0
148
0.0
149
0.0
100
AcDbLayout
  1
Model
 70
     1
 71
     0
 10
0.0
 20
0.0
 11
210.0
 21
297.0
 12
0.0
 22
0.0
 32
0.0
 14
0.0
 24
0.0
 34
0.0
 15
210.0
 25
297.0
 35
0.0
146
0.0
 13
0.0
 23
0.0
 33
0.0
 16
1.0
 26
0.0
 36
0.0
 17
0.0
 27
1.0
 37
0.0
 76
     0
330
1F
331
29
  0
MLINESTYLE
  5
18
102
{ACAD_REACTORS
330
17
102
}
330
17
100
AcDbMlineStyle
  2
Standard
 70
     0
  3

 62
   256
 51
90.0
 52
90.0
 71
     2
 49
0.5
 62
   256
  6
BYLAYER
 49
-0.5
 62
   256
  6
BYLAYER
  0
ACDBPLACEHOLDER
  5
F
102
{ACAD_REACTORS
330
E
102
}
330
E
  0
SCALE
  5
3F
102
{ACAD_REACTORS
330
3E
102
}
330
3E
100
AcDbScale
 70
     0
300
1:1
140
1.0
141
1.0
290
     1
  0
SCALE
  5
40
102
{ACAD_REACTORS
330
3E
102
}
330
3E
100
AcDbScale
 70
     0
300
1:2
140
1.0
141
2.0
290
     0
  0
SCALE
  5
41
102
{ACAD_REACTORS
330
3E
102
}
330
3E
100
AcDbScale
 70
     0
300
1:4
140
1.0
141
4.0
290
     0
  0
SCALE
  5
42
102
{ACAD_REACTORS
330
3E
102
}
330
3E
100
AcDbScale
 70
     0
300
1:5
140
1.0
141
5.0
290
     0
  0
SCALE
  5
43
102
{ACAD_REACTORS
330
3E
102
}
330
3E
100
AcDbScale
 70
     0
300
1:8
140
1.0
141
8.0
290
     0
  0
SCALE
  5
44
102
{ACAD_REACTORS
330
3E
102
}
330
3E
100
AcDbScale
 70
     0
300
1:10
140
1.0
141
10.0
290
     0
  0
SCALE
  5
45
102
{ACAD_REACTORS
330
3E
102
}
330
3E
100
AcDbScale
 70
     0
300
1:16
140
1.0
141
16.0
290
     0
  0
SCALE
  5
46
102
{ACAD_REACTORS
330
3E
102
}
330
3E
100
AcDbScale
 70
     0
300
1:20
140
1.0
141
20.0
290
     0
  0
SCALE
  5
47
102
{ACAD_REACTORS
330
3E
102
}
330
3E
100
AcDbScale
 70
     0
300
1:30
140
1.0
141
30.0
290
     0
  0
SCALE
  5
48
102
{ACAD_REACTORS
330
3E
102
}
330
3E
100
AcDbScale
 70
     0
300
1:40
140
1.0
141
40.0
290
     0
  0
SCALE
  5
49
102
{ACAD_REACTORS
330
3E
102
}
330
3E
100
AcDbScale
 70
     0
300
1:50
140
1.0
141
50.0
290
     0
  0
SCALE
  5
4A
102
{ACAD_REACTORS
330
3E
102
}
330
3E
100
AcDbScale
 70
     0
300
1:100
140
1.0
141
100.0
290
     0
  0
SCALE
  5
4B
102
{ACAD_REACTORS
330
3E
102
}
330
3E
100
AcDbScale
 70
     0
300
2:1
140
2.0
141
1.0
290
     0
  0
SCALE
  5
4C
102
{ACAD_REACTORS
330
3E
102
}
330
3E
100
AcDbScale
 70
     0
300
4:1
140
4.0
141
1.0
290
     0
  0
SCALE
  5
4D
102
{ACAD_REACTORS
330
3E
102
}
330
3E
100
AcDbScale
 70
     0
300
8:1
140
8.0
141
1.0
290
     0
  0
SCALE
  5
4E
102
{ACAD_REACTORS
330
3E
102
}
330
3E
100
AcDbScale
 70
     0
300
10:1
140
10.0
141
1.0
290
     0
  0
SCALE
  5
4F
102
{ACAD_REACTORS
330
3E
102
}
330
3E
100
AcDbScale
 70
     0
300
100:1
140
100.0
141
1.0
290
     0
  0
SCALE
  5
50
102
{ACAD_REACTORS
330
3E
102
}
330
3E
100
AcDbScale
 70
     0
300
1/128" = 1'-0"
140
0.0078125
141
12.0
290
     0
  0
SCALE
  5
51
102
{ACAD_REACTORS
330
3E
102
}
330
3E
100
AcDbScale
 70
     0
300
1/64" = 1'-0"
140
0.015625
141
12.0
290
     0
  0
SCALE
  5
52
102
{ACAD_REACTORS
330
3E
102
}
330
3E
100
AcDbScale
 70
     0
300
1/32" = 1'-0"
140
0.03125
141
12.0
290
     0
  0
SCALE
  5
53
102
{ACAD_REACTORS
330
3E
102
}
330
3E
100
AcDbScale
 70
     0
300
1/16" = 1'-0"
140
0.0625
141
12.0
290
     0
  0
SCALE
  5
54
102
{ACAD_REACTORS
330
3E
102
}
330
3E
100
AcDbScale
 70
     0
300
3/32" = 1'-0"
140
0.09375
141
12.0
290
     0
  0
SCALE
  5
55
102
{ACAD_REACTORS
330
3E
102
}
330
3E
100
AcDbScale
 70
     0
300
1/8" = 1'-0"
140
0.125
141
12.0
290
     0
  0
SCALE
  5
56
102
{ACAD_REACTORS
330
3E
102
}
330
3E
100
AcDbScale
 70
     0
300
3/16" = 1'-0"
140
0.1875
141
12.0
290
     0
  0
SCALE
  5
57
102
{ACAD_REACTORS
330
3E
102
}
330
3E
100
AcDbScale
 70
     0
300
1/4" = 1'-0"
140
0.25
141
12.0
290
     0
  0
SCALE
  5
58
102
{ACAD_REACTORS
330
3E
102
}
330
3E
100
AcDbScale
 70
     0
300
3/8" = 1'-0"
140
0.375
141
12.0
290
     0
  0
SCALE
  5
59
102
{ACAD_REACTORS
330
3E
102
}
330
3E
100
AcDbScale
 70
     0
300
1/2" = 1'-0"
140
0.5
141
12.0
290
     0
  0
SCALE
  5
5A
102
{ACAD_REACTORS
330
3E
102
}
330
3E
100
AcDbScale
 70
     0
300
3/4" = 1'-0"
140
0.75
141
12.0
290
     0
  0
SCALE
  5
5B
102
{ACAD_REACTORS
330
3E
102
}
330
3E
100
AcDbScale
 70
     0
300
1" = 1'-0"
140
1.0
141
12.0
290
     0
  0
SCALE
  5
5C
102
{ACAD_REACTORS
330
3E
102
}
330
3E
100
AcDbScale
 70
     0
300
1-1/2" = 1'-0"
140
1.5
141
12.0
290
     0
  0
SCALE
  5
5D
102
{ACAD_REACTORS
330
3E
102
}
330
3E
100
AcDbScale
 70
     0
300
3" = 1'-0"
140
3.0
141
12.0
290
     0
  0
SCALE
  5
5E
102
{ACAD_REACTORS
330
3E
102
}
330
3E
100
AcDbScale
 70
     0
300
6" = 1'-0"
140
6.0
141
12.0
290
     0
  0
SCALE
  5
5F
102
{ACAD_REACTORS
330
3E
102
}
330
3E
100
AcDbScale
 70
     0
300
1'-0" = 1'-0"
140
12.0
141
12.0
290
     0
  0
VISUALSTYLE
  5
2F
102
{ACAD_REACTORS
330
2A
102
}
330
2A
100
AcDbVisualStyle
  2
2dWireframe
 70
     4
 71
     0
 72
     2
 73
     0
 90
        0
 40
-0.6
 41
-30.0
 62
     5
 63
     7
 74
     1
 91
        4
 64
     7
 65
   257
 75
     1
175
     1
 42
1.0
 92
        0
 66
   257
 43
1.0
 76
     1
 77
     6
 78
     2
 67
     7
 79
     5
170
     0
171
     0
290
     0
174
     0
 93
        1
 44
0.0
173
     0
291
     0
 45
0.0
1001
ACAD
1000
AcDbSavedByObjectVersion
1070
     0
  0
VISUALSTYLE
  5
31
102
{ACAD_REACTORS
330
2A
102
}
330
2A
100
AcDbVisualStyle
  2
3D Hidden
 70
     6
 71
     1
 72
     2
 73
     2
 90
        0
 40
-0.6
 41
-30.0
 62
     5
 63
     7
 74
     2
 91
        2
 64
     7
 65
   257
 75
     2
175
     1
 42
40.0
 92
        0
 66
   257
 43
1.0
 76
     1
 77
     6
 78
     2
 67
     7
 79
     3
170
     0
171
     0
290
     0
174
     0
 93
        1
 44
0.0
173
     0
291
     0
 45
0.0
1001
ACAD
1000
AcDbSavedByObjectVersion
1070
     0
  0
VISUALSTYLE
  5
30
102
{ACAD_REACTORS
330
2A
102
}
330
2A
100
AcDbVisualStyle
  2
3dWireframe
 70
     5
 71
     0
 72
     2
 73
     0
 90
        0
 40
-0.6
 41
-30.0
 62
     5
 63
     7
 74
     1
 91
        4
 64
     7
 65
   257
 75
     1
175
     1
 42
1.0
 92
        0
 66
   257
 43
1.0
 76
     1
 77
     6
 78
     2
 67
     7
 79
     5
170
     0
171
     0
290
     0
174
     0
 93
        1
 44
0.0
173
     0
291
     0
 45
0.0
1001
ACAD
1000
AcDbSavedByObjectVersion
1070
     0
  0
VISUALSTYLE
  5
32
102
{ACAD_REACTORS
330
2A
102
}
330
2A
100
AcDbVisualStyle
  2
Basic
 70
     7
 71
     1
 72
     0
 73
     1
 90
        0
 40
-0.6
 41
-30.0
 62
     5
 63
     7
 74
     0
 91
        4
 64
     7
 65
   257
 75
     1
175
     1
 42
1.0
 92
        8
 66
     7
 43
1.0
 76
     1
 77
     6
 78
     2
 67
     7
 79
     5
170
     0
171
     0
290
     0
174
     0
 93
        1
 44
0.0
173
     0
291
     1
 45
0.0
1001
ACAD
1000
AcDbSavedByObjectVersion
1070
     0
  0
VISUALSTYLE
  5
36
102
{ACAD_REACTORS
330
2A
102
}
330
2A
100
AcDbVisualStyle
  2
Brighten
 70
    12
 71
     2
 72
     2
 73
     0
 90
        0
 40
-0.6
 41
-30.0
 62
     5
 63
     7
 74
     1
 91
        4
 64
     7
 65
   257
 75
     1
175
     1
 42
1.0
 92
        8
 66
     7
 43
1.0
 76
     1
 77
     6
 78
     2
 67
     7
 79
     5
170
     0
171
     0
290
     0
174
     0
 93
        1
 44
50.0
173
     0
291
     1
 45
0.0
1001
ACAD
1000
AcDbSavedByObjectVersion
1070
     0
  0
VISUALSTYLE
  5
3A
102
{ACAD_REACTORS
330
2A
102
}
330
2A
100
AcDbVisualStyle
  2
ColorChange
 70
    16
 71
     2
 72
     2
 73
     3
 90
        0
 40
-0.6
 41
-30.0
 62
     5
 63
     8
 74
     1
 91
        4
 64
     7
 65
   257
 75
     1
175
     1
 42
1.0
 92
        8
 66
     8
 43
1.0
 76
     1
 77
     6
 78
     2
 67
     7
 79
     5
170
     0
171
     0
290
     0
174
     0
 93
        1
 44
0.0
173
     0
291
     1
 45
0.0
1001
ACAD
1000
AcDbSavedByObjectVersion
1070
     0
  0
VISUALSTYLE
  5
34
102
{ACAD_REACTORS
330
2A
102
}
330
2A
100
AcDbVisualStyle
  2
Conceptual
 70
     9
 71
     3
 72
     2
 73
     0
 90
        0
 40
-0.6
 41
-30.0
 62
     5
 63
     7
 74
     2
 91
        2
 64
     7
 65
   257
 75
     1
175
     1
 42
40.0
 92
        8
 66
     7
 43
1.0
 76
     1
 77
     6
 78
     2
 67
     7
 79
     3
170
     0
171
     0
290
     0
174
     0
 93
        1
 44
0.0
173
     0
291
     0
 45
0.0
1001
ACAD
1000
AcDbSavedByObjectVersion
1070
     0
  0
VISUALSTYLE
  5
35
102
{ACAD_REACTORS
330
2A
102
}
330
2A
100
AcDbVisualStyle
  2
Dim
 70
    11
 71
     2
 72
     2
 73
     0
 90
        0
 40
-0.6
 41
-30.0
 62
     5
 63
     7
 74
     1
 91
        4
 64
     7
 65
   257
 75
     1
175
     1
 42
1.0
 92
        8
 66
     7
 43
1.0
 76
     1
 77
     6
 78
     2
 67
     7
 79
     5
170
     0
171
     0
290
     0
174
     0
 93
        1
 44
-50.0
173
     0
291
     1
 45
0.0
1001
ACAD
1000
AcDbSavedByObjectVersion
1070
     0
  0
VISUALSTYLE
  5
39
102
{ACAD_REACTORS
330
2A
102
}
330
2A
100
AcDbVisualStyle
  2
Facepattern
 70
    15
 71
     2
 72
     2
 73
     0
 90
        0
 40
-0.6
 41
-30.0
 62
     5
 63
     7
 74
     1
 91
        4
 64
     7
 65
   257
 75
     1
175
     1
 42
1.0
 92
        8
 66
     7
 43
1.0
 76
     1
 77
     6
 78
     2
 67
     7
 79
     5
170
     0
171
     0
290
     0
174
     0
 93
        1
 44
0.0
173
     0
291
     1
 45
0.0
1001
ACAD
1000
AcDbSavedByObjectVersion
1070
     0
  0
VISUALSTYLE
  5
2B
102
{ACAD_REACTORS
330
2A
102
}
330
2A
100
AcDbVisualStyle
  2
Flat
 70
     0
 71
     2
 72
     1
 73
     1
 90
        2
 40
-0.6
 41
30.0
 62
     5
 63
     7
 74
     0
 91
        4
 64
     7
 65
   257
 75
     1
175
     1
 42
1.0
 92
        8
 66
     7
 43
1.0
 76
     1
 77
     6
 78
     2
 67
     7
 79
     5
170
     0
171
     0
290
     0
174
     0
 93
       13
 44
0.0
173
     0
291
     1
 45
0.0
1001
ACAD
1000
AcDbSavedByObjectVersion
1070
     0
  0
VISUALSTYLE
  5
2C
102
{ACAD_REACTORS
330
2A
102
}
330
2A
100
AcDbVisualStyle
  2
FlatWithEdges
 70
     1
 71
     2
 72
     1
 73
     1
 90
        2
 40
-0.6
 41
30.0
 62
     5
 63
     7
 74
     1
 91
        4
 64
     7
 65
   257
 75
     1
175
     1
 42
1.0
 92
        0
 66
   257
 43
1.0
 76
     1
 77
     6
 78
     2
 67
     7
 79
     5
170
     0
171
     0
290
     0
174
     0
 93
       13
 44
0.0
173
     0
291
     1
 45
0.0
1001
ACAD
1000
AcDbSavedByObjectVersion
1070
     0
  0
VISUALSTYLE
  5
2D
102
{ACAD_REACTORS
330
2A
102
}
330
2A
100
AcDbVisualStyle
  2
Gouraud
 70
     2
 71
     2
 72
     2
 73
     1
 90
        2
 40
-0.6
 41
30.0
 62
     5
 63
     7
 74
     0
 91
        4
 64
     7
 65
   257
 75
     1
175
     1
 42
1.0
 92
        0
 66
     7
 43
1.0
 76
     1
 77
     6
 78
     2
 67
     7
 79
     5
170
     0
171
     0
290
     0
174
     0
 93
       13
 44
0.0
173
     0
291
     1
 45
0.0
1001
ACAD
1000
AcDbSavedByObjectVersion
1070
     0
  0
VISUALSTYLE
  5
2E
102
{ACAD_REACTORS
330
2A
102
}
330
2A
100
AcDbVisualStyle
  2
GouraudWithEdges
 70
     3
 71
     2
 72
     2
 73
     1
 90
        2
 40
-0.6
 41
30.0
 62
     5
 63
     7
 74
     1
 91
        4
 64
     7
 65
   257
 75
     1
175
     1
 42
1.0
 92
        0
 66
   257
 43
1.0
 76
     1
 77
     6
 78
     2
 67
     7
 79
     5
170
     0
171
     0
290
     0
174
     0
 93
       13
 44
0.0
173
     0
291
     1
 45
0.0
1001
ACAD
1000
AcDbSavedByObjectVersion
1070
     0
  0
VISUALSTYLE
  5
38
102
{ACAD_REACTORS
330
2A
102
}
330
2A
100
AcDbVisualStyle
  2
Linepattern
 70
    14
 71
     2
 72
     2
 73
     0
 90
        0
 40
-0.6
 41
-30.0
 62
     5
 63
     7
 74
     1
 91
        4
 64
     7
 65
   257
 75
     7
175
     7
 42
1.0
 92
        8
 66
     7
 43
1.0
 76
     1
 77
     6
 78
     2
 67
     7
 79
     5
170
     0
171
     0
290
     0
174
     0
 93
        1
 44
0.0
173
     0
291
     1
 45
0.0
1001
ACAD
1000
AcDbSavedByObjectVersion
1070
     0
  0
VISUALSTYLE
  5
33
102
{ACAD_REACTORS
330
2A
102
}
330
2A
100
AcDbVisualStyle
  2
Realistic
 70
     8
 71
     2
 72
     2
 73
     0
 90
        0
 40
-0.6
 41
-30.0
 62
     5
 63
     7
 74
     1
 91
        0
 64
     7
 65
   257
 75
     1
175
     1
 42
1.0
 92
        8
 66
     8
 43
1.0
 76
     1
 77
     6
 78
     2
 67
     7
 79
     5
170
     0
171
     0
290
     0
174
     0
 93
       13
 44
0.0
173
     0
291
     0
 45
0.0
1001
ACAD
1000
AcDbSavedByObjectVersion
1070
     0
  0
VISUALSTYLE
  5
37
102
{ACAD_REACTORS
330
2A
102
}
330
2A
100
AcDbVisualStyle
  2
Thicken
 70
    13
 71
     2
 72
     2
 73
     0
 90
        0
 40
-0.6
 41
-30.0
 62
     5
 63
     7
 74
     1
 91
        4
 64
     7
 65
   257
 75
     1
175
     1
 42
1.0
 92
       12
 66
     7
 43
1.0
 76
     1
 77
     6
 78
     2
 67
     7
 79
     5
170
     0
171
     0
290
     0
174
     0
 93
        1
 44
0.0
173
     0
291
     1
 45
0.0
1001
ACAD
1000
AcDbSavedByObjectVersion
1070
     0
  0
DICTIONARYVAR
  5
D8
102
{ACAD_REACTORS
330
D3
102
}
330
D3
100
DictionaryVariables
280
     0
  1
1:1
  0
DICTIONARYVAR
  5
D7
102
{ACAD_REACTORS
330
D3
102
}
330
D3
100
DictionaryVariables
280
     0
  1
80.000000
  0
DICTIONARYVAR
  5
D6
102
{ACAD_REACTORS
330
D3
102
}
330
D3
100
DictionaryVariables
280
     0
  1
5.000000
  0
ENDSEC
  0
EOF
