  0
SECTION
  2
HEADER
  9
$ACADVER
  1
AC1021
  9
$ACADMAINTVER
 70
    25
  9
$DWGCODEPAGE
  3
ANSI_1252
  9
$INSBASE
 10
0.0
 20
0.0
 30
0.0
  9
$EXTMIN
 10
0.0
 20
0.0
 30
0.0
  9
$EXTMAX
 10
550.0
 20
511.0
 30
0.0
  9
$LIMMIN
 10
0.0
 20
0.0
  9
$LIMMAX
 10
550.0
 20
511.0
  9
$ORTHOMODE
 70
     0
  9
$REGENMODE
 70
     1
  9
$FILLMODE
 70
     1
  9
$QTEXTMODE
 70
     0
  9
$MIRRTEXT
 70
     1
  9
$LTSCALE
 40
1.0
  9
$ATTMODE
 70
     1
  9
$TEXTSIZE
 40
2.5
  9
$TRACEWID
 40
1.0
  9
$TEXTSTYLE
  7
Standard
  9
$CLAYER
  8
0
  9
$CELTYPE
  6
ByLayer
  9
$CECOLOR
 62
   256
  9
$CELTSCALE
 40
1.0
  9
$DISPSILH
 70
     0
  9
$DIMSCALE
 40
1.0
  9
$DIMASZ
 40
2.5
  9
$DIMEXO
 40
0.625
  9
$DIMDLI
 40
3.75
  9
$DIMRND
 40
0.0
  9
$DIMDLE
 40
0.0
  9
$DIMEXE
 40
1.25
  9
$DIMTP
 40
0.0
  9
$DIMTM
 40
0.0
  9
$DIMTXT
 40
2.5
  9
$DIMCEN
 40
2.5
  9
$DIMTSZ
 40
0.0
  9
$DIMTOL
 70
     0
  9
$DIMLIM
 70
     0
  9
$DIMTIH
 70
     0
  9
$DIMTOH
 70
     0
  9
$DIMSE1
 70
     0
  9
$DIMSE2
 70
     0
  9
$DIMTAD
 70
     1
  9
$DIMZIN
 70
     8
  9
$DIMBLK
  1

  9
$DIMASO
 70
     1
  9
$DIMSHO
 70
     1
  9
$DIMPOST
  1

  9
$DIMAPOST
  1

  9
$DIMALT
 70
     0
  9
$DIMALTD
 70
     3
  9
$DIMALTF
 40
0.0393700787
  9
$DIMLFAC
 40
1.0
  9
$DIMTOFL
 70
     1
  9
$DIMTVP
 40
0.0
  9
$DIMTIX
 70
     0
  9
$DIMSOXD
 70
     0
  9
$DIMSAH
 70
     0
  9
$DIMBLK1
  1

  9
$DIMBLK2
  1

  9
$DIMSTYLE
  2
ISO-25
  9
$DIMCLRD
 70
     0
  9
$DIMCLRE
 70
     0
  9
$DIMCLRT
 70
     0
  9
$DIMTFAC
 40
1.0
  9
$DIMGAP
 40
0.625
  9
$DIMJUST
 70
     0
  9
$DIMSD1
 70
     0
  9
$DIMSD2
 70
     0
  9
$DIMTOLJ
 70
     0
  9
$DIMTZIN
 70
     8
  9
$DIMALTZ
 70
     0
  9
$DIMALTTZ
 70
     0
  9
$DIMUPT
 70
     0
  9
$DIMDEC
 70
     2
  9
$DIMTDEC
 70
     2
  9
$DIMALTU
 70
     2
  9
$DIMALTTD
 70
     3
  9
$DIMTXSTY
  7
Standard
  9
$DIMAUNIT
 70
     0
  9
$DIMADEC
 70
     0
  9
$DIMALTRND
 40
0.0
  9
$DIMAZIN
 70
     0
  9
$DIMDSEP
 70
    44
  9
$DIMATFIT
 70
     3
  9
$DIMFRAC
 70
     0
  9
$DIMLDRBLK
  1

  9
$DIMLUNIT
 70
     2
  9
$DIMLWD
 70
    -2
  9
$DIMLWE
 70
    -2
  9
$DIMTMOVE
 70
     0
  9
$DIMFXL
 40
1.0
  9
$DIMFXLON
 70
     0
  9
$DIMJOGANG
 40
0.7853981634
  9
$DIMTFILL
 70
     0
  9
$DIMTFILLCLR
 70
     0
  9
$DIMARCSYM
 70
     0
  9
$DIMLTYPE
  6

  9
$DIMLTEX1
  6

  9
$DIMLTEX2
  6

  9
$LUNITS
 70
     2
  9
$LUPREC
 70
     4
  9
$SKETCHINC
 40
1.0
  9
$FILLETRAD
 40
10.0
  9
$AUNITS
 70
     0
  9
$AUPREC
 70
     0
  9
$MENU
  1
.
  9
$ELEVATION
 40
0.0
  9
$PELEVATION
 40
0.0
  9
$THICKNESS
 40
0.0
  9
$LIMCHECK
 70
     0
  9
$CHAMFERA
 40
0.0
  9
$CHAMFERB
 40
0.0
  9
$CHAMFERC
 40
0.0
  9
$CHAMFERD
 40
0.0
  9
$SKPOLY
 70
     0
  9
$TDCREATE
 40
2457289.456491134
  9
$TDUCREATE
 40
2457289.373157801
  9
$TDUPDATE
 40
2457289.456492037
  9
$TDUUPDATE
 40
2457289.373158704
  9
$TDINDWG
 40
0.0000000116
  9
$TDUSRTIMER
 40
0.0000000116
  9
$USRTIMER
 70
     1
  9
$ANGBASE
 50
0.0
  9
$ANGDIR
 70
     0
  9
$PDMODE
 70
     0
  9
$PDSIZE
 40
0.0
  9
$PLINEWID
 40
0.0
  9
$SPLFRAME
 70
     0
  9
$SPLINETYPE
 70
     6
  9
$SPLINESEGS
 70
     8
  9
$HANDSEED
  5
298
  9
$SURFTAB1
 70
     6
  9
$SURFTAB2
 70
     6
  9
$SURFTYPE
 70
     6
  9
$SURFU
 70
     6
  9
$SURFV
 70
     6
  9
$UCSBASE
  2

  9
$UCSNAME
  2

  9
$UCSORG
 10
0.0
 20
0.0
 30
0.0
  9
$UCSXDIR
 10
1.0
 20
0.0
 30
0.0
  9
$UCSYDIR
 10
0.0
 20
1.0
 30
0.0
  9
$UCSORTHOREF
  2

  9
$UCSORTHOVIEW
 70
     0
  9
$UCSORGTOP
 10
0.0
 20
0.0
 30
0.0
  9
$UCSORGBOTTOM
 10
0.0
 20
0.0
 30
0.0
  9
$UCSORGLEFT
 10
0.0
 20
0.0
 30
0.0
  9
$UCSORGRIGHT
 10
0.0
 20
0.0
 30
0.0
  9
$UCSORGFRONT
 10
0.0
 20
0.0
 30
0.0
  9
$UCSORGBACK
 10
0.0
 20
0.0
 30
0.0
  9
$PUCSBASE
  2

  9
$PUCSNAME
  2

  9
$PUCSORG
 10
0.0
 20
0.0
 30
0.0
  9
$PUCSXDIR
 10
1.0
 20
0.0
 30
0.0
  9
$PUCSYDIR
 10
0.0
 20
1.0
 30
0.0
  9
$PUCSORTHOREF
  2

  9
$PUCSORTHOVIEW
 70
     0
  9
$PUCSORGTOP
 10
0.0
 20
0.0
 30
0.0
  9
$PUCSORGBOTTOM
 10
0.0
 20
0.0
 30
0.0
  9
$PUCSORGLEFT
 10
0.0
 20
0.0
 30
0.0
  9
$PUCSORGRIGHT
 10
0.0
 20
0.0
 30
0.0
  9
$PUCSORGFRONT
 10
0.0
 20
0.0
 30
0.0
  9
$PUCSORGBACK
 10
0.0
 20
0.0
 30
0.0
  9
$USERI1
 70
     0
  9
$USERI2
 70
     0
  9
$USERI3
 70
     0
  9
$USERI4
 70
     0
  9
$USERI5
 70
     0
  9
$USERR1
 40
0.0
  9
$USERR2
 40
0.0
  9
$USERR3
 40
0.0
  9
$USERR4
 40
0.0
  9
$USERR5
 40
0.0
  9
$WORLDVIEW
 70
     1
  9
$SHADEDGE
 70
     3
  9
$SHADEDIF
 70
    70
  9
$TILEMODE
 70
     1
  9
$MAXACTVP
 70
    64
  9
$PINSBASE
 10
0.0
 20
0.0
 30
0.0
  9
$PLIMCHECK
 70
     0
  9
$PEXTMIN
 10
0.0
 20
0.0
 30
0.0
  9
$PEXTMAX
 10
550.0
 20
511.0
 30
0.0
  9
$PLIMMIN
 10
0.0
 20
0.0
  9
$PLIMMAX
 10
550.0
 20
511.0
  9
$UNITMODE
 70
     0
  9
$VISRETAIN
 70
     1
  9
$PLINEGEN
 70
     0
  9
$PSLTSCALE
 70
     1
  9
$TREEDEPTH
 70
  3020
  9
$CMLSTYLE
  2
Standard
  9
$CMLJUST
 70
     0
  9
$CMLSCALE
 40
20.0
  9
$PROXYGRAPHICS
 70
     1
  9
$MEASUREMENT
 70
     1
  9
$CELWEIGHT
370
    -1
  9
$ENDCAPS
280
     0
  9
$JOINSTYLE
280
     0
  9
$LWDISPLAY
290
     0
  9
$INSUNITS
 70
     4
  9
$HYPERLINKBASE
  1

  9
$STYLESHEET
  1

  9
$XEDIT
290
     1
  9
$CEPSNTYPE
380
     0
  9
$PSTYLEMODE
290
     1
  9
$FINGERPRINTGUID
  2
{EF1E9BAF-04B6-4650-9C6C-7B891D72C366}
  9
$VERSIONGUID
  2
{FAEB1C32-E019-11D5-929B-00C0DF256EC4}
  9
$EXTNAMES
290
     1
  9
$PSVPSCALE
 40
0.0
  9
$OLESTARTUP
290
     0
  9
$SORTENTS
280
   127
  9
$INDEXCTL
280
     0
  9
$HIDETEXT
280
     1
  9
$XCLIPFRAME
290
     0
  9
$HALOGAP
280
     0
  9
$OBSCOLOR
 70
   257
  9
$OBSLTYPE
280
     0
  9
$INTERSECTIONDISPLAY
280
     0
  9
$INTERSECTIONCOLOR
 70
   257
  9
$DIMASSOC
280
     2
  9
$PROJECTNAME
  1

  9
$CAMERADISPLAY
290
     0
  9
$LENSLENGTH
 40
50.0
  9
$CAMERAHEIGHT
 40
0.0
  9
$STEPSPERSEC
 40
2.0
  9
$STEPSIZE
 40
6.0
  9
$3DDWFPREC
 40
2.0
  9
$PSOLWIDTH
 40
5.0
  9
$PSOLHEIGHT
 40
80.0
  9
$LOFTANG1
 40
1.5707963268
  9
$LOFTANG2
 40
1.5707963268
  9
$LOFTMAG1
 40
0.0
  9
$LOFTMAG2
 40
0.0
  9
$LOFTPARAM
 70
     7
  9
$LOFTNORMALS
280
     1
  9
$LATITUDE
 40
37.795
  9
$LONGITUDE
 40
-122.394
  9
$NORTHDIRECTION
 40
0.0
  9
$TIMEZONE
 70
 -8000
  9
$LIGHTGLYPHDISPLAY
280
     1
  9
$TILEMODELIGHTSYNCH
280
     1
  9
$CMATERIAL
347
44
  9
$SOLIDHIST
280
     0
  9
$SHOWHIST
280
     1
  9
$DWFFRAME
280
     2
  9
$DGNFRAME
280
     2
  9
$REALWORLDSCALE
290
     1
  9
$INTERFERECOLOR
 62
   256
  9
$CSHADOW
280
     0
  9
$SHADOWPLANELOCATION
 40
0.0
  0
ENDSEC
  0
SECTION
  2
CLASSES
  0
CLASS
  1
ACDBDICTIONARYWDFLT
  2
AcDbDictionaryWithDefault
  3
ObjectDBX Classes
 90
        0
 91
        4
280
     0
281
     0
  0
CLASS
  1
VISUALSTYLE
  2
AcDbVisualStyle
  3
ObjectDBX Classes
 90
     4095
 91
        4
280
     0
281
     0
  0
CLASS
  1
MATERIAL
  2
AcDbMaterial
  3
ObjectDBX Classes
 90
     1153
 91
        4
280
     0
281
     0
  0
CLASS
  1
SCALE
  2
AcDbScale
  3
ObjectDBX Classes
 90
     1153
 91
        4
280
     0
281
     0
  0
CLASS
  1
TABLESTYLE
  2
AcDbTableStyle
  3
ObjectDBX Classes
 90
     4095
 91
        4
280
     0
281
     0
  0
CLASS
  1
MLEADERSTYLE
  2
AcDbMLeaderStyle
  3
ACDB_MLEADERSTYLE_CLASS
 90
     4095
 91
        4
280
     0
281
     0
  0
CLASS
  1
SUN
  2
AcDbSun
  3
SCENEOE
 90
     1153
 91
        4
280
     0
281
     0
  0
CLASS
  1
DICTIONARYVAR
  2
AcDbDictionaryVar
  3
ObjectDBX Classes
 90
        0
 91
        4
280
     0
281
     0
  0
CLASS
  1
CELLSTYLEMAP
  2
AcDbCellStyleMap
  3
ObjectDBX Classes
 90
     1152
 91
        4
280
     0
281
     0
  0
ENDSEC
  0
SECTION
  2
TABLES
  0
TABLE
  2
VPORT
  5
8
330
0
100
AcDbSymbolTable
 70
     1
  0
VPORT
  5
29
330
8
100
AcDbSymbolTableRecord
100
AcDbViewportTableRecord
  2
*Active
 70
     0
 10
0.0
 20
0.0
 11
1.0
 21
1.0
 12
344.1869158879
 22
148.5
 13
0.0
 23
0.0
 14
10.0
 24
10.0
 15
10.0
 25
10.0
 16
0.0
 26
0.0
 36
1.0
 17
0.0
 27
0.0
 37
0.0
 40
297.0
 41
1.9729729729
 42
50.0
 43
0.0
 44
0.0
 50
0.0
 51
0.0
 71
     0
 72
   100
 73
     1
 74
     3
 75
     0
 76
     0
 77
     0
 78
     0
281
     0
 65
     1
110
0.0
120
0.0
130
0.0
111
1.0
121
0.0
131
0.0
112
0.0
122
1.0
132
0.0
 79
     0
146
0.0
 60
     3
 61
     5
292
     1
282
     1
141
0.0
142
0.0
 63
   250
361
6D
  0
ENDTAB
  0
TABLE
  2
LTYPE
  5
5
330
0
100
AcDbSymbolTable
 70
     1
  0
LTYPE
  5
14
330
5
100
AcDbSymbolTableRecord
100
AcDbLinetypeTableRecord
  2
ByBlock
 70
     0
  3

 72
    65
 73
     0
 40
0.0
  0
LTYPE
  5
15
330
5
100
AcDbSymbolTableRecord
100
AcDbLinetypeTableRecord
  2
ByLayer
 70
     0
  3

 72
    65
 73
     0
 40
0.0
  0
LTYPE
  5
16
330
5
100
AcDbSymbolTableRecord
100
AcDbLinetypeTableRecord
  2
Continuous
 70
     0
  3
Solid line
 72
    65
 73
     0
 40
0.0
  0
ENDTAB
  0
TABLE
  2
LAYER
  5
2
330
0
100
AcDbSymbolTable
 70
     4
  0
LAYER
  5
10
330
2
100
AcDbSymbolTableRecord
100
AcDbLayerTableRecord
  2
0
 70
     0
 62
     7
  6
Continuous
370
    -3
390
F
347
46
  0
LAYER
  5
6E
330
2
100
AcDbSymbolTableRecord
100
AcDbLayerTableRecord
  2
encadrement
 70
     1
 62
    -7
  6
Continuous
370
    -3
390
F
347
46
  0
LAYER
  5
74
330
2
100
AcDbSymbolTableRecord
100
AcDbLayerTableRecord
  2
Cartouche
 70
     0
 62
     7
  6
Continuous
370
    -3
390
F
347
46
  0
LAYER
  5
77
330
2
100
AcDbSymbolTableRecord
100
AcDbLayerTableRecord
  2
H739
 70
     0
 62
     7
  6
Continuous
370
    -3
390
F
347
46
  0
ENDTAB
  0
TABLE
  2
STYLE
  5
3
330
0
100
AcDbSymbolTable
 70
     3
  0
STYLE
  5
11
330
3
100
AcDbSymbolTableRecord
100
AcDbTextStyleTableRecord
  2
Standard
 70
     0
 40
0.0
 41
1.0
 50
0.0
 71
     0
 42
2.5
  3
txt
  4

  0
STYLE
  5
237
330
3
100
AcDbSymbolTableRecord
100
AcDbTextStyleTableRecord
  2
SEACAD_Arial
 70
     0
 40
0.0
 41
1.0
 50
0.0
 71
     0
 42
2.5
  3

  4

1001
ACAD
1000
Arial
1071
        0
  0
STYLE
  5
23A
330
3
100
AcDbSymbolTableRecord
100
AcDbTextStyleTableRecord
  2
SEACAD_ArialB
 70
     0
 40
0.0
 41
1.0
 50
0.0
 71
     0
 42
2.5
  3
arialbd.ttf
  4

1001
ACAD
1000
Arial
1071
 33554432
  0
ENDTAB
  0
TABLE
  2
VIEW
  5
6
330
0
100
AcDbSymbolTable
 70
     0
  0
ENDTAB
  0
TABLE
  2
UCS
  5
7
330
0
100
AcDbSymbolTable
 70
     0
  0
ENDTAB
  0
TABLE
  2
APPID
  5
9
330
0
100
AcDbSymbolTable
 70
     2
  0
APPID
  5
12
330
9
100
AcDbSymbolTableRecord
100
AcDbRegAppTableRecord
  2
ACAD
 70
     0
  0
APPID
  5
290
330
9
100
AcDbSymbolTableRecord
100
AcDbRegAppTableRecord
  2
ACAD_MLEADERVER
 70
     0
  0
ENDTAB
  0
TABLE
  2
DIMSTYLE
  5
A
330
0
100
AcDbSymbolTable
 70
     3
100
AcDbDimStyleTable
  0
DIMSTYLE
105
27
330
A
100
AcDbSymbolTableRecord
100
AcDbDimStyleTableRecord
  2
ISO-25
 70
     0
 41
2.5
 42
0.625
 43
3.75
 44
1.25
 73
     0
 74
     0
 77
     1
 78
     8
140
2.5
141
2.5
143
0.0393700787
147
0.625
171
     3
172
     1
178
     0
271
     2
272
     2
274
     3
278
    44
283
     0
284
     8
340
11
  0
DIMSTYLE
105
225
330
A
100
AcDbSymbolTableRecord
100
AcDbDimStyleTableRecord
  2
Standard
 70
     0
178
     0
340
11
  0
DIMSTYLE
105
238
102
{ACAD_REACTORS
330
239
330
245
330
250
102
}
330
A
100
AcDbSymbolTableRecord
100
AcDbDimStyleTableRecord
  2
ISO
 70
     0
 41
24.0
 42
0.0
 44
8.0
 78
     8
140
16.0
141
0.0
147
8.0
172
     1
173
     1
178
     0
271
     0
272
     0
278
    44
284
     8
340
237
343
232
344
232
  0
ENDTAB
  0
TABLE
  2
BLOCK_RECORD
  5
1
330
0
100
AcDbSymbolTable
 70
    13
  0
BLOCK_RECORD
  5
1F
330
1
100
AcDbSymbolTableRecord
100
AcDbBlockTableRecord
  2
*Model_Space
340
22
 70
     0
280
     1
281
     0
  0
BLOCK_RECORD
  5
1B
330
1
100
AcDbSymbolTableRecord
100
AcDbBlockTableRecord
  2
*Paper_Space
340
1E
 70
     0
280
     1
281
     0
  0
BLOCK_RECORD
  5
75
330
1
100
AcDbSymbolTableRecord
100
AcDbBlockTableRecord
  2
SE
340
0
102
{BLKREFS
331
76
102
}
 70
     0
280
     1
281
     0
  0
BLOCK_RECORD
  5
134
330
1
100
AcDbSymbolTableRecord
100
AcDbBlockTableRecord
  2
SE1
340
0
102
{BLKREFS
331
135
102
}
 70
     0
280
     1
281
     0
  0
BLOCK_RECORD
  5
165
330
1
100
AcDbSymbolTableRecord
100
AcDbBlockTableRecord
  2
SE2
340
0
102
{BLKREFS
331
166
102
}
 70
     0
280
     1
281
     0
  0
BLOCK_RECORD
  5
196
330
1
100
AcDbSymbolTableRecord
100
AcDbBlockTableRecord
  2
SE3
340
0
102
{BLKREFS
331
197
102
}
 70
     0
280
     1
281
     0
  0
BLOCK_RECORD
  5
1B9
330
1
100
AcDbSymbolTableRecord
100
AcDbBlockTableRecord
  2
SE4
340
0
102
{BLKREFS
331
1BA
102
}
 70
     0
280
     1
281
     0
  0
BLOCK_RECORD
  5
1EE
330
1
100
AcDbSymbolTableRecord
100
AcDbBlockTableRecord
  2
SE5
340
0
102
{BLKREFS
331
1EF
102
}
 70
     0
280
     1
281
     0
  0
BLOCK_RECORD
  5
226
330
1
100
AcDbSymbolTableRecord
100
AcDbBlockTableRecord
  2
_OBLIQUE
340
0
 70
     0
280
     1
281
     0
  0
BLOCK_RECORD
  5
22A
330
1
100
AcDbSymbolTableRecord
100
AcDbBlockTableRecord
  2
_DOT
340
0
 70
     0
280
     1
281
     0
  0
BLOCK_RECORD
  5
232
330
1
100
AcDbSymbolTableRecord
100
AcDbBlockTableRecord
  2
_SE_FILLED
340
0
 70
     0
280
     1
281
     0
  0
BLOCK_RECORD
  5
23B
330
1
100
AcDbSymbolTableRecord
100
AcDbBlockTableRecord
  2
DMBLK4
340
0
 70
     0
280
     1
281
     0
  0
BLOCK_RECORD
  5
246
330
1
100
AcDbSymbolTableRecord
100
AcDbBlockTableRecord
  2
DMBLK5
340
0
 70
     0
280
     1
281
     0
  0
BLOCK_RECORD
  5
251
330
1
100
AcDbSymbolTableRecord
100
AcDbBlockTableRecord
  2
DMBLK6
340
0
 70
     0
280
     1
281
     0
  0
ENDTAB
  0
ENDSEC
  0
SECTION
  2
BLOCKS
  0
BLOCK
  5
20
330
1F
100
AcDbEntity
  8
0
100
AcDbBlockBegin
  2
*Model_Space
 70
     0
 10
0.0
 20
0.0
 30
0.0
  3
*Model_Space
  1
*Model_Space
  0
ENDBLK
  5
21
330
1F
100
AcDbEntity
  8
0
100
AcDbBlockEnd
  0
BLOCK
  5
1C
330
1B
100
AcDbEntity
 67
     1
  8
0
100
AcDbBlockBegin
  2
*Paper_Space
 70
     0
 10
0.0
 20
0.0
 30
0.0
  3
*Paper_Space
  1
*Paper_Space
  0
ENDBLK
  5
1D
330
1B
100
AcDbEntity
 67
     1
  8
0
100
AcDbBlockEnd
  0
BLOCK
  5
132
330
75
100
AcDbEntity
  8
0
100
AcDbBlockBegin
  2
SE
 70
     0
 10
0.0
 20
0.0
 30
0.0
  3
SE
  1
SE
  0
LINE
  5
78
330
75
100
AcDbEntity
  8
H739
  6
Continuous
 62
     7
100
AcDbLine
 10
168.1419227631
 20
174.0526801335
 30
0.0
 11
168.1419227631
 21
388.9713450835
 31
0.0
  0
LINE
  5
79
330
75
100
AcDbEntity
  8
H739
  6
Continuous
 62
     7
100
AcDbLine
 10
168.1419227631
 20
174.0526801335
 30
0.0
 11
173.2166601885
 21
191.126731741
 31
0.0
  0
ELLIPSE
  5
7A
330
75
100
AcDbEntity
  8
H739
  6
Continuous
 62
     7
100
AcDbEllipse
 10
188.1693696831
 20
174.2372449564
 30
0.0
 11
5.793633578665735
 21
19.49279153272343
 31
0.0
210
0.0
220
0.0
230
1.0
 40
0.9834987239
 41
1.864275809366581
 42
3.425983967628027
  0
LINE
  5
7B
330
75
100
AcDbEntity
  8
H739
  6
Continuous
 62
     7
100
AcDbLine
 10
368.2964861505
 20
153.9287127187
 30
0.0
 11
187.9873593757
 21
153.9287127187
 31
0.0
  0
ELLIPSE
  5
7C
330
75
100
AcDbEntity
  8
H739
  6
Continuous
 62
     7
100
AcDbEllipse
 10
368.1144758432
 20
174.2372449564
 30
0.0
 11
-5.793633578665735
 21
19.49279153272343
 31
0.0
210
0.0
220
0.0
230
1.0
 40
0.9834987239
 41
2.85720133955155
 42
4.418909497813002
  0
LINE
  5
7D
330
75
100
AcDbEntity
  8
H739
  6
Continuous
 62
     7
100
AcDbLine
 10
368.2964861505
 20
153.9287127187
 30
0.0
 11
368.2701537949
 21
154.0173084353
 31
0.0
  0
LINE
  5
7E
330
75
100
AcDbEntity
  8
H739
  6
Continuous
 62
     7
100
AcDbLine
 10
348.3680454921
 20
420.7370947733
 30
0.0
 11
207.9158000341
 21
420.7370947733
 31
0.0
  0
LINE
  5
7F
330
75
100
AcDbEntity
  8
H739
  6
Continuous
 62
     7
100
AcDbLine
 10
348.3680454921
 20
420.7370947733
 30
0.0
 11
353.1579058324
 21
423.9287127187
 31
0.0
  0
LINE
  5
80
330
75
100
AcDbEntity
  8
H739
  6
Continuous
 62
     7
100
AcDbLine
 10
388.1419227631
 20
388.9713450835
 30
0.0
 11
388.1419227631
 21
174.0526801335
 31
0.0
  0
ELLIPSE
  5
81
330
75
100
AcDbEntity
  8
H739
  6
Continuous
 62
     7
100
AcDbEllipse
 10
353.0938906532
 20
388.9073786683
 30
0.0
 11
-29.18401333147376
 21
-19.44612453217028
 31
0.0
210
0.0
220
0.0
230
1.0
 40
0.9980228614
 41
2.554737466715722
 42
4.123707293962728
  0
LINE
  5
82
330
75
100
AcDbEntity
  8
H739
  6
Continuous
 62
     7
100
AcDbLine
 10
383.0671853377
 20
191.126731741
 30
0.0
 11
388.1419227631
 21
174.0526801335
 31
0.0
  0
LINE
  5
83
330
75
100
AcDbEntity
  8
H739
  6
Continuous
 62
     7
100
AcDbLine
 10
383.0671853377
 20
380.7614616925
 30
0.0
 11
383.0671853377
 21
191.126731741
 31
0.0
  0
ELLIPSE
  5
84
330
75
100
AcDbEntity
  8
H739
  6
Continuous
 62
     7
100
AcDbEllipse
 10
383.3292242341
 20
380.7614616925
 30
0.0
 11
0.0
 21
4.99999999999999
 31
0.0
210
0.0
220
0.0
230
1.0
 40
0.0524077793
 41
0.034906585039673
 42
1.570796326794897
  0
LINE
  5
85
330
75
100
AcDbEntity
  8
H739
  6
Continuous
 62
     7
100
AcDbLine
 10
388.1419227631
 20
388.9713450835
 30
0.0
 11
383.3200792085
 21
385.7584158276
 31
0.0
  0
LINE
  5
86
330
75
100
AcDbEntity
  8
H739
  6
Continuous
 62
     7
100
AcDbLine
 10
348.1151516213
 20
380.7614616925
 30
0.0
 11
208.1686939049
 21
380.7614616925
 31
0.0
  0
ELLIPSE
  5
87
330
75
100
AcDbEntity
  8
H739
  6
Continuous
 62
     7
100
AcDbEllipse
 10
348.3771905177
 20
380.7614616925
 30
0.0
 11
0.0
 21
-39.99999999999997
 31
0.0
210
0.0
220
0.0
230
1.0
 40
0.0065509724
 41
3.176499238629701
 42
4.712388980384691
  0
LINE
  5
88
330
75
100
AcDbEntity
  8
H739
  6
Continuous
 62
     7
100
AcDbLine
 10
348.1151516213
 20
206.219707302
 30
0.0
 11
348.1151516213
 21
380.7614616925
 31
0.0
  0
ELLIPSE
  5
89
330
75
100
AcDbEntity
  8
H739
  6
Continuous
 62
     7
100
AcDbEllipse
 10
363.0945946426
 20
191.126731741
 30
0.0
 11
19.17113559724443
 21
5.698031231229916
 31
0.0
210
0.0
220
0.0
230
1.0
 40
0.9834987239
 41
4.427997666346544
 42
5.989705824607991
  0
LINE
  5
8A
330
75
100
AcDbEntity
  8
H739
  6
Continuous
 62
     7
100
AcDbLine
 10
362.8872679165
 20
171.7514359466
 30
0.0
 11
306.7213761798
 21
171.7514359466
 31
0.0
  0
ELLIPSE
  5
8B
330
75
100
AcDbEntity
  8
H739
  6
Continuous
 62
     7
100
AcDbEllipse
 10
348.1151516218
 20
171.2921530635
 30
0.0
 11
14.9999999995498
 21
-1.086630785351872E-11
 31
0.0
210
0.0
220
0.0
230
1.0
 40
0.1763269807
 41
0.0523598775608125
 42
0.1745329252021811
  0
ELLIPSE
  5
8C
330
75
100
AcDbEntity
  8
H739
  6
Continuous
 62
     7
100
AcDbEllipse
 10
362.8872679165
 20
191.4475910069
 30
0.0
 11
-14.14213562372997
 21
-14.14213562373184
 31
0.0
210
0.0
220
0.0
230
1.0
 40
0.9702875252
 41
0.8004772938938585
 42
2.341115359695805
  0
LINE
  5
8D
330
75
100
AcDbEntity
  8
H739
  6
Continuous
 62
     7
100
AcDbLine
 10
348.1151516213
 20
206.219707302
 30
0.0
 11
362.8872679165
 21
171.7514359466
 31
0.0
  0
ELLIPSE
  5
8E
330
75
100
AcDbEntity
  8
H739
  6
Continuous
 62
     7
100
AcDbEllipse
 10
348.1151516206
 20
190.9883081237
 30
0.0
 11
35.00000000068287
 21
4.343747583845925E-12
 31
0.0
210
0.0
220
0.0
230
1.0
 40
0.075568706
 41
0.0523598775592857
 42
0.1745329251977063
  0
LINE
  5
8F
330
75
100
AcDbEntity
  8
H739
  6
Continuous
 62
     7
100
AcDbLine
 10
348.1151516213
 20
206.219707302
 30
0.0
 11
382.5834229767
 21
191.4475910069
 31
0.0
  0
LINE
  5
90
330
75
100
AcDbEntity
  8
H739
  6
Continuous
 62
     7
100
AcDbLine
 10
348.1151516213
 20
380.7614616925
 30
0.0
 11
383.0671853377
 21
380.7614616925
 31
0.0
  0
ELLIPSE
  5
91
330
75
100
AcDbEntity
  8
H739
  6
Continuous
 62
     7
100
AcDbEllipse
 10
348.3680454921
 20
385.7584158276
 30
0.0
 11
-19.407676848007
 21
29.12631249168693
 31
0.0
210
0.0
220
0.0
230
1.0
 40
0.9980228614
 41
4.125533793519661
 42
5.694503620766635
  0
LINE
  5
92
330
75
100
AcDbEntity
  8
H739
  6
Continuous
 62
     7
100
AcDbLine
 10
173.2166601885
 20
191.126731741
 30
0.0
 11
173.2166601885
 21
380.7614616925
 31
0.0
  0
ELLIPSE
  5
93
330
75
100
AcDbEntity
  8
H739
  6
Continuous
 62
     7
100
AcDbEllipse
 10
172.9546212921
 20
380.7614616925
 30
0.0
 11
1.387778780781446E-14
 21
5.000000000000004
 31
0.0
210
0.0
220
0.0
230
1.0
 40
0.0524077793
 41
4.712388980384701
 42
6.248278722139834
  0
LINE
  5
94
330
75
100
AcDbEntity
  8
H739
  6
Continuous
 62
     7
100
AcDbLine
 10
172.9637663177
 20
385.7584158276
 30
0.0
 11
168.1419227631
 21
388.9713450835
 31
0.0
  0
LINE
  5
95
330
75
100
AcDbEntity
  8
H739
  6
Continuous
 62
     7
100
AcDbLine
 10
353.1579058324
 20
423.9287127187
 30
0.0
 11
203.1259396938
 21
423.9287127187
 31
0.0
  0
ELLIPSE
  5
96
330
75
100
AcDbEntity
  8
H739
  6
Continuous
 62
     7
100
AcDbEllipse
 10
203.1899548731
 20
388.9073786683
 30
0.0
 11
29.18401333147376
 21
-19.44612453217028
 31
0.0
210
0.0
220
0.0
230
1.0
 40
0.9980228614
 41
2.15947801321686
 42
3.728447840463863
  0
LINE
  5
97
330
75
100
AcDbEntity
  8
H739
  6
Continuous
 62
     7
100
AcDbLine
 10
203.1259396938
 20
423.9287127187
 30
0.0
 11
207.9158000341
 21
420.7370947733
 31
0.0
  0
ELLIPSE
  5
98
330
75
100
AcDbEntity
  8
H739
  6
Continuous
 62
     7
100
AcDbEllipse
 10
207.9066550085
 20
380.7614616925
 30
0.0
 11
0.0
 21
40.00000000000006
 31
0.0
210
0.0
220
0.0
230
1.0
 40
0.0065509724
 41
4.71238898038469
 42
6.248278722139649
  0
LINE
  5
99
330
75
100
AcDbEntity
  8
H739
  6
Continuous
 62
     7
100
AcDbLine
 10
208.1686939049
 20
380.7614616925
 30
0.0
 11
208.1686939049
 21
291.501891124
 31
0.0
  0
LINE
  5
9A
330
75
100
AcDbEntity
  8
H739
  6
Continuous
 62
     7
100
AcDbLine
 10
173.2166601885
 20
380.7614616925
 30
0.0
 11
208.1686939049
 21
380.7614616925
 31
0.0
  0
ELLIPSE
  5
9B
330
75
100
AcDbEntity
  8
H739
  6
Continuous
 62
     7
100
AcDbEllipse
 10
207.9158000341
 20
385.7584158276
 30
0.0
 11
-19.40767684802376
 21
-29.12631249167574
 31
0.0
210
0.0
220
0.0
230
1.0
 40
0.9980228614
 41
3.730274340003319
 42
5.299244167250293
  0
ELLIPSE
  5
9C
330
75
100
AcDbEntity
  8
H739
  6
Continuous
 62
     7
100
AcDbEllipse
 10
235.1275450786
 20
180.2733671272
 30
0.0
 11
-61.99999999999999
 21
0.0
 31
0.0
210
0.0
220
0.0
230
1.0
 40
0.1736481777
 41
3.817677247362509
 42
5.606976510638632
  0
ARC
  5
9D
330
75
100
AcDbEntity
  8
H739
  6
Continuous
 62
     7
100
AcDbCircle
 10
182.4617412683
 20
204.6346284314
 30
0.0
 40
18.14244717774473
100
AcDbArc
 50
247.3173370365
 51
283.739068199
  0
ARC
  5
9E
330
75
100
AcDbEntity
  8
H739
  6
Continuous
 62
     7
100
AcDbCircle
 10
351.9623146817
 20
217.5438228144
 30
0.0
 40
74.97232651188611
100
AcDbArc
 50
189.6574185494
 51
204.0331229056
  0
SPLINE
  5
9F
330
75
100
AcDbEntity
  8
H739
  6
Continuous
 62
     7
100
AcDbSpline
210
0.0
220
0.0
230
1.0
 70
     8
 71
     3
 72
    14
 73
    10
 74
     0
 42
0.000000001
 43
0.0000000001
 40
0.0
 40
0.0
 40
0.0
 40
0.0
 40
0.25
 40
0.25
 40
0.5
 40
0.5
 40
0.75
 40
0.75
 40
1.0
 40
1.0
 40
1.0
 40
1.0
 10
211.9129787901758
 20
289.8917283359051
 30
0.0
 10
208.6437492346795
 20
281.1002345673061
 30
0.0
 10
205.2029168580232
 20
272.4302399506672
 30
0.0
 10
198.2353327504172
 20
255.2620639857837
 30
0.0
 10
194.708429724355
 20
246.7642241075672
 30
0.0
 10
187.9709068528153
 20
229.8035489778727
 30
0.0
 10
184.7486214673027
 20
221.2907928178113
 30
0.0
 10
179.2843928531859
 20
204.5131199902633
 30
0.0
 10
177.0289247404835
 20
196.2065243953045
 30
0.0
 10
175.4655260516734
 20
187.8954121343834
 30
0.0
  0
ELLIPSE
  5
A0
330
75
100
AcDbEntity
  8
H739
  6
Continuous
 62
     7
100
AcDbEllipse
 10
235.1275450786
 20
-92.9675461291
 30
0.0
 11
-1.387778780781446E-14
 21
-412.8949930096733
 31
0.0
210
0.0
220
0.0
230
1.0
 40
0.150159244
 41
2.376869285251482
 42
3.525373004166722
  0
LINE
  5
A1
330
75
100
AcDbEntity
  8
H739
  6
Continuous
 62
     7
100
AcDbLine
 10
284.9758389491
 20
206.219707302
 30
0.0
 11
348.1151516213
 21
206.219707302
 31
0.0
  0
ELLIPSE
  5
A2
330
75
100
AcDbEntity
  8
H739
  6
Continuous
 62
     7
100
AcDbEllipse
 10
235.1275450786
 20
-92.9675461291
 30
0.0
 11
0.0
 21
-414.6314747863423
 31
0.0
210
0.0
220
0.0
230
1.0
 40
0.1736481777
 41
2.376869285251482
 42
3.525373004166723
  0
ARC
  5
A3
330
75
100
AcDbEntity
  8
H739
  6
Continuous
 62
     7
100
AcDbCircle
 10
186.0472124894
 20
192.28181418
 30
0.0
 40
12.8824410647122
100
AcDbArc
 50
185.1442384551
 51
199.7978112877
  0
SPLINE
  5
A4
330
75
100
AcDbEntity
  8
H739
  6
Continuous
 62
     7
100
AcDbSpline
210
0.0
220
0.0
230
1.0
 70
     8
 71
     3
 72
    20
 73
    16
 74
     0
 42
0.000000001
 43
0.0000000001
 40
0.0
 40
0.0
 40
0.0
 40
0.0
 40
0.2499999999999922
 40
0.2499999999999922
 40
0.3749999999999934
 40
0.3749999999999934
 40
0.4999999999999948
 40
0.4999999999999948
 40
0.6249999999999961
 40
0.6249999999999961
 40
0.7499999999999973
 40
0.7499999999999973
 40
0.8749999999999987
 40
0.8749999999999987
 40
1.0
 40
1.0
 40
1.0
 40
1.0
 10
173.9262047461553
 20
187.9185059082224
 30
0.0
 10
173.9987255291011
 20
187.7155787108584
 30
0.0
 10
174.080252438569
 20
187.5630181835201
 30
0.0
 10
174.2182530699418
 20
187.4057771699865
 30
0.0
 10
174.2672611109314
 20
187.3653887977513
 30
0.0
 10
174.368430199509
 20
187.3114855325841
 30
0.0
 10
174.4207217801816
 20
187.2976014019511
 30
0.0
 10
174.5287445536258
 20
187.295782592686
 30
0.0
 10
174.5844757129001
 20
187.3078566485234
 30
0.0
 10
174.6994148384976
 20
187.3591638110295
 30
0.0
 10
174.7580133911091
 20
187.398320567188
 30
0.0
 10
174.8750568432642
 20
187.5009504089299
 30
0.0
 10
174.9338243070436
 20
187.5646119678287
 30
0.0
 10
175.0517371196643
 20
187.7142181540327
 30
0.0
 10
175.1114622712919
 20
187.8014611030951
 30
0.0
 10
175.1702187878596
 20
187.8950849184315
 30
0.0
  0
SPLINE
  5
A5
330
75
100
AcDbEntity
  8
H739
  6
Continuous
 62
     7
100
AcDbSpline
210
0.0
220
0.0
230
1.0
 70
     8
 71
     3
 72
    14
 73
    10
 74
     0
 42
0.000000001
 43
0.0000000001
 40
0.0
 40
0.0
 40
0.0
 40
0.0
 40
0.4999999999999997
 40
0.4999999999999997
 40
0.6249999999999997
 40
0.6249999999999997
 40
0.7499999999999997
 40
0.7499999999999997
 40
1.0
 40
1.0
 40
1.0
 40
1.0
 10
175.1702187878596
 20
187.8950849184315
 30
0.0
 10
177.946208188992
 20
204.8164256802824
 30
0.0
 10
183.2421960673058
 20
221.590592762359
 30
0.0
 10
190.8822391243228
 20
243.1752295688716
 30
0.0
 10
192.4637389083844
 20
247.5321270511558
 30
0.0
 10
195.6490395428869
 20
256.2522793086991
 30
0.0
 10
197.2541137902144
 20
260.6197443182916
 30
0.0
 10
202.0400349105088
 20
273.7650045505735
 30
0.0
 10
205.1870530675863
 20
282.587351974204
 30
0.0
 10
208.1686939049401
 20
291.5018911240059
 30
0.0
  0
SPLINE
  5
A6
330
75
100
AcDbEntity
  8
H739
  6
Continuous
 62
     7
100
AcDbSpline
210
0.0
220
0.0
230
1.0
 70
     8
 71
     3
 72
    18
 73
    14
 74
     0
 42
0.000000001
 43
0.0000000001
 40
0.0
 40
0.0
 40
0.0
 40
0.0
 40
0.1249999999999999
 40
0.1249999999999999
 40
0.2499999999999999
 40
0.2499999999999999
 40
0.4999999999999998
 40
0.4999999999999998
 40
0.7499999999999997
 40
0.7499999999999997
 40
0.8749999999999998
 40
0.8749999999999998
 40
1.0
 40
1.0
 40
1.0
 40
1.0
 10
284.975838949095
 20
206.2197073020377
 30
0.0
 10
285.4927349485319
 20
203.9983140252518
 30
0.0
 10
286.2390642465064
 20
201.9010041424134
 30
0.0
 10
288.002888678356
 20
197.8660799865842
 30
0.0
 10
289.0325629520097
 20
195.9124905091241
 30
0.0
 10
292.2799555256065
 20
190.3628957707571
 30
0.0
 10
294.6314836769629
 20
187.0652556870216
 30
0.0
 10
299.1893244255348
 20
181.0214924234526
 30
0.0
 10
301.2979744281494
 20
178.4221043432718
 30
0.0
 10
303.9205564355996
 20
175.2029715111354
 30
0.0
 10
304.6966569386172
 20
174.2558630857284
 30
0.0
 10
305.93614850019
 20
172.7336331650078
 30
0.0
 10
306.4119163623116
 20
172.1432539654124
 30
0.0
 10
306.7213761797711
 20
171.7514359466104
 30
0.0
  0
LINE
  5
A7
330
75
100
AcDbEntity
  8
H739
  6
Continuous
 62
     7
100
AcDbLine
 10
194.5700927031
 20
176.0764455231
 30
0.0
 11
188.9951273612
 21
157.3193674758
 31
0.0
  0
ARC
  5
A8
330
75
100
AcDbEntity
  8
H739
  6
Continuous
 62
     7
100
AcDbCircle
 10
191.849756504
 20
197.2217739921
 30
0.0
 40
21.31959533145778
100
AcDbArc
 50
224.2520236155
 51
277.3308077429
  0
ELLIPSE
  5
A9
330
75
100
AcDbEntity
  8
H739
  6
Continuous
 62
     7
100
AcDbEllipse
 10
235.1275450786
 20
170.4252895971
 30
0.0
 11
52.00000000000002
 21
0.0
 31
0.0
210
0.0
220
0.0
230
1.0
 40
0.1736481777
 41
0.676084593772714
 42
2.465383857048838
  0
ARC
  5
AA
330
75
100
AcDbEntity
  8
H739
  6
Continuous
 62
     7
100
AcDbCircle
 10
186.2064113434
 20
190.3448713222
 30
0.0
 40
12.51761651409517
100
AcDbArc
 50
191.1767372385
 51
219.7261590429
  0
SPLINE
  5
AB
330
75
100
AcDbEntity
  8
H739
  6
Continuous
 62
     7
100
AcDbSpline
210
0.0
220
0.0
230
1.0
 70
     8
 71
     3
 72
    16
 73
    12
 74
     0
 42
0.000000001
 43
0.0000000001
 40
0.0
 40
0.0
 40
0.0
 40
0.0
 40
0.1250000000000001
 40
0.1250000000000001
 40
0.2500000000000002
 40
0.2500000000000002
 40
0.5000000000000001
 40
0.5000000000000001
 40
0.75
 40
0.75
 40
1.0
 40
1.0
 40
1.0
 40
1.0
 10
306.7213761797711
 20
171.7514359466104
 30
0.0
 10
305.4987168238846
 20
171.9451273874624
 30
0.0
 10
304.2102684344936
 20
172.1328393390606
 30
0.0
 10
301.5961868041244
 20
172.490317681199
 30
0.0
 10
300.2590987512846
 20
172.6620490206951
 30
0.0
 10
296.1984997392358
 20
173.1657368119494
 30
0.0
 10
293.4261739743901
 20
173.4865095131216
 30
0.0
 10
287.962184644707
 20
174.1459903011568
 30
0.0
 10
285.271593331485
 20
174.4841162425504
 30
0.0
 10
280.1907145536215
 20
175.2211895818377
 30
0.0
 10
277.7965981801859
 20
175.6193614991279
 30
0.0
 10
275.6890391601728
 20
176.0755707532299
 30
0.0
  0
ELLIPSE
  5
AC
330
75
100
AcDbEntity
  8
H739
  6
Continuous
 62
     7
100
AcDbEllipse
 10
194.5700927031
 20
185.9245230532
 30
0.0
 11
2.115121064428058
 21
-9.773753776457255
 31
0.0
210
0.0
220
0.0
230
1.0
 40
0.7681017989
 41
4.437763572738794
 42
6.008559899533688
  0
ELLIPSE
  5
AD
330
75
100
AcDbEntity
  8
H739
  6
Continuous
 62
     7
100
AcDbEllipse
 10
275.6890391602
 20
185.9236482834
 30
0.0
 11
2.115635247846182
 21
9.773642488758782
 31
0.0
210
0.0
220
0.0
230
1.0
 40
0.7681783432
 41
3.416258472232959
 42
4.987054799027862
  0
ELLIPSE
  5
AE
330
75
100
AcDbEntity
  8
H739
  6
Continuous
 62
     7
100
AcDbEllipse
 10
185.0884323463
 20
187.4230484118
 30
0.0
 11
-5.703908530388575
 21
-8.213734076347693
 31
0.0
210
0.0
220
0.0
230
1.0
 40
0.9502607108
 41
5.247670350317454
 42
5.837922857560075
  0
ARC
  5
AF
330
75
100
AcDbEntity
  8
H739
  6
Continuous
 62
     7
100
AcDbCircle
 10
362.4820870693
 20
281.9642115009
 30
0.0
 40
123.5156377722942
100
AcDbArc
 50
230.2427326983
 51
243.1634677438
  0
ARC
  5
B0
330
75
100
AcDbEntity
  8
H739
  6
Continuous
 62
     7
100
AcDbCircle
 10
175.3176171772
 20
188.1256009432
 30
0.0
 40
0.2736127242339964
100
AcDbArc
 50
237.4040149618
 51
302.7229584497
  0
LINE
  5
B1
330
75
100
AcDbEntity
  8
H739
  6
Continuous
 62
     7
100
AcDbLine
 10
278.0524648004
 20
204.9667073612
 30
0.0
 11
284.9758389491
 21
206.219707302
 31
0.0
  0
LINE
  5
B2
330
75
100
AcDbEntity
  8
H739
  6
Continuous
 62
     7
100
AcDbLine
 10
208.1686939049
 20
291.501891124
 30
0.0
 11
211.9129787902
 21
289.8917283359
 31
0.0
  0
ELLIPSE
  5
B3
330
75
100
AcDbEntity
  8
H739
  6
Continuous
 62
     7
100
AcDbEllipse
 10
208.1419227631
 20
157.9202165664
 30
0.0
 11
9.999999999999995
 21
0.0
 31
0.0
210
0.0
220
0.0
230
1.0
 40
0.1736481777
 41
3.141592653589793
 42
4.71238898038469
  0
LINE
  5
B4
330
75
100
AcDbEntity
  8
H739
  6
Continuous
 62
     7
100
AcDbLine
 10
198.1419227631
 20
157.9202165664
 30
0.0
 11
198.1419227631
 21
168.3391072264
 31
0.0
  0
LINE
  5
B5
330
75
100
AcDbEntity
  8
H739
  6
Continuous
 62
     7
100
AcDbLine
 10
198.1419227631
 20
168.3391072264
 30
0.0
 11
198.1419227631
 21
171.2935304854
 31
0.0
  0
ELLIPSE
  5
B6
330
75
100
AcDbEntity
  8
H739
  6
Continuous
 62
     7
100
AcDbEllipse
 10
208.1419227631
 20
168.3391072264
 30
0.0
 11
-9.99999999999998
 21
-1.387778780781446E-14
 31
0.0
210
0.0
220
0.0
230
1.0
 40
0.1736481777
 41
4.712388980384686
 42
6.283185307179578
  0
LINE
  5
B7
330
75
100
AcDbEntity
  8
H739
  6
Continuous
 62
     7
100
AcDbLine
 10
208.1419227631
 20
170.0755890031
 30
0.0
 11
208.1419227631
 21
173.0300122621
 31
0.0
  0
LINE
  5
B8
330
75
100
AcDbEntity
  8
H739
  6
Continuous
 62
     7
100
AcDbLine
 10
208.1419227631
 20
170.0755890031
 30
0.0
 11
268.1419227631
 21
170.0755890031
 31
0.0
  0
LINE
  5
B9
330
75
100
AcDbEntity
  8
H739
  6
Continuous
 62
     7
100
AcDbLine
 10
268.1419227631
 20
170.0755890031
 30
0.0
 11
268.1419227631
 21
173.0300122621
 31
0.0
  0
ELLIPSE
  5
BA
330
75
100
AcDbEntity
  8
H739
  6
Continuous
 62
     7
100
AcDbEllipse
 10
268.1419227631
 20
168.3391072264
 30
0.0
 11
-10.0
 21
0.0
 31
0.0
210
0.0
220
0.0
230
1.0
 40
0.1736481777
 41
3.141592653589793
 42
4.71238898038469
  0
LINE
  5
BB
330
75
100
AcDbEntity
  8
H739
  6
Continuous
 62
     7
100
AcDbLine
 10
278.1419227631
 20
168.3391072264
 30
0.0
 11
278.1419227631
 21
171.2935304854
 31
0.0
  0
LINE
  5
BC
330
75
100
AcDbEntity
  8
H739
  6
Continuous
 62
     7
100
AcDbLine
 10
278.1419227631
 20
168.3391072264
 30
0.0
 11
278.1419227631
 21
157.9202165664
 31
0.0
  0
ELLIPSE
  5
BD
330
75
100
AcDbEntity
  8
H739
  6
Continuous
 62
     7
100
AcDbEllipse
 10
268.1419227631
 20
157.9202165664
 30
0.0
 11
10.0
 21
2.775557561562891E-14
 31
0.0
210
0.0
220
0.0
230
1.0
 40
0.1736481777
 41
4.71238898038469
 42
6.283185307179586
  0
LINE
  5
BE
330
75
100
AcDbEntity
  8
H739
  6
Continuous
 62
     7
100
AcDbLine
 10
268.1419227631
 20
156.1837347897
 30
0.0
 11
208.1419227631
 21
156.1837347897
 31
0.0
  0
ELLIPSE
  5
BF
330
75
100
AcDbEntity
  8
H739
  6
Continuous
 62
     7
100
AcDbEllipse
 10
208.1419227631
 20
171.2935304854
 30
0.0
 11
-9.99999999999998
 21
-4.163336342344337E-14
 31
0.0
210
0.0
220
0.0
230
1.0
 40
0.1736481777
 41
4.712388980384689
 42
6.283185307179586
  0
LINE
  5
C0
330
75
100
AcDbEntity
  8
H739
  6
Continuous
 62
     7
100
AcDbLine
 10
208.1419227631
 20
173.0300122621
 30
0.0
 11
268.1419227631
 21
173.0300122621
 31
0.0
  0
ELLIPSE
  5
C1
330
75
100
AcDbEntity
  8
H739
  6
Continuous
 62
     7
100
AcDbEllipse
 10
268.1419227631
 20
171.2935304854
 30
0.0
 11
-10.00000000000001
 21
-1.387778780781446E-14
 31
0.0
210
0.0
220
0.0
230
1.0
 40
0.1736481777
 41
3.141592653589793
 42
4.71238898038469
  0
LINE
  5
C2
330
75
100
AcDbEntity
  8
H739
  6
Continuous
 62
     7
100
AcDbLine
 10
226.1678834314
 20
168.7836198567
 30
0.0
 11
226.1678834314
 21
166.1788971917
 31
0.0
  0
LINE
  5
C3
330
75
100
AcDbEntity
  8
H739
  6
Continuous
 62
     7
100
AcDbLine
 10
226.1678834314
 20
166.1788971917
 30
0.0
 11
236.1678834314
 21
166.1788971917
 31
0.0
  0
LINE
  5
C4
330
75
100
AcDbEntity
  8
H739
  6
Continuous
 62
     7
100
AcDbLine
 10
236.1678834314
 20
166.1788971917
 30
0.0
 11
236.1678834314
 21
168.7836198567
 31
0.0
  0
LINE
  5
C5
330
75
100
AcDbEntity
  8
H739
  6
Continuous
 62
     7
100
AcDbLine
 10
236.1678834314
 20
168.7836198567
 30
0.0
 11
226.1678834314
 21
168.7836198567
 31
0.0
  0
LINE
  5
C6
330
75
100
AcDbEntity
  8
H739
  6
Continuous
 62
     7
100
AcDbLine
 10
239.4968090512
 20
168.7836198567
 30
0.0
 11
239.4968090512
 21
166.1788971917
 31
0.0
  0
LINE
  5
C7
330
75
100
AcDbEntity
  8
H739
  6
Continuous
 62
     7
100
AcDbLine
 10
239.4968090512
 20
166.1788971917
 30
0.0
 11
249.4968090512
 21
166.1788971917
 31
0.0
  0
LINE
  5
C8
330
75
100
AcDbEntity
  8
H739
  6
Continuous
 62
     7
100
AcDbLine
 10
249.4968090512
 20
166.1788971917
 30
0.0
 11
249.4968090512
 21
168.7836198567
 31
0.0
  0
LINE
  5
C9
330
75
100
AcDbEntity
  8
H739
  6
Continuous
 62
     7
100
AcDbLine
 10
249.4968090512
 20
168.7836198567
 30
0.0
 11
239.4968090512
 21
168.7836198567
 31
0.0
  0
LINE
  5
CA
330
75
100
AcDbEntity
  8
H739
  6
Continuous
 62
     7
100
AcDbLine
 10
252.825734671
 20
168.7836198567
 30
0.0
 11
252.825734671
 21
166.1788971917
 31
0.0
  0
LINE
  5
CB
330
75
100
AcDbEntity
  8
H739
  6
Continuous
 62
     7
100
AcDbLine
 10
252.825734671
 20
166.1788971917
 30
0.0
 11
262.825734671
 21
166.1788971917
 31
0.0
  0
LINE
  5
CC
330
75
100
AcDbEntity
  8
H739
  6
Continuous
 62
     7
100
AcDbLine
 10
262.825734671
 20
166.1788971917
 30
0.0
 11
262.825734671
 21
168.7836198567
 31
0.0
  0
LINE
  5
CD
330
75
100
AcDbEntity
  8
H739
  6
Continuous
 62
     7
100
AcDbLine
 10
262.825734671
 20
168.7836198567
 30
0.0
 11
252.825734671
 21
168.7836198567
 31
0.0
  0
LINE
  5
CE
330
75
100
AcDbEntity
  8
H739
  6
Continuous
 62
     7
100
AcDbLine
 10
212.9102683192
 20
165.5255125833
 30
0.0
 11
212.9102683192
 21
162.9207899183
 31
0.0
  0
LINE
  5
CF
330
75
100
AcDbEntity
  8
H739
  6
Continuous
 62
     7
100
AcDbLine
 10
212.9102683192
 20
162.9207899183
 30
0.0
 11
222.9102683192
 21
162.9207899183
 31
0.0
  0
LINE
  5
D0
330
75
100
AcDbEntity
  8
H739
  6
Continuous
 62
     7
100
AcDbLine
 10
222.9102683192
 20
162.9207899183
 30
0.0
 11
222.9102683192
 21
165.5255125833
 31
0.0
  0
LINE
  5
D1
330
75
100
AcDbEntity
  8
H739
  6
Continuous
 62
     7
100
AcDbLine
 10
222.9102683192
 20
165.5255125833
 30
0.0
 11
212.9102683192
 21
165.5255125833
 31
0.0
  0
LINE
  5
D2
330
75
100
AcDbEntity
  8
H739
  6
Continuous
 62
     7
100
AcDbLine
 10
226.1678834314
 20
165.5255125833
 30
0.0
 11
226.1678834314
 21
162.9207899183
 31
0.0
  0
LINE
  5
D3
330
75
100
AcDbEntity
  8
H739
  6
Continuous
 62
     7
100
AcDbLine
 10
226.1678834314
 20
162.9207899183
 30
0.0
 11
236.1678834314
 21
162.9207899183
 31
0.0
  0
LINE
  5
D4
330
75
100
AcDbEntity
  8
H739
  6
Continuous
 62
     7
100
AcDbLine
 10
236.1678834314
 20
162.9207899183
 30
0.0
 11
236.1678834314
 21
165.5255125833
 31
0.0
  0
LINE
  5
D5
330
75
100
AcDbEntity
  8
H739
  6
Continuous
 62
     7
100
AcDbLine
 10
236.1678834314
 20
165.5255125833
 30
0.0
 11
226.1678834314
 21
165.5255125833
 31
0.0
  0
LINE
  5
D6
330
75
100
AcDbEntity
  8
H739
  6
Continuous
 62
     7
100
AcDbLine
 10
239.4968090512
 20
165.5255125833
 30
0.0
 11
239.4968090512
 21
162.9207899183
 31
0.0
  0
LINE
  5
D7
330
75
100
AcDbEntity
  8
H739
  6
Continuous
 62
     7
100
AcDbLine
 10
239.4968090512
 20
162.9207899183
 30
0.0
 11
249.4968090512
 21
162.9207899183
 31
0.0
  0
LINE
  5
D8
330
75
100
AcDbEntity
  8
H739
  6
Continuous
 62
     7
100
AcDbLine
 10
249.4968090512
 20
162.9207899183
 30
0.0
 11
249.4968090512
 21
165.5255125833
 31
0.0
  0
LINE
  5
D9
330
75
100
AcDbEntity
  8
H739
  6
Continuous
 62
     7
100
AcDbLine
 10
249.4968090512
 20
165.5255125833
 30
0.0
 11
239.4968090512
 21
165.5255125833
 31
0.0
  0
LINE
  5
DA
330
75
100
AcDbEntity
  8
H739
  6
Continuous
 62
     7
100
AcDbLine
 10
252.825734671
 20
165.5255125833
 30
0.0
 11
252.825734671
 21
162.9207899183
 31
0.0
  0
LINE
  5
DB
330
75
100
AcDbEntity
  8
H739
  6
Continuous
 62
     7
100
AcDbLine
 10
252.825734671
 20
162.9207899183
 30
0.0
 11
262.825734671
 21
162.9207899183
 31
0.0
  0
LINE
  5
DC
330
75
100
AcDbEntity
  8
H739
  6
Continuous
 62
     7
100
AcDbLine
 10
262.825734671
 20
162.9207899183
 30
0.0
 11
262.825734671
 21
165.5255125833
 31
0.0
  0
LINE
  5
DD
330
75
100
AcDbEntity
  8
H739
  6
Continuous
 62
     7
100
AcDbLine
 10
262.825734671
 20
165.5255125833
 30
0.0
 11
252.825734671
 21
165.5255125833
 31
0.0
  0
LINE
  5
DE
330
75
100
AcDbEntity
  8
H739
  6
Continuous
 62
     7
100
AcDbLine
 10
212.9324769949
 20
162.3725376968
 30
0.0
 11
212.9324769949
 21
159.7678150318
 31
0.0
  0
LINE
  5
DF
330
75
100
AcDbEntity
  8
H739
  6
Continuous
 62
     7
100
AcDbLine
 10
212.9324769949
 20
159.7678150318
 30
0.0
 11
222.9324769949
 21
159.7678150318
 31
0.0
  0
LINE
  5
E0
330
75
100
AcDbEntity
  8
H739
  6
Continuous
 62
     7
100
AcDbLine
 10
222.9324769949
 20
159.7678150318
 30
0.0
 11
222.9324769949
 21
162.3725376968
 31
0.0
  0
LINE
  5
E1
330
75
100
AcDbEntity
  8
H739
  6
Continuous
 62
     7
100
AcDbLine
 10
222.9324769949
 20
162.3725376968
 30
0.0
 11
212.9324769949
 21
162.3725376968
 31
0.0
  0
LINE
  5
E2
330
75
100
AcDbEntity
  8
H739
  6
Continuous
 62
     7
100
AcDbLine
 10
226.190092107
 20
162.3725376968
 30
0.0
 11
226.190092107
 21
159.7678150318
 31
0.0
  0
LINE
  5
E3
330
75
100
AcDbEntity
  8
H739
  6
Continuous
 62
     7
100
AcDbLine
 10
226.190092107
 20
159.7678150318
 30
0.0
 11
236.190092107
 21
159.7678150318
 31
0.0
  0
LINE
  5
E4
330
75
100
AcDbEntity
  8
H739
  6
Continuous
 62
     7
100
AcDbLine
 10
236.190092107
 20
159.7678150318
 30
0.0
 11
236.190092107
 21
162.3725376968
 31
0.0
  0
LINE
  5
E5
330
75
100
AcDbEntity
  8
H739
  6
Continuous
 62
     7
100
AcDbLine
 10
236.190092107
 20
162.3725376968
 30
0.0
 11
226.190092107
 21
162.3725376968
 31
0.0
  0
LINE
  5
E6
330
75
100
AcDbEntity
  8
H739
  6
Continuous
 62
     7
100
AcDbLine
 10
239.5190177269
 20
162.3725376968
 30
0.0
 11
239.5190177269
 21
159.7678150318
 31
0.0
  0
LINE
  5
E7
330
75
100
AcDbEntity
  8
H739
  6
Continuous
 62
     7
100
AcDbLine
 10
239.5190177269
 20
159.7678150318
 30
0.0
 11
249.5190177269
 21
159.7678150318
 31
0.0
  0
LINE
  5
E8
330
75
100
AcDbEntity
  8
H739
  6
Continuous
 62
     7
100
AcDbLine
 10
249.5190177269
 20
159.7678150318
 30
0.0
 11
249.5190177269
 21
162.3725376968
 31
0.0
  0
LINE
  5
E9
330
75
100
AcDbEntity
  8
H739
  6
Continuous
 62
     7
100
AcDbLine
 10
249.5190177269
 20
162.3725376968
 30
0.0
 11
239.5190177269
 21
162.3725376968
 31
0.0
  0
LINE
  5
EA
330
75
100
AcDbEntity
  8
H739
  6
Continuous
 62
     7
100
AcDbLine
 10
252.8479433467
 20
162.3725376968
 30
0.0
 11
252.8479433467
 21
159.7678150318
 31
0.0
  0
LINE
  5
EB
330
75
100
AcDbEntity
  8
H739
  6
Continuous
 62
     7
100
AcDbLine
 10
252.8479433467
 20
159.7678150318
 30
0.0
 11
262.8479433467
 21
159.7678150318
 31
0.0
  0
LINE
  5
EC
330
75
100
AcDbEntity
  8
H739
  6
Continuous
 62
     7
100
AcDbLine
 10
262.8479433467
 20
159.7678150318
 30
0.0
 11
262.8479433467
 21
162.3725376968
 31
0.0
  0
LINE
  5
ED
330
75
100
AcDbEntity
  8
H739
  6
Continuous
 62
     7
100
AcDbLine
 10
262.8479433467
 20
162.3725376968
 30
0.0
 11
252.8479433467
 21
162.3725376968
 31
0.0
  0
LINE
  5
EE
330
75
100
AcDbEntity
  8
H739
  6
Continuous
 62
     7
100
AcDbLine
 10
212.9324769949
 20
159.3259699552
 30
0.0
 11
212.9324769949
 21
156.7212472902
 31
0.0
  0
LINE
  5
EF
330
75
100
AcDbEntity
  8
H739
  6
Continuous
 62
     7
100
AcDbLine
 10
212.9324769949
 20
156.7212472902
 30
0.0
 11
222.9324769949
 21
156.7212472902
 31
0.0
  0
LINE
  5
F0
330
75
100
AcDbEntity
  8
H739
  6
Continuous
 62
     7
100
AcDbLine
 10
222.9324769949
 20
156.7212472902
 30
0.0
 11
222.9324769949
 21
159.3259699552
 31
0.0
  0
LINE
  5
F1
330
75
100
AcDbEntity
  8
H739
  6
Continuous
 62
     7
100
AcDbLine
 10
222.9324769949
 20
159.3259699552
 30
0.0
 11
212.9324769949
 21
159.3259699552
 31
0.0
  0
LINE
  5
F2
330
75
100
AcDbEntity
  8
H739
  6
Continuous
 62
     7
100
AcDbLine
 10
226.190092107
 20
159.3259699552
 30
0.0
 11
226.190092107
 21
156.7212472902
 31
0.0
  0
LINE
  5
F3
330
75
100
AcDbEntity
  8
H739
  6
Continuous
 62
     7
100
AcDbLine
 10
226.190092107
 20
156.7212472902
 30
0.0
 11
236.190092107
 21
156.7212472902
 31
0.0
  0
LINE
  5
F4
330
75
100
AcDbEntity
  8
H739
  6
Continuous
 62
     7
100
AcDbLine
 10
236.190092107
 20
156.7212472902
 30
0.0
 11
236.190092107
 21
159.3259699552
 31
0.0
  0
LINE
  5
F5
330
75
100
AcDbEntity
  8
H739
  6
Continuous
 62
     7
100
AcDbLine
 10
236.190092107
 20
159.3259699552
 30
0.0
 11
226.190092107
 21
159.3259699552
 31
0.0
  0
LINE
  5
F6
330
75
100
AcDbEntity
  8
H739
  6
Continuous
 62
     7
100
AcDbLine
 10
239.5190177269
 20
159.3259699552
 30
0.0
 11
239.5190177269
 21
156.7212472902
 31
0.0
  0
LINE
  5
F7
330
75
100
AcDbEntity
  8
H739
  6
Continuous
 62
     7
100
AcDbLine
 10
239.5190177269
 20
156.7212472902
 30
0.0
 11
249.5190177269
 21
156.7212472902
 31
0.0
  0
LINE
  5
F8
330
75
100
AcDbEntity
  8
H739
  6
Continuous
 62
     7
100
AcDbLine
 10
249.5190177269
 20
156.7212472902
 30
0.0
 11
249.5190177269
 21
159.3259699552
 31
0.0
  0
LINE
  5
F9
330
75
100
AcDbEntity
  8
H739
  6
Continuous
 62
     7
100
AcDbLine
 10
249.5190177269
 20
159.3259699552
 30
0.0
 11
239.5190177269
 21
159.3259699552
 31
0.0
  0
LINE
  5
FA
330
75
100
AcDbEntity
  8
H739
  6
Continuous
 62
     7
100
AcDbLine
 10
252.8479433467
 20
159.3259699552
 30
0.0
 11
252.8479433467
 21
156.7212472902
 31
0.0
  0
LINE
  5
FB
330
75
100
AcDbEntity
  8
H739
  6
Continuous
 62
     7
100
AcDbLine
 10
252.8479433467
 20
156.7212472902
 30
0.0
 11
262.8479433467
 21
156.7212472902
 31
0.0
  0
LINE
  5
FC
330
75
100
AcDbEntity
  8
H739
  6
Continuous
 62
     7
100
AcDbLine
 10
262.8479433467
 20
156.7212472902
 30
0.0
 11
262.8479433467
 21
159.3259699552
 31
0.0
  0
LINE
  5
FD
330
75
100
AcDbEntity
  8
H739
  6
Continuous
 62
     7
100
AcDbLine
 10
262.8479433467
 20
159.3259699552
 30
0.0
 11
252.8479433467
 21
159.3259699552
 31
0.0
  0
LINE
  5
FE
330
75
100
AcDbEntity
  8
H739
  6
Continuous
 62
     7
100
AcDbLine
 10
212.9102683192
 20
168.7836198567
 30
0.0
 11
212.9102683192
 21
166.1788971917
 31
0.0
  0
LINE
  5
FF
330
75
100
AcDbEntity
  8
H739
  6
Continuous
 62
     7
100
AcDbLine
 10
212.9102683192
 20
166.1788971917
 30
0.0
 11
222.9102683192
 21
166.1788971917
 31
0.0
  0
LINE
  5
100
330
75
100
AcDbEntity
  8
H739
  6
Continuous
 62
     7
100
AcDbLine
 10
222.9102683192
 20
166.1788971917
 30
0.0
 11
222.9102683192
 21
168.7836198567
 31
0.0
  0
LINE
  5
101
330
75
100
AcDbEntity
  8
H739
  6
Continuous
 62
     7
100
AcDbLine
 10
222.9102683192
 20
168.7836198567
 30
0.0
 11
212.9102683192
 21
168.7836198567
 31
0.0
  0
LINE
  5
102
330
75
100
AcDbEntity
  8
H739
  6
Continuous
 62
     7
100
AcDbLine
 10
188.0143085265
 20
154.0193836544
 30
0.0
 11
187.9873593757
 21
153.9287127187
 31
0.0
  0
ELLIPSE
  5
103
330
75
100
AcDbEntity
  8
H739
  6
Continuous
 62
     7
100
AcDbEllipse
 10
188.8301898123
 20
156.7644319222
 30
0.0
 11
-3.199999999999994
 21
0.0
 31
0.0
210
0.0
220
0.0
230
1.0
 40
0.1736481777
 41
3.141592653589793
 42
4.66082314681563
  0
ELLIPSE
  5
104
330
75
100
AcDbEntity
  8
H739
  6
Continuous
 62
     7
100
AcDbEllipse
 10
188.8301898123
 20
156.7644319222
 30
0.0
 11
3.199999999999994
 21
0.0
 31
0.0
210
0.0
220
0.0
230
1.0
 40
0.1736481777
 41
1.519230493225828
 42
3.141592653589793
  0
ELLIPSE
  5
105
330
75
100
AcDbEntity
  8
H739
  6
Continuous
 62
     7
100
AcDbEllipse
 10
188.8301898123
 20
155.7796241692
 30
0.0
 11
3.200000000000008
 21
0.0
 31
0.0
210
0.0
220
0.0
230
1.0
 40
0.1736481777
 41
6.282534453094479
 42
6.283185307179586
  0
ELLIPSE
  5
106
330
75
100
AcDbEntity
  8
H739
  6
Continuous
 62
     7
100
AcDbEllipse
 10
188.8301898123
 20
155.7796241692
 30
0.0
 11
3.200000000000008
 21
0.0
 31
0.0
210
0.0
220
0.0
230
1.0
 40
0.1736481777
 41
0.0
 42
3.142181878172598
  0
ELLIPSE
  5
107
330
75
100
AcDbEntity
  8
H739
  6
Continuous
 62
     7
100
AcDbEllipse
 10
188.8301898123
 20
154.3024125397
 30
0.0
 11
1.700000000000007
 21
0.0
 31
0.0
210
0.0
220
0.0
230
1.0
 40
0.1736481777
 41
0.0
 42
6.283185307179586
  0
LINE
  5
108
330
75
100
AcDbEntity
  8
H739
  6
Continuous
 62
     7
100
AcDbLine
 10
189.0830176936
 20
154.1142605089
 30
0.0
 11
188.5396599604
 21
154.1142605089
 31
0.0
  0
LINE
  5
109
330
75
100
AcDbEntity
  8
H739
  6
Continuous
 62
     7
100
AcDbLine
 10
188.5396599604
 20
154.1142605089
 30
0.0
 11
188.5396599604
 21
154.2658276909
 31
0.0
  0
LINE
  5
10A
330
75
100
AcDbEntity
  8
H739
  6
Continuous
 62
     7
100
AcDbLine
 10
188.5396599604
 20
154.2658276909
 30
0.0
 11
187.6981419012
 21
154.2658276909
 31
0.0
  0
LINE
  5
10B
330
75
100
AcDbEntity
  8
H739
  6
Continuous
 62
     7
100
AcDbLine
 10
188.5396599604
 20
154.3601807711
 30
0.0
 11
188.5396599604
 21
154.2658276909
 31
0.0
  0
LINE
  5
10C
330
75
100
AcDbEntity
  8
H739
  6
Continuous
 62
     7
100
AcDbLine
 10
187.6981419012
 20
154.2658276909
 30
0.0
 11
187.6981419012
 21
154.3601807711
 31
0.0
  0
LINE
  5
10D
330
75
100
AcDbEntity
  8
H739
  6
Continuous
 62
     7
100
AcDbLine
 10
187.6981419012
 20
154.3601807711
 30
0.0
 11
188.5396599604
 21
154.3601807711
 31
0.0
  0
LINE
  5
10E
330
75
100
AcDbEntity
  8
H739
  6
Continuous
 62
     7
100
AcDbLine
 10
188.5396599604
 20
154.3601807711
 30
0.0
 11
188.5396599604
 21
154.5047216599
 31
0.0
  0
LINE
  5
10F
330
75
100
AcDbEntity
  8
H739
  6
Continuous
 62
     7
100
AcDbLine
 10
188.5396599604
 20
154.5047216599
 30
0.0
 11
189.0830176936
 21
154.5047216599
 31
0.0
  0
LINE
  5
110
330
75
100
AcDbEntity
  8
H739
  6
Continuous
 62
     7
100
AcDbLine
 10
189.0830176936
 20
154.5047216599
 30
0.0
 11
189.0830176936
 21
154.3601807711
 31
0.0
  0
LINE
  5
111
330
75
100
AcDbEntity
  8
H739
  6
Continuous
 62
     7
100
AcDbLine
 10
189.0830176936
 20
154.3601807711
 30
0.0
 11
189.9467180524
 21
154.3601807711
 31
0.0
  0
LINE
  5
112
330
75
100
AcDbEntity
  8
H739
  6
Continuous
 62
     7
100
AcDbLine
 10
189.9467180524
 20
154.3601807711
 30
0.0
 11
189.9467180524
 21
154.2658276909
 31
0.0
  0
LINE
  5
113
330
75
100
AcDbEntity
  8
H739
  6
Continuous
 62
     7
100
AcDbLine
 10
189.9467180524
 20
154.2658276909
 30
0.0
 11
189.0830176936
 21
154.2658276909
 31
0.0
  0
LINE
  5
114
330
75
100
AcDbEntity
  8
H739
  6
Continuous
 62
     7
100
AcDbLine
 10
189.0830176936
 20
154.2658276909
 30
0.0
 11
189.0830176936
 21
154.1142605089
 31
0.0
  0
LINE
  5
115
330
75
100
AcDbEntity
  8
H739
  6
Continuous
 62
     7
100
AcDbLine
 10
189.0830176936
 20
154.3601807711
 30
0.0
 11
189.0830176936
 21
154.2658276909
 31
0.0
  0
LINE
  5
116
330
75
100
AcDbEntity
  8
H739
  6
Continuous
 62
     7
100
AcDbLine
 10
367.288718165
 20
157.3193674758
 30
0.0
 11
363.0945946426
 21
171.4305766807
 31
0.0
  0
ELLIPSE
  5
117
330
75
100
AcDbEntity
  8
H739
  6
Continuous
 62
     7
100
AcDbEllipse
 10
367.453655714
 20
156.7644319222
 30
0.0
 11
3.200000000000008
 21
0.0
 31
0.0
210
0.0
220
0.0
230
1.0
 40
0.1736481777
 41
1.622362160363948
 42
3.141592653589793
  0
ELLIPSE
  5
118
330
75
100
AcDbEntity
  8
H739
  6
Continuous
 62
     7
100
AcDbEllipse
 10
367.453655714
 20
156.7644319222
 30
0.0
 11
-3.200000000000008
 21
0.0
 31
0.0
210
0.0
220
0.0
230
1.0
 40
0.1736481777
 41
3.141592653589793
 42
4.763954813953741
  0
ELLIPSE
  5
119
330
75
100
AcDbEntity
  8
H739
  6
Continuous
 62
     7
100
AcDbEllipse
 10
367.453655714
 20
155.7796241692
 30
0.0
 11
3.200000000000008
 21
0.0
 31
0.0
210
0.0
220
0.0
230
1.0
 40
0.1736481777
 41
6.282534453094479
 42
6.283185307179586
  0
ELLIPSE
  5
11A
330
75
100
AcDbEntity
  8
H739
  6
Continuous
 62
     7
100
AcDbEllipse
 10
367.453655714
 20
155.7796241692
 30
0.0
 11
3.200000000000008
 21
0.0
 31
0.0
210
0.0
220
0.0
230
1.0
 40
0.1736481777
 41
0.0
 42
3.142181878187671
  0
ELLIPSE
  5
11B
330
75
100
AcDbEntity
  8
H739
  6
Continuous
 62
     7
100
AcDbEllipse
 10
367.453655714
 20
154.3024125397
 30
0.0
 11
1.700000000000007
 21
0.0
 31
0.0
210
0.0
220
0.0
230
1.0
 40
0.1736481777
 41
0.0
 42
6.283185307179586
  0
LINE
  5
11C
330
75
100
AcDbEntity
  8
H739
  6
Continuous
 62
     7
100
AcDbLine
 10
367.7441855658
 20
154.2658276909
 30
0.0
 11
367.7441855658
 21
154.1142605089
 31
0.0
  0
LINE
  5
11D
330
75
100
AcDbEntity
  8
H739
  6
Continuous
 62
     7
100
AcDbLine
 10
367.7441855658
 20
154.3601807711
 30
0.0
 11
367.7441855658
 21
154.2658276909
 31
0.0
  0
LINE
  5
11E
330
75
100
AcDbEntity
  8
H739
  6
Continuous
 62
     7
100
AcDbLine
 10
367.7441855658
 20
154.1142605089
 30
0.0
 11
367.2008278327
 21
154.1142605089
 31
0.0
  0
LINE
  5
11F
330
75
100
AcDbEntity
  8
H739
  6
Continuous
 62
     7
100
AcDbLine
 10
367.2008278327
 20
154.1142605089
 30
0.0
 11
367.2008278327
 21
154.2658276909
 31
0.0
  0
LINE
  5
120
330
75
100
AcDbEntity
  8
H739
  6
Continuous
 62
     7
100
AcDbLine
 10
367.2008278327
 20
154.2658276909
 30
0.0
 11
366.3371274739
 21
154.2658276909
 31
0.0
  0
LINE
  5
121
330
75
100
AcDbEntity
  8
H739
  6
Continuous
 62
     7
100
AcDbLine
 10
367.2008278327
 20
154.3601807711
 30
0.0
 11
367.2008278327
 21
154.2658276909
 31
0.0
  0
LINE
  5
122
330
75
100
AcDbEntity
  8
H739
  6
Continuous
 62
     7
100
AcDbLine
 10
366.3371274739
 20
154.2658276909
 30
0.0
 11
366.3371274739
 21
154.3601807711
 31
0.0
  0
LINE
  5
123
330
75
100
AcDbEntity
  8
H739
  6
Continuous
 62
     7
100
AcDbLine
 10
366.3371274739
 20
154.3601807711
 30
0.0
 11
367.2008278327
 21
154.3601807711
 31
0.0
  0
LINE
  5
124
330
75
100
AcDbEntity
  8
H739
  6
Continuous
 62
     7
100
AcDbLine
 10
367.2008278327
 20
154.3601807711
 30
0.0
 11
367.2008278327
 21
154.5047216599
 31
0.0
  0
LINE
  5
125
330
75
100
AcDbEntity
  8
H739
  6
Continuous
 62
     7
100
AcDbLine
 10
367.2008278327
 20
154.5047216599
 30
0.0
 11
367.7441855658
 21
154.5047216599
 31
0.0
  0
LINE
  5
126
330
75
100
AcDbEntity
  8
H739
  6
Continuous
 62
     7
100
AcDbLine
 10
367.7441855658
 20
154.5047216599
 30
0.0
 11
367.7441855658
 21
154.3601807711
 31
0.0
  0
LINE
  5
127
330
75
100
AcDbEntity
  8
H739
  6
Continuous
 62
     7
100
AcDbLine
 10
367.7441855658
 20
154.3601807711
 30
0.0
 11
368.585703625
 21
154.3601807711
 31
0.0
  0
LINE
  5
128
330
75
100
AcDbEntity
  8
H739
  6
Continuous
 62
     7
100
AcDbLine
 10
368.585703625
 20
154.3601807711
 30
0.0
 11
368.585703625
 21
154.2658276909
 31
0.0
  0
LINE
  5
129
330
75
100
AcDbEntity
  8
H739
  6
Continuous
 62
     7
100
AcDbLine
 10
368.585703625
 20
154.2658276909
 30
0.0
 11
367.7441855658
 21
154.2658276909
 31
0.0
  0
LINE
  5
12A
330
75
100
AcDbEntity
  8
H739
  6
Continuous
 62
     7
100
AcDbLine
 10
185.6301898123
 20
156.7644319222
 30
0.0
 11
185.6301898123
 21
155.7796241692
 31
0.0
  0
LINE
  5
12B
330
75
100
AcDbEntity
  8
H739
  6
Continuous
 62
     7
100
AcDbLine
 10
192.0301898123
 20
155.7796241692
 30
0.0
 11
192.0301898123
 21
156.7644319222
 31
0.0
  0
SPLINE
  5
12C
330
75
100
AcDbEntity
  8
H739
  6
Continuous
 62
     7
100
AcDbSpline
210
0.0
220
0.0
230
1.0
 70
     8
 71
     3
 72
    17
 73
    13
 74
     0
 42
0.000000001
 43
0.0000000001
 40
0.0
 40
0.0
 40
0.0
 40
0.0
 40
0.0482049139744894
 40
0.1528544844058372
 40
0.2439249775677834
 40
0.3278378590576093
 40
0.4096855823648242
 40
0.4970537769725598
 40
0.6065526630027042
 40
0.7506371212708737
 40
0.880938860832766
 40
1.0
 40
1.0
 40
1.0
 40
1.0
 10
185.6484015146736
 20
155.7797039777226
 30
0.0
 10
185.6434342110859
 20
155.7012693178379
 30
0.0
 10
185.6320769496662
 20
155.488074744217
 30
0.0
 10
185.7545054920031
 20
155.1276820442311
 30
0.0
 10
185.971685561111
 20
154.7812512366944
 30
0.0
 10
186.239838525996
 20
154.5241737869545
 30
0.0
 10
186.5316190337748
 20
154.3417696002467
 30
0.0
 10
186.8499388456095
 20
154.2112827159253
 30
0.0
 10
187.2345936520241
 20
154.1106800258804
 30
0.0
 10
187.7111450178236
 20
154.0375097103642
 30
0.0
 10
188.2823142650591
 20
153.9922595187099
 30
0.0
 10
188.633139116078
 20
153.986741322439
 30
0.0
 10
188.8301898122567
 20
153.9844222671452
 30
0.0
  0
SPLINE
  5
12D
330
75
100
AcDbEntity
  8
H739
  6
Continuous
 62
     7
100
AcDbSpline
210
0.0
220
0.0
230
1.0
 70
     8
 71
     3
 72
    16
 73
    12
 74
     0
 42
0.000000001
 43
0.0000000001
 40
0.0
 40
0.0
 40
0.0
 40
0.0
 40
0.0695538840867078
 40
0.2040610689808615
 40
0.3438879153881499
 40
0.5045034693208515
 40
0.6280571424121557
 40
0.7190327327148837
 40
0.8162811756271595
 40
0.9201601526324523
 40
1.0
 40
1.0
 40
1.0
 40
1.0
 10
188.8301898122567
 20
153.9844222671452
 30
0.0
 10
188.9452810320975
 20
153.9852162446857
 30
0.0
 10
189.2327456976696
 20
153.9879842831164
 30
0.0
 10
189.7500502108356
 20
154.0171801550115
 30
0.0
 10
190.3171723895048
 20
154.0886318511404
 30
0.0
 10
190.7947738386773
 20
154.1973256784725
 30
0.0
 10
191.2274181243732
 20
154.3863138187867
 30
0.0
 10
191.5771490075859
 20
154.6556645676172
 30
0.0
 10
191.8384359307667
 20
154.9915652404536
 30
0.0
 10
192.006846072534
 20
155.3898029126846
 30
0.0
 10
192.0145137505265
 20
155.6453603171118
 30
0.0
 10
192.0162909928839
 20
155.7753931001415
 30
0.0
  0
LINE
  5
12E
330
75
100
AcDbEntity
  8
H739
  6
Continuous
 62
     7
100
AcDbLine
 10
364.253655714
 20
156.7644319222
 30
0.0
 11
364.253655714
 21
155.7796241692
 31
0.0
  0
LINE
  5
12F
330
75
100
AcDbEntity
  8
H739
  6
Continuous
 62
     7
100
AcDbLine
 10
370.653655714
 20
155.7796241692
 30
0.0
 11
370.653655714
 21
156.7644319222
 31
0.0
  0
SPLINE
  5
130
330
75
100
AcDbEntity
  8
H739
  6
Continuous
 62
     7
100
AcDbSpline
210
0.0
220
0.0
230
1.0
 70
     8
 71
     3
 72
    17
 73
    13
 74
     0
 42
0.000000001
 43
0.0000000001
 40
0.0
 40
0.0
 40
0.0
 40
0.0
 40
0.0482049139744894
 40
0.1528544844058372
 40
0.2439249775677834
 40
0.3278378590576093
 40
0.4096855823648242
 40
0.4970537769725598
 40
0.6065526630027042
 40
0.7506371212708737
 40
0.880938860832766
 40
1.0
 40
1.0
 40
1.0
 40
1.0
 10
364.271867416408
 20
155.7797039777226
 30
0.0
 10
364.2669001128204
 20
155.7012693178379
 30
0.0
 10
364.2555428514005
 20
155.488074744217
 30
0.0
 10
364.3779713937376
 20
155.1276820442311
 30
0.0
 10
364.5951514628454
 20
154.7812512366944
 30
0.0
 10
364.8633044277303
 20
154.5241737869545
 30
0.0
 10
365.1550849355094
 20
154.3417696002467
 30
0.0
 10
365.4734047473439
 20
154.2112827159253
 30
0.0
 10
365.8580595537584
 20
154.1106800258804
 30
0.0
 10
366.3346109195581
 20
154.0375097103642
 30
0.0
 10
366.9057801667936
 20
153.9922595187099
 30
0.0
 10
367.2566050178124
 20
153.986741322439
 30
0.0
 10
367.4536557139912
 20
153.9844222671452
 30
0.0
  0
SPLINE
  5
131
330
75
100
AcDbEntity
  8
H739
  6
Continuous
 62
     7
100
AcDbSpline
210
0.0
220
0.0
230
1.0
 70
     8
 71
     3
 72
    16
 73
    12
 74
     0
 42
0.000000001
 43
0.0000000001
 40
0.0
 40
0.0
 40
0.0
 40
0.0
 40
0.0695538840867078
 40
0.2040610689808615
 40
0.34388791538815
 40
0.5045034693208517
 40
0.6280571424121558
 40
0.7190327327148838
 40
0.8162811756271597
 40
0.9201601526324524
 40
1.0
 40
1.0
 40
1.0
 40
1.0
 10
367.4536557139912
 20
153.9844222671452
 30
0.0
 10
367.5687469338319
 20
153.9852162446857
 30
0.0
 10
367.856211599404
 20
153.9879842831164
 30
0.0
 10
368.37351611257
 20
154.0171801550114
 30
0.0
 10
368.9406382912391
 20
154.0886318511404
 30
0.0
 10
369.4182397404117
 20
154.1973256784725
 30
0.0
 10
369.8508840261078
 20
154.3863138187868
 30
0.0
 10
370.2006149093202
 20
154.6556645676171
 30
0.0
 10
370.4619018325012
 20
154.9915652404536
 30
0.0
 10
370.6303119742684
 20
155.3898029126846
 30
0.0
 10
370.637979652261
 20
155.6453603171118
 30
0.0
 10
370.6397568946184
 20
155.7753931001415
 30
0.0
  0
ENDBLK
  5
133
330
75
100
AcDbEntity
  8
0
100
AcDbBlockEnd
  0
BLOCK
  5
163
330
134
100
AcDbEntity
  8
0
100
AcDbBlockBegin
  2
SE1
 70
     0
 10
0.0
 20
0.0
 30
0.0
  3
SE1
  1
SE1
  0
LINE
  5
136
330
134
100
AcDbEntity
  8
H739
  6
Continuous
 62
     7
100
AcDbLine
 10
464.941301694
 20
174.0526801335
 30
0.0
 11
464.941301694
 21
388.9713450835
 31
0.0
  0
LINE
  5
137
330
134
100
AcDbEntity
  8
H739
  6
Continuous
 62
     7
100
AcDbLine
 10
464.941301694
 20
174.0526801335
 30
0.0
 11
561.7730601625
 21
191.126731741
 31
0.0
  0
LINE
  5
138
330
134
100
AcDbEntity
  8
H739
  6
Continuous
 62
     7
100
AcDbLine
 10
464.941301694
 20
153.9287127187
 30
0.0
 11
464.941301694
 21
174.0526801335
 31
0.0
  0
LINE
  5
139
330
134
100
AcDbEntity
  8
H739
  6
Continuous
 62
     7
100
AcDbLine
 10
561.7730601625
 20
191.126731741
 30
0.0
 11
561.7730601625
 21
380.7614616925
 31
0.0
  0
ARC
  5
13A
330
134
100
AcDbEntity
  8
H739
  6
Continuous
 62
     7
100
AcDbCircle
 10
556.7730601625
 20
380.7614616925
 30
0.0
 40
4.999999999999977
100
AcDbArc
 50
0.0
 51
88.0
  0
LINE
  5
13B
330
134
100
AcDbEntity
  8
H739
  6
Continuous
 62
     7
100
AcDbLine
 10
556.947557646
 20
385.7584158276
 30
0.0
 11
464.941301694
 21
388.9713450835
 31
0.0
  0
LINE
  5
13C
330
134
100
AcDbEntity
  8
H739
  6
Continuous
 62
     7
100
AcDbLine
 10
464.941301694
 20
388.9713450835
 30
0.0
 11
464.941301694
 21
423.9287127187
 31
0.0
  0
LINE
  5
13D
330
134
100
AcDbEntity
  8
H739
  6
Continuous
 62
     7
100
AcDbLine
 10
464.941301694
 20
423.9287127187
 30
0.0
 11
556.3372815621
 21
420.7370947733
 31
0.0
  0
ARC
  5
13E
330
134
100
AcDbEntity
  8
H739
  6
Continuous
 62
     7
100
AcDbCircle
 10
554.941301694
 20
380.7614616925
 30
0.0
 40
40.00000000000002
100
AcDbArc
 50
0.0
 51
88.0
  0
LINE
  5
13F
330
134
100
AcDbEntity
  8
H739
  6
Continuous
 62
     7
100
AcDbLine
 10
594.941301694
 20
380.7614616925
 30
0.0
 11
594.941301694
 21
291.501891124
 31
0.0
  0
LINE
  5
140
330
134
100
AcDbEntity
  8
H739
  6
Continuous
 62
     7
100
AcDbLine
 10
561.7730601625
 20
380.7614616925
 30
0.0
 11
594.941301694
 21
380.7614616925
 31
0.0
  0
ELLIPSE
  5
141
330
134
100
AcDbEntity
  8
H739
  6
Continuous
 62
     7
100
AcDbEllipse
 10
555.1157991775
 20
385.7584158276
 30
0.0
 11
-1.221482384587566
 21
-34.97867894566836
 31
0.0
210
0.0
220
0.0
230
1.0
 40
0.0523041618
 41
1.572622826342784
 42
3.141592653589793
  0
LINE
  5
142
330
134
100
AcDbEntity
  8
H739
  6
Continuous
 62
     7
100
AcDbLine
 10
617.8196371402
 20
191.0395541426
 30
0.0
 11
594.9741808285
 21
187.0112838082
 31
0.0
  0
ARC
  5
143
330
134
100
AcDbEntity
  8
H739
  6
Continuous
 62
     7
100
AcDbCircle
 10
586.7720667888
 20
263.904688535
 30
0.0
 40
77.32962152494369
100
AcDbArc
 50
259.3970112143
 51
276.0886393068
  0
ARC
  5
144
330
134
100
AcDbEntity
  8
H739
  6
Continuous
 62
     7
100
AcDbCircle
 10
392.2503419683
 20
282.6738671419
 30
0.0
 40
203.6871990442129
100
AcDbArc
 50
332.269470513
 51
2.0307588542
  0
LINE
  5
145
330
134
100
AcDbEntity
  8
H739
  6
Continuous
 62
     7
100
AcDbLine
 10
595.8096147472
 20
289.8917283359
 30
0.0
 11
595.0932241638
 21
319.9274468806
 31
0.0
  0
ARC
  5
146
330
134
100
AcDbEntity
  8
H739
  6
Continuous
 62
     7
100
AcDbCircle
 10
1903.9186612694
 20
2448.4634430368
 30
0.0
 40
2626.199505508781
100
AcDbArc
 50
239.2655362892
 51
239.4027710079
  0
ARC
  5
147
330
134
100
AcDbEntity
  8
H739
  6
Continuous
 62
     7
100
AcDbCircle
 10
569.4152290268
 20
191.6151404323
 30
0.0
 40
4.317979959470106
100
AcDbArc
 50
238.881776367
 51
300.5115519598
  0
ARC
  5
148
330
134
100
AcDbEntity
  8
H739
  6
Continuous
 62
     7
100
AcDbCircle
 10
364.7620467182
 20
288.9106978557
 30
0.0
 40
230.1938394131377
100
AcDbArc
 50
333.970842501
 51
0.6449676241
  0
LINE
  5
149
330
134
100
AcDbEntity
  8
H739
  6
Continuous
 62
     7
100
AcDbLine
 10
590.5473360931
 20
176.0764455231
 30
0.0
 11
484.1748492677
 21
157.3201060907
 31
0.0
  0
SPLINE
  5
14A
330
134
100
AcDbEntity
  8
H739
  6
Continuous
 62
     7
100
AcDbSpline
210
0.0
220
0.0
230
1.0
 70
     8
 71
     3
 72
    12
 73
     8
 74
     0
 42
0.000000001
 43
0.0000000001
 40
0.0
 40
0.0
 40
0.0
 40
0.0
 40
0.2500000000000001
 40
0.2500000000000001
 40
0.5000000000000002
 40
0.5000000000000002
 40
1.0
 40
1.0
 40
1.0
 40
1.0
 10
590.5473360930773
 20
176.0764455230918
 30
0.0
 10
589.3328772283404
 20
175.8623036582781
 30
0.0
 10
588.0065583311895
 20
175.9053144834766
 30
0.0
 10
585.1212284495471
 20
176.3848444233811
 30
0.0
 10
583.5497267902916
 20
176.8299620457371
 30
0.0
 10
578.6425667639301
 20
178.5941570997956
 30
0.0
 10
575.0399363713699
 20
180.370039034167
 30
0.0
 10
571.2057285666193
 20
182.3446244092332
 30
0.0
  0
LINE
  5
14B
330
134
100
AcDbEntity
  8
H739
  6
Continuous
 62
     7
100
AcDbLine
 10
590.5473360931
 20
176.0764455231
 30
0.0
 11
609.7080413868
 21
179.4549948358
 31
0.0
  0
ARC
  5
14C
330
134
100
AcDbEntity
  8
H739
  6
Continuous
 62
     7
100
AcDbCircle
 10
574.87994998
 20
189.2339830754
 30
0.0
 40
7.807891253432498
100
AcDbArc
 50
189.6994819602
 51
241.9281813265
  0
ELLIPSE
  5
14D
330
134
100
AcDbEntity
  8
H739
  6
Continuous
 62
     7
100
AcDbEllipse
 10
588.8108543164
 20
185.9245230532
 30
0.0
 11
1.736481776669296
 21
-9.848077530122055
 31
0.0
210
0.0
220
0.0
230
1.0
 40
0.6258405758
 41
0.0
 42
1.5707963267949
  0
ELLIPSE
  5
14E
330
134
100
AcDbEntity
  8
H739
  6
Continuous
 62
     7
100
AcDbEllipse
 10
569.8643056962
 20
187.4230484118
 30
0.0
 11
-1.83766413615899
 21
-9.829699411613296
 31
0.0
210
0.0
220
0.0
230
1.0
 40
0.2558213353
 41
1.076351586045965
 42
1.666604093288594
  0
ARC
  5
14F
330
134
100
AcDbEntity
  8
H739
  6
Continuous
 62
     7
100
AcDbCircle
 10
572.0744876501
 20
190.4084820057
 30
0.0
 40
2.556408435583143
100
AcDbArc
 50
259.4749337414
 51
280.5651393899
  0
ELLIPSE
  5
150
330
134
100
AcDbEntity
  8
H739
  6
Continuous
 62
     7
100
AcDbEllipse
 10
604.941301694
 20
291.501891124
 30
0.0
 11
-9.999999999995152
 21
4.952635523913784E-13
 31
0.0
210
0.0
220
0.0
230
1.0
 40
0.3950526577
 41
0.0
 42
0.4198043659240561
  0
LINE
  5
151
330
134
100
AcDbEntity
  8
H739
  6
Continuous
 62
     7
100
AcDbLine
 10
495.0064788173
 20
156.1837347897
 30
0.0
 11
504.8545563475
 21
157.9202165664
 31
0.0
  0
LINE
  5
152
330
134
100
AcDbEntity
  8
H739
  6
Continuous
 62
     7
100
AcDbLine
 10
504.8545563475
 20
157.9202165664
 30
0.0
 11
504.3336118145
 21
160.8746398254
 31
0.0
  0
LINE
  5
153
330
134
100
AcDbEntity
  8
H739
  6
Continuous
 62
     7
100
AcDbLine
 10
504.8545563475
 20
157.9202165664
 30
0.0
 11
563.9430215282
 21
168.3391072264
 31
0.0
  0
LINE
  5
154
330
134
100
AcDbEntity
  8
H739
  6
Continuous
 62
     7
100
AcDbLine
 10
563.9430215282
 20
168.3391072264
 30
0.0
 11
563.4220769952
 21
171.2935304854
 31
0.0
  0
LINE
  5
155
330
134
100
AcDbEntity
  8
H739
  6
Continuous
 62
     7
100
AcDbLine
 10
563.9430215282
 20
168.3391072264
 30
0.0
 11
573.7910990583
 21
170.0755890031
 31
0.0
  0
LINE
  5
156
330
134
100
AcDbEntity
  8
H739
  6
Continuous
 62
     7
100
AcDbLine
 10
573.7910990583
 20
170.0755890031
 30
0.0
 11
573.2701545253
 21
173.0300122621
 31
0.0
  0
LINE
  5
157
330
134
100
AcDbEntity
  8
H739
  6
Continuous
 62
     7
100
AcDbLine
 10
495.0064788173
 20
156.1837347897
 30
0.0
 11
494.4855342843
 21
159.1381580487
 31
0.0
  0
LINE
  5
158
330
134
100
AcDbEntity
  8
H739
  6
Continuous
 62
     7
100
AcDbLine
 10
477.8762685417
 20
156.2094963686
 30
0.0
 11
464.941301694
 21
153.9287127187
 31
0.0
  0
LINE
  5
159
330
134
100
AcDbEntity
  8
H739
  6
Continuous
 62
     7
100
AcDbLine
 10
477.8762685417
 20
156.2094963686
 30
0.0
 11
484.1748492677
 21
157.3201060907
 31
0.0
  0
LINE
  5
15A
330
134
100
AcDbEntity
  8
H739
  6
Continuous
 62
     7
100
AcDbLine
 10
484.3484974454
 20
156.3352983377
 30
0.0
 11
478.0457278261
 21
155.2239500006
 31
0.0
  0
LINE
  5
15B
330
134
100
AcDbEntity
  8
H739
  6
Continuous
 62
     7
100
AcDbLine
 10
479.7834117221
 20
154.0072106376
 30
0.0
 11
483.1317580824
 21
154.5976144417
 31
0.0
  0
LINE
  5
15C
330
134
100
AcDbEntity
  8
H739
  6
Continuous
 62
     7
100
AcDbLine
 10
617.8196371402
 20
191.0395541426
 30
0.0
 11
595.0932241638
 21
319.9274468806
 31
0.0
  0
ARC
  5
15D
330
134
100
AcDbEntity
  8
H739
  6
Continuous
 62
     7
100
AcDbCircle
 10
607.9715596101
 20
189.3030723659
 30
0.0
 40
9.999999999999986
100
AcDbArc
 50
280.0
 51
10.0
  0
ARC
  5
15E
330
134
100
AcDbEntity
  8
H739
  6
Continuous
 62
     7
100
AcDbCircle
 10
604.941301694
 20
321.6639286572
 30
0.0
 40
10.00000000000001
100
AcDbArc
 50
180.0
 51
190.2359186926
  0
LINE
  5
15F
330
134
100
AcDbEntity
  8
H739
  6
Continuous
 62
     7
100
AcDbLine
 10
477.8720796484
 20
156.2087577537
 30
0.0
 11
478.0457278261
 21
155.2239500006
 31
0.0
  0
LINE
  5
160
330
134
100
AcDbEntity
  8
H739
  6
Continuous
 62
     7
100
AcDbLine
 10
484.3484974454
 20
156.3352983377
 30
0.0
 11
484.1748492677
 21
157.3201060907
 31
0.0
  0
ARC
  5
161
330
134
100
AcDbEntity
  8
H739
  6
Continuous
 62
     7
100
AcDbCircle
 10
479.5229394556
 20
155.4844222671
 30
0.0
 40
1.499999999999997
100
AcDbArc
 50
190.0
 51
280.0
  0
ARC
  5
162
330
134
100
AcDbEntity
  8
H739
  6
Continuous
 62
     7
100
AcDbCircle
 10
482.8712858159
 20
156.0748260712
 30
0.0
 40
1.499999999999992
100
AcDbArc
 50
280.0
 51
10.0
  0
ENDBLK
  5
164
330
134
100
AcDbEntity
  8
0
100
AcDbBlockEnd
  0
BLOCK
  5
194
330
165
100
AcDbEntity
  8
0
100
AcDbBlockBegin
  2
SE2
 70
     0
 10
0.0
 20
0.0
 30
0.0
  3
SE2
  1
SE2
  0
LINE
  5
167
330
165
100
AcDbEntity
  8
H739
  6
Continuous
 62
     7
100
AcDbLine
 10
97.582286376
 20
174.0526801335
 30
0.0
 11
97.582286376
 21
153.9287127187
 31
0.0
  0
LINE
  5
168
330
165
100
AcDbEntity
  8
H739
  6
Continuous
 62
     7
100
AcDbLine
 10
97.582286376
 20
153.9287127187
 30
0.0
 11
84.6473195283
 21
156.2094963686
 31
0.0
  0
LINE
  5
169
330
165
100
AcDbEntity
  8
H739
  6
Continuous
 62
     7
100
AcDbLine
 10
6.1863065079
 20
420.7370947733
 30
0.0
 11
97.582286376
 21
423.9287127187
 31
0.0
  0
LINE
  5
16A
330
165
100
AcDbEntity
  8
H739
  6
Continuous
 62
     7
100
AcDbLine
 10
97.582286376
 20
388.9713450835
 30
0.0
 11
97.582286376
 21
174.0526801335
 31
0.0
  0
LINE
  5
16B
330
165
100
AcDbEntity
  8
H739
  6
Continuous
 62
     7
100
AcDbLine
 10
97.582286376
 20
423.9287127187
 30
0.0
 11
97.582286376
 21
388.9713450835
 31
0.0
  0
LINE
  5
16C
330
165
100
AcDbEntity
  8
H739
  6
Continuous
 62
     7
100
AcDbLine
 10
0.7505279075
 20
191.126731741
 30
0.0
 11
97.582286376
 21
174.0526801335
 31
0.0
  0
LINE
  5
16D
330
165
100
AcDbEntity
  8
H739
  6
Continuous
 62
     7
100
AcDbLine
 10
0.7505279075
 20
380.7614616925
 30
0.0
 11
0.7505279075
 21
191.126731741
 31
0.0
  0
ARC
  5
16E
330
165
100
AcDbEntity
  8
H739
  6
Continuous
 62
     7
100
AcDbCircle
 10
5.7505279075
 20
380.7614616925
 30
0.0
 40
4.999999999999996
100
AcDbArc
 50
92.0
 51
180.0
  0
LINE
  5
16F
330
165
100
AcDbEntity
  8
H739
  6
Continuous
 62
     7
100
AcDbLine
 10
97.582286376
 20
388.9713450835
 30
0.0
 11
5.576030424
 21
385.7584158276
 31
0.0
  0
ARC
  5
170
330
165
100
AcDbEntity
  8
H739
  6
Continuous
 62
     7
100
AcDbCircle
 10
7.582286376
 20
380.7614616925
 30
0.0
 40
40.00000000000001
100
AcDbArc
 50
92.0
 51
180.0
  0
LINE
  5
171
330
165
100
AcDbEntity
  8
H739
  6
Continuous
 62
     7
100
AcDbLine
 10
-32.417713624
 20
206.219707302
 30
0.0
 11
-32.417713624
 21
380.7614616925
 31
0.0
  0
ELLIPSE
  5
172
330
165
100
AcDbEntity
  8
H739
  6
Continuous
 62
     7
100
AcDbEllipse
 10
1.7972470324
 20
191.126731741
 30
0.0
 11
3.472963553338607
 21
19.69615506024415
 31
0.0
210
0.0
220
0.0
230
1.0
 40
0.051542984
 41
1.579884495328351
 42
3.141592653589793
  0
LINE
  5
173
330
165
100
AcDbEntity
  8
H739
  6
Continuous
 62
     7
100
AcDbLine
 10
-1.675716521
 20
171.4305766807
 30
0.0
 11
-3.4953998423
 21
171.7514359466
 31
0.0
  0
ELLIPSE
  5
174
330
165
100
AcDbEntity
  8
H739
  6
Continuous
 62
     7
100
AcDbEllipse
 10
-0.022436289
 20
191.4475910069
 30
0.0
 11
-3.472963553338593
 21
-19.69615506024412
 31
0.0
210
0.0
220
0.0
230
1.0
 40
0.1710878697
 41
4.742547241377644
 42
6.283185307179586
  0
ARC
  5
175
330
165
100
AcDbEntity
  8
H739
  6
Continuous
 62
     7
100
AcDbCircle
 10
2.582286376
 20
206.219707302
 30
0.0
 40
35.00000000000001
100
AcDbArc
 50
180.0
 51
260.0
  0
LINE
  5
176
330
165
100
AcDbEntity
  8
H739
  6
Continuous
 62
     7
100
AcDbLine
 10
-3.4953998423
 20
191.4475910069
 30
0.0
 11
0.7505279075
 21
191.126731741
 31
0.0
  0
ELLIPSE
  5
177
330
165
100
AcDbEntity
  8
H739
  6
Continuous
 62
     7
100
AcDbEllipse
 10
2.582286376
 20
206.219707302
 30
0.0
 11
-34.99999999999995
 21
4.163336342344337E-14
 31
0.0
210
0.0
220
0.0
230
1.0
 40
0.4285714286
 41
0.0
 42
1.396263401595468
  0
LINE
  5
178
330
165
100
AcDbEntity
  8
H739
  6
Continuous
 62
     7
100
AcDbLine
 10
-32.417713624
 20
380.7614616925
 30
0.0
 11
0.7505279075
 21
380.7614616925
 31
0.0
  0
ELLIPSE
  5
179
330
165
100
AcDbEntity
  8
H739
  6
Continuous
 62
     7
100
AcDbEllipse
 10
7.4077888925
 20
385.7584158276
 30
0.0
 11
-1.22148238458758
 21
34.97867894566839
 31
0.0
210
0.0
220
0.0
230
1.0
 40
0.0523041618
 41
0.0
 42
1.568969827247008
  0
LINE
  5
17A
330
165
100
AcDbEntity
  8
H739
  6
Continuous
 62
     7
100
AcDbLine
 10
-55.2960490702
 20
191.0395541426
 30
0.0
 11
-32.4446776409
 21
187.0102408134
 31
0.0
  0
ARC
  5
17B
330
165
100
AcDbEntity
  8
H739
  6
Continuous
 62
     7
100
AcDbCircle
 10
14.1557433091
 20
203.65753879
 30
0.0
 40
49.48466189275606
100
AcDbArc
 50
178.4840032474
 51
199.6585023926
  0
LINE
  5
17C
330
165
100
AcDbEntity
  8
H739
  6
Continuous
 62
     7
100
AcDbLine
 10
-35.3115978393
 20
204.9667073612
 30
0.0
 11
-32.5696360938
 21
319.9274468806
 31
0.0
  0
LINE
  5
17D
330
165
100
AcDbEntity
  8
H739
  6
Continuous
 62
     7
100
AcDbLine
 10
-28.0187869567
 20
176.0755707532
 30
0.0
 11
-47.1844533168
 21
179.4549948358
 31
0.0
  0
LINE
  5
17E
330
165
100
AcDbEntity
  8
H739
  6
Continuous
 62
     7
100
AcDbLine
 10
-3.4953998423
 20
171.7514359466
 30
0.0
 11
-28.0187869567
 21
176.0755707532
 31
0.0
  0
ELLIPSE
  5
17F
330
165
100
AcDbEntity
  8
H739
  6
Continuous
 62
     7
100
AcDbEllipse
 10
-26.28230518
 20
185.9236482834
 30
0.0
 11
1.736481776669241
 21
9.848077530122096
 31
0.0
210
0.0
220
0.0
230
1.0
 40
0.6257436989
 41
1.570796326794891
 42
3.141592653589791
  0
SPLINE
  5
180
330
165
100
AcDbEntity
  8
H739
  6
Continuous
 62
     7
100
AcDbSpline
210
0.0
220
0.0
230
1.0
 70
     8
 71
     3
 72
    14
 73
    10
 74
     0
 42
0.000000001
 43
0.0000000001
 40
0.0
 40
0.0
 40
0.0
 40
0.0
 40
0.2499999999999995
 40
0.2499999999999995
 40
0.4999999999999997
 40
0.4999999999999997
 40
0.7499999999999998
 40
0.7499999999999998
 40
1.0
 40
1.0
 40
1.0
 40
1.0
 10
-32.44467764087311
 20
187.0102408133787
 30
0.0
 10
-30.21930697523809
 20
185.4005862552355
 30
0.0
 10
-28.20258643188286
 20
183.7766824318804
 30
0.0
 10
-24.04742441737379
 20
180.6523352369811
 30
0.0
 10
-21.9171555945149
 20
179.1493670372456
 30
0.0
 10
-17.30278051339167
 20
176.3989783295294
 30
0.0
 10
-14.84258607559924
 20
175.1637195482191
 30
0.0
 10
-9.477605212715275
 20
173.1067311705712
 30
0.0
 10
-6.544399998920897
 20
172.2890569384053
 30
0.0
 10
-3.495399842311772
 20
171.7514359466104
 30
0.0
  0
ELLIPSE
  5
181
330
165
100
AcDbEntity
  8
H739
  6
Continuous
 62
     7
100
AcDbEllipse
 10
-42.417713624
 20
206.219707302
 30
0.0
 11
-9.999999999999815
 21
-2.775557561562891E-14
 31
0.0
210
0.0
220
0.0
230
1.0
 40
0.1780880471
 41
2.361163387435914
 42
3.141592653589793
  0
LINE
  5
182
330
165
100
AcDbEntity
  8
H739
  6
Continuous
 62
     7
100
AcDbLine
 10
-11.2675109883
 20
170.0755890031
 30
0.0
 11
-10.7465664553
 21
173.0300122621
 31
0.0
  0
LINE
  5
183
330
165
100
AcDbEntity
  8
H739
  6
Continuous
 62
     7
100
AcDbLine
 10
-11.2675109883
 20
170.0755890031
 30
0.0
 11
-1.4194334582
 21
168.3391072264
 31
0.0
  0
LINE
  5
184
330
165
100
AcDbEntity
  8
H739
  6
Continuous
 62
     7
100
AcDbLine
 10
-1.4194334582
 20
168.3391072264
 30
0.0
 11
-0.8984889252
 21
171.2935304854
 31
0.0
  0
LINE
  5
185
330
165
100
AcDbEntity
  8
H739
  6
Continuous
 62
     7
100
AcDbLine
 10
-1.4194334582
 20
168.3391072264
 30
0.0
 11
57.6690317225
 21
157.9202165664
 31
0.0
  0
LINE
  5
186
330
165
100
AcDbEntity
  8
H739
  6
Continuous
 62
     7
100
AcDbLine
 10
57.6690317225
 20
157.9202165664
 30
0.0
 11
58.1899762555
 21
160.8746398254
 31
0.0
  0
LINE
  5
187
330
165
100
AcDbEntity
  8
H739
  6
Continuous
 62
     7
100
AcDbLine
 10
57.6690317225
 20
157.9202165664
 30
0.0
 11
67.5171092527
 21
156.1837347897
 31
0.0
  0
LINE
  5
188
330
165
100
AcDbEntity
  8
H739
  6
Continuous
 62
     7
100
AcDbLine
 10
67.5171092527
 20
156.1837347897
 30
0.0
 11
68.0380537857
 21
159.1381580487
 31
0.0
  0
LINE
  5
189
330
165
100
AcDbEntity
  8
H739
  6
Continuous
 62
     7
100
AcDbLine
 10
78.3487388023
 20
157.3201060907
 30
0.0
 11
-1.675716521
 21
171.4305766807
 31
0.0
  0
LINE
  5
18A
330
165
100
AcDbEntity
  8
H739
  6
Continuous
 62
     7
100
AcDbLine
 10
78.3487388023
 20
157.3201060907
 30
0.0
 11
84.6473195283
 21
156.2094963686
 31
0.0
  0
LINE
  5
18B
330
165
100
AcDbEntity
  8
H739
  6
Continuous
 62
     7
100
AcDbLine
 10
84.4778602439
 20
155.2239500006
 30
0.0
 11
78.1750906246
 21
156.3352983377
 31
0.0
  0
LINE
  5
18C
330
165
100
AcDbEntity
  8
H739
  6
Continuous
 62
     7
100
AcDbLine
 10
79.3918299876
 20
154.5976144417
 30
0.0
 11
82.7401763479
 21
154.0072106376
 31
0.0
  0
LINE
  5
18D
330
165
100
AcDbEntity
  8
H739
  6
Continuous
 62
     7
100
AcDbLine
 10
-32.5696360938
 20
319.9274468806
 30
0.0
 11
-55.2960490702
 21
191.0395541426
 31
0.0
  0
ARC
  5
18E
330
165
100
AcDbEntity
  8
H739
  6
Continuous
 62
     7
100
AcDbCircle
 10
-45.4479715401
 20
189.3030723659
 30
0.0
 40
10.00000000000001
100
AcDbArc
 50
170.0
 51
260.0
  0
ARC
  5
18F
330
165
100
AcDbEntity
  8
H739
  6
Continuous
 62
     7
100
AcDbCircle
 10
-42.417713624
 20
321.6639286572
 30
0.0
 40
10.0
100
AcDbArc
 50
349.7677658114
 51
0.0
  0
LINE
  5
190
330
165
100
AcDbEntity
  8
H739
  6
Continuous
 62
     7
100
AcDbLine
 10
78.3487388023
 20
157.3201060907
 30
0.0
 11
78.1750906246
 21
156.3352983377
 31
0.0
  0
LINE
  5
191
330
165
100
AcDbEntity
  8
H739
  6
Continuous
 62
     7
100
AcDbLine
 10
84.4778602439
 20
155.2239500006
 30
0.0
 11
84.6515084216
 21
156.2087577537
 31
0.0
  0
ARC
  5
192
330
165
100
AcDbEntity
  8
H739
  6
Continuous
 62
     7
100
AcDbCircle
 10
79.6523022541
 20
156.0748260712
 30
0.0
 40
1.500000000000002
100
AcDbArc
 50
170.0
 51
260.0
  0
ARC
  5
193
330
165
100
AcDbEntity
  8
H739
  6
Continuous
 62
     7
100
AcDbCircle
 10
83.0006486144
 20
155.4844222671
 30
0.0
 40
1.499999999999992
100
AcDbArc
 50
260.0
 51
350.0
  0
ENDBLK
  5
195
330
165
100
AcDbEntity
  8
0
100
AcDbBlockEnd
  0
BLOCK
  5
1B7
330
196
100
AcDbEntity
  8
0
100
AcDbBlockBegin
  2
SE3
 70
     0
 10
0.0
 20
0.0
 30
0.0
  3
SE3
  1
SE3
  0
LINE
  5
198
330
196
100
AcDbEntity
  8
H739
  6
Continuous
 62
     7
100
AcDbLine
 10
348.3680454921
 20
4.7374569023
 30
0.0
 11
207.9158000341
 21
4.7374569023
 31
0.0
  0
LINE
  5
199
330
196
100
AcDbEntity
  8
H739
  6
Continuous
 62
     7
100
AcDbLine
 10
348.3680454921
 20
4.7374569023
 30
0.0
 11
353.1579058324
 21
96.1334367704
 31
0.0
  0
LINE
  5
19A
330
196
100
AcDbEntity
  8
H739
  6
Continuous
 62
     7
100
AcDbLine
 10
353.1579058324
 20
96.1334367704
 30
0.0
 11
388.1419227631
 21
96.1334367704
 31
0.0
  0
LINE
  5
19B
330
196
100
AcDbEntity
  8
H739
  6
Continuous
 62
     7
100
AcDbLine
 10
383.3200792085
 20
4.1271808184
 30
0.0
 11
383.0671853377
 21
-0.6983216981
 31
0.0
  0
LINE
  5
19C
330
196
100
AcDbEntity
  8
H739
  6
Continuous
 62
     7
100
AcDbLine
 10
388.1419227631
 20
96.1334367704
 30
0.0
 11
383.3200792085
 21
4.1271808184
 31
0.0
  0
LINE
  5
19D
330
196
100
AcDbEntity
  8
H739
  6
Continuous
 62
     7
100
AcDbLine
 10
348.1151516213
 20
-33.8665632296
 30
0.0
 11
208.1686939049
 21
-33.8665632296
 31
0.0
  0
LINE
  5
19E
330
196
100
AcDbEntity
  8
H739
  6
Continuous
 62
     7
100
AcDbLine
 10
348.1151516213
 20
-33.8665632296
 30
0.0
 11
348.3680454921
 21
4.7374569023
 31
0.0
  0
ARC
  5
19F
330
196
100
AcDbEntity
  8
H739
  6
Continuous
 62
     7
100
AcDbCircle
 10
348.1151516213
 20
1.1334367704
 30
0.0
 40
35.0
100
AcDbArc
 50
270.0
 51
357.0
  0
ELLIPSE
  5
1A0
330
196
100
AcDbEntity
  8
H739
  6
Continuous
 62
     7
100
AcDbEllipse
 10
348.3680454921
 20
5.9589392869
 30
0.0
 11
-34.95203371641011
 21
1.831758468503045
 31
0.0
210
0.0
220
0.0
230
1.0
 40
0.0348517263
 41
1.572622826342784
 42
3.141592653589795
  0
LINE
  5
1A1
330
196
100
AcDbEntity
  8
H739
  6
Continuous
 62
     7
100
AcDbLine
 10
173.2166601885
 20
-0.6983216981
 30
0.0
 11
172.9637663177
 21
4.1271808184
 31
0.0
  0
LINE
  5
1A2
330
196
100
AcDbEntity
  8
H739
  6
Continuous
 62
     7
100
AcDbLine
 10
172.9637663177
 20
4.1271808184
 30
0.0
 11
168.1419227631
 21
96.1334367704
 31
0.0
  0
LINE
  5
1A3
330
196
100
AcDbEntity
  8
H739
  6
Continuous
 62
     7
100
AcDbLine
 10
203.1259396938
 20
96.1334367704
 30
0.0
 11
353.1579058324
 21
96.1334367704
 31
0.0
  0
LINE
  5
1A4
330
196
100
AcDbEntity
  8
H739
  6
Continuous
 62
     7
100
AcDbLine
 10
168.1419227631
 20
96.1334367704
 30
0.0
 11
203.1259396938
 21
96.1334367704
 31
0.0
  0
LINE
  5
1A5
330
196
100
AcDbEntity
  8
H739
  6
Continuous
 62
     7
100
AcDbLine
 10
203.1259396938
 20
96.1334367704
 30
0.0
 11
207.9158000341
 21
4.7374569023
 31
0.0
  0
LINE
  5
1A6
330
196
100
AcDbEntity
  8
H739
  6
Continuous
 62
     7
100
AcDbLine
 10
207.9158000341
 20
4.7374569023
 30
0.0
 11
208.1686939049
 21
-33.8665632296
 31
0.0
  0
ARC
  5
1A7
330
196
100
AcDbEntity
  8
H739
  6
Continuous
 62
     7
100
AcDbCircle
 10
208.1686939049
 20
1.1334367704
 30
0.0
 40
35.0
100
AcDbArc
 50
183.0
 51
270.0
  0
ELLIPSE
  5
1A8
330
196
100
AcDbEntity
  8
H739
  6
Continuous
 62
     7
100
AcDbEllipse
 10
207.9158000341
 20
5.9589392869
 30
0.0
 11
-34.95203371641012
 21
-1.831758468503059
 31
0.0
210
0.0
220
0.0
230
1.0
 40
0.0348517263
 41
0.0
 42
1.568969827247009
  0
ELLIPSE
  5
1A9
330
196
100
AcDbEntity
  8
H739
  6
Continuous
 62
     7
100
AcDbEllipse
 10
235.1275450786
 20
4.3131820109
 30
0.0
 11
-62.00000000000024
 21
1.443289932012704E-11
 31
0.0
210
0.0
220
0.0
230
1.0
 40
0.984807753
 41
0.6762087965411911
 42
2.462671378729645
  0
ARC
  5
1AA
330
196
100
AcDbEntity
  8
H739
  6
Continuous
 62
     7
100
AcDbCircle
 10
234.3558791404
 20
4.1475467145
 30
0.0
 40
60.92564174341525
100
AcDbArc
 50
194.8513885592
 51
218.6442047803
  0
SPLINE
  5
1AB
330
196
100
AcDbEntity
  8
H739
  6
Continuous
 62
     7
100
AcDbSpline
210
0.0
220
0.0
230
1.0
 70
     8
 71
     3
 72
    14
 73
    10
 74
     0
 42
0.000000001
 43
0.0000000001
 40
0.0276614300226115
 40
0.0276614300226115
 40
0.0276614300226115
 40
0.0276614300226115
 40
0.5000000000000011
 40
0.5000000000000011
 40
0.7500000000000017
 40
0.7500000000000017
 40
0.8750000000000008
 40
0.8750000000000008
 40
1.0
 40
1.0
 40
1.0
 40
1.0
 10
283.2925389062794
 20
-34.05930798743233
 30
0.0
 10
282.1773443113702
 20
-34.98877290868488
 30
0.0
 10
281.1470281340362
 20
-35.67691506519782
 30
0.0
 10
279.7940371237779
 20
-36.37432622048309
 30
0.0
 10
279.3669460966811
 20
-36.54991857830078
 30
0.0
 10
278.8061684573694
 20
-36.70930371966544
 30
0.0
 10
278.6325513285885
 20
-36.74496809642494
 30
0.0
 10
278.3179886565068
 20
-36.77992948574321
 30
0.0
 10
278.1766311290847
 20
-36.77937090685066
 30
0.0
 10
278.0524648004202
 20
-36.76044744490217
 30
0.0
  0
ARC
  5
1AC
330
196
100
AcDbEntity
  8
H739
  6
Continuous
 62
     7
100
AcDbCircle
 10
209.3605303499
 20
1.4478090439
 30
0.0
 40
36.27260275318461
100
AcDbArc
 50
200.8602170341
 51
274.0351525795
  0
ELLIPSE
  5
1AD
330
196
100
AcDbEntity
  8
H739
  6
Continuous
 62
     7
100
AcDbEllipse
 10
235.1275450786
 20
-43.8665632296
 30
0.0
 11
62.0
 21
2.389976496293363E-31
 31
0.0
210
0.0
220
0.0
230
1.0
 40
0.1588399602
 41
0.8060729584565838
 42
1.954576677371827
  0
ELLIPSE
  5
1AE
330
196
100
AcDbEntity
  8
H739
  6
Continuous
 62
     7
100
AcDbEllipse
 10
194.5700927031
 20
-27.7361158521
 30
0.0
 11
7.752449441434909
 21
6.316607290151542
 31
0.0
210
0.0
220
0.0
230
1.0
 40
0.1354370711
 41
3.031684776244322
 42
3.141618811482199
  0
ELLIPSE
  5
1AF
330
196
100
AcDbEntity
  8
H739
  6
Continuous
 62
     7
100
AcDbEllipse
 10
185.0884323463
 20
-8.7895672319
 30
0.0
 11
9.656203721746653
 21
2.599563364128463
 31
0.0
210
0.0
220
0.0
230
1.0
 40
0.1776514169
 41
3.143075753056218
 42
3.189610988032947
  0
ARC
  5
1B0
330
196
100
AcDbEntity
  8
H739
  6
Continuous
 62
     7
100
AcDbCircle
 10
159.674882417
 20
-15.9375936497
 30
0.0
 40
16.41089417705022
100
AcDbArc
 50
15.8027442076
 51
19.2289009278
  0
ELLIPSE
  5
1B1
330
196
100
AcDbEntity
  8
H739
  6
Continuous
 62
     7
100
AcDbEllipse
 10
284.9758389491
 20
-43.8665632296
 30
0.0
 11
-2.634177598270782E-12
 21
-9.999999999999758
 31
0.0
210
0.0
220
0.0
230
1.0
 40
0.9840145565
 41
3.14159265358979
 42
3.922021919743925
  0
ELLIPSE
  5
1B2
330
196
100
AcDbEntity
  8
H739
  6
Continuous
 62
     7
100
AcDbEllipse
 10
208.1686939049
 20
-43.8665632296
 30
0.0
 11
-6.758482662405640E-12
 21
9.999999999995152
 31
0.0
210
0.0
220
0.0
230
1.0
 40
0.9186584772
 41
5.863380941254923
 42
6.283185307178965
  0
ARC
  5
1B3
330
196
100
AcDbEntity
  8
H739
  6
Continuous
 62
     7
100
AcDbCircle
 10
235.1275252899
 20
5.6321571151
 30
0.0
 40
62.51987222164777
100
AcDbArc
 50
219.4019090591
 51
320.6051201397
  0
ARC
  5
1B4
330
196
100
AcDbEntity
  8
H739
  6
Continuous
 62
     7
100
AcDbCircle
 10
234.3481898419
 20
3.9960682994
 30
0.0
 40
60.88296441518204
100
AcDbArc
 50
194.6376649774
 51
218.6786797121
  0
ARC
  5
1B5
330
196
100
AcDbEntity
  8
H739
  6
Continuous
 62
     7
100
AcDbCircle
 10
165.0774436598
 20
-14.0868314606
 30
0.0
 40
10.69931729515963
100
AcDbArc
 50
14.596098697
 51
19.3707735335
  0
SPLINE
  5
1B6
330
196
100
AcDbEntity
  8
H739
  6
Continuous
 62
     7
100
AcDbSpline
210
0.0
220
0.0
230
1.0
 70
     8
 71
     3
 72
    16
 73
    12
 74
     0
 42
0.000000001
 43
0.0000000001
 40
0.649866795030937
 40
0.649866795030937
 40
0.649866795030937
 40
0.649866795030937
 40
0.6801932541726349
 40
0.7290678699738384
 40
0.7746926439353684
 40
0.8178159506612284
 40
0.8592292819675524
 40
0.8997406584169817
 40
0.9356671046243675
 40
0.976140568367074
 40
1.0
 40
1.0
 40
1.0
 40
1.0
 10
282.3216173641022
 20
-34.35097128206149
 30
0.0
 10
282.3216344439342
 20
-34.35096055210906
 30
0.0
 10
282.3337140613564
 20
-34.34498024026311
 30
0.0
 10
282.4081614073799
 20
-34.31123435238412
 30
0.0
 10
282.5773912378805
 20
-34.24479342005002
 30
0.0
 10
282.8271280459185
 20
-34.16133314402162
 30
0.0
 10
283.156830616319
 20
-34.0707868470278
 30
0.0
 10
283.556029429475
 20
-33.9857938975355
 30
0.0
 10
284.0218907605638
 20
-33.91680089207821
 30
0.0
 10
284.5129376380853
 20
-33.87045346335474
 30
0.0
 10
284.8372471307562
 20
-33.87160369185302
 30
0.0
 10
284.9798466788172
 20
-33.8723077169282
 30
0.0
  0
ENDBLK
  5
1B8
330
196
100
AcDbEntity
  8
0
100
AcDbBlockEnd
  0
BLOCK
  5
1EC
330
1B9
100
AcDbEntity
  8
0
100
AcDbBlockBegin
  2
SE4
 70
     0
 10
0.0
 20
0.0
 30
0.0
  3
SE4
  1
SE4
  0
ELLIPSE
  5
1BB
330
1B9
100
AcDbEntity
  8
H739
  6
Continuous
 62
     7
100
AcDbEllipse
 10
117.0589149605
 20
-172.2562879794
 30
0.0
 11
-9.921771208792984
 21
17.66525307371348
 31
0.0
210
0.0
220
0.0
230
1.0
 40
0.5720177885
 41
3.028348108088168
 42
3.936131789271911
  0
LINE
  5
1BC
330
1B9
100
AcDbEntity
  8
H739
  6
Continuous
 62
     7
100
AcDbLine
 10
38.4693630172
 20
-0.2408095076
 30
0.0
 11
-60.8453721791
 21
57.0985795924
 31
0.0
  0
LINE
  5
1BD
330
1B9
100
AcDbEntity
  8
H739
  6
Continuous
 62
     7
100
AcDbLine
 10
38.4693630172
 20
-0.2408095076
 30
0.0
 11
106.4830228826
 21
37.7219358734
 31
0.0
  0
LINE
  5
1BE
330
1B9
100
AcDbEntity
  8
H739
  6
Continuous
 62
     7
100
AcDbLine
 10
131.2204584875
 20
-5.1028003845
 30
0.0
 11
131.2204584875
 21
-180.5831554938
 31
0.0
  0
ELLIPSE
  5
1BF
330
1B9
100
AcDbEntity
  8
H739
  6
Continuous
 62
     7
100
AcDbEllipse
 10
106.4377573153
 20
9.1532704491
 30
0.0
 11
-17.52141510485879
 21
30.30161167617398
 31
0.0
210
0.0
220
0.0
230
1.0
 40
0.5784054263
 41
3.927139228008764
 42
5.496109055255771
  0
LINE
  5
1C0
330
1B9
100
AcDbEntity
  8
H739
  6
Continuous
 62
     7
100
AcDbLine
 10
59.161684194
 20
-204.1018977126
 30
0.0
 11
131.2204584875
 21
-180.5831554938
 31
0.0
  0
LINE
  5
1C1
330
1B9
100
AcDbEntity
  8
H739
  6
Continuous
 62
     7
100
AcDbLine
 10
59.161684194
 20
-49.265789082
 30
0.0
 11
59.161684194
 21
-204.1018977126
 31
0.0
  0
ELLIPSE
  5
1C2
330
1B9
100
AcDbEntity
  8
H739
  6
Continuous
 62
     7
100
AcDbEllipse
 10
62.8825075805
 20
-47.3315245612
 30
0.0
 11
2.706379701372266
 21
4.208534394462343
 31
0.0
210
0.0
220
0.0
230
1.0
 40
0.6067280901
 41
0.849374318602643
 42
2.385264060357656
  0
LINE
  5
1C3
330
1B9
100
AcDbEntity
  8
H739
  6
Continuous
 62
     7
100
AcDbLine
 10
131.2204584875
 20
-5.1028003845
 30
0.0
 11
62.752652717
 21
-43.3190334531
 31
0.0
  0
LINE
  5
1C4
330
1B9
100
AcDbEntity
  8
H739
  6
Continuous
 62
     7
100
AcDbLine
 10
10.9933756299
 20
-48.537558972
 30
0.0
 11
-87.9637136244
 21
8.5953431472
 31
0.0
  0
ELLIPSE
  5
1C5
330
1B9
100
AcDbEntity
  8
H739
  6
Continuous
 62
     7
100
AcDbEllipse
 10
39.4629363579
 20
-32.3146042849
 30
0.0
 11
-20.19771599062647
 21
-34.52661042893966
 31
0.0
210
0.0
220
0.0
230
1.0
 40
0.5811199231
 41
3.965216037729027
 42
5.501105779484037
  0
LINE
  5
1C6
330
1B9
100
AcDbEntity
  8
H739
  6
Continuous
 62
     7
100
AcDbLine
 10
10.9933756299
 20
-191.0503046609
 30
0.0
 11
10.9933756299
 21
-48.537558972
 31
0.0
  0
ELLIPSE
  5
1C7
330
1B9
100
AcDbEntity
  8
H739
  6
Continuous
 62
     7
100
AcDbEllipse
 10
45.7790720668
 20
-195.5208004119
 30
0.0
 11
-6.205495460093192
 21
19.01293838665562
 31
0.0
210
0.0
220
0.0
230
1.0
 40
0.638187457
 41
3.141592653589793
 42
4.049376334773541
  0
ELLIPSE
  5
1C8
330
1B9
100
AcDbEntity
  8
H739
  6
Continuous
 62
     7
100
AcDbEllipse
 10
44.3457595167
 20
-195.9170617419
 30
0.0
 11
-4.504784774364994
 21
19.48606974576064
 31
0.0
210
0.0
220
0.0
230
1.0
 40
0.5601957639
 41
3.141658031503532
 42
4.081358966622783
  0
ELLIPSE
  5
1C9
330
1B9
100
AcDbEntity
  8
H739
  6
Continuous
 62
     7
100
AcDbEllipse
 10
35.7421129714
 20
-176.7616144947
 30
0.0
 11
-0.7922387391309725
 21
37.52346510196347
 31
0.0
210
0.0
220
0.0
230
1.0
 40
0.7172622895
 41
1.946260857993867
 42
2.731543446422943
  0
ELLIPSE
  5
1CA
330
1B9
100
AcDbEntity
  8
H739
  6
Continuous
 62
     7
100
AcDbEllipse
 10
35.742112971
 20
-189.1979998462
 30
0.0
 11
34.98159746011252
 21
-2.131915773765277
 31
0.0
210
0.0
220
0.0
230
1.0
 40
0.5323052781
 41
-0.9275016899169213
 42
-0.8053286422785177
  0
ELLIPSE
  5
1CB
330
1B9
100
AcDbEntity
  8
H739
  6
Continuous
 62
     7
100
AcDbEllipse
 10
35.7421129714
 20
-176.7616144947
 30
0.0
 11
-32.10015464675378
 21
19.44783142493125
 31
0.0
210
0.0
220
0.0
230
1.0
 40
0.7172622895
 41
1.195331795595923
 42
2.591595197191391
  0
ELLIPSE
  5
1CC
330
1B9
100
AcDbEntity
  8
H739
  6
Continuous
 62
     7
100
AcDbEllipse
 10
35.7421129714
 20
-34.2488688057
 30
0.0
 11
-35.0
 21
8.673617379884035E-15
 31
0.0
210
0.0
220
0.0
230
1.0
 40
0.5773502692
 41
0.7853981633974474
 42
2.303834612632516
  0
ELLIPSE
  5
1CD
330
1B9
100
AcDbEntity
  8
H739
  6
Continuous
 62
     7
100
AcDbEllipse
 10
39.3330814944
 20
-28.3021131768
 30
0.0
 11
-17.05837502523173
 21
30.56160731209259
 31
0.0
210
0.0
220
0.0
230
1.0
 40
0.5258892922
 41
3.935915215709727
 42
5.504885042956738
  0
LINE
  5
1CE
330
1B9
100
AcDbEntity
  8
H739
  6
Continuous
 62
     7
100
AcDbLine
 10
0.3944022313
 20
98.9722295644
 30
0.0
 11
106.4830228826
 21
37.7219358734
 31
0.0
  0
ELLIPSE
  5
1CF
330
1B9
100
AcDbEntity
  8
H739
  6
Continuous
 62
     7
100
AcDbEllipse
 10
0.4396677986
 20
70.3512959652
 30
0.0
 11
17.55330081533787
 21
-30.35709273437814
 31
0.0
210
0.0
220
0.0
230
1.0
 40
0.5762963676
 41
2.35634846877601
 42
3.185152963187436
  0
LINE
  5
1D0
330
1B9
100
AcDbEntity
  8
H739
  6
Continuous
 62
     7
100
AcDbLine
 10
0.3944022313
 20
98.9722295644
 30
0.0
 11
-60.8453721791
 21
57.0985795924
 31
0.0
  0
ELLIPSE
  5
1D1
330
1B9
100
AcDbEntity
  8
H739
  6
Continuous
 62
     7
100
AcDbEllipse
 10
-59.8647318575
 20
25.0322516973
 30
0.0
 11
19.80464429399923
 21
34.75356346484464
 31
0.0
210
0.0
220
0.0
230
1.0
 40
0.5735558363
 41
0.8170719432137945
 42
2.352961684968802
  0
LINE
  5
1D2
330
1B9
100
AcDbEntity
  8
H739
  6
Continuous
 62
     7
100
AcDbLine
 10
-87.9637136244
 20
8.5953431472
 30
0.0
 11
-87.9637136244
 21
-64.284791037
 31
0.0
  0
ELLIPSE
  5
1D3
330
1B9
100
AcDbEntity
  8
H739
  6
Continuous
 62
     7
100
AcDbEllipse
 10
-63.2149762829
 20
22.8840333135
 30
0.0
 11
34.99999999999999
 21
0.0
 31
0.0
210
0.0
220
0.0
230
1.0
 40
0.5773502692
 41
3.141551767486206
 42
3.926990816987242
  0
ELLIPSE
  5
1D4
330
1B9
100
AcDbEntity
  8
H739
  6
Continuous
 62
     7
100
AcDbEllipse
 10
-59.9816537018
 20
29.0372759232
 30
0.0
 11
19.75518003073451
 21
-28.89174383718072
 31
0.0
210
0.0
220
0.0
230
1.0
 40
0.586284936
 41
2.312788159178411
 42
3.141685591145466
  0
ELLIPSE
  5
1D5
330
1B9
100
AcDbEntity
  8
H739
  6
Continuous
 62
     7
100
AcDbEllipse
 10
-41.903770383
 20
-150.5215897618
 30
0.0
 11
61.39839009452731
 21
-8.616129862081278
 31
0.0
210
0.0
220
0.0
230
1.0
 40
0.4683231992
 41
3.141592653589793
 42
4.894982801402435
  0
ARC
  5
1D6
330
1B9
100
AcDbEntity
  8
H739
  6
Continuous
 62
     7
100
AcDbCircle
 10
-5.5505319231
 20
-160.5069503154
 30
0.0
 40
35.28844634209334
100
AcDbArc
 50
186.7453624727
 51
214.2400455845
  0
SPLINE
  5
1D7
330
1B9
100
AcDbEntity
  8
H739
  6
Continuous
 62
     7
100
AcDbSpline
210
0.0
220
0.0
230
1.0
 70
     8
 71
     3
 72
    12
 73
     8
 74
     0
 42
0.000000001
 43
0.0000000001
 40
0.0
 40
0.0
 40
0.0
 40
0.0
 40
0.25
 40
0.25
 40
0.5
 40
0.5
 40
0.5784901286086382
 40
0.5784901286086382
 40
0.5784901286086382
 40
0.5784901286086382
 10
-85.93009443949468
 20
-67.48256867123825
 30
0.0
 10
-88.39006095432848
 20
-73.41174084975293
 30
0.0
 10
-90.67467825157455
 20
-79.00035835137533
 30
0.0
 10
-94.54199829973304
 20
-89.56190499712832
 30
0.0
 10
-96.12324965861215
 20
-94.53359383862531
 30
0.0
 10
-97.47190888413716
 20
-100.7961677535482
 30
0.0
 10
-97.73849322811117
 20
-102.2748189987548
 30
0.0
 10
-97.94395719951514
 20
-103.7373145898674
 30
0.0
  0
SPLINE
  5
1D8
330
1B9
100
AcDbEntity
  8
H739
  6
Continuous
 62
     7
100
AcDbSpline
210
0.0
220
0.0
230
1.0
 70
     8
 71
     3
 72
     8
 73
     4
 74
     0
 42
0.000000001
 43
0.0000000001
 40
0.5784901286086382
 40
0.5784901286086382
 40
0.5784901286086382
 40
0.5784901286086382
 40
0.5801264416282568
 40
0.5801264416282568
 40
0.5801264416282568
 40
0.5801264416282568
 10
-97.94395719951514
 20
-103.7373145898674
 30
0.0
 10
-97.94824058364803
 20
-103.7678037815568
 30
0.0
 10
-97.95249740407378
 20
-103.7982859517892
 30
0.0
 10
-97.95672761138333
 20
-103.828761114933
 30
0.0
  0
ELLIPSE
  5
1D9
330
1B9
100
AcDbEntity
  8
H739
  6
Continuous
 62
     7
100
AcDbEllipse
 10
-75.9719949584
 20
-393.2911598346
 30
0.0
 11
-3.763647025161854
 21
-342.0851629889134
 31
0.0
210
0.0
220
0.0
230
1.0
 40
0.129296425
 41
2.304232708505879
 42
3.452736427421119
  0
LINE
  5
1DA
330
1B9
100
AcDbEntity
  8
H739
  6
Continuous
 62
     7
100
AcDbLine
 10
-33.6528605201
 20
-165.2737882014
 30
0.0
 11
10.9933756299
 21
-191.0503046609
 31
0.0
  0
ELLIPSE
  5
1DB
330
1B9
100
AcDbEntity
  8
H739
  6
Continuous
 62
     7
100
AcDbEllipse
 10
-68.9009271465
 20
-389.2086769299
 30
0.0
 11
4.504110536786829
 21
-339.8181692039522
 31
0.0
210
0.0
220
0.0
230
1.0
 40
0.1492329257
 41
2.288284386003101
 42
3.436788104918338
  0
SPLINE
  5
1DC
330
1B9
100
AcDbEntity
  8
H739
  6
Continuous
 62
     7
100
AcDbSpline
210
0.0
220
0.0
230
1.0
 70
     8
 71
     3
 72
    14
 73
    10
 74
     0
 42
0.000000001
 43
0.0000000001
 40
0.3679960710525881
 40
0.3679960710525881
 40
0.3679960710525881
 40
0.3679960710525881
 40
0.4999999999999997
 40
0.4999999999999997
 40
0.6249999999999997
 40
0.6249999999999997
 40
0.7499999999999997
 40
0.7499999999999997
 40
1.0
 40
1.0
 40
1.0
 40
1.0
 10
-98.16592463716327
 20
-105.100897132375
 30
0.0
 10
-98.06613069635651
 20
-102.5666116420259
 30
0.0
 10
-97.80125574080135
 20
-99.9905981374645
 30
0.0
 10
-96.99596807735819
 20
-94.84378827952428
 30
0.0
 10
-96.47161810309306
 20
-92.27495194941935
 30
0.0
 10
-95.21168459082668
 20
-87.02834157079612
 30
0.0
 10
-94.47644488007478
 20
-84.34836811329899
 30
0.0
 10
-92.02711752548684
 20
-76.10887650204093
 30
0.0
 10
-90.07205207957084
 20
-70.34623199877828
 30
0.0
 10
-87.96371362441519
 20
-64.28479103704565
 30
0.0
  0
SPLINE
  5
1DD
330
1B9
100
AcDbEntity
  8
H739
  6
Continuous
 62
     7
100
AcDbSpline
210
0.0
220
0.0
230
1.0
 70
     8
 71
     3
 72
    14
 73
    10
 74
     0
 42
0.000000001
 43
0.0000000001
 40
0.0
 40
0.0
 40
0.0
 40
0.0
 40
0.1249999999999999
 40
0.1249999999999999
 40
0.2499999999999999
 40
0.2499999999999999
 40
0.4999999999999998
 40
0.4999999999999998
 40
0.57404443821912
 40
0.57404443821912
 40
0.57404443821912
 40
0.57404443821912
 10
-33.65286052011459
 20
-165.2737882014187
 30
0.0
 10
-33.28735985374452
 20
-167.2985701249279
 30
0.0
 10
-32.61329507558383
 20
-169.2312203123315
 30
0.0
 10
-30.84089505258494
 20
-172.9425830774406
 30
0.0
 10
-29.72791386323953
 20
-174.7358277409591
 30
0.0
 10
-25.97812267504668
 20
-179.7535948517341
 30
0.0
 10
-22.97348588098017
 20
-182.6313935389008
 30
0.0
 10
-18.61646269890742
 20
-185.725834743243
 30
0.0
 10
-17.60286156623645
 20
-186.38005866529
 30
0.0
 10
-16.57197986472508
 20
-186.9771655750628
 30
0.0
  0
ELLIPSE
  5
1DE
330
1B9
100
AcDbEntity
  8
H739
  6
Continuous
 62
     7
100
AcDbEllipse
 10
-35.8812307103
 20
-175.5493608502
 30
0.0
 11
0.5313452670454017
 21
9.985873632646674
 31
0.0
210
0.0
220
0.0
230
1.0
 40
0.160437102
 41
3.141620838804331
 42
4.218027763672443
  0
SPLINE
  5
1DF
330
1B9
100
AcDbEntity
  8
H739
  6
Continuous
 62
     7
100
AcDbSpline
210
0.0
220
0.0
230
1.0
 70
     8
 71
     3
 72
    12
 73
     8
 74
     0
 42
0.000000001
 43
0.0000000001
 40
0.0
 40
0.0
 40
0.0
 40
0.0
 40
0.2499999999999995
 40
0.2499999999999995
 40
0.4999999999999997
 40
0.4999999999999997
 40
0.5895459214264662
 40
0.5895459214264662
 40
0.5895459214264662
 40
0.5895459214264662
 10
-34.723050004024
 20
-180.3623937518456
 30
0.0
 10
-31.74776920679707
 20
-181.5774428244501
 30
0.0
 10
-28.77900084240179
 20
-182.9707285299841
 30
0.0
 10
-22.77838988174036
 20
-185.5935261076431
 30
0.0
 10
-19.74221512709859
 20
-186.8342736055483
 30
0.0
 10
-15.54619635432555
 20
-188.2233101523281
 30
0.0
 10
-14.4366057368676
 20
-188.5606792557712
 30
0.0
 10
-13.32345240591831
 20
-188.8643114684818
 30
0.0
  0
ELLIPSE
  5
1E0
330
1B9
100
AcDbEntity
  8
H739
  6
Continuous
 62
     7
100
AcDbEllipse
 10
-40.723928332
 20
-169.3562711061
 30
0.0
 11
9.8982842616175
 21
1.422662530684596
 31
0.0
210
0.0
220
0.0
230
1.0
 40
0.4653018872
 41
0.7105636538060711
 42
1.490992919959951
  0
ELLIPSE
  5
1E1
330
1B9
100
AcDbEntity
  8
H739
  6
Continuous
 62
     7
100
AcDbEllipse
 10
-95.0347814363
 20
-68.3672739417
 30
0.0
 11
9.034775194268056
 21
-4.286354767044715
 31
0.0
210
0.0
220
0.0
230
1.0
 40
0.7584714773
 41
0.6686385254798299
 42
1.088442891403869
  0
LINE
  5
1E2
330
1B9
100
AcDbEntity
  8
H739
  6
Continuous
 62
     7
100
AcDbLine
 10
-97.9406664201
 20
-103.6995473968
 30
0.0
 11
-103.3021604775
 21
-141.9054598997
 31
0.0
  0
LINE
  5
1E3
330
1B9
100
AcDbEntity
  8
H739
  6
Continuous
 62
     7
100
AcDbLine
 10
51.9845675269
 20
-214.5337387985
 30
0.0
 11
125.7752604948
 21
-190.4497281686
 31
0.0
  0
LINE
  5
1E4
330
1B9
100
AcDbEntity
  8
H739
  6
Continuous
 62
     7
100
AcDbLine
 10
-16.571689102
 20
-186.9727456286
 30
0.0
 11
25.7421129714
 21
-211.4026306461
 31
0.0
  0
ARC
  5
1E5
330
1B9
100
AcDbEntity
  8
H739
  6
Continuous
 62
     7
100
AcDbCircle
 10
38.7042156848
 20
-172.7436949426
 30
0.0
 40
43.84946419893981
100
AcDbArc
 50
283.3789221299
 51
287.6296039826
  0
ARC
  5
1E6
330
1B9
100
AcDbEntity
  8
H739
  6
Continuous
 62
     7
100
AcDbCircle
 10
42.343424264
 20
-184.4684896751
 30
0.0
 40
31.61162246895022
100
AcDbArc
 50
238.3360619911
 51
281.8790164259
  0
LINE
  5
1E7
330
1B9
100
AcDbEntity
  8
H739
  6
Continuous
 62
     7
100
AcDbLine
 10
-98.2149762829
 20
22.8840333135
 30
0.0
 11
-98.2149762829
 21
-105.654274662
 31
0.0
  0
ARC
  5
1E8
330
1B9
100
AcDbEntity
  8
H739
  6
Continuous
 62
     7
100
AcDbCircle
 10
-55.0381963245
 20
22.5122174657
 30
0.0
 40
43.17838087052561
100
AcDbArc
 50
124.8907863102
 51
179.5066109081
  0
LINE
  5
1E9
330
1B9
100
AcDbEntity
  8
H739
  6
Continuous
 62
     7
100
AcDbLine
 10
-17.8588147439
 20
100.2390794077
 30
0.0
 11
-79.7368337326
 21
57.9290197604
 31
0.0
  0
SPLINE
  5
1EA
330
1B9
100
AcDbEntity
  8
H739
  6
Continuous
 62
     7
100
AcDbSpline
210
0.0
220
0.0
230
1.0
 70
     8
 71
     3
 72
    37
 73
    33
 74
     0
 42
0.000000001
 43
0.0000000001
 40
0.0
 40
0.0
 40
0.0
 40
0.0
 40
0.028135129067286
 40
0.057548482794375
 40
0.0870468808208753
 40
0.1168323938081536
 40
0.1470999880785738
 40
0.1780305159820564
 40
0.2097776907782064
 40
0.2424484666601456
 40
0.2760795451777855
 40
0.3106184488955221
 40
0.345922299013904
 40
0.3817834495610927
 40
0.4179754903840908
 40
0.4542961752325614
 40
0.4905639702875466
 40
0.5267027927162874
 40
0.5626765993185286
 40
0.5984758781706477
 40
0.6341069166153243
 40
0.6695845587754957
 40
0.7049277524957444
 40
0.7401570010575803
 40
0.775293013898885
 40
0.8103560771242418
 40
0.8453658430050248
 40
0.880341357819883
 40
0.9153012224803061
 40
0.9502638251765415
 40
0.9852418496358707
 40
1.0
 40
1.0
 40
1.0
 40
1.0
 10
-103.2983354675505
 20
-141.911925697113
 30
0.0
 10
-103.3868654422079
 20
-142.6597695522302
 30
0.0
 10
-103.530812952655
 20
-143.9504438256581
 30
0.0
 10
-103.5102288523814
 20
-146.1131031126881
 30
0.0
 10
-103.2869247575656
 20
-148.2470815528323
 30
0.0
 10
-102.8533832587376
 20
-150.384529557667
 30
0.0
 10
-102.2141016957028
 20
-152.5032632120052
 30
0.0
 10
-101.3676197721403
 20
-154.6068864128342
 30
0.0
 10
-100.3116009470056
 20
-156.6925513185583
 30
0.0
 10
-99.04236553685708
 20
-158.7582778892416
 30
0.0
 10
-97.55689618652238
 20
-160.7993323223163
 30
0.0
 10
-95.85484553012233
 20
-162.8081105808514
 30
0.0
 10
-93.94040792631283
 20
-164.7741513125908
 30
0.0
 10
-91.82299277040335
 20
-166.6854580867948
 30
0.0
 10
-89.51638141489678
 20
-168.530292321664
 30
0.0
 10
-87.03745897685857
 20
-170.2982589059721
 30
0.0
 10
-84.40318054451649
 20
-171.9819394825635
 30
0.0
 10
-81.62911778021875
 20
-173.5766179095381
 30
0.0
 10
-78.72811559469788
 20
-175.0799035944656
 30
0.0
 10
-75.71178629897085
 20
-176.4901886753137
 30
0.0
 10
-72.59093096490679
 20
-177.8061723020162
 30
0.0
 10
-69.37591920351583
 20
-179.0265910632925
 30
0.0
 10
-66.07695744758234
 20
-180.1500995312458
 30
0.0
 10
-62.70428904223233
 20
-181.175237877561
 30
0.0
 10
-59.26819710327483
 20
-182.1004568947901
 30
0.0
 10
-55.77939168292184
 20
-182.9241241353131
 30
0.0
 10
-52.24771891635972
 20
-183.6446801506415
 30
0.0
 10
-48.68694930566013
 20
-184.2602505600945
 30
0.0
 10
-45.09679855489524
 20
-184.7702657507122
 30
0.0
 10
-41.52998513203557
 20
-185.169532246626
 30
0.0
 10
-38.55387951303925
 20
-185.4123513914608
 30
0.0
 10
-36.96583121509152
 20
-185.5040023173557
 30
0.0
 10
-36.41257597734882
 20
-185.535234482874
 30
0.0
  0
ARC
  5
1EB
330
1B9
100
AcDbEntity
  8
H739
  6
Continuous
 62
     7
100
AcDbCircle
 10
-52.3747845474
 20
-375.8422776353
 30
0.0
 40
190.9788194580564
100
AcDbArc
 50
78.0453990018
 51
85.2064332678
  0
ENDBLK
  5
1ED
330
1B9
100
AcDbEntity
  8
0
100
AcDbBlockEnd
  0
BLOCK
  5
223
330
1EE
100
AcDbEntity
  8
0
100
AcDbBlockBegin
  2
SE5
 70
     0
 10
0.0
 20
0.0
 30
0.0
  3
SE5
  1
SE5
  0
LINE
  5
1F0
330
1EE
100
AcDbEntity
  8
H739
  6
Continuous
 62
     7
100
AcDbLine
 10
436.2949236175
 20
-191.8146920725
 30
0.0
 11
436.2949236175
 21
-16.3343369633
 31
0.0
  0
LINE
  5
1F1
330
1EE
100
AcDbEntity
  8
H739
  6
Continuous
 62
     7
100
AcDbLine
 10
436.2949236175
 20
-191.8146920725
 30
0.0
 11
508.353697911
 21
-215.3334342913
 31
0.0
  0
ELLIPSE
  5
1F2
330
1EE
100
AcDbEntity
  8
H739
  6
Continuous
 62
     7
100
AcDbEllipse
 10
450.4564671445
 20
-183.4878245582
 30
0.0
 11
9.921771208792958
 21
17.66525307371343
 31
0.0
210
0.0
220
0.0
230
1.0
 40
0.5720177885
 41
2.347053517907677
 42
3.254837199091419
  0
LINE
  5
1F3
330
1EE
100
AcDbEntity
  8
H739
  6
Continuous
 62
     7
100
AcDbLine
 10
628.3607542841
 20
45.8670430137
 30
0.0
 11
529.0460190878
 21
-11.4723460864
 31
0.0
  0
LINE
  5
1F4
330
1EE
100
AcDbEntity
  8
H739
  6
Continuous
 62
     7
100
AcDbLine
 10
628.3607542841
 20
45.8670430137
 30
0.0
 11
567.1209798737
 21
87.7406929856
 31
0.0
  0
ELLIPSE
  5
1F5
330
1EE
100
AcDbEntity
  8
H739
  6
Continuous
 62
     7
100
AcDbEllipse
 10
567.0757143064
 20
59.1197593864
 30
0.0
 11
-17.55330081533792
 21
-30.3570927343782
 31
0.0
210
0.0
220
0.0
230
1.0
 40
0.5762963676
 41
3.09803234399217
 42
3.926836838403577
  0
LINE
  5
1F6
330
1EE
100
AcDbEntity
  8
H739
  6
Continuous
 62
     7
100
AcDbLine
 10
655.4790957294
 20
-2.6361934315
 30
0.0
 11
556.5220064751
 21
-59.7690955507
 31
0.0
  0
ELLIPSE
  5
1F7
330
1EE
100
AcDbEntity
  8
H739
  6
Continuous
 62
     7
100
AcDbEllipse
 10
627.3801139625
 20
13.8007151185
 30
0.0
 11
19.80464429399919
 21
-34.7535634648446
 31
0.0
210
0.0
220
0.0
230
1.0
 40
0.5735558363
 41
0.7886309686209856
 42
2.324520710376002
  0
LINE
  5
1F8
330
1EE
100
AcDbEntity
  8
H739
  6
Continuous
 62
     7
100
AcDbLine
 10
655.4790957294
 20
-145.1489391205
 30
0.0
 11
655.4790957294
 21
-2.6361934315
 31
0.0
  0
ELLIPSE
  5
1F9
330
1EE
100
AcDbEntity
  8
H739
  6
Continuous
 62
     7
100
AcDbEllipse
 10
630.7303583879
 20
-130.8602489542
 30
0.0
 11
-25.75784920497422
 21
25.39768823769786
 31
0.0
210
0.0
220
0.0
230
1.0
 40
0.3088592254
 41
3.056703516605635
 42
3.842101680003068
  0
ELLIPSE
  5
1FA
330
1EE
100
AcDbEntity
  8
H739
  6
Continuous
 62
     7
100
AcDbEllipse
 10
630.7303583879
 20
-130.8602489542
 30
0.0
 11
-34.87396781373069
 21
9.608107639507574
 31
0.0
210
0.0
220
0.0
230
1.0
 40
0.3088592254
 41
2.441083627176514
 42
3.226481790573988
  0
ELLIPSE
  5
1FB
330
1EE
100
AcDbEntity
  8
H739
  6
Continuous
 62
     7
100
AcDbEllipse
 10
630.7303583879
 20
11.6524967347
 30
0.0
 11
-34.99999999999999
 21
8.673617379884035E-15
 31
0.0
210
0.0
220
0.0
230
1.0
 40
0.5773502692
 41
2.356194490192344
 42
3.141724181787664
  0
ELLIPSE
  5
1FC
330
1EE
100
AcDbEntity
  8
H739
  6
Continuous
 62
     7
100
AcDbEllipse
 10
627.4970358068
 20
17.8057393445
 30
0.0
 11
-19.75518003073449
 21
-28.89174383718074
 31
0.0
210
0.0
220
0.0
230
1.0
 40
0.586284936
 41
3.140407193850228
 42
3.970397148001173
  0
LINE
  5
1FD
330
1EE
100
AcDbEntity
  8
H739
  6
Continuous
 62
     7
100
AcDbLine
 10
508.353697911
 20
-215.3334342913
 30
0.0
 11
508.353697911
 21
-60.4973256607
 31
0.0
  0
ELLIPSE
  5
1FE
330
1EE
100
AcDbEntity
  8
H739
  6
Continuous
 62
     7
100
AcDbEllipse
 10
504.6328745245
 20
-58.5630611399
 30
0.0
 11
2.706379701372258
 21
-4.208534394462343
 31
0.0
210
0.0
220
0.0
230
1.0
 40
0.6067280901
 41
0.7563285932321548
 42
2.292218334987163
  0
LINE
  5
1FF
330
1EE
100
AcDbEntity
  8
H739
  6
Continuous
 62
     7
100
AcDbLine
 10
504.762729388
 20
-54.5505700318
 30
0.0
 11
436.2949236175
 21
-16.3343369633
 31
0.0
  0
LINE
  5
200
330
1EE
100
AcDbEntity
  8
H739
  6
Continuous
 62
     7
100
AcDbLine
 10
461.0323592224
 20
26.4903992946
 30
0.0
 11
567.1209798737
 21
87.7406929856
 31
0.0
  0
ELLIPSE
  5
201
330
1EE
100
AcDbEntity
  8
H739
  6
Continuous
 62
     7
100
AcDbEllipse
 10
461.0776247897
 20
-2.0782661296
 30
0.0
 11
-17.52141510485875
 21
-30.30161167617396
 31
0.0
210
0.0
220
0.0
230
1.0
 40
0.5784054263
 41
3.928668905513605
 42
5.497638732760615
  0
LINE
  5
202
330
1EE
100
AcDbEntity
  8
H739
  6
Continuous
 62
     7
100
AcDbLine
 10
461.0323592224
 20
26.4903992946
 30
0.0
 11
529.0460190878
 21
-11.4723460864
 31
0.0
  0
ELLIPSE
  5
203
330
1EE
100
AcDbEntity
  8
H739
  6
Continuous
 62
     7
100
AcDbEllipse
 10
528.0524457471
 20
-43.5461408636
 30
0.0
 11
-20.19771599062651
 21
34.5266104289397
 31
0.0
210
0.0
220
0.0
230
1.0
 40
0.5811199231
 41
3.92367218128534
 42
5.45956192304035
  0
LINE
  5
204
330
1EE
100
AcDbEntity
  8
H739
  6
Continuous
 62
     7
100
AcDbLine
 10
556.5220064751
 20
-59.7690955507
 30
0.0
 11
556.5220064751
 21
-132.649229735
 31
0.0
  0
ELLIPSE
  5
205
330
1EE
100
AcDbEntity
  8
H739
  6
Continuous
 62
     7
100
AcDbEllipse
 10
531.7732691336
 20
-45.4804053845
 30
0.0
 11
-34.99999999999999
 21
-2.949029909160572E-14
 31
0.0
210
0.0
220
0.0
230
1.0
 40
0.5773502692
 41
0.8377580409572758
 42
2.356194490192348
  0
ELLIPSE
  5
206
330
1EE
100
AcDbEntity
  8
H739
  6
Continuous
 62
     7
100
AcDbEllipse
 10
528.1823006106
 20
-39.5336497555
 30
0.0
 11
-17.05837502523176
 21
-30.56160731209259
 31
0.0
210
0.0
220
0.0
230
1.0
 40
0.5258892922
 41
3.919892917812641
 42
5.488862745059651
  0
ELLIPSE
  5
207
330
1EE
100
AcDbEntity
  8
H739
  6
Continuous
 62
     7
100
AcDbEllipse
 10
548.5876361895
 20
-196.8742186507
 30
0.0
 11
-61.3983900945273
 21
-8.616129862081296
 31
0.0
210
0.0
220
0.0
230
1.0
 40
0.4683231992
 41
1.388326708545389
 42
3.141592653589793
  0
ARC
  5
208
330
1EE
100
AcDbEntity
  8
H739
  6
Continuous
 62
     7
100
AcDbCircle
 10
540.5061032383
 20
-174.1474218207
 30
0.0
 40
52.575045096457
100
AcDbArc
 50
244.1221741176
 51
270.9900178171
  0
ARC
  5
209
330
1EE
100
AcDbEntity
  8
H739
  6
Continuous
 62
     7
100
AcDbCircle
 10
415.4365699647
 20
-212.7818682822
 30
0.0
 40
196.0368991094413
100
AcDbArc
 50
8.0326067511
 51
10.8273189643
  0
ARC
  5
20A
330
1EE
100
AcDbEntity
  8
H739
  6
Continuous
 62
     7
100
AcDbCircle
 10
312.7492763949
 20
-69.5263115849
 30
0.0
 40
255.0063338672482
100
AcDbArc
 50
323.4326913973
 51
345.6357199335
  0
ELLIPSE
  5
20B
330
1EE
100
AcDbEntity
  8
H739
  6
Continuous
 62
     7
100
AcDbEllipse
 10
582.6558607649
 20
-439.6437887234
 30
0.0
 11
3.763647025161854
 21
-342.0851629889134
 31
0.0
210
0.0
220
0.0
230
1.0
 40
0.129296425
 41
2.449505861997085
 42
3.598009580912327
  0
LINE
  5
20C
330
1EE
100
AcDbEntity
  8
H739
  6
Continuous
 62
     7
100
AcDbLine
 10
610.8328595794
 20
-170.92545558
 30
0.0
 11
655.4790957294
 21
-145.1489391205
 31
0.0
  0
ELLIPSE
  5
20D
330
1EE
100
AcDbEntity
  8
H739
  6
Continuous
 62
     7
100
AcDbEllipse
 10
575.584792953
 20
-435.5613058188
 30
0.0
 11
-4.504110536787009
 21
-339.8181692039523
 31
0.0
210
0.0
220
0.0
230
1.0
 40
0.1492329257
 41
2.46545418449987
 42
3.613957903415106
  0
ARC
  5
20E
330
1EE
100
AcDbEntity
  8
H739
  6
Continuous
 62
     7
100
AcDbCircle
 10
552.1725919906
 20
-177.8851530882
 30
0.0
 40
57.64086435361636
100
AcDbArc
 50
220.5176946163
 51
226.7544354512
  0
ARC
  5
20F
330
1EE
100
AcDbEntity
  8
H739
  6
Continuous
 62
     7
100
AcDbCircle
 10
515.940312467
 20
-216.7121392663
 30
0.0
 40
4.539467788007653
100
AcDbArc
 50
224.1163416078
 51
279.4941726624
  0
ARC
  5
210
330
1EE
100
AcDbEntity
  8
H739
  6
Continuous
 62
     7
100
AcDbCircle
 10
286.933786284
 20
-64.595708358
 30
0.0
 40
278.0451226647017
100
AcDbArc
 50
325.7229335299
 51
345.8325197064
  0
SPLINE
  5
211
330
1EE
100
AcDbEntity
  8
H739
  6
Continuous
 62
     7
100
AcDbSpline
210
0.0
220
0.0
230
1.0
 70
     8
 71
     3
 72
    14
 73
    10
 74
     0
 42
0.000000001
 43
0.0000000001
 40
0.0
 40
0.0
 40
0.0
 40
0.0
 40
0.1249999999999999
 40
0.1249999999999999
 40
0.2499999999999999
 40
0.2499999999999999
 40
0.4999999999999998
 40
0.4999999999999998
 40
0.5737474203545762
 40
0.5737474203545762
 40
0.5737474203545762
 40
0.5737474203545762
 10
610.8328595794273
 20
-170.9254555799704
 30
0.0
 10
611.1983602457973
 20
-172.5281936872441
 30
0.0
 10
611.5797644828286
 20
-173.8514685546053
 30
0.0
 10
612.3017888929966
 20
-176.1226747017524
 30
0.0
 10
612.6449870262788
 20
-177.0751938413634
 30
0.0
 10
613.4877024580162
 20
-179.4414760188666
 30
0.0
 10
613.8086286679
 20
-180.3992600104954
 30
0.0
 10
613.6291955913257
 20
-181.0812378137503
 30
0.0
 10
613.549494684121
 20
-181.1962500659016
 30
0.0
 10
613.4247974418655
 20
-181.2706994574926
 30
0.0
  0
ARC
  5
212
330
1EE
100
AcDbEntity
  8
H739
  6
Continuous
 62
     7
100
AcDbCircle
 10
537.6166587928
 20
-195.1459999035
 30
0.0
 40
36.03977316466439
100
AcDbArc
 50
235.8803927537
 51
252.8756237916
  0
ARC
  5
213
330
1EE
100
AcDbEntity
  8
H739
  6
Continuous
 62
     7
100
AcDbCircle
 10
522.7799522671
 20
-215.2793698706
 30
0.0
 40
11.0939754125241
100
AcDbArc
 50
204.4556025901
 51
240.9979857133
  0
ELLIPSE
  5
214
330
1EE
100
AcDbEntity
  8
H739
  6
Continuous
 62
     7
100
AcDbEllipse
 10
542.5714624383
 20
-221.9016508198
 30
0.0
 11
-0.5319414502859667
 21
9.985841892072356
 31
0.0
210
0.0
220
0.0
230
1.0
 40
0.1603291849
 41
2.065147968191247
 42
3.141479933757114
  0
ELLIPSE
  5
215
330
1EE
100
AcDbEntity
  8
H739
  6
Continuous
 62
     7
100
AcDbEllipse
 10
522.4696830937
 20
-216.8140855351
 30
0.0
 11
-4.490072897927131
 21
-8.93528093410014
 31
0.0
210
0.0
220
0.0
230
1.0
 40
0.298367667
 41
5.400079806690199
 42
5.990332313932837
  0
ARC
  5
216
330
1EE
100
AcDbEntity
  8
H739
  6
Continuous
 62
     7
100
AcDbCircle
 10
518.1357922633
 20
-217.9488537275
 30
0.0
 40
3.548841635590609
100
AcDbArc
 50
245.9423217741
 51
260.6549870647
  0
ELLIPSE
  5
217
330
1EE
100
AcDbEntity
  8
H739
  6
Continuous
 62
     7
100
AcDbEllipse
 10
617.9039273913
 20
-175.0079384846
 30
0.0
 11
-9.85474214961342
 21
-1.698251207751175
 31
0.0
210
0.0
220
0.0
230
1.0
 40
0.670940251
 41
5.390733215219392
 42
6.171162481373266
  0
ELLIPSE
  5
218
330
1EE
100
AcDbEntity
  8
H739
  6
Continuous
 62
     7
100
AcDbEllipse
 10
563.593074287
 20
-136.7317126396
 30
0.0
 11
-9.560952651024342
 21
2.930560425038
 31
0.0
210
0.0
220
0.0
230
1.0
 40
0.3023039608
 41
-1.070436511216002
 42
-0.6506321452919739
  0
LINE
  5
219
330
1EE
100
AcDbEntity
  8
H739
  6
Continuous
 62
     7
100
AcDbLine
 10
609.986026284
 20
-188.2580887886
 30
0.0
 11
609.5816281051
 21
-185.3763544672
 31
0.0
  0
LINE
  5
21A
330
1EE
100
AcDbEntity
  8
H739
  6
Continuous
 62
     7
100
AcDbLine
 10
441.7401216102
 20
-201.6812647474
 30
0.0
 11
527.0233650874
 21
-229.5162458249
 31
0.0
  0
LINE
  5
21B
330
1EE
100
AcDbEntity
  8
H739
  6
Continuous
 62
     7
100
AcDbLine
 10
613.4078078608
 20
-181.2759470074
 30
0.0
 11
655.7303583879
 21
-156.8410110678
 31
0.0
  0
ARC
  5
21C
330
1EE
100
AcDbEntity
  8
H739
  6
Continuous
 62
     7
100
AcDbCircle
 10
645.7303583879
 20
-139.5205029921
 30
0.0
 40
19.99999999999999
100
AcDbArc
 50
299.9876626268
 51
0.011119031
  0
LINE
  5
21D
330
1EE
100
AcDbEntity
  8
H739
  6
Continuous
 62
     7
100
AcDbLine
 10
665.7303583879
 20
-139.5205029921
 30
0.0
 11
665.7303583879
 21
11.6524967347
 31
0.0
  0
ARC
  5
21E
330
1EE
100
AcDbEntity
  8
H739
  6
Continuous
 62
     7
100
AcDbCircle
 10
622.5538451187
 20
11.2808215039
 30
0.0
 40
43.17811298057118
100
AcDbArc
 50
0.4932055525
 51
55.1093972291
  0
LINE
  5
21F
330
1EE
100
AcDbEntity
  8
H739
  6
Continuous
 62
     7
100
AcDbLine
 10
647.2522158375
 20
46.6974831817
 30
0.0
 11
585.3741968489
 21
89.007542829
 31
0.0
  0
SPLINE
  5
220
330
1EE
100
AcDbEntity
  8
H739
  6
Continuous
 62
     7
100
AcDbSpline
210
0.0
220
0.0
230
1.0
 70
     8
 71
     3
 72
    37
 73
    33
 74
     0
 42
0.000000001
 43
0.0000000001
 40
0.0
 40
0.0
 40
0.0
 40
0.0
 40
0.0185920168554437
 40
0.0535867528956257
 40
0.0885564691198764
 40
0.123514821628842
 40
0.1584791308029335
 40
0.1934628068689859
 40
0.228484633675513
 40
0.2635639809914654
 40
0.2987210577114821
 40
0.3339771050947388
 40
0.3693544672004625
 40
0.404876431326848
 40
0.4405666531792105
 40
0.4764478541193391
 40
0.5125392817753319
 40
0.5488521555779355
 40
0.5853820390042539
 40
0.6220970575470253
 40
0.6589192275452096
 40
0.6956533469759486
 40
0.7320725086811338
 40
0.767908041339788
 40
0.8029064824588327
 40
0.8368945017578959
 40
0.8698156374400364
 40
0.9017246361425809
 40
0.9327554340477562
 40
0.9630863556187593
 40
0.9929152740935224
 40
1.0
 40
1.0
 40
1.0
 40
1.0
 10
543.1034038885829
 20
-231.8874927118658
 30
0.0
 10
543.8005071366488
 20
-231.8475117793858
 30
0.0
 10
545.5076241855943
 20
-231.7470612288108
 30
0.0
 10
548.6149852139465
 20
-231.4825553118644
 30
0.0
 10
552.1838460595903
 20
-231.0710883177983
 30
0.0
 10
555.7715589571073
 20
-230.549068058758
 30
0.0
 10
559.3278992365133
 20
-229.921955918651
 30
0.0
 10
562.8522712260127
 20
-229.1904615762965
 30
0.0
 10
566.3310061921414
 20
-228.3566533064379
 30
0.0
 10
569.7543278637086
 20
-227.4222346323061
 30
0.0
 10
573.11172718473
 20
-226.3889665729989
 30
0.0
 10
576.393204751425
 20
-225.2584879930469
 30
0.0
 10
579.5889622084483
 20
-224.032273002157
 30
0.0
 10
582.6894758495005
 20
-222.7115382234971
 30
0.0
 10
585.6854154516162
 20
-221.297158136975
 30
0.0
 10
588.5675276025795
 20
-219.7895902794161
 30
0.0
 10
591.3264177623013
 20
-218.1888444717232
 30
0.0
 10
593.9522097633021
 20
-216.4945500700815
 30
0.0
 10
596.4340594481894
 20
-214.7062104559786
 30
0.0
 10
598.7594953177332
 20
-212.8238107610005
 30
0.0
 10
600.9127650488026
 20
-210.8498205699339
 30
0.0
 10
602.8758610303364
 20
-208.7901307046238
 30
0.0
 10
604.6297453736812
 20
-206.6552792923484
 30
0.0
 10
606.1573891173548
 20
-204.45958867207
 30
0.0
 10
607.4458401077775
 20
-202.2204676948811
 30
0.0
 10
608.487910082151
 20
-199.956453153762
 30
0.0
 10
609.282920075171
 20
-197.6838249013579
 30
0.0
 10
609.8329702399502
 20
-195.4196483443317
 30
0.0
 10
610.1491730595566
 20
-193.1669654527943
 30
0.0
 10
610.2207560852269
 20
-190.9689389797688
 30
0.0
 10
610.1454513950986
 20
-189.2798534870169
 30
0.0
 10
609.9994338131614
 20
-188.4473476406063
 30
0.0
 10
609.9663429244821
 20
-188.2607287475992
 30
0.0
  0
ARC
  5
221
330
1EE
100
AcDbEntity
  8
H739
  6
Continuous
 62
     7
100
AcDbCircle
 10
541.4262141557
 20
-187.9981103948
 30
0.0
 40
43.9340420484446
100
AcDbArc
 50
250.7786692372
 51
272.1956710268
  0
ARC
  5
222
330
1EE
100
AcDbEntity
  8
H739
  6
Continuous
 62
     7
100
AcDbCircle
 10
616.9780007592
 20
-187.7236187176
 30
0.0
 40
7.346351171940528
100
AcDbArc
 50
118.9412456395
 51
169.3317060833
  0
ENDBLK
  5
224
330
1EE
100
AcDbEntity
  8
0
100
AcDbBlockEnd
  0
BLOCK
  5
227
330
226
100
AcDbEntity
  8
0
100
AcDbBlockBegin
  2
_OBLIQUE
 70
     0
 10
0.0
 20
0.0
 30
0.0
  3
_OBLIQUE
  1
_OBLIQUE
  0
LINE
  5
229
330
226
100
AcDbEntity
  8
0
  6
ByBlock
 62
     0
370
    -2
100
AcDbLine
 10
-0.5
 20
-0.5
 30
0.0
 11
0.5
 21
0.5
 31
0.0
  0
ENDBLK
  5
228
330
226
100
AcDbEntity
  8
0
100
AcDbBlockEnd
  0
BLOCK
  5
22B
330
22A
100
AcDbEntity
  8
0
100
AcDbBlockBegin
  2
_DOT
 70
     0
 10
0.0
 20
0.0
 30
0.0
  3
_DOT
  1
_DOT
  0
POLYLINE
  5
22D
330
22A
100
AcDbEntity
  8
0
  6
ByBlock
 62
     0
100
AcDb2dPolyline
 66
     1
 10
0.0
 20
0.0
 30
0.0
 70
     1
 40
0.5
 41
0.5
  0
VERTEX
  5
22F
330
22D
100
AcDbEntity
  8
0
  6
ByBlock
 62
     0
100
AcDbVertex
100
AcDb2dVertex
 10
-0.25
 20
0.0
 30
0.0
 42
1.0
  0
VERTEX
  5
230
330
22D
100
AcDbEntity
  8
0
  6
ByBlock
 62
     0
100
AcDbVertex
100
AcDb2dVertex
 10
0.25
 20
0.0
 30
0.0
 42
1.0
  0
SEQEND
  5
231
330
22D
100
AcDbEntity
  8
0
  6
ByBlock
 62
     0
  0
LINE
  5
22E
330
22A
100
AcDbEntity
  8
0
  6
ByBlock
 62
     0
370
    -2
100
AcDbLine
 10
-0.5
 20
0.0
 30
0.0
 11
-1.0
 21
0.0
 31
0.0
  0
ENDBLK
  5
22C
330
22A
100
AcDbEntity
  8
0
100
AcDbBlockEnd
  0
BLOCK
  5
235
330
232
100
AcDbEntity
  8
0
100
AcDbBlockBegin
  2
_SE_FILLED
 70
     0
 10
0.0
 20
0.0
 30
0.0
  3
_SE_FILLED
  1
_SE_FILLED
  0
SOLID
  5
233
330
232
100
AcDbEntity
  8
0
 62
     0
100
AcDbTrace
 10
0.0
 20
0.0
 30
0.0
 11
-1.0
 21
-0.1665
 31
0.0
 12
-1.0
 22
0.1665
 32
0.0
 13
0.0
 23
0.0
 33
0.0
  0
LINE
  5
234
330
232
100
AcDbEntity
  8
0
 62
     0
100
AcDbLine
 10
0.0
 20
0.0
 30
0.0
 11
-1.0
 21
0.0
 31
0.0
  0
ENDBLK
  5
236
330
232
100
AcDbEntity
  8
0
100
AcDbBlockEnd
  0
BLOCK
  5
243
330
23B
100
AcDbEntity
  8
0
100
AcDbBlockBegin
  2
DMBLK4
 70
     0
 10
0.0
 20
0.0
 30
0.0
  3
DMBLK4
  1
DMBLK4
  0
HATCH
  5
23C
330
23B
100
AcDbEntity
  8
Cartouche
  6
Continuous
 62
     7
100
AcDbHatch
 10
0.0
 20
0.0
 30
0.0
210
0.0
220
0.0
230
1.0
  2
SOLID
 70
     1
 71
     0
 91
        1
 92
        1
 93
        3
 72
     1
 10
431.6113729140508
 20
399.9287125101163
 11
427.6113728792815
 21
423.9287127187325
 72
     1
 10
427.6113728792815
 20
423.9287127187325
 11
423.6113728445121
 21
399.9287125101163
 72
     1
 10
423.6113728445121
 20
399.9287125101163
 11
431.6113729140508
 21
399.9287125101163
 97
        0
 75
     0
 76
     1
 98
        0
  0
HATCH
  5
23D
330
23B
100
AcDbEntity
  8
Cartouche
  6
Continuous
 62
     7
100
AcDbHatch
 10
0.0
 20
0.0
 30
0.0
210
0.0
220
0.0
230
1.0
  2
SOLID
 70
     1
 71
     0
 91
        1
 92
        1
 93
        3
 72
     1
 10
431.6113729140508
 20
177.9287129273488
 11
423.6113728445121
 21
177.9287129273488
 72
     1
 10
423.6113728445121
 20
177.9287129273488
 11
427.6113728792815
 21
153.9287127187325
 72
     1
 10
427.6113728792815
 20
153.9287127187325
 11
431.6113729140508
 21
177.9287129273488
 97
        0
 75
     0
 76
     1
 98
        0
  0
LINE
  5
23E
330
23B
100
AcDbEntity
  8
Cartouche
  6
Continuous
 62
     7
100
AcDbLine
 10
278.1419227631
 20
423.9287127187
 30
0.0
 11
435.6113732593
 21
423.9287127187
 31
0.0
  0
LINE
  5
23F
330
23B
100
AcDbEntity
  8
Cartouche
  6
Continuous
 62
     7
100
AcDbLine
 10
368.2964861505
 20
153.9287127187
 30
0.0
 11
435.6113732593
 21
153.9287127187
 31
0.0
  0
LINE
  5
240
330
23B
100
AcDbEntity
  8
Cartouche
  6
Continuous
 62
     7
100
AcDbLine
 10
427.6113728793
 20
423.9287127187
 30
0.0
 11
427.6113728793
 21
302.5287066033
 31
0.0
  0
LINE
  5
241
330
23B
100
AcDbEntity
  8
Cartouche
  6
Continuous
 62
     7
100
AcDbLine
 10
427.6113728793
 20
275.328703933
 30
0.0
 11
427.6113728793
 21
153.9287127187
 31
0.0
  0
TEXT
  5
242
330
23B
100
AcDbEntity
  8
Cartouche
  6
Continuous
 62
     7
100
AcDbText
 10
409.4780395459
 20
280.9287073543
 30
0.0
 40
16.0
  1
270
  7
SEACAD_ArialB
 11
409.4780395459
 21
296.9287073543
 31
0.0
100
AcDbText
 73
     3
  0
ENDBLK
  5
244
330
23B
100
AcDbEntity
  8
0
100
AcDbBlockEnd
  0
BLOCK
  5
24E
330
246
100
AcDbEntity
  8
0
100
AcDbBlockBegin
  2
DMBLK5
 70
     0
 10
0.0
 20
0.0
 30
0.0
  3
DMBLK5
  1
DMBLK5
  0
HATCH
  5
247
330
246
100
AcDbEntity
  8
Cartouche
  6
Continuous
 62
     7
100
AcDbHatch
 10
0.0
 20
0.0
 30
0.0
210
0.0
220
0.0
230
1.0
  2
SOLID
 70
     1
 71
     0
 91
        1
 92
        1
 93
        3
 72
     1
 10
192.1419229717402
 20
472.2630545235968
 11
168.1419227631239
 21
468.2630544888274
 72
     1
 10
168.1419227631239
 20
468.2630544888274
 11
192.1419229717402
 21
464.2630544540581
 72
     1
 10
192.1419229717402
 20
464.2630544540581
 11
192.1419229717402
 21
472.2630545235968
 97
        0
 75
     0
 76
     1
 98
        0
  0
HATCH
  5
248
330
246
100
AcDbEntity
  8
Cartouche
  6
Continuous
 62
     7
100
AcDbHatch
 10
0.0
 20
0.0
 30
0.0
210
0.0
220
0.0
230
1.0
  2
SOLID
 70
     1
 71
     0
 91
        1
 92
        1
 93
        3
 72
     1
 10
364.1419225545077
 20
472.2630545235968
 11
364.1419225545077
 21
464.2630544540581
 72
     1
 10
364.1419225545077
 20
464.2630544540581
 11
388.141922763124
 21
468.2630544888274
 72
     1
 10
388.141922763124
 20
468.2630544888274
 11
364.1419225545077
 21
472.2630545235968
 97
        0
 75
     0
 76
     1
 98
        0
  0
LINE
  5
249
330
246
100
AcDbEntity
  8
Cartouche
  6
Continuous
 62
     7
100
AcDbLine
 10
168.1419227631
 20
388.9713382708
 30
0.0
 11
168.1419227631
 21
476.2630548688
 31
0.0
  0
LINE
  5
24A
330
246
100
AcDbEntity
  8
Cartouche
  6
Continuous
 62
     7
100
AcDbLine
 10
388.1419227631
 20
388.9713382708
 30
0.0
 11
388.1419227631
 21
476.2630548688
 31
0.0
  0
LINE
  5
24B
330
246
100
AcDbEntity
  8
Cartouche
  6
Continuous
 62
     7
100
AcDbLine
 10
168.1419227631
 20
468.2630544888
 30
0.0
 11
254.4085894139
 21
468.2630544888
 31
0.0
  0
LINE
  5
24C
330
246
100
AcDbEntity
  8
Cartouche
  6
Continuous
 62
     7
100
AcDbLine
 10
301.8752561124
 20
468.2630544888
 30
0.0
 11
388.1419227631
 21
468.2630544888
 31
0.0
  0
TEXT
  5
24D
330
246
100
AcDbEntity
  8
Cartouche
  6
Continuous
 62
     7
100
AcDbText
 10
260.0085888337
 20
460.2630544888
 30
0.0
 40
16.0
  1
220
  7
SEACAD_ArialB
 11
260.0085888337
 21
476.2630544888
 31
0.0
100
AcDbText
 73
     3
  0
ENDBLK
  5
24F
330
246
100
AcDbEntity
  8
0
100
AcDbBlockEnd
  0
BLOCK
  5
259
330
251
100
AcDbEntity
  8
0
100
AcDbBlockBegin
  2
DMBLK6
 70
     0
 10
0.0
 20
0.0
 30
0.0
  3
DMBLK6
  1
DMBLK6
  0
HATCH
  5
252
330
251
100
AcDbEntity
  8
Cartouche
  6
Continuous
 62
     7
100
AcDbHatch
 10
0.0
 20
0.0
 30
0.0
210
0.0
220
0.0
230
1.0
  2
SOLID
 70
     1
 71
     0
 91
        1
 92
        1
 93
        3
 72
     1
 10
73.58228616741452
 20
471.704446605446
 11
73.58228616741452
 21
463.7044465359073
 72
     1
 10
73.58228616741452
 20
463.7044465359073
 11
97.58228637603078
 21
467.7044465706766
 72
     1
 10
97.58228637603078
 20
467.7044465706766
 11
73.58228616741452
 21
471.704446605446
 97
        0
 75
     0
 76
     1
 98
        0
  0
HATCH
  5
253
330
251
100
AcDbEntity
  8
Cartouche
  6
Continuous
 62
     7
100
AcDbHatch
 10
0.0
 20
0.0
 30
0.0
210
0.0
220
0.0
230
1.0
  2
SOLID
 70
     1
 71
     0
 91
        1
 92
        1
 93
        3
 72
     1
 10
-31.29604886160037
 20
471.704446605446
 11
-55.29604907021663
 21
467.7044465706766
 72
     1
 10
-55.29604907021663
 20
467.7044465706766
 11
-31.29604886160037
 21
463.7044465359073
 72
     1
 10
-31.29604886160037
 20
463.7044465359073
 11
-31.29604886160037
 21
471.704446605446
 97
        0
 75
     0
 76
     1
 98
        0
  0
LINE
  5
254
330
251
100
AcDbEntity
  8
Cartouche
  6
Continuous
 62
     7
100
AcDbLine
 10
97.582286376
 20
388.9713450835
 30
0.0
 11
97.582286376
 21
475.7044469507
 31
0.0
  0
LINE
  5
255
330
251
100
AcDbEntity
  8
Cartouche
  6
Continuous
 62
     7
100
AcDbLine
 10
-55.2960490702
 20
191.0395541426
 30
0.0
 11
-55.2960490702
 21
475.7044469507
 31
0.0
  0
LINE
  5
256
330
251
100
AcDbEntity
  8
Cartouche
  6
Continuous
 62
     7
100
AcDbLine
 10
97.582286376
 20
467.7044465707
 30
0.0
 11
50.4764562133
 21
467.7044465707
 31
0.0
  0
LINE
  5
257
330
251
100
AcDbEntity
  8
Cartouche
  6
Continuous
 62
     7
100
AcDbLine
 10
-8.1902114569
 20
467.7044465707
 30
0.0
 11
-55.2960490702
 21
467.7044465707
 31
0.0
  0
TEXT
  5
258
330
251
100
AcDbEntity
  8
Cartouche
  6
Continuous
 62
     7
100
AcDbText
 10
-2.5902115362
 20
459.7044465707
 30
0.0
 40
16.0
  1
160
  7
SEACAD_ArialB
 11
-2.5902115362
 21
475.7044465707
 31
0.0
100
AcDbText
 73
     3
  0
ENDBLK
  5
25A
330
251
100
AcDbEntity
  8
0
100
AcDbBlockEnd
  0
ENDSEC
  0
SECTION
  2
ENTITIES
  0
LINE
  5
6F
330
1F
100
AcDbEntity
  8
encadrement
  6
Continuous
 62
     7
100
AcDbLine
 10
10.0
 20
80.035459542
 30
0.0
 11
200.0
 21
80.035459542
 31
0.0
  0
LINE
  5
70
330
1F
100
AcDbEntity
  8
encadrement
  6
Continuous
 62
     7
100
AcDbLine
 10
10.0
 20
65.035459542
 30
0.0
 11
200.0
 21
65.035459542
 31
0.0
  0
LINE
  5
71
330
1F
100
AcDbEntity
  8
encadrement
  6
Continuous
 62
     7
100
AcDbLine
 10
10.0
 20
55.035459542
 30
0.0
 11
200.0
 21
55.035459542
 31
0.0
  0
LINE
  5
72
330
1F
100
AcDbEntity
  8
encadrement
  6
Continuous
 62
     7
100
AcDbLine
 10
10.0
 20
45.035459542
 30
0.0
 11
200.0
 21
45.035459542
 31
0.0
  0
LINE
  5
73
330
1F
100
AcDbEntity
  8
encadrement
  6
Continuous
 62
     7
100
AcDbLine
 10
10.0
 20
35.035459542
 30
0.0
 11
200.0
 21
35.035459542
 31
0.0
  0
INSERT
  5
76
330
1F
100
AcDbEntity
  8
Cartouche
100
AcDbBlockReference
  2
SE
 10
0.0
 20
0.0
 30
0.0
  0
INSERT
  5
135
330
1F
100
AcDbEntity
  8
Cartouche
100
AcDbBlockReference
  2
SE1
 10
0.0
 20
0.0
 30
0.0
  0
INSERT
  5
166
330
1F
100
AcDbEntity
  8
Cartouche
100
AcDbBlockReference
  2
SE2
 10
0.0
 20
0.0
 30
0.0
  0
INSERT
  5
197
330
1F
100
AcDbEntity
  8
Cartouche
100
AcDbBlockReference
  2
SE3
 10
0.0
 20
0.0
 30
0.0
  0
INSERT
  5
1BA
330
1F
100
AcDbEntity
  8
Cartouche
100
AcDbBlockReference
  2
SE4
 10
0.0
 20
0.0
 30
0.0
  0
INSERT
  5
1EF
330
1F
100
AcDbEntity
  8
Cartouche
100
AcDbBlockReference
  2
SE5
 10
0.0
 20
0.0
 30
0.0
  0
DIMENSION
  5
239
330
1F
100
AcDbEntity
  8
Cartouche
  6
Continuous
 62
     7
100
AcDbDimension
  2
DMBLK4
 10
427.6113728793
 20
153.9287127187
 30
0.0
 11
427.6113728793
 21
288.9287073543
 31
0.0
 70
   160
  1
\A1;<>
 71
     5
 42
-1.0
 73
     0
 74
     0
 75
     0
  3
ISO
100
AcDbAlignedDimension
 13
278.1419227631
 23
423.9287127187
 33
0.0
 14
368.2964861505
 24
153.9287127187
 34
0.0
 50
90.0
100
AcDbRotatedDimension
  0
DIMENSION
  5
245
330
1F
100
AcDbEntity
  8
Cartouche
  6
Continuous
 62
     7
100
AcDbDimension
  2
DMBLK5
 10
168.1419227631
 20
468.2630544888
 30
0.0
 11
278.1419221671
 21
468.2630544888
 31
0.0
 70
   161
  1
\A1;<>
 71
     5
 42
-1.0
 73
     0
 74
     0
 75
     0
  3
ISO
100
AcDbAlignedDimension
 13
168.1419227631
 23
174.0526801335
 33
0.0
 14
388.1419227631
 24
174.0526801335
 34
0.0
  0
DIMENSION
  5
250
330
1F
100
AcDbEntity
  8
Cartouche
  6
Continuous
 62
     7
100
AcDbDimension
  2
DMBLK6
 10
-55.2960490702
 20
467.7044465707
 30
0.0
 11
21.1431217971
 21
467.7044465707
 31
0.0
 70
   160
  1
\A1;160 {}
 71
     5
 42
-1.0
 73
     0
 74
     0
 75
     0
  3
ISO
100
AcDbAlignedDimension
 13
97.582286376
 23
388.9713450835
 33
0.0
 14
-55.2960490702
 24
191.0395541426
 34
0.0
100
AcDbRotatedDimension
  0
ENDSEC
  0
SECTION
  2
OBJECTS
  0
DICTIONARY
  5
C
330
0
100
AcDbDictionary
281
     1
  3
ACAD_DETAILVIEWSTYLE
350
296
  3
ACAD_GROUP
350
D
  3
ACAD_LAYOUT
350
1A
  3
ACAD_MATERIAL
350
43
  3
ACAD_MLEADERSTYLE
350
6B
  3
ACAD_MLINESTYLE
350
17
  3
ACAD_PLOTSETTINGS
350
19
  3
ACAD_PLOTSTYLENAME
350
E
  3
ACAD_SCALELIST
350
47
  3
ACAD_SECTIONVIEWSTYLE
350
297
  3
ACAD_TABLESTYLE
350
69
  3
ACAD_VISUALSTYLE
350
2A
  3
ACDB_RECOMPOSE_DATA
350
293
  3
AcDbVariableDictionary
350
25B
  0
SUN
  5
6D
330
29
100
AcDbSun
 90
        1
290
     0
 63
     7
421
 16777215
 40
1.0
291
     1
 91
  2455826
 92
 54000000
292
     0
 70
     2
 71
   256
280
     1
  0
DICTIONARY
  5
296
102
{ACAD_REACTORS
330
C
102
}
330
C
100
AcDbDictionary
281
     1
  0
DICTIONARY
  5
D
102
{ACAD_REACTORS
330
C
102
}
330
C
100
AcDbDictionary
281
     1
  0
DICTIONARY
  5
1A
102
{ACAD_REACTORS
330
C
102
}
330
C
100
AcDbDictionary
281
     1
  3
Layout1
350
1E
  3
Model
350
22
  0
DICTIONARY
  5
43
102
{ACAD_REACTORS
330
C
102
}
330
C
100
AcDbDictionary
281
     1
  3
ByBlock
350
45
  3
ByLayer
350
44
  3
Global
350
46
  0
DICTIONARY
  5
6B
102
{ACAD_REACTORS
330
C
102
}
330
C
100
AcDbDictionary
281
     1
  3
Standard
350
6C
  0
DICTIONARY
  5
17
102
{ACAD_REACTORS
330
C
102
}
330
C
100
AcDbDictionary
281
     1
  3
Standard
350
18
  0
DICTIONARY
  5
19
102
{ACAD_REACTORS
330
C
102
}
330
C
100
AcDbDictionary
281
     1
  0
ACDBDICTIONARYWDFLT
  5
E
102
{ACAD_REACTORS
330
C
102
}
330
C
100
AcDbDictionary
281
     1
  3
Normal
350
F
100
AcDbDictionaryWithDefault
340
F
  0
DICTIONARY
  5
47
102
{ACAD_REACTORS
330
C
102
}
330
C
100
AcDbDictionary
281
     1
  3
A0
350
48
  3
A1
350
49
  3
A2
350
4A
  3
A3
350
4B
  3
A4
350
4C
  3
A5
350
4D
  3
A6
350
4E
  3
A7
350
4F
  3
A8
350
50
  3
A9
350
51
  3
B0
350
52
  3
B1
350
53
  3
B2
350
54
  3
B3
350
55
  3
B4
350
56
  3
B5
350
57
  3
B6
350
58
  3
B7
350
59
  3
B8
350
5A
  3
B9
350
5B
  3
C0
350
5C
  3
C1
350
5D
  3
C2
350
5E
  3
C3
350
5F
  3
C4
350
60
  3
C5
350
61
  3
C6
350
62
  3
C7
350
63
  3
C8
350
64
  3
C9
350
65
  3
D0
350
66
  3
D1
350
67
  3
D2
350
68
  0
DICTIONARY
  5
297
102
{ACAD_REACTORS
330
C
102
}
330
C
100
AcDbDictionary
281
     1
  0
DICTIONARY
  5
69
102
{ACAD_REACTORS
330
C
102
}
330
C
100
AcDbDictionary
281
     1
  3
Standard
350
6A
  0
DICTIONARY
  5
2A
102
{ACAD_REACTORS
330
C
102
}
330
C
100
AcDbDictionary
281
     1
  3
2dWireframe
350
2F
  3
Basic
350
32
  3
Brighten
350
36
  3
ColorChange
350
3A
  3
Conceptual
350
34
  3
Dim
350
35
  3
EdgeColorOff
350
3D
  3
Facepattern
350
39
  3
Flat
350
2B
  3
FlatWithEdges
350
2C
  3
Gouraud
350
2D
  3
GouraudWithEdges
350
2E
  3
Hidden
350
31
  3
JitterOff
350
3B
  3
Linepattern
350
38
  3
OverhangOff
350
3C
  3
Realistic
350
33
  3
Shaded
350
42
  3
Shaded with edges
350
41
  3
Shades of Gray
350
3E
  3
Sketchy
350
3F
  3
Thicken
350
37
  3
Wireframe
350
30
  3
X-Ray
350
40
  0
XRECORD
  5
293
102
{ACAD_REACTORS
330
C
102
}
330
C
100
AcDbXrecord
280
     1
 90
        1
330
6A
  0
DICTIONARY
  5
25B
102
{ACAD_REACTORS
330
C
102
}
330
C
100
AcDbDictionary
281
     1
  3
CANNOSCALE
350
25C
  3
CMLEADERSTYLE
350
295
  3
CTABLESTYLE
350
294
  3
XCLIPFRAME
350
25D
  0
LAYOUT
  5
1E
102
{ACAD_REACTORS
330
1A
102
}
330
1A
100
AcDbPlotSettings
  1

  2
none_device
  4

  6

 40
0.0
 41
0.0
 42
0.0
 43
0.0
 44
0.0
 45
0.0
 46
0.0
 47
0.0
 48
0.0
 49
0.0
140
0.0
141
0.0
142
1.0
143
1.0
 70
   688
 72
     1
 73
     0
 74
     5
  7

 75
    16
 76
     0
 77
     2
 78
   300
147
1.0
148
0.0
149
0.0
100
AcDbLayout
  1
Layout1
 70
     1
 71
     1
 10
0.0
 20
0.0
 11
550.0
 21
511.0
 12
0.0
 22
0.0
 32
0.0
 14
0.0
 24
0.0
 34
0.0
 15
550.0
 25
511.0
 35
0.0
146
0.0
 13
0.0
 23
0.0
 33
0.0
 16
1.0
 26
0.0
 36
0.0
 17
0.0
 27
1.0
 37
0.0
 76
     0
330
1B
  0
LAYOUT
  5
22
102
{ACAD_REACTORS
330
1A
102
}
330
1A
100
AcDbPlotSettings
  1

  2
none_device
  4
Letter_(8.50_x_11.00_Inches)
  6

 40
6.35
 41
6.35
 42
6.35000508
 43
6.35000508
 44
215.9
 45
279.4
 46
0.0
 47
0.0
 48
0.0
 49
0.0
140
0.0
141
0.0
142
1.0
143
1.0
 70
  1712
 72
     1
 73
     0
 74
     0
  7

 75
     0
 76
     0
 77
     2
 78
   300
147
1.0
148
0.0
149
0.0
100
AcDbLayout
  1
Model
 70
     1
 71
     0
 10
0.0
 20
0.0
 11
550.0
 21
511.0
 12
0.0
 22
0.0
 32
0.0
 14
0.0
 24
0.0
 34
0.0
 15
550.0
 25
511.0
 35
0.0
146
0.0
 13
0.0
 23
0.0
 33
0.0
 16
1.0
 26
0.0
 36
0.0
 17
0.0
 27
1.0
 37
0.0
 76
     0
330
1F
331
29
  0
MATERIAL
  5
45
102
{ACAD_REACTORS
330
43
102
}
330
43
100
AcDbMaterial
  1
ByBlock
 72
     1
 94
      127
  0
MATERIAL
  5
44
102
{ACAD_REACTORS
330
43
102
}
330
43
100
AcDbMaterial
  1
ByLayer
 72
     1
 94
      127
  0
MATERIAL
  5
46
102
{ACAD_REACTORS
330
43
102
}
330
43
100
AcDbMaterial
  1
Global
 72
     1
 94
      127
  0
MLEADERSTYLE
  5
6C
102
{ACAD_REACTORS
330
6B
102
}
102
{ACAD_XDICTIONARY
360
291
102
}
330
6B
100
AcDbMLeaderStyle
170
     2
171
     1
172
     0
 90
        2
 40
0.0
 41
0.0
173
     1
 91
-1056964608
340
14
 92
       -2
290
     1
 42
2.0
291
     1
 43
8.0
  3
Standard
341
0
 44
4.0
300

342
11
174
     1
178
     6
175
     1
176
     0
 93
-1056964608
 45
4.0
292
     0
297
     0
 46
4.0
343
0
 94
-1056964608
 47
1.0
 49
1.0
140
1.0
293
     1
141
0.0
294
     1
177
     0
142
1.0
295
     0
296
     0
143
3.75
1001
ACAD_MLEADERVER
1070
     2
  0
MLINESTYLE
  5
18
102
{ACAD_REACTORS
330
17
102
}
330
17
100
AcDbMlineStyle
  2
Standard
 70
     0
  3

 62
   256
 51
90.0
 52
90.0
 71
     2
 49
0.5
 62
   256
  6
BYLAYER
 49
-0.5
 62
   256
  6
BYLAYER
  0
ACDBPLACEHOLDER
  5
F
102
{ACAD_REACTORS
330
E
102
}
330
E
  0
SCALE
  5
48
102
{ACAD_REACTORS
330
47
102
}
330
47
100
AcDbScale
 70
     0
300
1:1
140
1.0
141
1.0
290
     1
  0
SCALE
  5
49
102
{ACAD_REACTORS
330
47
102
}
330
47
100
AcDbScale
 70
     0
300
1:2
140
1.0
141
2.0
290
     0
  0
SCALE
  5
4A
102
{ACAD_REACTORS
330
47
102
}
330
47
100
AcDbScale
 70
     0
300
1:4
140
1.0
141
4.0
290
     0
  0
SCALE
  5
4B
102
{ACAD_REACTORS
330
47
102
}
330
47
100
AcDbScale
 70
     0
300
1:5
140
1.0
141
5.0
290
     0
  0
SCALE
  5
4C
102
{ACAD_REACTORS
330
47
102
}
330
47
100
AcDbScale
 70
     0
300
1:8
140
1.0
141
8.0
290
     0
  0
SCALE
  5
4D
102
{ACAD_REACTORS
330
47
102
}
330
47
100
AcDbScale
 70
     0
300
1:10
140
1.0
141
10.0
290
     0
  0
SCALE
  5
4E
102
{ACAD_REACTORS
330
47
102
}
330
47
100
AcDbScale
 70
     0
300
1:16
140
1.0
141
16.0
290
     0
  0
SCALE
  5
4F
102
{ACAD_REACTORS
330
47
102
}
330
47
100
AcDbScale
 70
     0
300
1:20
140
1.0
141
20.0
290
     0
  0
SCALE
  5
50
102
{ACAD_REACTORS
330
47
102
}
330
47
100
AcDbScale
 70
     0
300
1:30
140
1.0
141
30.0
290
     0
  0
SCALE
  5
51
102
{ACAD_REACTORS
330
47
102
}
330
47
100
AcDbScale
 70
     0
300
1:40
140
1.0
141
40.0
290
     0
  0
SCALE
  5
52
102
{ACAD_REACTORS
330
47
102
}
330
47
100
AcDbScale
 70
     0
300
1:50
140
1.0
141
50.0
290
     0
  0
SCALE
  5
53
102
{ACAD_REACTORS
330
47
102
}
330
47
100
AcDbScale
 70
     0
300
1:100
140
1.0
141
100.0
290
     0
  0
SCALE
  5
54
102
{ACAD_REACTORS
330
47
102
}
330
47
100
AcDbScale
 70
     0
300
2:1
140
2.0
141
1.0
290
     0
  0
SCALE
  5
55
102
{ACAD_REACTORS
330
47
102
}
330
47
100
AcDbScale
 70
     0
300
4:1
140
4.0
141
1.0
290
     0
  0
SCALE
  5
56
102
{ACAD_REACTORS
330
47
102
}
330
47
100
AcDbScale
 70
     0
300
8:1
140
8.0
141
1.0
290
     0
  0
SCALE
  5
57
102
{ACAD_REACTORS
330
47
102
}
330
47
100
AcDbScale
 70
     0
300
10:1
140
10.0
141
1.0
290
     0
  0
SCALE
  5
58
102
{ACAD_REACTORS
330
47
102
}
330
47
100
AcDbScale
 70
     0
300
100:1
140
100.0
141
1.0
290
     0
  0
SCALE
  5
59
102
{ACAD_REACTORS
330
47
102
}
330
47
100
AcDbScale
 70
     0
300
1/128" = 1'-0"
140
0.0078125
141
12.0
290
     0
  0
SCALE
  5
5A
102
{ACAD_REACTORS
330
47
102
}
330
47
100
AcDbScale
 70
     0
300
1/64" = 1'-0"
140
0.015625
141
12.0
290
     0
  0
SCALE
  5
5B
102
{ACAD_REACTORS
330
47
102
}
330
47
100
AcDbScale
 70
     0
300
1/32" = 1'-0"
140
0.03125
141
12.0
290
     0
  0
SCALE
  5
5C
102
{ACAD_REACTORS
330
47
102
}
330
47
100
AcDbScale
 70
     0
300
1/16" = 1'-0"
140
0.0625
141
12.0
290
     0
  0
SCALE
  5
5D
102
{ACAD_REACTORS
330
47
102
}
330
47
100
AcDbScale
 70
     0
300
3/32" = 1'-0"
140
0.09375
141
12.0
290
     0
  0
SCALE
  5
5E
102
{ACAD_REACTORS
330
47
102
}
330
47
100
AcDbScale
 70
     0
300
1/8" = 1'-0"
140
0.125
141
12.0
290
     0
  0
SCALE
  5
5F
102
{ACAD_REACTORS
330
47
102
}
330
47
100
AcDbScale
 70
     0
300
3/16" = 1'-0"
140
0.1875
141
12.0
290
     0
  0
SCALE
  5
60
102
{ACAD_REACTORS
330
47
102
}
330
47
100
AcDbScale
 70
     0
300
1/4" = 1'-0"
140
0.25
141
12.0
290
     0
  0
SCALE
  5
61
102
{ACAD_REACTORS
330
47
102
}
330
47
100
AcDbScale
 70
     0
300
3/8" = 1'-0"
140
0.375
141
12.0
290
     0
  0
SCALE
  5
62
102
{ACAD_REACTORS
330
47
102
}
330
47
100
AcDbScale
 70
     0
300
1/2" = 1'-0"
140
0.5
141
12.0
290
     0
  0
SCALE
  5
63
102
{ACAD_REACTORS
330
47
102
}
330
47
100
AcDbScale
 70
     0
300
3/4" = 1'-0"
140
0.75
141
12.0
290
     0
  0
SCALE
  5
64
102
{ACAD_REACTORS
330
47
102
}
330
47
100
AcDbScale
 70
     0
300
1" = 1'-0"
140
1.0
141
12.0
290
     0
  0
SCALE
  5
65
102
{ACAD_REACTORS
330
47
102
}
330
47
100
AcDbScale
 70
     0
300
1-1/2" = 1'-0"
140
1.5
141
12.0
290
     0
  0
SCALE
  5
66
102
{ACAD_REACTORS
330
47
102
}
330
47
100
AcDbScale
 70
     0
300
3" = 1'-0"
140
3.0
141
12.0
290
     0
  0
SCALE
  5
67
102
{ACAD_REACTORS
330
47
102
}
330
47
100
AcDbScale
 70
     0
300
6" = 1'-0"
140
6.0
141
12.0
290
     0
  0
SCALE
  5
68
102
{ACAD_REACTORS
330
47
102
}
330
47
100
AcDbScale
 70
     0
300
1'-0" = 1'-0"
140
12.0
141
12.0
290
     0
  0
TABLESTYLE
  5
6A
102
{ACAD_REACTORS
330
69
102
}
102
{ACAD_XDICTIONARY
360
28E
102
}
330
69
100
AcDbTableStyle
  3
Standard
 70
     0
 71
     0
 40
0.06
 41
0.06
280
     0
281
     0
  7
Standard
140
4.5
170
     2
 62
     0
 63
   257
283
     0
 90
        4
 91
        0
  1

274
    -2
284
     1
 64
     0
275
    -2
285
     1
 65
     0
276
    -2
286
     1
 66
     0
277
    -2
287
     1
 67
     0
278
    -2
288
     1
 68
     0
279
    -2
289
     1
 69
     0
  7
Standard
140
6.0
170
     5
 62
     0
 63
   257
283
     0
 90
        4
 91
        0
  1

274
    -2
284
     1
 64
     0
275
    -2
285
     1
 65
     0
276
    -2
286
     1
 66
     0
277
    -2
287
     1
 67
     0
278
    -2
288
     1
 68
     0
279
    -2
289
     1
 69
     0
  7
Standard
140
4.5
170
     5
 62
     0
 63
   257
283
     0
 90
        4
 91
        0
  1

274
    -2
284
     1
 64
     0
275
    -2
285
     1
 65
     0
276
    -2
286
     1
 66
     0
277
    -2
287
     1
 67
     0
278
    -2
288
     1
 68
     0
279
    -2
289
     1
 69
     0
  0
VISUALSTYLE
  5
2F
102
{ACAD_REACTORS
330
2A
102
}
102
{ACAD_XDICTIONARY
360
266
102
}
330
2A
100
AcDbVisualStyle
  2
2dWireframe
 70
     4
 71
     0
 72
     2
 73
     0
 90
        0
 40
0.6
 41
30.0
 62
     5
 63
     7
421
 16777215
 74
     1
 91
        4
 64
     7
 65
   257
 75
     1
175
     1
 42
1.0
 92
        0
 66
   257
 43
1.0
 76
     1
 77
     6
 78
     2
 67
     7
 79
     5
170
     0
171
     0
290
     0
174
     0
 93
        1
 44
0.0
173
     0
291
     0
 45
0.0
  0
VISUALSTYLE
  5
32
102
{ACAD_REACTORS
330
2A
102
}
102
{ACAD_XDICTIONARY
360
26C
102
}
330
2A
100
AcDbVisualStyle
  2
Basic
 70
     7
 71
     1
 72
     0
 73
     1
 90
        0
 40
0.6
 41
30.0
 62
     5
 63
     7
421
 16777215
 74
     0
 91
        4
 64
     7
 65
   257
 75
     1
175
     1
 42
1.0
 92
        8
 66
     7
 43
1.0
 76
     1
 77
     6
 78
     2
 67
     7
 79
     5
170
     0
171
     0
290
     0
174
     0
 93
        1
 44
0.0
173
     0
291
     1
 45
0.0
  0
VISUALSTYLE
  5
36
102
{ACAD_REACTORS
330
2A
102
}
102
{ACAD_XDICTIONARY
360
274
102
}
330
2A
100
AcDbVisualStyle
  2
Brighten
 70
    12
 71
     2
 72
     2
 73
     0
 90
        0
 40
0.6
 41
30.0
 62
     5
 63
     7
421
 16777215
 74
     1
 91
        4
 64
     7
 65
   257
 75
     1
175
     1
 42
1.0
 92
        8
 66
     7
 43
1.0
 76
     1
 77
     6
 78
     2
 67
     7
 79
     5
170
     0
171
     0
290
     0
174
     0
 93
        1
 44
50.0
173
     0
291
     1
 45
0.0
  0
VISUALSTYLE
  5
3A
102
{ACAD_REACTORS
330
2A
102
}
102
{ACAD_XDICTIONARY
360
27C
102
}
330
2A
100
AcDbVisualStyle
  2
ColorChange
 70
    16
 71
     2
 72
     2
 73
     3
 90
        0
 40
0.6
 41
30.0
 62
     5
 63
     8
421
  8421504
 74
     1
 91
        4
 64
     7
 65
   257
 75
     1
175
     1
 42
1.0
 92
        8
 66
     8
424
  8421504
 43
1.0
 76
     1
 77
     6
 78
     2
 67
     7
 79
     5
170
     0
171
     0
290
     0
174
     0
 93
        1
 44
0.0
173
     0
291
     1
 45
0.0
  0
VISUALSTYLE
  5
34
102
{ACAD_REACTORS
330
2A
102
}
102
{ACAD_XDICTIONARY
360
270
102
}
330
2A
100
AcDbVisualStyle
  2
Conceptual
 70
     9
 71
     3
 72
     2
 73
     0
 90
        0
 40
0.6
 41
30.0
 62
     5
 63
     7
421
 16777215
 74
     2
 91
        2
 64
     7
 65
   257
 75
     1
175
     1
 42
179.0
 92
        8
 66
     7
 43
1.0
 76
     1
 77
     6
 78
     2
 67
     7
 79
     3
170
     0
171
     0
290
     0
174
     0
 93
        1
 44
0.0
173
     0
291
     0
 45
0.0
  0
VISUALSTYLE
  5
35
102
{ACAD_REACTORS
330
2A
102
}
102
{ACAD_XDICTIONARY
360
272
102
}
330
2A
100
AcDbVisualStyle
  2
Dim
 70
    11
 71
     2
 72
     2
 73
     0
 90
        0
 40
0.6
 41
30.0
 62
     5
 63
     7
421
 16777215
 74
     1
 91
        4
 64
     7
 65
   257
 75
     1
175
     1
 42
1.0
 92
        8
 66
     7
 43
1.0
 76
     1
 77
     6
 78
     2
 67
     7
 79
     5
170
     0
171
     0
290
     0
174
     0
 93
        1
 44
-50.0
173
     0
291
     1
 45
0.0
  0
VISUALSTYLE
  5
3D
102
{ACAD_REACTORS
330
2A
102
}
102
{ACAD_XDICTIONARY
360
282
102
}
330
2A
100
AcDbVisualStyle
  2
EdgeColorOff
 70
    22
 71
     2
 72
     2
 73
     0
 90
        0
 40
0.6
 41
30.0
 62
     5
 63
     7
421
 16777215
 74
     1
 91
        4
 64
     7
 65
   257
 75
     1
175
     1
 42
1.0
 92
        8
 66
     7
 43
1.0
 76
     1
 77
     6
 78
     2
 67
     7
 79
     5
170
     0
171
     0
290
     0
174
     0
 93
        1
 44
0.0
173
     0
291
     1
 45
0.0
  0
VISUALSTYLE
  5
39
102
{ACAD_REACTORS
330
2A
102
}
102
{ACAD_XDICTIONARY
360
27A
102
}
330
2A
100
AcDbVisualStyle
  2
Facepattern
 70
    15
 71
     2
 72
     2
 73
     0
 90
        0
 40
0.6
 41
30.0
 62
     5
 63
     7
421
 16777215
 74
     1
 91
        4
 64
     7
 65
   257
 75
     1
175
     1
 42
1.0
 92
        8
 66
     7
 43
1.0
 76
     1
 77
     6
 78
     2
 67
     7
 79
     5
170
     0
171
     0
290
     0
174
     0
 93
        1
 44
0.0
173
     0
291
     1
 45
0.0
  0
VISUALSTYLE
  5
2B
102
{ACAD_REACTORS
330
2A
102
}
102
{ACAD_XDICTIONARY
360
25E
102
}
330
2A
100
AcDbVisualStyle
  2
Flat
 70
     0
 71
     2
 72
     1
 73
     1
 90
        2
 40
0.6
 41
30.0
 62
     5
 63
     7
421
 16777215
 74
     0
 91
        0
 64
     7
 65
   257
 75
     1
175
     1
 42
1.0
 92
        8
 66
     7
 43
1.0
 76
     1
 77
     6
 78
     2
 67
     7
 79
     5
170
     0
171
     0
290
     0
174
     0
 93
       13
 44
0.0
173
     0
291
     1
 45
0.0
  0
VISUALSTYLE
  5
2C
102
{ACAD_REACTORS
330
2A
102
}
102
{ACAD_XDICTIONARY
360
260
102
}
330
2A
100
AcDbVisualStyle
  2
FlatWithEdges
 70
     1
 71
     2
 72
     1
 73
     1
 90
        2
 40
0.6
 41
30.0
 62
     5
 63
     7
421
 16777215
 74
     1
 91
        0
 64
     7
 65
   257
 75
     1
175
     1
 42
1.0
 92
        0
 66
   257
 43
1.0
 76
     1
 77
     6
 78
     2
 67
     7
 79
     5
170
     0
171
     0
290
     0
174
     0
 93
       13
 44
0.0
173
     0
291
     1
 45
0.0
  0
VISUALSTYLE
  5
2D
102
{ACAD_REACTORS
330
2A
102
}
102
{ACAD_XDICTIONARY
360
262
102
}
330
2A
100
AcDbVisualStyle
  2
Gouraud
 70
     2
 71
     2
 72
     2
 73
     1
 90
        2
 40
0.6
 41
30.0
 62
     5
 63
     7
421
 16777215
 74
     0
 91
        0
 64
     7
 65
   257
 75
     1
175
     1
 42
1.0
 92
        0
 66
     7
 43
1.0
 76
     1
 77
     6
 78
     2
 67
     7
 79
     5
170
     0
171
     0
290
     0
174
     0
 93
       13
 44
0.0
173
     0
291
     1
 45
0.0
  0
VISUALSTYLE
  5
2E
102
{ACAD_REACTORS
330
2A
102
}
102
{ACAD_XDICTIONARY
360
264
102
}
330
2A
100
AcDbVisualStyle
  2
GouraudWithEdges
 70
     3
 71
     2
 72
     2
 73
     1
 90
        2
 40
0.6
 41
30.0
 62
     5
 63
     7
421
 16777215
 74
     1
 91
        0
 64
     7
 65
   257
 75
     1
175
     1
 42
1.0
 92
        0
 66
   257
 43
1.0
 76
     1
 77
     6
 78
     2
 67
     7
 79
     5
170
     0
171
     0
290
     0
174
     0
 93
       13
 44
0.0
173
     0
291
     1
 45
0.0
  0
VISUALSTYLE
  5
31
102
{ACAD_REACTORS
330
2A
102
}
102
{ACAD_XDICTIONARY
360
26A
102
}
330
2A
100
AcDbVisualStyle
  2
Hidden
 70
     6
 71
     1
 72
     2
 73
     2
 90
        0
 40
0.6
 41
30.0
 62
     5
 63
     7
421
 16777215
 74
     2
 91
        2
 64
     7
 65
   257
 75
     2
175
     1
 42
40.0
 92
        0
 66
   257
 43
1.0
 76
     1
 77
     6
 78
     2
 67
     7
 79
     3
170
     0
171
     0
290
     0
174
     0
 93
        1
 44
0.0
173
     0
291
     0
 45
0.0
  0
VISUALSTYLE
  5
3B
102
{ACAD_REACTORS
330
2A
102
}
102
{ACAD_XDICTIONARY
360
27E
102
}
330
2A
100
AcDbVisualStyle
  2
JitterOff
 70
    20
 71
     2
 72
     2
 73
     0
 90
        0
 40
0.6
 41
30.0
 62
     5
 63
     7
421
 16777215
 74
     1
 91
        4
 64
     7
 65
   257
 75
     1
175
     1
 42
1.0
 92
       10
 66
     7
 43
1.0
 76
     1
 77
     6
 78
     2
 67
     7
 79
     5
170
     0
171
     0
290
     0
174
     0
 93
        1
 44
0.0
173
     0
291
     1
 45
0.0
  0
VISUALSTYLE
  5
38
102
{ACAD_REACTORS
330
2A
102
}
102
{ACAD_XDICTIONARY
360
278
102
}
330
2A
100
AcDbVisualStyle
  2
Linepattern
 70
    14
 71
     2
 72
     2
 73
     0
 90
        0
 40
0.6
 41
30.0
 62
     5
 63
     7
421
 16777215
 74
     1
 91
        4
 64
     7
 65
   257
 75
     7
175
     7
 42
1.0
 92
        8
 66
     7
 43
1.0
 76
     1
 77
     6
 78
     2
 67
     7
 79
     5
170
     0
171
     0
290
     0
174
     0
 93
        1
 44
0.0
173
     0
291
     1
 45
0.0
  0
VISUALSTYLE
  5
3C
102
{ACAD_REACTORS
330
2A
102
}
102
{ACAD_XDICTIONARY
360
280
102
}
330
2A
100
AcDbVisualStyle
  2
OverhangOff
 70
    21
 71
     2
 72
     2
 73
     0
 90
        0
 40
0.6
 41
30.0
 62
     5
 63
     7
421
 16777215
 74
     1
 91
        4
 64
     7
 65
   257
 75
     1
175
     1
 42
1.0
 92
        9
 66
     7
 43
1.0
 76
     1
 77
     6
 78
     2
 67
     7
 79
     5
170
     0
171
     0
290
     0
174
     0
 93
        1
 44
0.0
173
     0
291
     1
 45
0.0
  0
VISUALSTYLE
  5
33
102
{ACAD_REACTORS
330
2A
102
}
102
{ACAD_XDICTIONARY
360
26E
102
}
330
2A
100
AcDbVisualStyle
  2
Realistic
 70
     8
 71
     2
 72
     3
 73
     0
 90
        2
 40
0.6
 41
30.0
 62
     5
 63
     7
421
 16777215
 74
     0
 91
        0
 64
     7
 65
   257
 75
     1
175
     1
 42
1.0
 92
        8
 66
   257
 43
1.0
 76
     1
 77
     6
 78
     2
 67
     7
 79
     3
170
     0
171
     0
290
     0
174
     0
 93
       13
 44
0.0
173
     0
291
     0
 45
0.0
  0
VISUALSTYLE
  5
42
102
{ACAD_REACTORS
330
2A
102
}
102
{ACAD_XDICTIONARY
360
28C
102
}
330
2A
100
AcDbVisualStyle
  2
Shaded
 70
    27
 71
     2
 72
     2
 73
     1
 90
        2
 40
0.6
 41
30.0
 62
     5
 63
     7
421
 16777215
 74
     0
 91
        4
 64
     7
 65
   257
 75
     1
175
     1
 42
1.0
 92
        8
 66
   257
 43
1.0
 76
     1
 77
     6
 78
     2
 67
     8
425
  7895160
 79
     3
170
     0
171
     0
290
     0
174
     0
 93
        5
 44
0.0
173
     0
291
     0
 45
0.0
  0
VISUALSTYLE
  5
41
102
{ACAD_REACTORS
330
2A
102
}
102
{ACAD_XDICTIONARY
360
28A
102
}
330
2A
100
AcDbVisualStyle
  2
Shaded with edges
 70
    26
 71
     2
 72
     2
 73
     1
 90
        2
 40
0.6
 41
30.0
 62
     5
 63
     7
421
 16777215
 74
     1
 91
       10
 64
     7
 65
   257
 75
     2
175
     1
 42
1.0
 92
        8
 66
   257
 43
1.0
 76
     1
 77
     6
 78
     2
 67
     7
 79
     3
170
     0
171
     0
290
     0
174
     0
 93
        5
 44
0.0
173
     0
291
     0
 45
0.0
  0
VISUALSTYLE
  5
3E
102
{ACAD_REACTORS
330
2A
102
}
102
{ACAD_XDICTIONARY
360
284
102
}
330
2A
100
AcDbVisualStyle
  2
Shades of Gray
 70
    23
 71
     2
 72
     2
 73
     3
 90
        0
 40
0.6
 41
30.0
 62
     5
 63
     7
421
 16777215
 74
     2
 91
        2
 64
     7
 65
     7
 75
     1
175
     1
 42
40.0
 92
        8
 66
     7
 43
1.0
 76
     1
 77
     6
 78
     2
 67
     7
 79
     3
170
     0
171
     0
290
     0
174
     0
 93
        1
 44
0.0
173
     0
291
     0
 45
0.0
  0
VISUALSTYLE
  5
3F
102
{ACAD_REACTORS
330
2A
102
}
102
{ACAD_XDICTIONARY
360
286
102
}
330
2A
100
AcDbVisualStyle
  2
Sketchy
 70
    24
 71
     1
 72
     2
 73
     2
 90
        0
 40
0.6
 41
30.0
 62
     5
 63
     7
421
 16777215
 74
     2
 91
        2
 64
     7
 65
     7
 75
     1
175
     1
 42
40.0
 92
       11
 66
     7
 43
1.0
 76
     1
 77
     6
 78
     2
 67
     7
 79
     6
170
     0
171
     0
290
     0
174
     0
 93
        1
 44
0.0
173
     0
291
     0
 45
0.0
  0
VISUALSTYLE
  5
37
102
{ACAD_REACTORS
330
2A
102
}
102
{ACAD_XDICTIONARY
360
276
102
}
330
2A
100
AcDbVisualStyle
  2
Thicken
 70
    13
 71
     2
 72
     2
 73
     0
 90
        0
 40
0.6
 41
30.0
 62
     5
 63
     7
421
 16777215
 74
     1
 91
        4
 64
     7
 65
   257
 75
     1
175
     1
 42
1.0
 92
       12
 66
     7
 43
1.0
 76
     1
 77
     6
 78
     2
 67
     7
 79
     5
170
     0
171
     0
290
     0
174
     0
 93
        1
 44
0.0
173
     0
291
     1
 45
0.0
  0
VISUALSTYLE
  5
30
102
{ACAD_REACTORS
330
2A
102
}
102
{ACAD_XDICTIONARY
360
268
102
}
330
2A
100
AcDbVisualStyle
  2
Wireframe
 70
     5
 71
     0
 72
     2
 73
     0
 90
        0
 40
0.6
 41
30.0
 62
     5
 63
     7
421
 16777215
 74
     1
 91
        4
 64
     7
 65
   257
 75
     1
175
     1
 42
1.0
 92
        0
 66
   257
 43
1.0
 76
     1
 77
     6
 78
     2
 67
     7
 79
     3
170
     0
171
     0
290
     0
174
     0
 93
        1
 44
0.0
173
     0
291
     0
 45
0.0
  0
VISUALSTYLE
  5
40
102
{ACAD_REACTORS
330
2A
102
}
102
{ACAD_XDICTIONARY
360
288
102
}
330
2A
100
AcDbVisualStyle
  2
X-Ray
 70
    25
 71
     2
 72
     2
 73
     1
 90
        1
 40
0.5
 41
30.0
 62
     5
 63
     7
421
 16777215
 74
     1
 91
        0
 64
     7
 65
   257
 75
     1
175
     1
 42
1.0
 92
        8
 66
     7
 43
1.0
 76
     1
 77
     6
 78
     2
 67
     7
 79
     3
170
     0
171
     0
290
     0
174
     0
 93
       13
 44
0.0
173
     0
291
     0
 45
0.0
  0
DICTIONARYVAR
  5
25C
102
{ACAD_REACTORS
330
25B
102
}
330
25B
100
DictionaryVariables
280
     0
  1
1:1
  0
DICTIONARYVAR
  5
295
102
{ACAD_REACTORS
330
25B
102
}
330
25B
100
DictionaryVariables
280
     0
  1
Standard
  0
DICTIONARYVAR
  5
294
102
{ACAD_REACTORS
330
25B
102
}
330
25B
100
DictionaryVariables
280
     0
  1
Standard
  0
DICTIONARYVAR
  5
25D
102
{ACAD_REACTORS
330
25B
102
}
330
25B
100
DictionaryVariables
280
     0
  1
2
  0
DICTIONARY
  5
291
330
6C
100
AcDbDictionary
280
     1
281
     1
  3
ACAD_XREC_ROUNDTRIP
360
292
  0
DICTIONARY
  5
28E
330
6A
100
AcDbDictionary
280
     1
281
     1
  3
ACAD_ROUNDTRIP_2008_TABLESTYLE_CELLSTYLEMAP
360
28F
  0
DICTIONARY
  5
266
330
2F
100
AcDbDictionary
280
     1
281
     1
  3
ACAD_XREC_ROUNDTRIP
360
267
  0
DICTIONARY
  5
26C
330
32
100
AcDbDictionary
280
     1
281
     1
  3
ACAD_XREC_ROUNDTRIP
360
26D
  0
DICTIONARY
  5
274
330
36
100
AcDbDictionary
280
     1
281
     1
  3
ACAD_XREC_ROUNDTRIP
360
275
  0
DICTIONARY
  5
27C
330
3A
100
AcDbDictionary
280
     1
281
     1
  3
ACAD_XREC_ROUNDTRIP
360
27D
  0
DICTIONARY
  5
270
330
34
100
AcDbDictionary
280
     1
281
     1
  3
ACAD_XREC_ROUNDTRIP
360
271
  0
DICTIONARY
  5
272
330
35
100
AcDbDictionary
280
     1
281
     1
  3
ACAD_XREC_ROUNDTRIP
360
273
  0
DICTIONARY
  5
282
330
3D
100
AcDbDictionary
280
     1
281
     1
  3
ACAD_XREC_ROUNDTRIP
360
283
  0
DICTIONARY
  5
27A
330
39
100
AcDbDictionary
280
     1
281
     1
  3
ACAD_XREC_ROUNDTRIP
360
27B
  0
DICTIONARY
  5
25E
330
2B
100
AcDbDictionary
280
     1
281
     1
  3
ACAD_XREC_ROUNDTRIP
360
25F
  0
DICTIONARY
  5
260
330
2C
100
AcDbDictionary
280
     1
281
     1
  3
ACAD_XREC_ROUNDTRIP
360
261
  0
DICTIONARY
  5
262
330
2D
100
AcDbDictionary
280
     1
281
     1
  3
ACAD_XREC_ROUNDTRIP
360
263
  0
DICTIONARY
  5
264
330
2E
100
AcDbDictionary
280
     1
281
     1
  3
ACAD_XREC_ROUNDTRIP
360
265
  0
DICTIONARY
  5
26A
330
31
100
AcDbDictionary
280
     1
281
     1
  3
ACAD_XREC_ROUNDTRIP
360
26B
  0
DICTIONARY
  5
27E
330
3B
100
AcDbDictionary
280
     1
281
     1
  3
ACAD_XREC_ROUNDTRIP
360
27F
  0
DICTIONARY
  5
278
330
38
100
AcDbDictionary
280
     1
281
     1
  3
ACAD_XREC_ROUNDTRIP
360
279
  0
DICTIONARY
  5
280
330
3C
100
AcDbDictionary
280
     1
281
     1
  3
ACAD_XREC_ROUNDTRIP
360
281
  0
DICTIONARY
  5
26E
330
33
100
AcDbDictionary
280
     1
281
     1
  3
ACAD_XREC_ROUNDTRIP
360
26F
  0
DICTIONARY
  5
28C
330
42
100
AcDbDictionary
280
     1
281
     1
  3
ACAD_XREC_ROUNDTRIP
360
28D
  0
DICTIONARY
  5
28A
330
41
100
AcDbDictionary
280
     1
281
     1
  3
ACAD_XREC_ROUNDTRIP
360
28B
  0
DICTIONARY
  5
284
330
3E
100
AcDbDictionary
280
     1
281
     1
  3
ACAD_XREC_ROUNDTRIP
360
285
  0
DICTIONARY
  5
286
330
3F
100
AcDbDictionary
280
     1
281
     1
  3
ACAD_XREC_ROUNDTRIP
360
287
  0
DICTIONARY
  5
276
330
37
100
AcDbDictionary
280
     1
281
     1
  3
ACAD_XREC_ROUNDTRIP
360
277
  0
DICTIONARY
  5
268
330
30
100
AcDbDictionary
280
     1
281
     1
  3
ACAD_XREC_ROUNDTRIP
360
269
  0
DICTIONARY
  5
288
330
40
100
AcDbDictionary
280
     1
281
     1
  3
ACAD_XREC_ROUNDTRIP
360
289
  0
XRECORD
  5
292
102
{ACAD_REACTORS
330
291
102
}
330
291
100
AcDbXrecord
280
     1
102
ACAD_ROUNDTRIP_2010_MLEADER_STYLE
  0
CELLSTYLEMAP
  5
28F
102
{ACAD_REACTORS
330
28E
102
}
330
28E
100
AcDbCellStyleMap
 90
        3
300
CELLSTYLE
  1
TABLEFORMAT_BEGIN
 90
        5
170
     1
 91
        0
 92
    32768
 62
   257
 93
        1
300
CONTENTFORMAT
  1
CONTENTFORMAT_BEGIN
 90
        0
 91
        0
 92
        4
 93
        0
300

 40
0.0
140
1.0
 94
        5
 62
     0
340
11
144
6.0
309
CONTENTFORMAT_END
171
     1
301
MARGIN
  1
CELLMARGIN_BEGIN
 40
1.5
 40
1.5
 40
1.5
 40
1.5
 40
1.5
 40
1.5
309
CELLMARGIN_END
 94
        6
 95
        1
302
GRIDFORMAT
  1
GRIDFORMAT_BEGIN
 90
        0
 91
        1
 62
     0
 92
       -2
340
14
 93
        0
 40
0.045
309
GRIDFORMAT_END
 95
        2
302
GRIDFORMAT
  1
GRIDFORMAT_BEGIN
 90
        0
 91
        1
 62
     0
 92
       -2
340
14
 93
        0
 40
0.045
309
GRIDFORMAT_END
 95
        4
302
GRIDFORMAT
  1
GRIDFORMAT_BEGIN
 90
        0
 91
        1
 62
     0
 92
       -2
340
14
 93
        0
 40
0.045
309
GRIDFORMAT_END
 95
        8
302
GRIDFORMAT
  1
GRIDFORMAT_BEGIN
 90
        0
 91
        1
 62
     0
 92
       -2
340
14
 93
        0
 40
0.045
309
GRIDFORMAT_END
 95
       16
302
GRIDFORMAT
  1
GRIDFORMAT_BEGIN
 90
        0
 91
        1
 62
     0
 92
       -2
340
14
 93
        0
 40
0.045
309
GRIDFORMAT_END
 95
       32
302
GRIDFORMAT
  1
GRIDFORMAT_BEGIN
 90
        0
 91
        1
 62
     0
 92
       -2
340
14
 93
        0
 40
0.045
309
GRIDFORMAT_END
309
TABLEFORMAT_END
  1
CELLSTYLE_BEGIN
 90
        1
 91
        1
300
_TITLE
309
CELLSTYLE_END
300
CELLSTYLE
  1
TABLEFORMAT_BEGIN
 90
        5
170
     1
 91
        0
 92
        0
 62
   257
 93
        1
300
CONTENTFORMAT
  1
CONTENTFORMAT_BEGIN
 90
        0
 91
        0
 92
        4
 93
        0
300

 40
0.0
140
1.0
 94
        5
 62
     0
340
11
144
4.5
309
CONTENTFORMAT_END
171
     1
301
MARGIN
  1
CELLMARGIN_BEGIN
 40
1.5
 40
1.5
 40
1.5
 40
1.5
 40
1.5
 40
1.5
309
CELLMARGIN_END
 94
        6
 95
        1
302
GRIDFORMAT
  1
GRIDFORMAT_BEGIN
 90
        0
 91
        1
 62
     0
 92
       -2
340
14
 93
        0
 40
0.045
309
GRIDFORMAT_END
 95
        2
302
GRIDFORMAT
  1
GRIDFORMAT_BEGIN
 90
        0
 91
        1
 62
     0
 92
       -2
340
14
 93
        0
 40
0.045
309
GRIDFORMAT_END
 95
        4
302
GRIDFORMAT
  1
GRIDFORMAT_BEGIN
 90
        0
 91
        1
 62
     0
 92
       -2
340
14
 93
        0
 40
0.045
309
GRIDFORMAT_END
 95
        8
302
GRIDFORMAT
  1
GRIDFORMAT_BEGIN
 90
        0
 91
        1
 62
     0
 92
       -2
340
14
 93
        0
 40
0.045
309
GRIDFORMAT_END
 95
       16
302
GRIDFORMAT
  1
GRIDFORMAT_BEGIN
 90
        0
 91
        1
 62
     0
 92
       -2
340
14
 93
        0
 40
0.045
309
GRIDFORMAT_END
 95
       32
302
GRIDFORMAT
  1
GRIDFORMAT_BEGIN
 90
        0
 91
        1
 62
     0
 92
       -2
340
14
 93
        0
 40
0.045
309
GRIDFORMAT_END
309
TABLEFORMAT_END
  1
CELLSTYLE_BEGIN
 90
        2
 91
        1
300
_HEADER
309
CELLSTYLE_END
300
CELLSTYLE
  1
TABLEFORMAT_BEGIN
 90
        5
170
     1
 91
        0
 92
        0
 62
   257
 93
        1
300
CONTENTFORMAT
  1
CONTENTFORMAT_BEGIN
 90
        0
 91
        0
 92
        4
 93
        0
300

 40
0.0
140
1.0
 94
        2
 62
     0
340
11
144
4.5
309
CONTENTFORMAT_END
171
     1
301
MARGIN
  1
CELLMARGIN_BEGIN
 40
1.5
 40
1.5
 40
1.5
 40
1.5
 40
1.5
 40
1.5
309
CELLMARGIN_END
 94
        6
 95
        1
302
GRIDFORMAT
  1
GRIDFORMAT_BEGIN
 90
        0
 91
        1
 62
     0
 92
       -2
340
14
 93
        0
 40
0.045
309
GRIDFORMAT_END
 95
        2
302
GRIDFORMAT
  1
GRIDFORMAT_BEGIN
 90
        0
 91
        1
 62
     0
 92
       -2
340
14
 93
        0
 40
0.045
309
GRIDFORMAT_END
 95
        4
302
GRIDFORMAT
  1
GRIDFORMAT_BEGIN
 90
        0
 91
        1
 62
     0
 92
       -2
340
14
 93
        0
 40
0.045
309
GRIDFORMAT_END
 95
        8
302
GRIDFORMAT
  1
GRIDFORMAT_BEGIN
 90
        0
 91
        1
 62
     0
 92
       -2
340
14
 93
        0
 40
0.045
309
GRIDFORMAT_END
 95
       16
302
GRIDFORMAT
  1
GRIDFORMAT_BEGIN
 90
        0
 91
        1
 62
     0
 92
       -2
340
14
 93
        0
 40
0.045
309
GRIDFORMAT_END
 95
       32
302
GRIDFORMAT
  1
GRIDFORMAT_BEGIN
 90
        0
 91
        1
 62
     0
 92
       -2
340
14
 93
        0
 40
0.045
309
GRIDFORMAT_END
309
TABLEFORMAT_END
  1
CELLSTYLE_BEGIN
 90
        3
 91
        2
300
_DATA
309
CELLSTYLE_END
  0
XRECORD
  5
267
102
{ACAD_REACTORS
330
266
102
}
330
266
100
AcDbXrecord
280
     1
102
RTVSPropertyOp0
 70
     1
102
RTVSPropertyOp1
 70
     1
102
RTVSPropertyOp2
 70
     1
102
RTVSPropertyOp3
 70
     1
102
RTVSPropertyOp4
 70
     1
102
RTVSPropertyOp5
 70
     1
102
RTVSPropertyOp6
 70
     1
102
RTVSPropertyOp7
 70
     1
102
RTVSPropertyOp8
 70
     1
102
RTVSPropertyOp9
 70
     1
102
RTVSPropertyOp10
 70
     1
102
RTVSPropertyOp11
 70
     1
102
RTVSPropertyOp12
 70
     1
102
RTVSPropertyOp13
 70
     1
102
RTVSPropertyOp14
 70
     1
102
RTVSPropertyOp15
 70
     1
102
RTVSPropertyOp16
 70
     1
102
RTVSPropertyOp17
 70
     1
102
RTVSPropertyOp18
 70
     1
102
RTVSPropertyOp19
 70
     1
102
RTVSPropertyOp20
 70
     1
102
RTVSPropertyOp21
 70
     1
102
RTVSPropertyOp22
 70
     1
102
RTVSPropertyOp23
 70
     1
102
RTVSPropertyOp24
 70
     1
102
RTVSPropertyOp25
 70
     1
102
RTVSPropertyOp26
 70
     1
102
RTVSPropertyOp27
 70
     1
102
RTVSPropertyOp28
 70
     1
102
RTVSPropertyOp29
 70
     1
102
RTVSPropertyOp30
 70
     1
102
RTVSPropertyOp31
 70
     1
102
RTVSPropertyOp32
 70
     1
102
RTVSPropertyOp33
 70
     1
102
RTVSPropertyOp34
 70
     1
102
RTVSPropertyOp35
 70
     1
102
RTVSPropertyOp36
 70
     1
102
RTVSPropertyOp37
 70
     1
102
RTVSPropertyOp38
 70
     1
102
RTVSPropertyOp39
 70
     1
102
RTVSPropertyOp40
 70
     1
102
RTVSPropertyOp41
 70
     1
102
RTVSPropertyOp42
 70
     1
102
RTVSPropertyOp43
 70
     1
102
RTVSPropertyOp44
 70
     1
102
RTVSPropertyOp45
 70
     1
102
RTVSPropertyOp46
 70
     1
102
RTVSPropertyOp47
 70
     1
102
RTVSPropertyOp48
 70
     1
102
RTVSPropertyOp49
 70
     1
102
RTVSPropertyOp50
 70
     1
102
RTVSPropertyOp51
 70
     0
102
RTVSPropertyOp52
 70
     0
102
RTVSPropertyOp53
 70
     1
102
RTVSPropertyOp54
 70
     1
102
RTVSPropertyOp55
 70
     1
102
RTVSPropertyOp56
 70
     1
102
RTVSPropertyOp57
 70
     1
102
RTVSPost2010Prop28
280
     1
102
RTVSPost2010PropOp28
 70
     1
102
RTVSPost2010Prop29
280
     1
102
RTVSPost2010PropOp29
 70
     1
102
RTVSPost2010Prop30
280
     0
102
RTVSPost2010PropOp30
 70
     1
102
RTVSPost2010Prop31
280
     0
102
RTVSPost2010PropOp31
 70
     1
102
RTVSPost2010Prop32
280
     0
102
RTVSPost2010PropOp32
 70
     1
102
RTVSPost2010Prop33
280
     0
102
RTVSPost2010PropOp33
 70
     1
102
RTVSPost2010Prop34
280
     0
102
RTVSPost2010PropOp34
 70
     1
102
RTVSPost2010Prop35
280
     0
102
RTVSPost2010PropOp35
 70
     1
102
RTVSPost2010Prop36
280
     0
102
RTVSPost2010PropOp36
 70
     1
102
RTVSPost2010Prop37
 90
       50
102
RTVSPost2010PropOp37
 70
     1
102
RTVSPost2010Prop38
140
0.0
102
RTVSPost2010PropOp38
 70
     1
102
RTVSPost2010Prop39
140
1.0
102
RTVSPost2010PropOp39
 70
     1
102
RTVSPost2010Prop40
 90
        0
102
RTVSPost2010PropOp40
 70
     1
102
RTVSPost2010Prop41ColorIndex
 90
       18
102
RTVSPost2010Prop41ColorRGB
 90
        0
102
RTVSPost2010PropOp41
 70
     1
102
RTVSPost2010Prop42
 90
       50
102
RTVSPost2010PropOp42
 70
     1
102
RTVSPost2010Prop43
 90
        3
102
RTVSPost2010PropOp43
 70
     1
102
RTVSPost2010Prop44ColorIndex
 90
        5
102
RTVSPost2010Prop44ColorRGB
 90
      255
102
RTVSPost2010PropOp44
 70
     1
102
RTVSPost2010Prop45
280
     0
102
RTVSPost2010PropOp45
 70
     1
102
RTVSPost2010Prop46
 90
       50
102
RTVSPost2010PropOp46
 70
     1
102
RTVSPost2010Prop47
 90
       50
102
RTVSPost2010PropOp47
 70
     1
102
RTVSPost2010Prop48
 90
       50
102
RTVSPost2010PropOp48
 70
     1
102
RTVSPost2010Prop49
280
     0
102
RTVSPost2010PropOp49
 70
     1
102
RTVSPost2010Prop50
 90
       50
102
RTVSPost2010PropOp50
 70
     1
102
RTVSPost2010Prop51ColorIndex
 90
      256
102
RTVSPost2010Prop51ColorRGB
 90
-16777216
102
RTVSPost2010PropOp51
 70
     0
102
RTVSPost2010Prop52
140
1.0
102
RTVSPost2010PropOp52
 70
     0
102
RTVSPost2010Prop53
 90
        2
102
RTVSPost2010PropOp53
 70
     1
102
RTVSPost2010Prop54
  1
strokes_ogs.tif
102
RTVSPost2010PropOp54
 70
     1
102
RTVSPost2010Prop55
280
     0
102
RTVSPost2010PropOp55
 70
     1
102
RTVSPost2010Prop56
140
1.0
102
RTVSPost2010PropOp56
 70
     1
102
RTVSPost2010Prop57
140
1.0
102
RTVSPost2010PropOp57
 70
     1
  0
XRECORD
  5
26D
102
{ACAD_REACTORS
330
26C
102
}
330
26C
100
AcDbXrecord
280
     1
102
RTVSPropertyOp0
 70
     1
102
RTVSPropertyOp1
 70
     1
102
RTVSPropertyOp2
 70
     1
102
RTVSPropertyOp3
 70
     1
102
RTVSPropertyOp4
 70
     1
102
RTVSPropertyOp5
 70
     1
102
RTVSPropertyOp6
 70
     1
102
RTVSPropertyOp7
 70
     1
102
RTVSPropertyOp8
 70
     1
102
RTVSPropertyOp9
 70
     1
102
RTVSPropertyOp10
 70
     1
102
RTVSPropertyOp11
 70
     1
102
RTVSPropertyOp12
 70
     1
102
RTVSPropertyOp13
 70
     1
102
RTVSPropertyOp14
 70
     1
102
RTVSPropertyOp15
 70
     1
102
RTVSPropertyOp16
 70
     1
102
RTVSPropertyOp17
 70
     1
102
RTVSPropertyOp18
 70
     1
102
RTVSPropertyOp19
 70
     1
102
RTVSPropertyOp20
 70
     1
102
RTVSPropertyOp21
 70
     1
102
RTVSPropertyOp22
 70
     1
102
RTVSPropertyOp23
 70
     1
102
RTVSPropertyOp24
 70
     1
102
RTVSPropertyOp25
 70
     1
102
RTVSPropertyOp26
 70
     1
102
RTVSPropertyOp27
 70
     1
102
RTVSPropertyOp28
 70
     1
102
RTVSPropertyOp29
 70
     1
102
RTVSPropertyOp30
 70
     1
102
RTVSPropertyOp31
 70
     1
102
RTVSPropertyOp32
 70
     1
102
RTVSPropertyOp33
 70
     1
102
RTVSPropertyOp34
 70
     1
102
RTVSPropertyOp35
 70
     1
102
RTVSPropertyOp36
 70
     1
102
RTVSPropertyOp37
 70
     1
102
RTVSPropertyOp38
 70
     1
102
RTVSPropertyOp39
 70
     1
102
RTVSPropertyOp40
 70
     1
102
RTVSPropertyOp41
 70
     1
102
RTVSPropertyOp42
 70
     1
102
RTVSPropertyOp43
 70
     1
102
RTVSPropertyOp44
 70
     1
102
RTVSPropertyOp45
 70
     1
102
RTVSPropertyOp46
 70
     1
102
RTVSPropertyOp47
 70
     1
102
RTVSPropertyOp48
 70
     1
102
RTVSPropertyOp49
 70
     1
102
RTVSPropertyOp50
 70
     1
102
RTVSPropertyOp51
 70
     0
102
RTVSPropertyOp52
 70
     0
102
RTVSPropertyOp53
 70
     1
102
RTVSPropertyOp54
 70
     1
102
RTVSPropertyOp55
 70
     1
102
RTVSPropertyOp56
 70
     1
102
RTVSPropertyOp57
 70
     1
102
RTVSPost2010Prop28
280
     0
102
RTVSPost2010PropOp28
 70
     1
102
RTVSPost2010Prop29
280
     1
102
RTVSPost2010PropOp29
 70
     1
102
RTVSPost2010Prop30
280
     1
102
RTVSPost2010PropOp30
 70
     1
102
RTVSPost2010Prop31
280
     0
102
RTVSPost2010PropOp31
 70
     1
102
RTVSPost2010Prop32
280
     0
102
RTVSPost2010PropOp32
 70
     1
102
RTVSPost2010Prop33
280
     0
102
RTVSPost2010PropOp33
 70
     1
102
RTVSPost2010Prop34
280
     0
102
RTVSPost2010PropOp34
 70
     1
102
RTVSPost2010Prop35
280
     0
102
RTVSPost2010PropOp35
 70
     1
102
RTVSPost2010Prop36
280
     0
102
RTVSPost2010PropOp36
 70
     1
102
RTVSPost2010Prop37
 90
       50
102
RTVSPost2010PropOp37
 70
     1
102
RTVSPost2010Prop38
140
0.0
102
RTVSPost2010PropOp38
 70
     1
102
RTVSPost2010Prop39
140
1.0
102
RTVSPost2010PropOp39
 70
     1
102
RTVSPost2010Prop40
 90
        0
102
RTVSPost2010PropOp40
 70
     1
102
RTVSPost2010Prop41ColorIndex
 90
       18
102
RTVSPost2010Prop41ColorRGB
 90
        0
102
RTVSPost2010PropOp41
 70
     1
102
RTVSPost2010Prop42
 90
       50
102
RTVSPost2010PropOp42
 70
     1
102
RTVSPost2010Prop43
 90
        3
102
RTVSPost2010PropOp43
 70
     1
102
RTVSPost2010Prop44ColorIndex
 90
        5
102
RTVSPost2010Prop44ColorRGB
 90
      255
102
RTVSPost2010PropOp44
 70
     1
102
RTVSPost2010Prop45
280
     0
102
RTVSPost2010PropOp45
 70
     1
102
RTVSPost2010Prop46
 90
       50
102
RTVSPost2010PropOp46
 70
     1
102
RTVSPost2010Prop47
 90
       50
102
RTVSPost2010PropOp47
 70
     1
102
RTVSPost2010Prop48
 90
       50
102
RTVSPost2010PropOp48
 70
     1
102
RTVSPost2010Prop49
280
     0
102
RTVSPost2010PropOp49
 70
     1
102
RTVSPost2010Prop50
 90
       50
102
RTVSPost2010PropOp50
 70
     1
102
RTVSPost2010Prop51ColorIndex
 90
      256
102
RTVSPost2010Prop51ColorRGB
 90
-16777216
102
RTVSPost2010PropOp51
 70
     0
102
RTVSPost2010Prop52
140
1.0
102
RTVSPost2010PropOp52
 70
     0
102
RTVSPost2010Prop53
 90
        2
102
RTVSPost2010PropOp53
 70
     1
102
RTVSPost2010Prop54
  1
strokes_ogs.tif
102
RTVSPost2010PropOp54
 70
     1
102
RTVSPost2010Prop55
280
     0
102
RTVSPost2010PropOp55
 70
     1
102
RTVSPost2010Prop56
140
1.0
102
RTVSPost2010PropOp56
 70
     1
102
RTVSPost2010Prop57
140
1.0
102
RTVSPost2010PropOp57
 70
     1
  0
XRECORD
  5
275
102
{ACAD_REACTORS
330
274
102
}
330
274
100
AcDbXrecord
280
     1
102
RTVSPropertyOp0
 70
     1
102
RTVSPropertyOp1
 70
     1
102
RTVSPropertyOp2
 70
     1
102
RTVSPropertyOp3
 70
     1
102
RTVSPropertyOp4
 70
     1
102
RTVSPropertyOp5
 70
     1
102
RTVSPropertyOp6
 70
     1
102
RTVSPropertyOp7
 70
     1
102
RTVSPropertyOp8
 70
     1
102
RTVSPropertyOp9
 70
     1
102
RTVSPropertyOp10
 70
     1
102
RTVSPropertyOp11
 70
     1
102
RTVSPropertyOp12
 70
     1
102
RTVSPropertyOp13
 70
     1
102
RTVSPropertyOp14
 70
     1
102
RTVSPropertyOp15
 70
     1
102
RTVSPropertyOp16
 70
     1
102
RTVSPropertyOp17
 70
     1
102
RTVSPropertyOp18
 70
     1
102
RTVSPropertyOp19
 70
     1
102
RTVSPropertyOp20
 70
     1
102
RTVSPropertyOp21
 70
     1
102
RTVSPropertyOp22
 70
     1
102
RTVSPropertyOp23
 70
     1
102
RTVSPropertyOp24
 70
     1
102
RTVSPropertyOp25
 70
     1
102
RTVSPropertyOp26
 70
     1
102
RTVSPropertyOp27
 70
     1
102
RTVSPropertyOp28
 70
     1
102
RTVSPropertyOp29
 70
     1
102
RTVSPropertyOp30
 70
     1
102
RTVSPropertyOp31
 70
     1
102
RTVSPropertyOp32
 70
     1
102
RTVSPropertyOp33
 70
     1
102
RTVSPropertyOp34
 70
     1
102
RTVSPropertyOp35
 70
     1
102
RTVSPropertyOp36
 70
     1
102
RTVSPropertyOp37
 70
     1
102
RTVSPropertyOp38
 70
     1
102
RTVSPropertyOp39
 70
     1
102
RTVSPropertyOp40
 70
     1
102
RTVSPropertyOp41
 70
     1
102
RTVSPropertyOp42
 70
     1
102
RTVSPropertyOp43
 70
     1
102
RTVSPropertyOp44
 70
     1
102
RTVSPropertyOp45
 70
     1
102
RTVSPropertyOp46
 70
     1
102
RTVSPropertyOp47
 70
     1
102
RTVSPropertyOp48
 70
     1
102
RTVSPropertyOp49
 70
     1
102
RTVSPropertyOp50
 70
     1
102
RTVSPropertyOp51
 70
     0
102
RTVSPropertyOp52
 70
     0
102
RTVSPropertyOp53
 70
     1
102
RTVSPropertyOp54
 70
     1
102
RTVSPropertyOp55
 70
     1
102
RTVSPropertyOp56
 70
     1
102
RTVSPropertyOp57
 70
     1
102
RTVSPost2010Prop28
280
     0
102
RTVSPost2010PropOp28
 70
     1
102
RTVSPost2010Prop29
280
     1
102
RTVSPost2010PropOp29
 70
     1
102
RTVSPost2010Prop30
280
     1
102
RTVSPost2010PropOp30
 70
     1
102
RTVSPost2010Prop31
280
     0
102
RTVSPost2010PropOp31
 70
     1
102
RTVSPost2010Prop32
280
     0
102
RTVSPost2010PropOp32
 70
     1
102
RTVSPost2010Prop33
280
     0
102
RTVSPost2010PropOp33
 70
     1
102
RTVSPost2010Prop34
280
     0
102
RTVSPost2010PropOp34
 70
     1
102
RTVSPost2010Prop35
280
     0
102
RTVSPost2010PropOp35
 70
     1
102
RTVSPost2010Prop36
280
     0
102
RTVSPost2010PropOp36
 70
     1
102
RTVSPost2010Prop37
 90
       50
102
RTVSPost2010PropOp37
 70
     1
102
RTVSPost2010Prop38
140
0.0
102
RTVSPost2010PropOp38
 70
     1
102
RTVSPost2010Prop39
140
1.0
102
RTVSPost2010PropOp39
 70
     1
102
RTVSPost2010Prop40
 90
        0
102
RTVSPost2010PropOp40
 70
     1
102
RTVSPost2010Prop41ColorIndex
 90
       18
102
RTVSPost2010Prop41ColorRGB
 90
        0
102
RTVSPost2010PropOp41
 70
     1
102
RTVSPost2010Prop42
 90
       50
102
RTVSPost2010PropOp42
 70
     1
102
RTVSPost2010Prop43
 90
        3
102
RTVSPost2010PropOp43
 70
     1
102
RTVSPost2010Prop44ColorIndex
 90
        5
102
RTVSPost2010Prop44ColorRGB
 90
      255
102
RTVSPost2010PropOp44
 70
     1
102
RTVSPost2010Prop45
280
     0
102
RTVSPost2010PropOp45
 70
     1
102
RTVSPost2010Prop46
 90
       50
102
RTVSPost2010PropOp46
 70
     1
102
RTVSPost2010Prop47
 90
       50
102
RTVSPost2010PropOp47
 70
     1
102
RTVSPost2010Prop48
 90
       50
102
RTVSPost2010PropOp48
 70
     1
102
RTVSPost2010Prop49
280
     0
102
RTVSPost2010PropOp49
 70
     1
102
RTVSPost2010Prop50
 90
       50
102
RTVSPost2010PropOp50
 70
     1
102
RTVSPost2010Prop51ColorIndex
 90
      256
102
RTVSPost2010Prop51ColorRGB
 90
-16777216
102
RTVSPost2010PropOp51
 70
     0
102
RTVSPost2010Prop52
140
1.0
102
RTVSPost2010PropOp52
 70
     0
102
RTVSPost2010Prop53
 90
        2
102
RTVSPost2010PropOp53
 70
     1
102
RTVSPost2010Prop54
  1
strokes_ogs.tif
102
RTVSPost2010PropOp54
 70
     1
102
RTVSPost2010Prop55
280
     0
102
RTVSPost2010PropOp55
 70
     1
102
RTVSPost2010Prop56
140
1.0
102
RTVSPost2010PropOp56
 70
     1
102
RTVSPost2010Prop57
140
1.0
102
RTVSPost2010PropOp57
 70
     1
  0
XRECORD
  5
27D
102
{ACAD_REACTORS
330
27C
102
}
330
27C
100
AcDbXrecord
280
     1
102
RTVSPropertyOp0
 70
     1
102
RTVSPropertyOp1
 70
     1
102
RTVSPropertyOp2
 70
     1
102
RTVSPropertyOp3
 70
     1
102
RTVSPropertyOp4
 70
     1
102
RTVSPropertyOp5
 70
     1
102
RTVSPropertyOp6
 70
     1
102
RTVSPropertyOp7
 70
     1
102
RTVSPropertyOp8
 70
     1
102
RTVSPropertyOp9
 70
     1
102
RTVSPropertyOp10
 70
     1
102
RTVSPropertyOp11
 70
     1
102
RTVSPropertyOp12
 70
     1
102
RTVSPropertyOp13
 70
     1
102
RTVSPropertyOp14
 70
     1
102
RTVSPropertyOp15
 70
     1
102
RTVSPropertyOp16
 70
     1
102
RTVSPropertyOp17
 70
     1
102
RTVSPropertyOp18
 70
     1
102
RTVSPropertyOp19
 70
     1
102
RTVSPropertyOp20
 70
     1
102
RTVSPropertyOp21
 70
     1
102
RTVSPropertyOp22
 70
     1
102
RTVSPropertyOp23
 70
     1
102
RTVSPropertyOp24
 70
     1
102
RTVSPropertyOp25
 70
     1
102
RTVSPropertyOp26
 70
     1
102
RTVSPropertyOp27
 70
     1
102
RTVSPropertyOp28
 70
     1
102
RTVSPropertyOp29
 70
     1
102
RTVSPropertyOp30
 70
     1
102
RTVSPropertyOp31
 70
     1
102
RTVSPropertyOp32
 70
     1
102
RTVSPropertyOp33
 70
     1
102
RTVSPropertyOp34
 70
     1
102
RTVSPropertyOp35
 70
     1
102
RTVSPropertyOp36
 70
     1
102
RTVSPropertyOp37
 70
     1
102
RTVSPropertyOp38
 70
     1
102
RTVSPropertyOp39
 70
     1
102
RTVSPropertyOp40
 70
     1
102
RTVSPropertyOp41
 70
     1
102
RTVSPropertyOp42
 70
     1
102
RTVSPropertyOp43
 70
     1
102
RTVSPropertyOp44
 70
     1
102
RTVSPropertyOp45
 70
     1
102
RTVSPropertyOp46
 70
     1
102
RTVSPropertyOp47
 70
     1
102
RTVSPropertyOp48
 70
     1
102
RTVSPropertyOp49
 70
     1
102
RTVSPropertyOp50
 70
     1
102
RTVSPropertyOp51
 70
     0
102
RTVSPropertyOp52
 70
     0
102
RTVSPropertyOp53
 70
     1
102
RTVSPropertyOp54
 70
     1
102
RTVSPropertyOp55
 70
     1
102
RTVSPropertyOp56
 70
     1
102
RTVSPropertyOp57
 70
     1
102
RTVSPost2010Prop28
280
     0
102
RTVSPost2010PropOp28
 70
     1
102
RTVSPost2010Prop29
280
     1
102
RTVSPost2010PropOp29
 70
     1
102
RTVSPost2010Prop30
280
     1
102
RTVSPost2010PropOp30
 70
     1
102
RTVSPost2010Prop31
280
     0
102
RTVSPost2010PropOp31
 70
     1
102
RTVSPost2010Prop32
280
     0
102
RTVSPost2010PropOp32
 70
     1
102
RTVSPost2010Prop33
280
     0
102
RTVSPost2010PropOp33
 70
     1
102
RTVSPost2010Prop34
280
     0
102
RTVSPost2010PropOp34
 70
     1
102
RTVSPost2010Prop35
280
     0
102
RTVSPost2010PropOp35
 70
     1
102
RTVSPost2010Prop36
280
     0
102
RTVSPost2010PropOp36
 70
     1
102
RTVSPost2010Prop37
 90
       50
102
RTVSPost2010PropOp37
 70
     1
102
RTVSPost2010Prop38
140
0.0
102
RTVSPost2010PropOp38
 70
     1
102
RTVSPost2010Prop39
140
1.0
102
RTVSPost2010PropOp39
 70
     1
102
RTVSPost2010Prop40
 90
        0
102
RTVSPost2010PropOp40
 70
     1
102
RTVSPost2010Prop41ColorIndex
 90
       18
102
RTVSPost2010Prop41ColorRGB
 90
        0
102
RTVSPost2010PropOp41
 70
     1
102
RTVSPost2010Prop42
 90
       50
102
RTVSPost2010PropOp42
 70
     1
102
RTVSPost2010Prop43
 90
        3
102
RTVSPost2010PropOp43
 70
     1
102
RTVSPost2010Prop44ColorIndex
 90
        5
102
RTVSPost2010Prop44ColorRGB
 90
      255
102
RTVSPost2010PropOp44
 70
     1
102
RTVSPost2010Prop45
280
     0
102
RTVSPost2010PropOp45
 70
     1
102
RTVSPost2010Prop46
 90
       50
102
RTVSPost2010PropOp46
 70
     1
102
RTVSPost2010Prop47
 90
       50
102
RTVSPost2010PropOp47
 70
     1
102
RTVSPost2010Prop48
 90
       50
102
RTVSPost2010PropOp48
 70
     1
102
RTVSPost2010Prop49
280
     0
102
RTVSPost2010PropOp49
 70
     1
102
RTVSPost2010Prop50
 90
       50
102
RTVSPost2010PropOp50
 70
     1
102
RTVSPost2010Prop51ColorIndex
 90
      256
102
RTVSPost2010Prop51ColorRGB
 90
-16777216
102
RTVSPost2010PropOp51
 70
     0
102
RTVSPost2010Prop52
140
1.0
102
RTVSPost2010PropOp52
 70
     0
102
RTVSPost2010Prop53
 90
        2
102
RTVSPost2010PropOp53
 70
     1
102
RTVSPost2010Prop54
  1
strokes_ogs.tif
102
RTVSPost2010PropOp54
 70
     1
102
RTVSPost2010Prop55
280
     0
102
RTVSPost2010PropOp55
 70
     1
102
RTVSPost2010Prop56
140
1.0
102
RTVSPost2010PropOp56
 70
     1
102
RTVSPost2010Prop57
140
1.0
102
RTVSPost2010PropOp57
 70
     1
  0
XRECORD
  5
271
102
{ACAD_REACTORS
330
270
102
}
330
270
100
AcDbXrecord
280
     1
102
RTVSPropertyOp0
 70
     1
102
RTVSPropertyOp1
 70
     1
102
RTVSPropertyOp2
 70
     1
102
RTVSPropertyOp3
 70
     1
102
RTVSPropertyOp4
 70
     1
102
RTVSPropertyOp5
 70
     1
102
RTVSPropertyOp6
 70
     1
102
RTVSPropertyOp7
 70
     1
102
RTVSPropertyOp8
 70
     1
102
RTVSPropertyOp9
 70
     1
102
RTVSPropertyOp10
 70
     1
102
RTVSPropertyOp11
 70
     1
102
RTVSPropertyOp12
 70
     1
102
RTVSPropertyOp13
 70
     1
102
RTVSPropertyOp14
 70
     1
102
RTVSPropertyOp15
 70
     1
102
RTVSPropertyOp16
 70
     1
102
RTVSPropertyOp17
 70
     1
102
RTVSPropertyOp18
 70
     1
102
RTVSPropertyOp19
 70
     1
102
RTVSPropertyOp20
 70
     1
102
RTVSPropertyOp21
 70
     1
102
RTVSPropertyOp22
 70
     1
102
RTVSPropertyOp23
 70
     1
102
RTVSPropertyOp24
 70
     1
102
RTVSPropertyOp25
 70
     1
102
RTVSPropertyOp26
 70
     1
102
RTVSPropertyOp27
 70
     1
102
RTVSPropertyOp28
 70
     1
102
RTVSPropertyOp29
 70
     1
102
RTVSPropertyOp30
 70
     1
102
RTVSPropertyOp31
 70
     1
102
RTVSPropertyOp32
 70
     1
102
RTVSPropertyOp33
 70
     1
102
RTVSPropertyOp34
 70
     1
102
RTVSPropertyOp35
 70
     1
102
RTVSPropertyOp36
 70
     1
102
RTVSPropertyOp37
 70
     1
102
RTVSPropertyOp38
 70
     1
102
RTVSPropertyOp39
 70
     1
102
RTVSPropertyOp40
 70
     1
102
RTVSPropertyOp41
 70
     1
102
RTVSPropertyOp42
 70
     1
102
RTVSPropertyOp43
 70
     1
102
RTVSPropertyOp44
 70
     1
102
RTVSPropertyOp45
 70
     1
102
RTVSPropertyOp46
 70
     1
102
RTVSPropertyOp47
 70
     1
102
RTVSPropertyOp48
 70
     1
102
RTVSPropertyOp49
 70
     1
102
RTVSPropertyOp50
 70
     1
102
RTVSPropertyOp51
 70
     0
102
RTVSPropertyOp52
 70
     0
102
RTVSPropertyOp53
 70
     1
102
RTVSPropertyOp54
 70
     1
102
RTVSPropertyOp55
 70
     1
102
RTVSPropertyOp56
 70
     1
102
RTVSPropertyOp57
 70
     1
102
RTVSPost2010Prop28
280
     0
102
RTVSPost2010PropOp28
 70
     1
102
RTVSPost2010Prop29
280
     1
102
RTVSPost2010PropOp29
 70
     1
102
RTVSPost2010Prop30
280
     1
102
RTVSPost2010PropOp30
 70
     1
102
RTVSPost2010Prop31
280
     0
102
RTVSPost2010PropOp31
 70
     1
102
RTVSPost2010Prop32
280
     0
102
RTVSPost2010PropOp32
 70
     1
102
RTVSPost2010Prop33
280
     0
102
RTVSPost2010PropOp33
 70
     1
102
RTVSPost2010Prop34
280
     0
102
RTVSPost2010PropOp34
 70
     1
102
RTVSPost2010Prop35
280
     0
102
RTVSPost2010PropOp35
 70
     1
102
RTVSPost2010Prop36
280
     0
102
RTVSPost2010PropOp36
 70
     1
102
RTVSPost2010Prop37
 90
       50
102
RTVSPost2010PropOp37
 70
     1
102
RTVSPost2010Prop38
140
0.0
102
RTVSPost2010PropOp38
 70
     1
102
RTVSPost2010Prop39
140
1.0
102
RTVSPost2010PropOp39
 70
     1
102
RTVSPost2010Prop40
 90
        0
102
RTVSPost2010PropOp40
 70
     1
102
RTVSPost2010Prop41ColorIndex
 90
       18
102
RTVSPost2010Prop41ColorRGB
 90
        0
102
RTVSPost2010PropOp41
 70
     1
102
RTVSPost2010Prop42
 90
       50
102
RTVSPost2010PropOp42
 70
     1
102
RTVSPost2010Prop43
 90
        3
102
RTVSPost2010PropOp43
 70
     1
102
RTVSPost2010Prop44ColorIndex
 90
        5
102
RTVSPost2010Prop44ColorRGB
 90
      255
102
RTVSPost2010PropOp44
 70
     1
102
RTVSPost2010Prop45
280
     0
102
RTVSPost2010PropOp45
 70
     1
102
RTVSPost2010Prop46
 90
       50
102
RTVSPost2010PropOp46
 70
     1
102
RTVSPost2010Prop47
 90
       50
102
RTVSPost2010PropOp47
 70
     1
102
RTVSPost2010Prop48
 90
       50
102
RTVSPost2010PropOp48
 70
     1
102
RTVSPost2010Prop49
280
     0
102
RTVSPost2010PropOp49
 70
     1
102
RTVSPost2010Prop50
 90
       50
102
RTVSPost2010PropOp50
 70
     1
102
RTVSPost2010Prop51ColorIndex
 90
      256
102
RTVSPost2010Prop51ColorRGB
 90
-16777216
102
RTVSPost2010PropOp51
 70
     0
102
RTVSPost2010Prop52
140
1.0
102
RTVSPost2010PropOp52
 70
     0
102
RTVSPost2010Prop53
 90
        2
102
RTVSPost2010PropOp53
 70
     1
102
RTVSPost2010Prop54
  1
strokes_ogs.tif
102
RTVSPost2010PropOp54
 70
     1
102
RTVSPost2010Prop55
280
     0
102
RTVSPost2010PropOp55
 70
     1
102
RTVSPost2010Prop56
140
1.0
102
RTVSPost2010PropOp56
 70
     1
102
RTVSPost2010Prop57
140
1.0
102
RTVSPost2010PropOp57
 70
     1
  0
XRECORD
  5
273
102
{ACAD_REACTORS
330
272
102
}
330
272
100
AcDbXrecord
280
     1
102
RTVSPropertyOp0
 70
     1
102
RTVSPropertyOp1
 70
     1
102
RTVSPropertyOp2
 70
     1
102
RTVSPropertyOp3
 70
     1
102
RTVSPropertyOp4
 70
     1
102
RTVSPropertyOp5
 70
     1
102
RTVSPropertyOp6
 70
     1
102
RTVSPropertyOp7
 70
     1
102
RTVSPropertyOp8
 70
     1
102
RTVSPropertyOp9
 70
     1
102
RTVSPropertyOp10
 70
     1
102
RTVSPropertyOp11
 70
     1
102
RTVSPropertyOp12
 70
     1
102
RTVSPropertyOp13
 70
     1
102
RTVSPropertyOp14
 70
     1
102
RTVSPropertyOp15
 70
     1
102
RTVSPropertyOp16
 70
     1
102
RTVSPropertyOp17
 70
     1
102
RTVSPropertyOp18
 70
     1
102
RTVSPropertyOp19
 70
     1
102
RTVSPropertyOp20
 70
     1
102
RTVSPropertyOp21
 70
     1
102
RTVSPropertyOp22
 70
     1
102
RTVSPropertyOp23
 70
     1
102
RTVSPropertyOp24
 70
     1
102
RTVSPropertyOp25
 70
     1
102
RTVSPropertyOp26
 70
     1
102
RTVSPropertyOp27
 70
     1
102
RTVSPropertyOp28
 70
     1
102
RTVSPropertyOp29
 70
     1
102
RTVSPropertyOp30
 70
     1
102
RTVSPropertyOp31
 70
     1
102
RTVSPropertyOp32
 70
     1
102
RTVSPropertyOp33
 70
     1
102
RTVSPropertyOp34
 70
     1
102
RTVSPropertyOp35
 70
     1
102
RTVSPropertyOp36
 70
     1
102
RTVSPropertyOp37
 70
     1
102
RTVSPropertyOp38
 70
     1
102
RTVSPropertyOp39
 70
     1
102
RTVSPropertyOp40
 70
     1
102
RTVSPropertyOp41
 70
     1
102
RTVSPropertyOp42
 70
     1
102
RTVSPropertyOp43
 70
     1
102
RTVSPropertyOp44
 70
     1
102
RTVSPropertyOp45
 70
     1
102
RTVSPropertyOp46
 70
     1
102
RTVSPropertyOp47
 70
     1
102
RTVSPropertyOp48
 70
     1
102
RTVSPropertyOp49
 70
     1
102
RTVSPropertyOp50
 70
     1
102
RTVSPropertyOp51
 70
     0
102
RTVSPropertyOp52
 70
     0
102
RTVSPropertyOp53
 70
     1
102
RTVSPropertyOp54
 70
     1
102
RTVSPropertyOp55
 70
     1
102
RTVSPropertyOp56
 70
     1
102
RTVSPropertyOp57
 70
     1
102
RTVSPost2010Prop28
280
     0
102
RTVSPost2010PropOp28
 70
     1
102
RTVSPost2010Prop29
280
     1
102
RTVSPost2010PropOp29
 70
     1
102
RTVSPost2010Prop30
280
     1
102
RTVSPost2010PropOp30
 70
     1
102
RTVSPost2010Prop31
280
     0
102
RTVSPost2010PropOp31
 70
     1
102
RTVSPost2010Prop32
280
     0
102
RTVSPost2010PropOp32
 70
     1
102
RTVSPost2010Prop33
280
     0
102
RTVSPost2010PropOp33
 70
     1
102
RTVSPost2010Prop34
280
     0
102
RTVSPost2010PropOp34
 70
     1
102
RTVSPost2010Prop35
280
     0
102
RTVSPost2010PropOp35
 70
     1
102
RTVSPost2010Prop36
280
     0
102
RTVSPost2010PropOp36
 70
     1
102
RTVSPost2010Prop37
 90
       50
102
RTVSPost2010PropOp37
 70
     1
102
RTVSPost2010Prop38
140
0.0
102
RTVSPost2010PropOp38
 70
     1
102
RTVSPost2010Prop39
140
1.0
102
RTVSPost2010PropOp39
 70
     1
102
RTVSPost2010Prop40
 90
        0
102
RTVSPost2010PropOp40
 70
     1
102
RTVSPost2010Prop41ColorIndex
 90
       18
102
RTVSPost2010Prop41ColorRGB
 90
        0
102
RTVSPost2010PropOp41
 70
     1
102
RTVSPost2010Prop42
 90
       50
102
RTVSPost2010PropOp42
 70
     1
102
RTVSPost2010Prop43
 90
        3
102
RTVSPost2010PropOp43
 70
     1
102
RTVSPost2010Prop44ColorIndex
 90
        5
102
RTVSPost2010Prop44ColorRGB
 90
      255
102
RTVSPost2010PropOp44
 70
     1
102
RTVSPost2010Prop45
280
     0
102
RTVSPost2010PropOp45
 70
     1
102
RTVSPost2010Prop46
 90
       50
102
RTVSPost2010PropOp46
 70
     1
102
RTVSPost2010Prop47
 90
       50
102
RTVSPost2010PropOp47
 70
     1
102
RTVSPost2010Prop48
 90
       50
102
RTVSPost2010PropOp48
 70
     1
102
RTVSPost2010Prop49
280
     0
102
RTVSPost2010PropOp49
 70
     1
102
RTVSPost2010Prop50
 90
       50
102
RTVSPost2010PropOp50
 70
     1
102
RTVSPost2010Prop51ColorIndex
 90
      256
102
RTVSPost2010Prop51ColorRGB
 90
-16777216
102
RTVSPost2010PropOp51
 70
     0
102
RTVSPost2010Prop52
140
1.0
102
RTVSPost2010PropOp52
 70
     0
102
RTVSPost2010Prop53
 90
        2
102
RTVSPost2010PropOp53
 70
     1
102
RTVSPost2010Prop54
  1
strokes_ogs.tif
102
RTVSPost2010PropOp54
 70
     1
102
RTVSPost2010Prop55
280
     0
102
RTVSPost2010PropOp55
 70
     1
102
RTVSPost2010Prop56
140
1.0
102
RTVSPost2010PropOp56
 70
     1
102
RTVSPost2010Prop57
140
1.0
102
RTVSPost2010PropOp57
 70
     1
  0
XRECORD
  5
283
102
{ACAD_REACTORS
330
282
102
}
330
282
100
AcDbXrecord
280
     1
102
RTVSPropertyOp0
 70
     0
102
RTVSPropertyOp1
 70
     0
102
RTVSPropertyOp2
 70
     0
102
RTVSPropertyOp3
 70
     0
102
RTVSPropertyOp4
 70
     0
102
RTVSPropertyOp5
 70
     0
102
RTVSPropertyOp6
 70
     0
102
RTVSPropertyOp7
 70
     0
102
RTVSPropertyOp8
 70
     0
102
RTVSPropertyOp9
 70
     0
102
RTVSPropertyOp10
 70
     0
102
RTVSPropertyOp11
 70
     0
102
RTVSPropertyOp12
 70
     0
102
RTVSPropertyOp13
 70
     0
102
RTVSPropertyOp14
 70
     2
102
RTVSPropertyOp15
 70
     0
102
RTVSPropertyOp16
 70
     0
102
RTVSPropertyOp17
 70
     0
102
RTVSPropertyOp18
 70
     0
102
RTVSPropertyOp19
 70
     0
102
RTVSPropertyOp20
 70
     0
102
RTVSPropertyOp21
 70
     0
102
RTVSPropertyOp22
 70
     0
102
RTVSPropertyOp23
 70
     0
102
RTVSPropertyOp24
 70
     0
102
RTVSPropertyOp25
 70
     0
102
RTVSPropertyOp26
 70
     0
102
RTVSPropertyOp27
 70
     0
102
RTVSPropertyOp28
 70
     0
102
RTVSPropertyOp29
 70
     0
102
RTVSPropertyOp30
 70
     0
102
RTVSPropertyOp31
 70
     0
102
RTVSPropertyOp32
 70
     0
102
RTVSPropertyOp33
 70
     0
102
RTVSPropertyOp34
 70
     0
102
RTVSPropertyOp35
 70
     0
102
RTVSPropertyOp36
 70
     0
102
RTVSPropertyOp37
 70
     0
102
RTVSPropertyOp38
 70
     0
102
RTVSPropertyOp39
 70
     0
102
RTVSPropertyOp40
 70
     0
102
RTVSPropertyOp41
 70
     0
102
RTVSPropertyOp42
 70
     0
102
RTVSPropertyOp43
 70
     0
102
RTVSPropertyOp44
 70
     0
102
RTVSPropertyOp45
 70
     0
102
RTVSPropertyOp46
 70
     0
102
RTVSPropertyOp47
 70
     0
102
RTVSPropertyOp48
 70
     0
102
RTVSPropertyOp49
 70
     0
102
RTVSPropertyOp50
 70
     0
102
RTVSPropertyOp51
 70
     0
102
RTVSPropertyOp52
 70
     0
102
RTVSPropertyOp53
 70
     0
102
RTVSPropertyOp54
 70
     0
102
RTVSPropertyOp55
 70
     0
102
RTVSPropertyOp56
 70
     0
102
RTVSPropertyOp57
 70
     0
102
RTVSPost2010Prop28
280
     0
102
RTVSPost2010PropOp28
 70
     0
102
RTVSPost2010Prop29
280
     1
102
RTVSPost2010PropOp29
 70
     0
102
RTVSPost2010Prop30
280
     1
102
RTVSPost2010PropOp30
 70
     0
102
RTVSPost2010Prop31
280
     0
102
RTVSPost2010PropOp31
 70
     0
102
RTVSPost2010Prop32
280
     0
102
RTVSPost2010PropOp32
 70
     0
102
RTVSPost2010Prop33
280
     0
102
RTVSPost2010PropOp33
 70
     0
102
RTVSPost2010Prop34
280
     0
102
RTVSPost2010PropOp34
 70
     0
102
RTVSPost2010Prop35
280
     0
102
RTVSPost2010PropOp35
 70
     0
102
RTVSPost2010Prop36
280
     0
102
RTVSPost2010PropOp36
 70
     0
102
RTVSPost2010Prop37
 90
       50
102
RTVSPost2010PropOp37
 70
     0
102
RTVSPost2010Prop38
140
0.0
102
RTVSPost2010PropOp38
 70
     0
102
RTVSPost2010Prop39
140
1.0
102
RTVSPost2010PropOp39
 70
     0
102
RTVSPost2010Prop40
 90
        0
102
RTVSPost2010PropOp40
 70
     0
102
RTVSPost2010Prop41ColorIndex
 90
       18
102
RTVSPost2010Prop41ColorRGB
 90
        0
102
RTVSPost2010PropOp41
 70
     0
102
RTVSPost2010Prop42
 90
       50
102
RTVSPost2010PropOp42
 70
     0
102
RTVSPost2010Prop43
 90
        3
102
RTVSPost2010PropOp43
 70
     0
102
RTVSPost2010Prop44ColorIndex
 90
        5
102
RTVSPost2010Prop44ColorRGB
 90
      255
102
RTVSPost2010PropOp44
 70
     0
102
RTVSPost2010Prop45
280
     0
102
RTVSPost2010PropOp45
 70
     0
102
RTVSPost2010Prop46
 90
       50
102
RTVSPost2010PropOp46
 70
     0
102
RTVSPost2010Prop47
 90
       50
102
RTVSPost2010PropOp47
 70
     0
102
RTVSPost2010Prop48
 90
       50
102
RTVSPost2010PropOp48
 70
     0
102
RTVSPost2010Prop49
280
     0
102
RTVSPost2010PropOp49
 70
     0
102
RTVSPost2010Prop50
 90
       50
102
RTVSPost2010PropOp50
 70
     0
102
RTVSPost2010Prop51ColorIndex
 90
      256
102
RTVSPost2010Prop51ColorRGB
 90
-16777216
102
RTVSPost2010PropOp51
 70
     0
102
RTVSPost2010Prop52
140
1.0
102
RTVSPost2010PropOp52
 70
     0
102
RTVSPost2010Prop53
 90
        2
102
RTVSPost2010PropOp53
 70
     0
102
RTVSPost2010Prop54
  1
strokes_ogs.tif
102
RTVSPost2010PropOp54
 70
     0
102
RTVSPost2010Prop55
280
     0
102
RTVSPost2010PropOp55
 70
     0
102
RTVSPost2010Prop56
140
1.0
102
RTVSPost2010PropOp56
 70
     0
102
RTVSPost2010Prop57
140
1.0
102
RTVSPost2010PropOp57
 70
     0
  0
XRECORD
  5
27B
102
{ACAD_REACTORS
330
27A
102
}
330
27A
100
AcDbXrecord
280
     1
102
RTVSPropertyOp0
 70
     1
102
RTVSPropertyOp1
 70
     1
102
RTVSPropertyOp2
 70
     1
102
RTVSPropertyOp3
 70
     1
102
RTVSPropertyOp4
 70
     1
102
RTVSPropertyOp5
 70
     1
102
RTVSPropertyOp6
 70
     1
102
RTVSPropertyOp7
 70
     1
102
RTVSPropertyOp8
 70
     1
102
RTVSPropertyOp9
 70
     1
102
RTVSPropertyOp10
 70
     1
102
RTVSPropertyOp11
 70
     1
102
RTVSPropertyOp12
 70
     1
102
RTVSPropertyOp13
 70
     1
102
RTVSPropertyOp14
 70
     1
102
RTVSPropertyOp15
 70
     1
102
RTVSPropertyOp16
 70
     1
102
RTVSPropertyOp17
 70
     1
102
RTVSPropertyOp18
 70
     1
102
RTVSPropertyOp19
 70
     1
102
RTVSPropertyOp20
 70
     1
102
RTVSPropertyOp21
 70
     1
102
RTVSPropertyOp22
 70
     1
102
RTVSPropertyOp23
 70
     1
102
RTVSPropertyOp24
 70
     1
102
RTVSPropertyOp25
 70
     1
102
RTVSPropertyOp26
 70
     1
102
RTVSPropertyOp27
 70
     1
102
RTVSPropertyOp28
 70
     1
102
RTVSPropertyOp29
 70
     1
102
RTVSPropertyOp30
 70
     1
102
RTVSPropertyOp31
 70
     1
102
RTVSPropertyOp32
 70
     1
102
RTVSPropertyOp33
 70
     1
102
RTVSPropertyOp34
 70
     1
102
RTVSPropertyOp35
 70
     1
102
RTVSPropertyOp36
 70
     1
102
RTVSPropertyOp37
 70
     1
102
RTVSPropertyOp38
 70
     1
102
RTVSPropertyOp39
 70
     1
102
RTVSPropertyOp40
 70
     1
102
RTVSPropertyOp41
 70
     1
102
RTVSPropertyOp42
 70
     1
102
RTVSPropertyOp43
 70
     1
102
RTVSPropertyOp44
 70
     1
102
RTVSPropertyOp45
 70
     1
102
RTVSPropertyOp46
 70
     1
102
RTVSPropertyOp47
 70
     1
102
RTVSPropertyOp48
 70
     1
102
RTVSPropertyOp49
 70
     1
102
RTVSPropertyOp50
 70
     1
102
RTVSPropertyOp51
 70
     0
102
RTVSPropertyOp52
 70
     0
102
RTVSPropertyOp53
 70
     1
102
RTVSPropertyOp54
 70
     1
102
RTVSPropertyOp55
 70
     1
102
RTVSPropertyOp56
 70
     1
102
RTVSPropertyOp57
 70
     1
102
RTVSPost2010Prop28
280
     0
102
RTVSPost2010PropOp28
 70
     1
102
RTVSPost2010Prop29
280
     1
102
RTVSPost2010PropOp29
 70
     1
102
RTVSPost2010Prop30
280
     1
102
RTVSPost2010PropOp30
 70
     1
102
RTVSPost2010Prop31
280
     0
102
RTVSPost2010PropOp31
 70
     1
102
RTVSPost2010Prop32
280
     0
102
RTVSPost2010PropOp32
 70
     1
102
RTVSPost2010Prop33
280
     0
102
RTVSPost2010PropOp33
 70
     1
102
RTVSPost2010Prop34
280
     0
102
RTVSPost2010PropOp34
 70
     1
102
RTVSPost2010Prop35
280
     0
102
RTVSPost2010PropOp35
 70
     1
102
RTVSPost2010Prop36
280
     0
102
RTVSPost2010PropOp36
 70
     1
102
RTVSPost2010Prop37
 90
       50
102
RTVSPost2010PropOp37
 70
     1
102
RTVSPost2010Prop38
140
0.0
102
RTVSPost2010PropOp38
 70
     1
102
RTVSPost2010Prop39
140
1.0
102
RTVSPost2010PropOp39
 70
     1
102
RTVSPost2010Prop40
 90
        0
102
RTVSPost2010PropOp40
 70
     1
102
RTVSPost2010Prop41ColorIndex
 90
       18
102
RTVSPost2010Prop41ColorRGB
 90
        0
102
RTVSPost2010PropOp41
 70
     1
102
RTVSPost2010Prop42
 90
       50
102
RTVSPost2010PropOp42
 70
     1
102
RTVSPost2010Prop43
 90
        3
102
RTVSPost2010PropOp43
 70
     1
102
RTVSPost2010Prop44ColorIndex
 90
        5
102
RTVSPost2010Prop44ColorRGB
 90
      255
102
RTVSPost2010PropOp44
 70
     1
102
RTVSPost2010Prop45
280
     0
102
RTVSPost2010PropOp45
 70
     1
102
RTVSPost2010Prop46
 90
       50
102
RTVSPost2010PropOp46
 70
     1
102
RTVSPost2010Prop47
 90
       50
102
RTVSPost2010PropOp47
 70
     1
102
RTVSPost2010Prop48
 90
       50
102
RTVSPost2010PropOp48
 70
     1
102
RTVSPost2010Prop49
280
     0
102
RTVSPost2010PropOp49
 70
     1
102
RTVSPost2010Prop50
 90
       50
102
RTVSPost2010PropOp50
 70
     1
102
RTVSPost2010Prop51ColorIndex
 90
      256
102
RTVSPost2010Prop51ColorRGB
 90
-16777216
102
RTVSPost2010PropOp51
 70
     0
102
RTVSPost2010Prop52
140
1.0
102
RTVSPost2010PropOp52
 70
     0
102
RTVSPost2010Prop53
 90
        2
102
RTVSPost2010PropOp53
 70
     1
102
RTVSPost2010Prop54
  1
strokes_ogs.tif
102
RTVSPost2010PropOp54
 70
     1
102
RTVSPost2010Prop55
280
     0
102
RTVSPost2010PropOp55
 70
     1
102
RTVSPost2010Prop56
140
1.0
102
RTVSPost2010PropOp56
 70
     1
102
RTVSPost2010Prop57
140
1.0
102
RTVSPost2010PropOp57
 70
     1
  0
XRECORD
  5
25F
102
{ACAD_REACTORS
330
25E
102
}
330
25E
100
AcDbXrecord
280
     1
102
RTVSPropertyOp0
 70
     1
102
RTVSPropertyOp1
 70
     1
102
RTVSPropertyOp2
 70
     1
102
RTVSPropertyOp3
 70
     1
102
RTVSPropertyOp4
 70
     1
102
RTVSPropertyOp5
 70
     1
102
RTVSPropertyOp6
 70
     1
102
RTVSPropertyOp7
 70
     1
102
RTVSPropertyOp8
 70
     1
102
RTVSPropertyOp9
 70
     1
102
RTVSPropertyOp10
 70
     1
102
RTVSPropertyOp11
 70
     1
102
RTVSPropertyOp12
 70
     1
102
RTVSPropertyOp13
 70
     1
102
RTVSPropertyOp14
 70
     1
102
RTVSPropertyOp15
 70
     1
102
RTVSPropertyOp16
 70
     1
102
RTVSPropertyOp17
 70
     1
102
RTVSPropertyOp18
 70
     1
102
RTVSPropertyOp19
 70
     1
102
RTVSPropertyOp20
 70
     1
102
RTVSPropertyOp21
 70
     1
102
RTVSPropertyOp22
 70
     1
102
RTVSPropertyOp23
 70
     1
102
RTVSPropertyOp24
 70
     1
102
RTVSPropertyOp25
 70
     1
102
RTVSPropertyOp26
 70
     1
102
RTVSPropertyOp27
 70
     1
102
RTVSPropertyOp28
 70
     1
102
RTVSPropertyOp29
 70
     1
102
RTVSPropertyOp30
 70
     1
102
RTVSPropertyOp31
 70
     1
102
RTVSPropertyOp32
 70
     1
102
RTVSPropertyOp33
 70
     1
102
RTVSPropertyOp34
 70
     1
102
RTVSPropertyOp35
 70
     1
102
RTVSPropertyOp36
 70
     1
102
RTVSPropertyOp37
 70
     1
102
RTVSPropertyOp38
 70
     1
102
RTVSPropertyOp39
 70
     1
102
RTVSPropertyOp40
 70
     1
102
RTVSPropertyOp41
 70
     1
102
RTVSPropertyOp42
 70
     1
102
RTVSPropertyOp43
 70
     1
102
RTVSPropertyOp44
 70
     1
102
RTVSPropertyOp45
 70
     1
102
RTVSPropertyOp46
 70
     1
102
RTVSPropertyOp47
 70
     1
102
RTVSPropertyOp48
 70
     1
102
RTVSPropertyOp49
 70
     1
102
RTVSPropertyOp50
 70
     1
102
RTVSPropertyOp51
 70
     0
102
RTVSPropertyOp52
 70
     0
102
RTVSPropertyOp53
 70
     1
102
RTVSPropertyOp54
 70
     1
102
RTVSPropertyOp55
 70
     1
102
RTVSPropertyOp56
 70
     1
102
RTVSPropertyOp57
 70
     1
102
RTVSPost2010Prop28
280
     0
102
RTVSPost2010PropOp28
 70
     1
102
RTVSPost2010Prop29
280
     1
102
RTVSPost2010PropOp29
 70
     1
102
RTVSPost2010Prop30
280
     1
102
RTVSPost2010PropOp30
 70
     1
102
RTVSPost2010Prop31
280
     0
102
RTVSPost2010PropOp31
 70
     1
102
RTVSPost2010Prop32
280
     0
102
RTVSPost2010PropOp32
 70
     1
102
RTVSPost2010Prop33
280
     0
102
RTVSPost2010PropOp33
 70
     1
102
RTVSPost2010Prop34
280
     0
102
RTVSPost2010PropOp34
 70
     1
102
RTVSPost2010Prop35
280
     0
102
RTVSPost2010PropOp35
 70
     1
102
RTVSPost2010Prop36
280
     0
102
RTVSPost2010PropOp36
 70
     1
102
RTVSPost2010Prop37
 90
       50
102
RTVSPost2010PropOp37
 70
     1
102
RTVSPost2010Prop38
140
0.0
102
RTVSPost2010PropOp38
 70
     1
102
RTVSPost2010Prop39
140
1.0
102
RTVSPost2010PropOp39
 70
     1
102
RTVSPost2010Prop40
 90
        0
102
RTVSPost2010PropOp40
 70
     1
102
RTVSPost2010Prop41ColorIndex
 90
       18
102
RTVSPost2010Prop41ColorRGB
 90
        0
102
RTVSPost2010PropOp41
 70
     1
102
RTVSPost2010Prop42
 90
       50
102
RTVSPost2010PropOp42
 70
     1
102
RTVSPost2010Prop43
 90
        3
102
RTVSPost2010PropOp43
 70
     1
102
RTVSPost2010Prop44ColorIndex
 90
        5
102
RTVSPost2010Prop44ColorRGB
 90
      255
102
RTVSPost2010PropOp44
 70
     1
102
RTVSPost2010Prop45
280
     0
102
RTVSPost2010PropOp45
 70
     1
102
RTVSPost2010Prop46
 90
       50
102
RTVSPost2010PropOp46
 70
     1
102
RTVSPost2010Prop47
 90
       50
102
RTVSPost2010PropOp47
 70
     1
102
RTVSPost2010Prop48
 90
       50
102
RTVSPost2010PropOp48
 70
     1
102
RTVSPost2010Prop49
280
     0
102
RTVSPost2010PropOp49
 70
     1
102
RTVSPost2010Prop50
 90
       50
102
RTVSPost2010PropOp50
 70
     1
102
RTVSPost2010Prop51ColorIndex
 90
      256
102
RTVSPost2010Prop51ColorRGB
 90
-16777216
102
RTVSPost2010PropOp51
 70
     0
102
RTVSPost2010Prop52
140
1.0
102
RTVSPost2010PropOp52
 70
     0
102
RTVSPost2010Prop53
 90
        2
102
RTVSPost2010PropOp53
 70
     1
102
RTVSPost2010Prop54
  1
strokes_ogs.tif
102
RTVSPost2010PropOp54
 70
     1
102
RTVSPost2010Prop55
280
     0
102
RTVSPost2010PropOp55
 70
     1
102
RTVSPost2010Prop56
140
1.0
102
RTVSPost2010PropOp56
 70
     1
102
RTVSPost2010Prop57
140
1.0
102
RTVSPost2010PropOp57
 70
     1
  0
XRECORD
  5
261
102
{ACAD_REACTORS
330
260
102
}
330
260
100
AcDbXrecord
280
     1
102
RTVSPropertyOp0
 70
     1
102
RTVSPropertyOp1
 70
     1
102
RTVSPropertyOp2
 70
     1
102
RTVSPropertyOp3
 70
     1
102
RTVSPropertyOp4
 70
     1
102
RTVSPropertyOp5
 70
     1
102
RTVSPropertyOp6
 70
     1
102
RTVSPropertyOp7
 70
     1
102
RTVSPropertyOp8
 70
     1
102
RTVSPropertyOp9
 70
     1
102
RTVSPropertyOp10
 70
     1
102
RTVSPropertyOp11
 70
     1
102
RTVSPropertyOp12
 70
     1
102
RTVSPropertyOp13
 70
     1
102
RTVSPropertyOp14
 70
     1
102
RTVSPropertyOp15
 70
     1
102
RTVSPropertyOp16
 70
     1
102
RTVSPropertyOp17
 70
     1
102
RTVSPropertyOp18
 70
     1
102
RTVSPropertyOp19
 70
     1
102
RTVSPropertyOp20
 70
     1
102
RTVSPropertyOp21
 70
     1
102
RTVSPropertyOp22
 70
     1
102
RTVSPropertyOp23
 70
     1
102
RTVSPropertyOp24
 70
     1
102
RTVSPropertyOp25
 70
     1
102
RTVSPropertyOp26
 70
     1
102
RTVSPropertyOp27
 70
     1
102
RTVSPropertyOp28
 70
     1
102
RTVSPropertyOp29
 70
     1
102
RTVSPropertyOp30
 70
     1
102
RTVSPropertyOp31
 70
     1
102
RTVSPropertyOp32
 70
     1
102
RTVSPropertyOp33
 70
     1
102
RTVSPropertyOp34
 70
     1
102
RTVSPropertyOp35
 70
     1
102
RTVSPropertyOp36
 70
     1
102
RTVSPropertyOp37
 70
     1
102
RTVSPropertyOp38
 70
     1
102
RTVSPropertyOp39
 70
     1
102
RTVSPropertyOp40
 70
     1
102
RTVSPropertyOp41
 70
     1
102
RTVSPropertyOp42
 70
     1
102
RTVSPropertyOp43
 70
     1
102
RTVSPropertyOp44
 70
     1
102
RTVSPropertyOp45
 70
     1
102
RTVSPropertyOp46
 70
     1
102
RTVSPropertyOp47
 70
     1
102
RTVSPropertyOp48
 70
     1
102
RTVSPropertyOp49
 70
     1
102
RTVSPropertyOp50
 70
     1
102
RTVSPropertyOp51
 70
     0
102
RTVSPropertyOp52
 70
     0
102
RTVSPropertyOp53
 70
     1
102
RTVSPropertyOp54
 70
     1
102
RTVSPropertyOp55
 70
     1
102
RTVSPropertyOp56
 70
     1
102
RTVSPropertyOp57
 70
     1
102
RTVSPost2010Prop28
280
     0
102
RTVSPost2010PropOp28
 70
     1
102
RTVSPost2010Prop29
280
     1
102
RTVSPost2010PropOp29
 70
     1
102
RTVSPost2010Prop30
280
     1
102
RTVSPost2010PropOp30
 70
     1
102
RTVSPost2010Prop31
280
     0
102
RTVSPost2010PropOp31
 70
     1
102
RTVSPost2010Prop32
280
     0
102
RTVSPost2010PropOp32
 70
     1
102
RTVSPost2010Prop33
280
     0
102
RTVSPost2010PropOp33
 70
     1
102
RTVSPost2010Prop34
280
     0
102
RTVSPost2010PropOp34
 70
     1
102
RTVSPost2010Prop35
280
     0
102
RTVSPost2010PropOp35
 70
     1
102
RTVSPost2010Prop36
280
     0
102
RTVSPost2010PropOp36
 70
     1
102
RTVSPost2010Prop37
 90
       50
102
RTVSPost2010PropOp37
 70
     1
102
RTVSPost2010Prop38
140
0.0
102
RTVSPost2010PropOp38
 70
     1
102
RTVSPost2010Prop39
140
1.0
102
RTVSPost2010PropOp39
 70
     1
102
RTVSPost2010Prop40
 90
        0
102
RTVSPost2010PropOp40
 70
     1
102
RTVSPost2010Prop41ColorIndex
 90
       18
102
RTVSPost2010Prop41ColorRGB
 90
        0
102
RTVSPost2010PropOp41
 70
     1
102
RTVSPost2010Prop42
 90
       50
102
RTVSPost2010PropOp42
 70
     1
102
RTVSPost2010Prop43
 90
        3
102
RTVSPost2010PropOp43
 70
     1
102
RTVSPost2010Prop44ColorIndex
 90
        5
102
RTVSPost2010Prop44ColorRGB
 90
      255
102
RTVSPost2010PropOp44
 70
     1
102
RTVSPost2010Prop45
280
     0
102
RTVSPost2010PropOp45
 70
     1
102
RTVSPost2010Prop46
 90
       50
102
RTVSPost2010PropOp46
 70
     1
102
RTVSPost2010Prop47
 90
       50
102
RTVSPost2010PropOp47
 70
     1
102
RTVSPost2010Prop48
 90
       50
102
RTVSPost2010PropOp48
 70
     1
102
RTVSPost2010Prop49
280
     0
102
RTVSPost2010PropOp49
 70
     1
102
RTVSPost2010Prop50
 90
       50
102
RTVSPost2010PropOp50
 70
     1
102
RTVSPost2010Prop51ColorIndex
 90
      256
102
RTVSPost2010Prop51ColorRGB
 90
-16777216
102
RTVSPost2010PropOp51
 70
     0
102
RTVSPost2010Prop52
140
1.0
102
RTVSPost2010PropOp52
 70
     0
102
RTVSPost2010Prop53
 90
        2
102
RTVSPost2010PropOp53
 70
     1
102
RTVSPost2010Prop54
  1
strokes_ogs.tif
102
RTVSPost2010PropOp54
 70
     1
102
RTVSPost2010Prop55
280
     0
102
RTVSPost2010PropOp55
 70
     1
102
RTVSPost2010Prop56
140
1.0
102
RTVSPost2010PropOp56
 70
     1
102
RTVSPost2010Prop57
140
1.0
102
RTVSPost2010PropOp57
 70
     1
  0
XRECORD
  5
263
102
{ACAD_REACTORS
330
262
102
}
330
262
100
AcDbXrecord
280
     1
102
RTVSPropertyOp0
 70
     1
102
RTVSPropertyOp1
 70
     1
102
RTVSPropertyOp2
 70
     1
102
RTVSPropertyOp3
 70
     1
102
RTVSPropertyOp4
 70
     1
102
RTVSPropertyOp5
 70
     1
102
RTVSPropertyOp6
 70
     1
102
RTVSPropertyOp7
 70
     1
102
RTVSPropertyOp8
 70
     1
102
RTVSPropertyOp9
 70
     1
102
RTVSPropertyOp10
 70
     1
102
RTVSPropertyOp11
 70
     1
102
RTVSPropertyOp12
 70
     1
102
RTVSPropertyOp13
 70
     1
102
RTVSPropertyOp14
 70
     1
102
RTVSPropertyOp15
 70
     1
102
RTVSPropertyOp16
 70
     1
102
RTVSPropertyOp17
 70
     1
102
RTVSPropertyOp18
 70
     1
102
RTVSPropertyOp19
 70
     1
102
RTVSPropertyOp20
 70
     1
102
RTVSPropertyOp21
 70
     1
102
RTVSPropertyOp22
 70
     1
102
RTVSPropertyOp23
 70
     1
102
RTVSPropertyOp24
 70
     1
102
RTVSPropertyOp25
 70
     1
102
RTVSPropertyOp26
 70
     1
102
RTVSPropertyOp27
 70
     1
102
RTVSPropertyOp28
 70
     1
102
RTVSPropertyOp29
 70
     1
102
RTVSPropertyOp30
 70
     1
102
RTVSPropertyOp31
 70
     1
102
RTVSPropertyOp32
 70
     1
102
RTVSPropertyOp33
 70
     1
102
RTVSPropertyOp34
 70
     1
102
RTVSPropertyOp35
 70
     1
102
RTVSPropertyOp36
 70
     1
102
RTVSPropertyOp37
 70
     1
102
RTVSPropertyOp38
 70
     1
102
RTVSPropertyOp39
 70
     1
102
RTVSPropertyOp40
 70
     1
102
RTVSPropertyOp41
 70
     1
102
RTVSPropertyOp42
 70
     1
102
RTVSPropertyOp43
 70
     1
102
RTVSPropertyOp44
 70
     1
102
RTVSPropertyOp45
 70
     1
102
RTVSPropertyOp46
 70
     1
102
RTVSPropertyOp47
 70
     1
102
RTVSPropertyOp48
 70
     1
102
RTVSPropertyOp49
 70
     1
102
RTVSPropertyOp50
 70
     1
102
RTVSPropertyOp51
 70
     0
102
RTVSPropertyOp52
 70
     0
102
RTVSPropertyOp53
 70
     1
102
RTVSPropertyOp54
 70
     1
102
RTVSPropertyOp55
 70
     1
102
RTVSPropertyOp56
 70
     1
102
RTVSPropertyOp57
 70
     1
102
RTVSPost2010Prop28
280
     0
102
RTVSPost2010PropOp28
 70
     1
102
RTVSPost2010Prop29
280
     1
102
RTVSPost2010PropOp29
 70
     1
102
RTVSPost2010Prop30
280
     1
102
RTVSPost2010PropOp30
 70
     1
102
RTVSPost2010Prop31
280
     0
102
RTVSPost2010PropOp31
 70
     1
102
RTVSPost2010Prop32
280
     0
102
RTVSPost2010PropOp32
 70
     1
102
RTVSPost2010Prop33
280
     0
102
RTVSPost2010PropOp33
 70
     1
102
RTVSPost2010Prop34
280
     0
102
RTVSPost2010PropOp34
 70
     1
102
RTVSPost2010Prop35
280
     0
102
RTVSPost2010PropOp35
 70
     1
102
RTVSPost2010Prop36
280
     0
102
RTVSPost2010PropOp36
 70
     1
102
RTVSPost2010Prop37
 90
       50
102
RTVSPost2010PropOp37
 70
     1
102
RTVSPost2010Prop38
140
0.0
102
RTVSPost2010PropOp38
 70
     1
102
RTVSPost2010Prop39
140
1.0
102
RTVSPost2010PropOp39
 70
     1
102
RTVSPost2010Prop40
 90
        0
102
RTVSPost2010PropOp40
 70
     1
102
RTVSPost2010Prop41ColorIndex
 90
       18
102
RTVSPost2010Prop41ColorRGB
 90
        0
102
RTVSPost2010PropOp41
 70
     1
102
RTVSPost2010Prop42
 90
       50
102
RTVSPost2010PropOp42
 70
     1
102
RTVSPost2010Prop43
 90
        3
102
RTVSPost2010PropOp43
 70
     1
102
RTVSPost2010Prop44ColorIndex
 90
        5
102
RTVSPost2010Prop44ColorRGB
 90
      255
102
RTVSPost2010PropOp44
 70
     1
102
RTVSPost2010Prop45
280
     0
102
RTVSPost2010PropOp45
 70
     1
102
RTVSPost2010Prop46
 90
       50
102
RTVSPost2010PropOp46
 70
     1
102
RTVSPost2010Prop47
 90
       50
102
RTVSPost2010PropOp47
 70
     1
102
RTVSPost2010Prop48
 90
       50
102
RTVSPost2010PropOp48
 70
     1
102
RTVSPost2010Prop49
280
     0
102
RTVSPost2010PropOp49
 70
     1
102
RTVSPost2010Prop50
 90
       50
102
RTVSPost2010PropOp50
 70
     1
102
RTVSPost2010Prop51ColorIndex
 90
      256
102
RTVSPost2010Prop51ColorRGB
 90
-16777216
102
RTVSPost2010PropOp51
 70
     0
102
RTVSPost2010Prop52
140
1.0
102
RTVSPost2010PropOp52
 70
     0
102
RTVSPost2010Prop53
 90
        2
102
RTVSPost2010PropOp53
 70
     1
102
RTVSPost2010Prop54
  1
strokes_ogs.tif
102
RTVSPost2010PropOp54
 70
     1
102
RTVSPost2010Prop55
280
     0
102
RTVSPost2010PropOp55
 70
     1
102
RTVSPost2010Prop56
140
1.0
102
RTVSPost2010PropOp56
 70
     1
102
RTVSPost2010Prop57
140
1.0
102
RTVSPost2010PropOp57
 70
     1
  0
XRECORD
  5
265
102
{ACAD_REACTORS
330
264
102
}
330
264
100
AcDbXrecord
280
     1
102
RTVSPropertyOp0
 70
     1
102
RTVSPropertyOp1
 70
     1
102
RTVSPropertyOp2
 70
     1
102
RTVSPropertyOp3
 70
     1
102
RTVSPropertyOp4
 70
     1
102
RTVSPropertyOp5
 70
     1
102
RTVSPropertyOp6
 70
     1
102
RTVSPropertyOp7
 70
     1
102
RTVSPropertyOp8
 70
     1
102
RTVSPropertyOp9
 70
     1
102
RTVSPropertyOp10
 70
     1
102
RTVSPropertyOp11
 70
     1
102
RTVSPropertyOp12
 70
     1
102
RTVSPropertyOp13
 70
     1
102
RTVSPropertyOp14
 70
     1
102
RTVSPropertyOp15
 70
     1
102
RTVSPropertyOp16
 70
     1
102
RTVSPropertyOp17
 70
     1
102
RTVSPropertyOp18
 70
     1
102
RTVSPropertyOp19
 70
     1
102
RTVSPropertyOp20
 70
     1
102
RTVSPropertyOp21
 70
     1
102
RTVSPropertyOp22
 70
     1
102
RTVSPropertyOp23
 70
     1
102
RTVSPropertyOp24
 70
     1
102
RTVSPropertyOp25
 70
     1
102
RTVSPropertyOp26
 70
     1
102
RTVSPropertyOp27
 70
     1
102
RTVSPropertyOp28
 70
     1
102
RTVSPropertyOp29
 70
     1
102
RTVSPropertyOp30
 70
     1
102
RTVSPropertyOp31
 70
     1
102
RTVSPropertyOp32
 70
     1
102
RTVSPropertyOp33
 70
     1
102
RTVSPropertyOp34
 70
     1
102
RTVSPropertyOp35
 70
     1
102
RTVSPropertyOp36
 70
     1
102
RTVSPropertyOp37
 70
     1
102
RTVSPropertyOp38
 70
     1
102
RTVSPropertyOp39
 70
     1
102
RTVSPropertyOp40
 70
     1
102
RTVSPropertyOp41
 70
     1
102
RTVSPropertyOp42
 70
     1
102
RTVSPropertyOp43
 70
     1
102
RTVSPropertyOp44
 70
     1
102
RTVSPropertyOp45
 70
     1
102
RTVSPropertyOp46
 70
     1
102
RTVSPropertyOp47
 70
     1
102
RTVSPropertyOp48
 70
     1
102
RTVSPropertyOp49
 70
     1
102
RTVSPropertyOp50
 70
     1
102
RTVSPropertyOp51
 70
     0
102
RTVSPropertyOp52
 70
     0
102
RTVSPropertyOp53
 70
     1
102
RTVSPropertyOp54
 70
     1
102
RTVSPropertyOp55
 70
     1
102
RTVSPropertyOp56
 70
     1
102
RTVSPropertyOp57
 70
     1
102
RTVSPost2010Prop28
280
     0
102
RTVSPost2010PropOp28
 70
     1
102
RTVSPost2010Prop29
280
     1
102
RTVSPost2010PropOp29
 70
     1
102
RTVSPost2010Prop30
280
     1
102
RTVSPost2010PropOp30
 70
     1
102
RTVSPost2010Prop31
280
     0
102
RTVSPost2010PropOp31
 70
     1
102
RTVSPost2010Prop32
280
     0
102
RTVSPost2010PropOp32
 70
     1
102
RTVSPost2010Prop33
280
     0
102
RTVSPost2010PropOp33
 70
     1
102
RTVSPost2010Prop34
280
     0
102
RTVSPost2010PropOp34
 70
     1
102
RTVSPost2010Prop35
280
     0
102
RTVSPost2010PropOp35
 70
     1
102
RTVSPost2010Prop36
280
     0
102
RTVSPost2010PropOp36
 70
     1
102
RTVSPost2010Prop37
 90
       50
102
RTVSPost2010PropOp37
 70
     1
102
RTVSPost2010Prop38
140
0.0
102
RTVSPost2010PropOp38
 70
     1
102
RTVSPost2010Prop39
140
1.0
102
RTVSPost2010PropOp39
 70
     1
102
RTVSPost2010Prop40
 90
        0
102
RTVSPost2010PropOp40
 70
     1
102
RTVSPost2010Prop41ColorIndex
 90
       18
102
RTVSPost2010Prop41ColorRGB
 90
        0
102
RTVSPost2010PropOp41
 70
     1
102
RTVSPost2010Prop42
 90
       50
102
RTVSPost2010PropOp42
 70
     1
102
RTVSPost2010Prop43
 90
        3
102
RTVSPost2010PropOp43
 70
     1
102
RTVSPost2010Prop44ColorIndex
 90
        5
102
RTVSPost2010Prop44ColorRGB
 90
      255
102
RTVSPost2010PropOp44
 70
     1
102
RTVSPost2010Prop45
280
     0
102
RTVSPost2010PropOp45
 70
     1
102
RTVSPost2010Prop46
 90
       50
102
RTVSPost2010PropOp46
 70
     1
102
RTVSPost2010Prop47
 90
       50
102
RTVSPost2010PropOp47
 70
     1
102
RTVSPost2010Prop48
 90
       50
102
RTVSPost2010PropOp48
 70
     1
102
RTVSPost2010Prop49
280
     0
102
RTVSPost2010PropOp49
 70
     1
102
RTVSPost2010Prop50
 90
       50
102
RTVSPost2010PropOp50
 70
     1
102
RTVSPost2010Prop51ColorIndex
 90
      256
102
RTVSPost2010Prop51ColorRGB
 90
-16777216
102
RTVSPost2010PropOp51
 70
     0
102
RTVSPost2010Prop52
140
1.0
102
RTVSPost2010PropOp52
 70
     0
102
RTVSPost2010Prop53
 90
        2
102
RTVSPost2010PropOp53
 70
     1
102
RTVSPost2010Prop54
  1
strokes_ogs.tif
102
RTVSPost2010PropOp54
 70
     1
102
RTVSPost2010Prop55
280
     0
102
RTVSPost2010PropOp55
 70
     1
102
RTVSPost2010Prop56
140
1.0
102
RTVSPost2010PropOp56
 70
     1
102
RTVSPost2010Prop57
140
1.0
102
RTVSPost2010PropOp57
 70
     1
  0
XRECORD
  5
26B
102
{ACAD_REACTORS
330
26A
102
}
330
26A
100
AcDbXrecord
280
     1
102
RTVSPropertyOp0
 70
     1
102
RTVSPropertyOp1
 70
     1
102
RTVSPropertyOp2
 70
     1
102
RTVSPropertyOp3
 70
     1
102
RTVSPropertyOp4
 70
     1
102
RTVSPropertyOp5
 70
     1
102
RTVSPropertyOp6
 70
     1
102
RTVSPropertyOp7
 70
     1
102
RTVSPropertyOp8
 70
     1
102
RTVSPropertyOp9
 70
     1
102
RTVSPropertyOp10
 70
     1
102
RTVSPropertyOp11
 70
     1
102
RTVSPropertyOp12
 70
     1
102
RTVSPropertyOp13
 70
     1
102
RTVSPropertyOp14
 70
     1
102
RTVSPropertyOp15
 70
     1
102
RTVSPropertyOp16
 70
     1
102
RTVSPropertyOp17
 70
     1
102
RTVSPropertyOp18
 70
     1
102
RTVSPropertyOp19
 70
     1
102
RTVSPropertyOp20
 70
     1
102
RTVSPropertyOp21
 70
     1
102
RTVSPropertyOp22
 70
     1
102
RTVSPropertyOp23
 70
     1
102
RTVSPropertyOp24
 70
     1
102
RTVSPropertyOp25
 70
     1
102
RTVSPropertyOp26
 70
     1
102
RTVSPropertyOp27
 70
     1
102
RTVSPropertyOp28
 70
     1
102
RTVSPropertyOp29
 70
     1
102
RTVSPropertyOp30
 70
     1
102
RTVSPropertyOp31
 70
     1
102
RTVSPropertyOp32
 70
     1
102
RTVSPropertyOp33
 70
     1
102
RTVSPropertyOp34
 70
     1
102
RTVSPropertyOp35
 70
     1
102
RTVSPropertyOp36
 70
     1
102
RTVSPropertyOp37
 70
     1
102
RTVSPropertyOp38
 70
     1
102
RTVSPropertyOp39
 70
     1
102
RTVSPropertyOp40
 70
     1
102
RTVSPropertyOp41
 70
     1
102
RTVSPropertyOp42
 70
     1
102
RTVSPropertyOp43
 70
     1
102
RTVSPropertyOp44
 70
     1
102
RTVSPropertyOp45
 70
     1
102
RTVSPropertyOp46
 70
     1
102
RTVSPropertyOp47
 70
     1
102
RTVSPropertyOp48
 70
     1
102
RTVSPropertyOp49
 70
     1
102
RTVSPropertyOp50
 70
     1
102
RTVSPropertyOp51
 70
     0
102
RTVSPropertyOp52
 70
     0
102
RTVSPropertyOp53
 70
     1
102
RTVSPropertyOp54
 70
     1
102
RTVSPropertyOp55
 70
     1
102
RTVSPropertyOp56
 70
     1
102
RTVSPropertyOp57
 70
     1
102
RTVSPost2010Prop28
280
     0
102
RTVSPost2010PropOp28
 70
     1
102
RTVSPost2010Prop29
280
     1
102
RTVSPost2010PropOp29
 70
     1
102
RTVSPost2010Prop30
280
     1
102
RTVSPost2010PropOp30
 70
     1
102
RTVSPost2010Prop31
280
     0
102
RTVSPost2010PropOp31
 70
     1
102
RTVSPost2010Prop32
280
     0
102
RTVSPost2010PropOp32
 70
     1
102
RTVSPost2010Prop33
280
     0
102
RTVSPost2010PropOp33
 70
     1
102
RTVSPost2010Prop34
280
     0
102
RTVSPost2010PropOp34
 70
     1
102
RTVSPost2010Prop35
280
     0
102
RTVSPost2010PropOp35
 70
     1
102
RTVSPost2010Prop36
280
     0
102
RTVSPost2010PropOp36
 70
     1
102
RTVSPost2010Prop37
 90
       50
102
RTVSPost2010PropOp37
 70
     1
102
RTVSPost2010Prop38
140
0.0
102
RTVSPost2010PropOp38
 70
     1
102
RTVSPost2010Prop39
140
1.0
102
RTVSPost2010PropOp39
 70
     1
102
RTVSPost2010Prop40
 90
        0
102
RTVSPost2010PropOp40
 70
     1
102
RTVSPost2010Prop41ColorIndex
 90
       18
102
RTVSPost2010Prop41ColorRGB
 90
        0
102
RTVSPost2010PropOp41
 70
     1
102
RTVSPost2010Prop42
 90
       50
102
RTVSPost2010PropOp42
 70
     1
102
RTVSPost2010Prop43
 90
        3
102
RTVSPost2010PropOp43
 70
     1
102
RTVSPost2010Prop44ColorIndex
 90
        5
102
RTVSPost2010Prop44ColorRGB
 90
      255
102
RTVSPost2010PropOp44
 70
     1
102
RTVSPost2010Prop45
280
     0
102
RTVSPost2010PropOp45
 70
     1
102
RTVSPost2010Prop46
 90
       50
102
RTVSPost2010PropOp46
 70
     1
102
RTVSPost2010Prop47
 90
       50
102
RTVSPost2010PropOp47
 70
     1
102
RTVSPost2010Prop48
 90
       50
102
RTVSPost2010PropOp48
 70
     1
102
RTVSPost2010Prop49
280
     0
102
RTVSPost2010PropOp49
 70
     1
102
RTVSPost2010Prop50
 90
       50
102
RTVSPost2010PropOp50
 70
     1
102
RTVSPost2010Prop51ColorIndex
 90
      256
102
RTVSPost2010Prop51ColorRGB
 90
-16777216
102
RTVSPost2010PropOp51
 70
     0
102
RTVSPost2010Prop52
140
1.0
102
RTVSPost2010PropOp52
 70
     0
102
RTVSPost2010Prop53
 90
        2
102
RTVSPost2010PropOp53
 70
     1
102
RTVSPost2010Prop54
  1
strokes_ogs.tif
102
RTVSPost2010PropOp54
 70
     1
102
RTVSPost2010Prop55
280
     0
102
RTVSPost2010PropOp55
 70
     1
102
RTVSPost2010Prop56
140
1.0
102
RTVSPost2010PropOp56
 70
     1
102
RTVSPost2010Prop57
140
1.0
102
RTVSPost2010PropOp57
 70
     1
  0
XRECORD
  5
27F
102
{ACAD_REACTORS
330
27E
102
}
330
27E
100
AcDbXrecord
280
     1
102
RTVSPropertyOp0
 70
     0
102
RTVSPropertyOp1
 70
     0
102
RTVSPropertyOp2
 70
     0
102
RTVSPropertyOp3
 70
     0
102
RTVSPropertyOp4
 70
     0
102
RTVSPropertyOp5
 70
     0
102
RTVSPropertyOp6
 70
     0
102
RTVSPropertyOp7
 70
     0
102
RTVSPropertyOp8
 70
     0
102
RTVSPropertyOp9
 70
     0
102
RTVSPropertyOp10
 70
     0
102
RTVSPropertyOp11
 70
     0
102
RTVSPropertyOp12
 70
     0
102
RTVSPropertyOp13
 70
     0
102
RTVSPropertyOp14
 70
     2
102
RTVSPropertyOp15
 70
     0
102
RTVSPropertyOp16
 70
     0
102
RTVSPropertyOp17
 70
     0
102
RTVSPropertyOp18
 70
     0
102
RTVSPropertyOp19
 70
     0
102
RTVSPropertyOp20
 70
     0
102
RTVSPropertyOp21
 70
     0
102
RTVSPropertyOp22
 70
     0
102
RTVSPropertyOp23
 70
     0
102
RTVSPropertyOp24
 70
     0
102
RTVSPropertyOp25
 70
     0
102
RTVSPropertyOp26
 70
     0
102
RTVSPropertyOp27
 70
     0
102
RTVSPropertyOp28
 70
     0
102
RTVSPropertyOp29
 70
     0
102
RTVSPropertyOp30
 70
     0
102
RTVSPropertyOp31
 70
     0
102
RTVSPropertyOp32
 70
     0
102
RTVSPropertyOp33
 70
     0
102
RTVSPropertyOp34
 70
     0
102
RTVSPropertyOp35
 70
     0
102
RTVSPropertyOp36
 70
     0
102
RTVSPropertyOp37
 70
     0
102
RTVSPropertyOp38
 70
     0
102
RTVSPropertyOp39
 70
     0
102
RTVSPropertyOp40
 70
     0
102
RTVSPropertyOp41
 70
     0
102
RTVSPropertyOp42
 70
     0
102
RTVSPropertyOp43
 70
     0
102
RTVSPropertyOp44
 70
     0
102
RTVSPropertyOp45
 70
     0
102
RTVSPropertyOp46
 70
     0
102
RTVSPropertyOp47
 70
     0
102
RTVSPropertyOp48
 70
     0
102
RTVSPropertyOp49
 70
     0
102
RTVSPropertyOp50
 70
     0
102
RTVSPropertyOp51
 70
     0
102
RTVSPropertyOp52
 70
     0
102
RTVSPropertyOp53
 70
     0
102
RTVSPropertyOp54
 70
     0
102
RTVSPropertyOp55
 70
     0
102
RTVSPropertyOp56
 70
     0
102
RTVSPropertyOp57
 70
     0
102
RTVSPost2010Prop28
280
     0
102
RTVSPost2010PropOp28
 70
     0
102
RTVSPost2010Prop29
280
     1
102
RTVSPost2010PropOp29
 70
     0
102
RTVSPost2010Prop30
280
     1
102
RTVSPost2010PropOp30
 70
     0
102
RTVSPost2010Prop31
280
     0
102
RTVSPost2010PropOp31
 70
     0
102
RTVSPost2010Prop32
280
     0
102
RTVSPost2010PropOp32
 70
     0
102
RTVSPost2010Prop33
280
     0
102
RTVSPost2010PropOp33
 70
     0
102
RTVSPost2010Prop34
280
     0
102
RTVSPost2010PropOp34
 70
     0
102
RTVSPost2010Prop35
280
     0
102
RTVSPost2010PropOp35
 70
     0
102
RTVSPost2010Prop36
280
     0
102
RTVSPost2010PropOp36
 70
     0
102
RTVSPost2010Prop37
 90
       50
102
RTVSPost2010PropOp37
 70
     0
102
RTVSPost2010Prop38
140
0.0
102
RTVSPost2010PropOp38
 70
     0
102
RTVSPost2010Prop39
140
1.0
102
RTVSPost2010PropOp39
 70
     0
102
RTVSPost2010Prop40
 90
        0
102
RTVSPost2010PropOp40
 70
     0
102
RTVSPost2010Prop41ColorIndex
 90
       18
102
RTVSPost2010Prop41ColorRGB
 90
        0
102
RTVSPost2010PropOp41
 70
     0
102
RTVSPost2010Prop42
 90
       50
102
RTVSPost2010PropOp42
 70
     0
102
RTVSPost2010Prop43
 90
        3
102
RTVSPost2010PropOp43
 70
     0
102
RTVSPost2010Prop44ColorIndex
 90
        5
102
RTVSPost2010Prop44ColorRGB
 90
      255
102
RTVSPost2010PropOp44
 70
     0
102
RTVSPost2010Prop45
280
     0
102
RTVSPost2010PropOp45
 70
     0
102
RTVSPost2010Prop46
 90
       50
102
RTVSPost2010PropOp46
 70
     0
102
RTVSPost2010Prop47
 90
       50
102
RTVSPost2010PropOp47
 70
     0
102
RTVSPost2010Prop48
 90
       50
102
RTVSPost2010PropOp48
 70
     0
102
RTVSPost2010Prop49
280
     0
102
RTVSPost2010PropOp49
 70
     0
102
RTVSPost2010Prop50
 90
       50
102
RTVSPost2010PropOp50
 70
     0
102
RTVSPost2010Prop51ColorIndex
 90
      256
102
RTVSPost2010Prop51ColorRGB
 90
-16777216
102
RTVSPost2010PropOp51
 70
     0
102
RTVSPost2010Prop52
140
1.0
102
RTVSPost2010PropOp52
 70
     0
102
RTVSPost2010Prop53
 90
        2
102
RTVSPost2010PropOp53
 70
     0
102
RTVSPost2010Prop54
  1
strokes_ogs.tif
102
RTVSPost2010PropOp54
 70
     0
102
RTVSPost2010Prop55
280
     0
102
RTVSPost2010PropOp55
 70
     0
102
RTVSPost2010Prop56
140
1.0
102
RTVSPost2010PropOp56
 70
     0
102
RTVSPost2010Prop57
140
1.0
102
RTVSPost2010PropOp57
 70
     0
  0
XRECORD
  5
279
102
{ACAD_REACTORS
330
278
102
}
330
278
100
AcDbXrecord
280
     1
102
RTVSPropertyOp0
 70
     1
102
RTVSPropertyOp1
 70
     1
102
RTVSPropertyOp2
 70
     1
102
RTVSPropertyOp3
 70
     1
102
RTVSPropertyOp4
 70
     1
102
RTVSPropertyOp5
 70
     1
102
RTVSPropertyOp6
 70
     1
102
RTVSPropertyOp7
 70
     1
102
RTVSPropertyOp8
 70
     1
102
RTVSPropertyOp9
 70
     1
102
RTVSPropertyOp10
 70
     1
102
RTVSPropertyOp11
 70
     1
102
RTVSPropertyOp12
 70
     1
102
RTVSPropertyOp13
 70
     1
102
RTVSPropertyOp14
 70
     1
102
RTVSPropertyOp15
 70
     1
102
RTVSPropertyOp16
 70
     1
102
RTVSPropertyOp17
 70
     1
102
RTVSPropertyOp18
 70
     1
102
RTVSPropertyOp19
 70
     1
102
RTVSPropertyOp20
 70
     1
102
RTVSPropertyOp21
 70
     1
102
RTVSPropertyOp22
 70
     1
102
RTVSPropertyOp23
 70
     1
102
RTVSPropertyOp24
 70
     1
102
RTVSPropertyOp25
 70
     1
102
RTVSPropertyOp26
 70
     1
102
RTVSPropertyOp27
 70
     1
102
RTVSPropertyOp28
 70
     1
102
RTVSPropertyOp29
 70
     1
102
RTVSPropertyOp30
 70
     1
102
RTVSPropertyOp31
 70
     1
102
RTVSPropertyOp32
 70
     1
102
RTVSPropertyOp33
 70
     1
102
RTVSPropertyOp34
 70
     1
102
RTVSPropertyOp35
 70
     1
102
RTVSPropertyOp36
 70
     1
102
RTVSPropertyOp37
 70
     1
102
RTVSPropertyOp38
 70
     1
102
RTVSPropertyOp39
 70
     1
102
RTVSPropertyOp40
 70
     1
102
RTVSPropertyOp41
 70
     1
102
RTVSPropertyOp42
 70
     1
102
RTVSPropertyOp43
 70
     1
102
RTVSPropertyOp44
 70
     1
102
RTVSPropertyOp45
 70
     1
102
RTVSPropertyOp46
 70
     1
102
RTVSPropertyOp47
 70
     1
102
RTVSPropertyOp48
 70
     1
102
RTVSPropertyOp49
 70
     1
102
RTVSPropertyOp50
 70
     1
102
RTVSPropertyOp51
 70
     0
102
RTVSPropertyOp52
 70
     0
102
RTVSPropertyOp53
 70
     1
102
RTVSPropertyOp54
 70
     1
102
RTVSPropertyOp55
 70
     1
102
RTVSPropertyOp56
 70
     1
102
RTVSPropertyOp57
 70
     1
102
RTVSPost2010Prop28
280
     0
102
RTVSPost2010PropOp28
 70
     1
102
RTVSPost2010Prop29
280
     1
102
RTVSPost2010PropOp29
 70
     1
102
RTVSPost2010Prop30
280
     1
102
RTVSPost2010PropOp30
 70
     1
102
RTVSPost2010Prop31
280
     0
102
RTVSPost2010PropOp31
 70
     1
102
RTVSPost2010Prop32
280
     0
102
RTVSPost2010PropOp32
 70
     1
102
RTVSPost2010Prop33
280
     0
102
RTVSPost2010PropOp33
 70
     1
102
RTVSPost2010Prop34
280
     0
102
RTVSPost2010PropOp34
 70
     1
102
RTVSPost2010Prop35
280
     0
102
RTVSPost2010PropOp35
 70
     1
102
RTVSPost2010Prop36
280
     0
102
RTVSPost2010PropOp36
 70
     1
102
RTVSPost2010Prop37
 90
       50
102
RTVSPost2010PropOp37
 70
     1
102
RTVSPost2010Prop38
140
0.0
102
RTVSPost2010PropOp38
 70
     1
102
RTVSPost2010Prop39
140
1.0
102
RTVSPost2010PropOp39
 70
     1
102
RTVSPost2010Prop40
 90
        0
102
RTVSPost2010PropOp40
 70
     1
102
RTVSPost2010Prop41ColorIndex
 90
       18
102
RTVSPost2010Prop41ColorRGB
 90
        0
102
RTVSPost2010PropOp41
 70
     1
102
RTVSPost2010Prop42
 90
       50
102
RTVSPost2010PropOp42
 70
     1
102
RTVSPost2010Prop43
 90
        3
102
RTVSPost2010PropOp43
 70
     1
102
RTVSPost2010Prop44ColorIndex
 90
        5
102
RTVSPost2010Prop44ColorRGB
 90
      255
102
RTVSPost2010PropOp44
 70
     1
102
RTVSPost2010Prop45
280
     0
102
RTVSPost2010PropOp45
 70
     1
102
RTVSPost2010Prop46
 90
       50
102
RTVSPost2010PropOp46
 70
     1
102
RTVSPost2010Prop47
 90
       50
102
RTVSPost2010PropOp47
 70
     1
102
RTVSPost2010Prop48
 90
       50
102
RTVSPost2010PropOp48
 70
     1
102
RTVSPost2010Prop49
280
     0
102
RTVSPost2010PropOp49
 70
     1
102
RTVSPost2010Prop50
 90
       50
102
RTVSPost2010PropOp50
 70
     1
102
RTVSPost2010Prop51ColorIndex
 90
      256
102
RTVSPost2010Prop51ColorRGB
 90
-16777216
102
RTVSPost2010PropOp51
 70
     0
102
RTVSPost2010Prop52
140
1.0
102
RTVSPost2010PropOp52
 70
     0
102
RTVSPost2010Prop53
 90
        2
102
RTVSPost2010PropOp53
 70
     1
102
RTVSPost2010Prop54
  1
strokes_ogs.tif
102
RTVSPost2010PropOp54
 70
     1
102
RTVSPost2010Prop55
280
     0
102
RTVSPost2010PropOp55
 70
     1
102
RTVSPost2010Prop56
140
1.0
102
RTVSPost2010PropOp56
 70
     1
102
RTVSPost2010Prop57
140
1.0
102
RTVSPost2010PropOp57
 70
     1
  0
XRECORD
  5
281
102
{ACAD_REACTORS
330
280
102
}
330
280
100
AcDbXrecord
280
     1
102
RTVSPropertyOp0
 70
     0
102
RTVSPropertyOp1
 70
     0
102
RTVSPropertyOp2
 70
     0
102
RTVSPropertyOp3
 70
     0
102
RTVSPropertyOp4
 70
     0
102
RTVSPropertyOp5
 70
     0
102
RTVSPropertyOp6
 70
     0
102
RTVSPropertyOp7
 70
     0
102
RTVSPropertyOp8
 70
     0
102
RTVSPropertyOp9
 70
     0
102
RTVSPropertyOp10
 70
     0
102
RTVSPropertyOp11
 70
     0
102
RTVSPropertyOp12
 70
     0
102
RTVSPropertyOp13
 70
     0
102
RTVSPropertyOp14
 70
     2
102
RTVSPropertyOp15
 70
     0
102
RTVSPropertyOp16
 70
     0
102
RTVSPropertyOp17
 70
     0
102
RTVSPropertyOp18
 70
     0
102
RTVSPropertyOp19
 70
     0
102
RTVSPropertyOp20
 70
     0
102
RTVSPropertyOp21
 70
     0
102
RTVSPropertyOp22
 70
     0
102
RTVSPropertyOp23
 70
     0
102
RTVSPropertyOp24
 70
     0
102
RTVSPropertyOp25
 70
     0
102
RTVSPropertyOp26
 70
     0
102
RTVSPropertyOp27
 70
     0
102
RTVSPropertyOp28
 70
     0
102
RTVSPropertyOp29
 70
     0
102
RTVSPropertyOp30
 70
     0
102
RTVSPropertyOp31
 70
     0
102
RTVSPropertyOp32
 70
     0
102
RTVSPropertyOp33
 70
     0
102
RTVSPropertyOp34
 70
     0
102
RTVSPropertyOp35
 70
     0
102
RTVSPropertyOp36
 70
     0
102
RTVSPropertyOp37
 70
     0
102
RTVSPropertyOp38
 70
     0
102
RTVSPropertyOp39
 70
     0
102
RTVSPropertyOp40
 70
     0
102
RTVSPropertyOp41
 70
     0
102
RTVSPropertyOp42
 70
     0
102
RTVSPropertyOp43
 70
     0
102
RTVSPropertyOp44
 70
     0
102
RTVSPropertyOp45
 70
     0
102
RTVSPropertyOp46
 70
     0
102
RTVSPropertyOp47
 70
     0
102
RTVSPropertyOp48
 70
     0
102
RTVSPropertyOp49
 70
     0
102
RTVSPropertyOp50
 70
     0
102
RTVSPropertyOp51
 70
     0
102
RTVSPropertyOp52
 70
     0
102
RTVSPropertyOp53
 70
     0
102
RTVSPropertyOp54
 70
     0
102
RTVSPropertyOp55
 70
     0
102
RTVSPropertyOp56
 70
     0
102
RTVSPropertyOp57
 70
     0
102
RTVSPost2010Prop28
280
     0
102
RTVSPost2010PropOp28
 70
     0
102
RTVSPost2010Prop29
280
     1
102
RTVSPost2010PropOp29
 70
     0
102
RTVSPost2010Prop30
280
     1
102
RTVSPost2010PropOp30
 70
     0
102
RTVSPost2010Prop31
280
     0
102
RTVSPost2010PropOp31
 70
     0
102
RTVSPost2010Prop32
280
     0
102
RTVSPost2010PropOp32
 70
     0
102
RTVSPost2010Prop33
280
     0
102
RTVSPost2010PropOp33
 70
     0
102
RTVSPost2010Prop34
280
     0
102
RTVSPost2010PropOp34
 70
     0
102
RTVSPost2010Prop35
280
     0
102
RTVSPost2010PropOp35
 70
     0
102
RTVSPost2010Prop36
280
     0
102
RTVSPost2010PropOp36
 70
     0
102
RTVSPost2010Prop37
 90
       50
102
RTVSPost2010PropOp37
 70
     0
102
RTVSPost2010Prop38
140
0.0
102
RTVSPost2010PropOp38
 70
     0
102
RTVSPost2010Prop39
140
1.0
102
RTVSPost2010PropOp39
 70
     0
102
RTVSPost2010Prop40
 90
        0
102
RTVSPost2010PropOp40
 70
     0
102
RTVSPost2010Prop41ColorIndex
 90
       18
102
RTVSPost2010Prop41ColorRGB
 90
        0
102
RTVSPost2010PropOp41
 70
     0
102
RTVSPost2010Prop42
 90
       50
102
RTVSPost2010PropOp42
 70
     0
102
RTVSPost2010Prop43
 90
        3
102
RTVSPost2010PropOp43
 70
     0
102
RTVSPost2010Prop44ColorIndex
 90
        5
102
RTVSPost2010Prop44ColorRGB
 90
      255
102
RTVSPost2010PropOp44
 70
     0
102
RTVSPost2010Prop45
280
     0
102
RTVSPost2010PropOp45
 70
     0
102
RTVSPost2010Prop46
 90
       50
102
RTVSPost2010PropOp46
 70
     0
102
RTVSPost2010Prop47
 90
       50
102
RTVSPost2010PropOp47
 70
     0
102
RTVSPost2010Prop48
 90
       50
102
RTVSPost2010PropOp48
 70
     0
102
RTVSPost2010Prop49
280
     0
102
RTVSPost2010PropOp49
 70
     0
102
RTVSPost2010Prop50
 90
       50
102
RTVSPost2010PropOp50
 70
     0
102
RTVSPost2010Prop51ColorIndex
 90
      256
102
RTVSPost2010Prop51ColorRGB
 90
-16777216
102
RTVSPost2010PropOp51
 70
     0
102
RTVSPost2010Prop52
140
1.0
102
RTVSPost2010PropOp52
 70
     0
102
RTVSPost2010Prop53
 90
        2
102
RTVSPost2010PropOp53
 70
     0
102
RTVSPost2010Prop54
  1
strokes_ogs.tif
102
RTVSPost2010PropOp54
 70
     0
102
RTVSPost2010Prop55
280
     0
102
RTVSPost2010PropOp55
 70
     0
102
RTVSPost2010Prop56
140
1.0
102
RTVSPost2010PropOp56
 70
     0
102
RTVSPost2010Prop57
140
1.0
102
RTVSPost2010PropOp57
 70
     0
  0
XRECORD
  5
26F
102
{ACAD_REACTORS
330
26E
102
}
330
26E
100
AcDbXrecord
280
     1
102
RTVSPropertyOp0
 70
     1
102
RTVSPropertyOp1
 70
     1
102
RTVSPropertyOp2
 70
     1
102
RTVSPropertyOp3
 70
     1
102
RTVSPropertyOp4
 70
     1
102
RTVSPropertyOp5
 70
     1
102
RTVSPropertyOp6
 70
     1
102
RTVSPropertyOp7
 70
     1
102
RTVSPropertyOp8
 70
     1
102
RTVSPropertyOp9
 70
     1
102
RTVSPropertyOp10
 70
     1
102
RTVSPropertyOp11
 70
     1
102
RTVSPropertyOp12
 70
     1
102
RTVSPropertyOp13
 70
     1
102
RTVSPropertyOp14
 70
     1
102
RTVSPropertyOp15
 70
     1
102
RTVSPropertyOp16
 70
     1
102
RTVSPropertyOp17
 70
     1
102
RTVSPropertyOp18
 70
     1
102
RTVSPropertyOp19
 70
     1
102
RTVSPropertyOp20
 70
     1
102
RTVSPropertyOp21
 70
     1
102
RTVSPropertyOp22
 70
     1
102
RTVSPropertyOp23
 70
     1
102
RTVSPropertyOp24
 70
     1
102
RTVSPropertyOp25
 70
     1
102
RTVSPropertyOp26
 70
     1
102
RTVSPropertyOp27
 70
     1
102
RTVSPropertyOp28
 70
     1
102
RTVSPropertyOp29
 70
     1
102
RTVSPropertyOp30
 70
     1
102
RTVSPropertyOp31
 70
     1
102
RTVSPropertyOp32
 70
     1
102
RTVSPropertyOp33
 70
     1
102
RTVSPropertyOp34
 70
     1
102
RTVSPropertyOp35
 70
     1
102
RTVSPropertyOp36
 70
     1
102
RTVSPropertyOp37
 70
     1
102
RTVSPropertyOp38
 70
     1
102
RTVSPropertyOp39
 70
     1
102
RTVSPropertyOp40
 70
     1
102
RTVSPropertyOp41
 70
     1
102
RTVSPropertyOp42
 70
     1
102
RTVSPropertyOp43
 70
     1
102
RTVSPropertyOp44
 70
     1
102
RTVSPropertyOp45
 70
     1
102
RTVSPropertyOp46
 70
     1
102
RTVSPropertyOp47
 70
     1
102
RTVSPropertyOp48
 70
     1
102
RTVSPropertyOp49
 70
     1
102
RTVSPropertyOp50
 70
     1
102
RTVSPropertyOp51
 70
     0
102
RTVSPropertyOp52
 70
     0
102
RTVSPropertyOp53
 70
     1
102
RTVSPropertyOp54
 70
     1
102
RTVSPropertyOp55
 70
     1
102
RTVSPropertyOp56
 70
     1
102
RTVSPropertyOp57
 70
     1
102
RTVSPost2010Prop28
280
     0
102
RTVSPost2010PropOp28
 70
     1
102
RTVSPost2010Prop29
280
     1
102
RTVSPost2010PropOp29
 70
     1
102
RTVSPost2010Prop30
280
     1
102
RTVSPost2010PropOp30
 70
     1
102
RTVSPost2010Prop31
280
     0
102
RTVSPost2010PropOp31
 70
     1
102
RTVSPost2010Prop32
280
     0
102
RTVSPost2010PropOp32
 70
     1
102
RTVSPost2010Prop33
280
     0
102
RTVSPost2010PropOp33
 70
     1
102
RTVSPost2010Prop34
280
     0
102
RTVSPost2010PropOp34
 70
     1
102
RTVSPost2010Prop35
280
     0
102
RTVSPost2010PropOp35
 70
     1
102
RTVSPost2010Prop36
280
     0
102
RTVSPost2010PropOp36
 70
     1
102
RTVSPost2010Prop37
 90
       50
102
RTVSPost2010PropOp37
 70
     1
102
RTVSPost2010Prop38
140
0.0
102
RTVSPost2010PropOp38
 70
     1
102
RTVSPost2010Prop39
140
1.0
102
RTVSPost2010PropOp39
 70
     1
102
RTVSPost2010Prop40
 90
        0
102
RTVSPost2010PropOp40
 70
     1
102
RTVSPost2010Prop41ColorIndex
 90
       18
102
RTVSPost2010Prop41ColorRGB
 90
        0
102
RTVSPost2010PropOp41
 70
     1
102
RTVSPost2010Prop42
 90
       50
102
RTVSPost2010PropOp42
 70
     1
102
RTVSPost2010Prop43
 90
        3
102
RTVSPost2010PropOp43
 70
     1
102
RTVSPost2010Prop44ColorIndex
 90
        5
102
RTVSPost2010Prop44ColorRGB
 90
      255
102
RTVSPost2010PropOp44
 70
     1
102
RTVSPost2010Prop45
280
     0
102
RTVSPost2010PropOp45
 70
     1
102
RTVSPost2010Prop46
 90
       50
102
RTVSPost2010PropOp46
 70
     1
102
RTVSPost2010Prop47
 90
       50
102
RTVSPost2010PropOp47
 70
     1
102
RTVSPost2010Prop48
 90
       50
102
RTVSPost2010PropOp48
 70
     1
102
RTVSPost2010Prop49
280
     0
102
RTVSPost2010PropOp49
 70
     1
102
RTVSPost2010Prop50
 90
       50
102
RTVSPost2010PropOp50
 70
     1
102
RTVSPost2010Prop51ColorIndex
 90
      256
102
RTVSPost2010Prop51ColorRGB
 90
-16777216
102
RTVSPost2010PropOp51
 70
     0
102
RTVSPost2010Prop52
140
1.0
102
RTVSPost2010PropOp52
 70
     0
102
RTVSPost2010Prop53
 90
        2
102
RTVSPost2010PropOp53
 70
     1
102
RTVSPost2010Prop54
  1
strokes_ogs.tif
102
RTVSPost2010PropOp54
 70
     1
102
RTVSPost2010Prop55
280
     0
102
RTVSPost2010PropOp55
 70
     1
102
RTVSPost2010Prop56
140
1.0
102
RTVSPost2010PropOp56
 70
     1
102
RTVSPost2010Prop57
140
1.0
102
RTVSPost2010PropOp57
 70
     1
  0
XRECORD
  5
28D
102
{ACAD_REACTORS
330
28C
102
}
330
28C
100
AcDbXrecord
280
     1
102
RTVSPropertyOp0
 70
     1
102
RTVSPropertyOp1
 70
     1
102
RTVSPropertyOp2
 70
     1
102
RTVSPropertyOp3
 70
     1
102
RTVSPropertyOp4
 70
     1
102
RTVSPropertyOp5
 70
     1
102
RTVSPropertyOp6
 70
     1
102
RTVSPropertyOp7
 70
     1
102
RTVSPropertyOp8
 70
     1
102
RTVSPropertyOp9
 70
     1
102
RTVSPropertyOp10
 70
     1
102
RTVSPropertyOp11
 70
     1
102
RTVSPropertyOp12
 70
     1
102
RTVSPropertyOp13
 70
     1
102
RTVSPropertyOp14
 70
     1
102
RTVSPropertyOp15
 70
     1
102
RTVSPropertyOp16
 70
     1
102
RTVSPropertyOp17
 70
     1
102
RTVSPropertyOp18
 70
     1
102
RTVSPropertyOp19
 70
     1
102
RTVSPropertyOp20
 70
     1
102
RTVSPropertyOp21
 70
     1
102
RTVSPropertyOp22
 70
     1
102
RTVSPropertyOp23
 70
     1
102
RTVSPropertyOp24
 70
     1
102
RTVSPropertyOp25
 70
     1
102
RTVSPropertyOp26
 70
     1
102
RTVSPropertyOp27
 70
     1
102
RTVSPropertyOp28
 70
     1
102
RTVSPropertyOp29
 70
     1
102
RTVSPropertyOp30
 70
     1
102
RTVSPropertyOp31
 70
     1
102
RTVSPropertyOp32
 70
     1
102
RTVSPropertyOp33
 70
     1
102
RTVSPropertyOp34
 70
     1
102
RTVSPropertyOp35
 70
     1
102
RTVSPropertyOp36
 70
     1
102
RTVSPropertyOp37
 70
     1
102
RTVSPropertyOp38
 70
     1
102
RTVSPropertyOp39
 70
     1
102
RTVSPropertyOp40
 70
     1
102
RTVSPropertyOp41
 70
     1
102
RTVSPropertyOp42
 70
     1
102
RTVSPropertyOp43
 70
     1
102
RTVSPropertyOp44
 70
     1
102
RTVSPropertyOp45
 70
     1
102
RTVSPropertyOp46
 70
     1
102
RTVSPropertyOp47
 70
     1
102
RTVSPropertyOp48
 70
     1
102
RTVSPropertyOp49
 70
     1
102
RTVSPropertyOp50
 70
     1
102
RTVSPropertyOp51
 70
     0
102
RTVSPropertyOp52
 70
     0
102
RTVSPropertyOp53
 70
     1
102
RTVSPropertyOp54
 70
     1
102
RTVSPropertyOp55
 70
     1
102
RTVSPropertyOp56
 70
     1
102
RTVSPropertyOp57
 70
     1
102
RTVSPost2010Prop28
280
     0
102
RTVSPost2010PropOp28
 70
     1
102
RTVSPost2010Prop29
280
     1
102
RTVSPost2010PropOp29
 70
     1
102
RTVSPost2010Prop30
280
     1
102
RTVSPost2010PropOp30
 70
     1
102
RTVSPost2010Prop31
280
     0
102
RTVSPost2010PropOp31
 70
     1
102
RTVSPost2010Prop32
280
     0
102
RTVSPost2010PropOp32
 70
     1
102
RTVSPost2010Prop33
280
     0
102
RTVSPost2010PropOp33
 70
     1
102
RTVSPost2010Prop34
280
     0
102
RTVSPost2010PropOp34
 70
     1
102
RTVSPost2010Prop35
280
     0
102
RTVSPost2010PropOp35
 70
     1
102
RTVSPost2010Prop36
280
     0
102
RTVSPost2010PropOp36
 70
     1
102
RTVSPost2010Prop37
 90
       50
102
RTVSPost2010PropOp37
 70
     1
102
RTVSPost2010Prop38
140
0.0
102
RTVSPost2010PropOp38
 70
     1
102
RTVSPost2010Prop39
140
1.0
102
RTVSPost2010PropOp39
 70
     1
102
RTVSPost2010Prop40
 90
        0
102
RTVSPost2010PropOp40
 70
     1
102
RTVSPost2010Prop41ColorIndex
 90
       18
102
RTVSPost2010Prop41ColorRGB
 90
        0
102
RTVSPost2010PropOp41
 70
     1
102
RTVSPost2010Prop42
 90
       50
102
RTVSPost2010PropOp42
 70
     1
102
RTVSPost2010Prop43
 90
        3
102
RTVSPost2010PropOp43
 70
     1
102
RTVSPost2010Prop44ColorIndex
 90
        5
102
RTVSPost2010Prop44ColorRGB
 90
      255
102
RTVSPost2010PropOp44
 70
     1
102
RTVSPost2010Prop45
280
     0
102
RTVSPost2010PropOp45
 70
     1
102
RTVSPost2010Prop46
 90
       50
102
RTVSPost2010PropOp46
 70
     1
102
RTVSPost2010Prop47
 90
       50
102
RTVSPost2010PropOp47
 70
     1
102
RTVSPost2010Prop48
 90
       50
102
RTVSPost2010PropOp48
 70
     1
102
RTVSPost2010Prop49
280
     0
102
RTVSPost2010PropOp49
 70
     1
102
RTVSPost2010Prop50
 90
       50
102
RTVSPost2010PropOp50
 70
     1
102
RTVSPost2010Prop51ColorIndex
 90
      256
102
RTVSPost2010Prop51ColorRGB
 90
-16777216
102
RTVSPost2010PropOp51
 70
     0
102
RTVSPost2010Prop52
140
1.0
102
RTVSPost2010PropOp52
 70
     0
102
RTVSPost2010Prop53
 90
        2
102
RTVSPost2010PropOp53
 70
     1
102
RTVSPost2010Prop54
  1
strokes_ogs.tif
102
RTVSPost2010PropOp54
 70
     1
102
RTVSPost2010Prop55
280
     0
102
RTVSPost2010PropOp55
 70
     1
102
RTVSPost2010Prop56
140
1.0
102
RTVSPost2010PropOp56
 70
     1
102
RTVSPost2010Prop57
140
1.0
102
RTVSPost2010PropOp57
 70
     1
  0
XRECORD
  5
28B
102
{ACAD_REACTORS
330
28A
102
}
330
28A
100
AcDbXrecord
280
     1
102
RTVSPropertyOp0
 70
     1
102
RTVSPropertyOp1
 70
     1
102
RTVSPropertyOp2
 70
     1
102
RTVSPropertyOp3
 70
     1
102
RTVSPropertyOp4
 70
     1
102
RTVSPropertyOp5
 70
     1
102
RTVSPropertyOp6
 70
     1
102
RTVSPropertyOp7
 70
     1
102
RTVSPropertyOp8
 70
     1
102
RTVSPropertyOp9
 70
     1
102
RTVSPropertyOp10
 70
     1
102
RTVSPropertyOp11
 70
     1
102
RTVSPropertyOp12
 70
     1
102
RTVSPropertyOp13
 70
     1
102
RTVSPropertyOp14
 70
     1
102
RTVSPropertyOp15
 70
     1
102
RTVSPropertyOp16
 70
     1
102
RTVSPropertyOp17
 70
     1
102
RTVSPropertyOp18
 70
     1
102
RTVSPropertyOp19
 70
     1
102
RTVSPropertyOp20
 70
     1
102
RTVSPropertyOp21
 70
     1
102
RTVSPropertyOp22
 70
     1
102
RTVSPropertyOp23
 70
     1
102
RTVSPropertyOp24
 70
     1
102
RTVSPropertyOp25
 70
     1
102
RTVSPropertyOp26
 70
     1
102
RTVSPropertyOp27
 70
     1
102
RTVSPropertyOp28
 70
     1
102
RTVSPropertyOp29
 70
     1
102
RTVSPropertyOp30
 70
     1
102
RTVSPropertyOp31
 70
     1
102
RTVSPropertyOp32
 70
     1
102
RTVSPropertyOp33
 70
     1
102
RTVSPropertyOp34
 70
     1
102
RTVSPropertyOp35
 70
     1
102
RTVSPropertyOp36
 70
     1
102
RTVSPropertyOp37
 70
     1
102
RTVSPropertyOp38
 70
     1
102
RTVSPropertyOp39
 70
     1
102
RTVSPropertyOp40
 70
     1
102
RTVSPropertyOp41
 70
     1
102
RTVSPropertyOp42
 70
     1
102
RTVSPropertyOp43
 70
     1
102
RTVSPropertyOp44
 70
     1
102
RTVSPropertyOp45
 70
     1
102
RTVSPropertyOp46
 70
     1
102
RTVSPropertyOp47
 70
     1
102
RTVSPropertyOp48
 70
     1
102
RTVSPropertyOp49
 70
     1
102
RTVSPropertyOp50
 70
     1
102
RTVSPropertyOp51
 70
     0
102
RTVSPropertyOp52
 70
     0
102
RTVSPropertyOp53
 70
     1
102
RTVSPropertyOp54
 70
     1
102
RTVSPropertyOp55
 70
     1
102
RTVSPropertyOp56
 70
     1
102
RTVSPropertyOp57
 70
     1
102
RTVSPost2010Prop28
280
     0
102
RTVSPost2010PropOp28
 70
     1
102
RTVSPost2010Prop29
280
     1
102
RTVSPost2010PropOp29
 70
     1
102
RTVSPost2010Prop30
280
     1
102
RTVSPost2010PropOp30
 70
     1
102
RTVSPost2010Prop31
280
     0
102
RTVSPost2010PropOp31
 70
     1
102
RTVSPost2010Prop32
280
     0
102
RTVSPost2010PropOp32
 70
     1
102
RTVSPost2010Prop33
280
     0
102
RTVSPost2010PropOp33
 70
     1
102
RTVSPost2010Prop34
280
     0
102
RTVSPost2010PropOp34
 70
     1
102
RTVSPost2010Prop35
280
     0
102
RTVSPost2010PropOp35
 70
     1
102
RTVSPost2010Prop36
280
     0
102
RTVSPost2010PropOp36
 70
     1
102
RTVSPost2010Prop37
 90
       50
102
RTVSPost2010PropOp37
 70
     1
102
RTVSPost2010Prop38
140
0.0
102
RTVSPost2010PropOp38
 70
     1
102
RTVSPost2010Prop39
140
1.0
102
RTVSPost2010PropOp39
 70
     1
102
RTVSPost2010Prop40
 90
        0
102
RTVSPost2010PropOp40
 70
     1
102
RTVSPost2010Prop41ColorIndex
 90
       18
102
RTVSPost2010Prop41ColorRGB
 90
        0
102
RTVSPost2010PropOp41
 70
     1
102
RTVSPost2010Prop42
 90
       50
102
RTVSPost2010PropOp42
 70
     1
102
RTVSPost2010Prop43
 90
        3
102
RTVSPost2010PropOp43
 70
     1
102
RTVSPost2010Prop44ColorIndex
 90
        5
102
RTVSPost2010Prop44ColorRGB
 90
      255
102
RTVSPost2010PropOp44
 70
     1
102
RTVSPost2010Prop45
280
     0
102
RTVSPost2010PropOp45
 70
     1
102
RTVSPost2010Prop46
 90
       50
102
RTVSPost2010PropOp46
 70
     1
102
RTVSPost2010Prop47
 90
       50
102
RTVSPost2010PropOp47
 70
     1
102
RTVSPost2010Prop48
 90
       50
102
RTVSPost2010PropOp48
 70
     1
102
RTVSPost2010Prop49
280
     0
102
RTVSPost2010PropOp49
 70
     1
102
RTVSPost2010Prop50
 90
       50
102
RTVSPost2010PropOp50
 70
     1
102
RTVSPost2010Prop51ColorIndex
 90
      256
102
RTVSPost2010Prop51ColorRGB
 90
-16777216
102
RTVSPost2010PropOp51
 70
     0
102
RTVSPost2010Prop52
140
1.0
102
RTVSPost2010PropOp52
 70
     0
102
RTVSPost2010Prop53
 90
        2
102
RTVSPost2010PropOp53
 70
     1
102
RTVSPost2010Prop54
  1
strokes_ogs.tif
102
RTVSPost2010PropOp54
 70
     1
102
RTVSPost2010Prop55
280
     0
102
RTVSPost2010PropOp55
 70
     1
102
RTVSPost2010Prop56
140
1.0
102
RTVSPost2010PropOp56
 70
     1
102
RTVSPost2010Prop57
140
1.0
102
RTVSPost2010PropOp57
 70
     1
  0
XRECORD
  5
285
102
{ACAD_REACTORS
330
284
102
}
330
284
100
AcDbXrecord
280
     1
102
RTVSPropertyOp0
 70
     1
102
RTVSPropertyOp1
 70
     1
102
RTVSPropertyOp2
 70
     1
102
RTVSPropertyOp3
 70
     1
102
RTVSPropertyOp4
 70
     1
102
RTVSPropertyOp5
 70
     1
102
RTVSPropertyOp6
 70
     1
102
RTVSPropertyOp7
 70
     1
102
RTVSPropertyOp8
 70
     1
102
RTVSPropertyOp9
 70
     1
102
RTVSPropertyOp10
 70
     1
102
RTVSPropertyOp11
 70
     1
102
RTVSPropertyOp12
 70
     1
102
RTVSPropertyOp13
 70
     1
102
RTVSPropertyOp14
 70
     1
102
RTVSPropertyOp15
 70
     1
102
RTVSPropertyOp16
 70
     1
102
RTVSPropertyOp17
 70
     1
102
RTVSPropertyOp18
 70
     1
102
RTVSPropertyOp19
 70
     1
102
RTVSPropertyOp20
 70
     1
102
RTVSPropertyOp21
 70
     1
102
RTVSPropertyOp22
 70
     1
102
RTVSPropertyOp23
 70
     1
102
RTVSPropertyOp24
 70
     1
102
RTVSPropertyOp25
 70
     1
102
RTVSPropertyOp26
 70
     1
102
RTVSPropertyOp27
 70
     1
102
RTVSPropertyOp28
 70
     1
102
RTVSPropertyOp29
 70
     1
102
RTVSPropertyOp30
 70
     1
102
RTVSPropertyOp31
 70
     1
102
RTVSPropertyOp32
 70
     1
102
RTVSPropertyOp33
 70
     1
102
RTVSPropertyOp34
 70
     1
102
RTVSPropertyOp35
 70
     1
102
RTVSPropertyOp36
 70
     1
102
RTVSPropertyOp37
 70
     1
102
RTVSPropertyOp38
 70
     1
102
RTVSPropertyOp39
 70
     1
102
RTVSPropertyOp40
 70
     1
102
RTVSPropertyOp41
 70
     1
102
RTVSPropertyOp42
 70
     1
102
RTVSPropertyOp43
 70
     1
102
RTVSPropertyOp44
 70
     1
102
RTVSPropertyOp45
 70
     1
102
RTVSPropertyOp46
 70
     1
102
RTVSPropertyOp47
 70
     1
102
RTVSPropertyOp48
 70
     1
102
RTVSPropertyOp49
 70
     1
102
RTVSPropertyOp50
 70
     1
102
RTVSPropertyOp51
 70
     0
102
RTVSPropertyOp52
 70
     0
102
RTVSPropertyOp53
 70
     1
102
RTVSPropertyOp54
 70
     1
102
RTVSPropertyOp55
 70
     1
102
RTVSPropertyOp56
 70
     1
102
RTVSPropertyOp57
 70
     1
102
RTVSPost2010Prop28
280
     0
102
RTVSPost2010PropOp28
 70
     1
102
RTVSPost2010Prop29
280
     1
102
RTVSPost2010PropOp29
 70
     1
102
RTVSPost2010Prop30
280
     1
102
RTVSPost2010PropOp30
 70
     1
102
RTVSPost2010Prop31
280
     0
102
RTVSPost2010PropOp31
 70
     1
102
RTVSPost2010Prop32
280
     0
102
RTVSPost2010PropOp32
 70
     1
102
RTVSPost2010Prop33
280
     0
102
RTVSPost2010PropOp33
 70
     1
102
RTVSPost2010Prop34
280
     0
102
RTVSPost2010PropOp34
 70
     1
102
RTVSPost2010Prop35
280
     0
102
RTVSPost2010PropOp35
 70
     1
102
RTVSPost2010Prop36
280
     0
102
RTVSPost2010PropOp36
 70
     1
102
RTVSPost2010Prop37
 90
       50
102
RTVSPost2010PropOp37
 70
     1
102
RTVSPost2010Prop38
140
0.0
102
RTVSPost2010PropOp38
 70
     1
102
RTVSPost2010Prop39
140
1.0
102
RTVSPost2010PropOp39
 70
     1
102
RTVSPost2010Prop40
 90
        0
102
RTVSPost2010PropOp40
 70
     1
102
RTVSPost2010Prop41ColorIndex
 90
       18
102
RTVSPost2010Prop41ColorRGB
 90
        0
102
RTVSPost2010PropOp41
 70
     1
102
RTVSPost2010Prop42
 90
       50
102
RTVSPost2010PropOp42
 70
     1
102
RTVSPost2010Prop43
 90
        3
102
RTVSPost2010PropOp43
 70
     1
102
RTVSPost2010Prop44ColorIndex
 90
        5
102
RTVSPost2010Prop44ColorRGB
 90
      255
102
RTVSPost2010PropOp44
 70
     1
102
RTVSPost2010Prop45
280
     0
102
RTVSPost2010PropOp45
 70
     1
102
RTVSPost2010Prop46
 90
       50
102
RTVSPost2010PropOp46
 70
     1
102
RTVSPost2010Prop47
 90
       50
102
RTVSPost2010PropOp47
 70
     1
102
RTVSPost2010Prop48
 90
       50
102
RTVSPost2010PropOp48
 70
     1
102
RTVSPost2010Prop49
280
     0
102
RTVSPost2010PropOp49
 70
     1
102
RTVSPost2010Prop50
 90
       50
102
RTVSPost2010PropOp50
 70
     1
102
RTVSPost2010Prop51ColorIndex
 90
      256
102
RTVSPost2010Prop51ColorRGB
 90
-16777216
102
RTVSPost2010PropOp51
 70
     0
102
RTVSPost2010Prop52
140
1.0
102
RTVSPost2010PropOp52
 70
     0
102
RTVSPost2010Prop53
 90
        2
102
RTVSPost2010PropOp53
 70
     1
102
RTVSPost2010Prop54
  1
strokes_ogs.tif
102
RTVSPost2010PropOp54
 70
     1
102
RTVSPost2010Prop55
280
     0
102
RTVSPost2010PropOp55
 70
     1
102
RTVSPost2010Prop56
140
1.0
102
RTVSPost2010PropOp56
 70
     1
102
RTVSPost2010Prop57
140
1.0
102
RTVSPost2010PropOp57
 70
     1
  0
XRECORD
  5
287
102
{ACAD_REACTORS
330
286
102
}
330
286
100
AcDbXrecord
280
     1
102
RTVSPropertyOp0
 70
     1
102
RTVSPropertyOp1
 70
     1
102
RTVSPropertyOp2
 70
     1
102
RTVSPropertyOp3
 70
     1
102
RTVSPropertyOp4
 70
     1
102
RTVSPropertyOp5
 70
     1
102
RTVSPropertyOp6
 70
     1
102
RTVSPropertyOp7
 70
     1
102
RTVSPropertyOp8
 70
     1
102
RTVSPropertyOp9
 70
     1
102
RTVSPropertyOp10
 70
     1
102
RTVSPropertyOp11
 70
     1
102
RTVSPropertyOp12
 70
     1
102
RTVSPropertyOp13
 70
     1
102
RTVSPropertyOp14
 70
     1
102
RTVSPropertyOp15
 70
     1
102
RTVSPropertyOp16
 70
     1
102
RTVSPropertyOp17
 70
     1
102
RTVSPropertyOp18
 70
     1
102
RTVSPropertyOp19
 70
     1
102
RTVSPropertyOp20
 70
     1
102
RTVSPropertyOp21
 70
     1
102
RTVSPropertyOp22
 70
     1
102
RTVSPropertyOp23
 70
     1
102
RTVSPropertyOp24
 70
     1
102
RTVSPropertyOp25
 70
     1
102
RTVSPropertyOp26
 70
     1
102
RTVSPropertyOp27
 70
     1
102
RTVSPropertyOp28
 70
     1
102
RTVSPropertyOp29
 70
     1
102
RTVSPropertyOp30
 70
     1
102
RTVSPropertyOp31
 70
     1
102
RTVSPropertyOp32
 70
     1
102
RTVSPropertyOp33
 70
     1
102
RTVSPropertyOp34
 70
     1
102
RTVSPropertyOp35
 70
     1
102
RTVSPropertyOp36
 70
     1
102
RTVSPropertyOp37
 70
     1
102
RTVSPropertyOp38
 70
     1
102
RTVSPropertyOp39
 70
     1
102
RTVSPropertyOp40
 70
     1
102
RTVSPropertyOp41
 70
     1
102
RTVSPropertyOp42
 70
     1
102
RTVSPropertyOp43
 70
     1
102
RTVSPropertyOp44
 70
     1
102
RTVSPropertyOp45
 70
     1
102
RTVSPropertyOp46
 70
     1
102
RTVSPropertyOp47
 70
     1
102
RTVSPropertyOp48
 70
     1
102
RTVSPropertyOp49
 70
     1
102
RTVSPropertyOp50
 70
     1
102
RTVSPropertyOp51
 70
     0
102
RTVSPropertyOp52
 70
     0
102
RTVSPropertyOp53
 70
     1
102
RTVSPropertyOp54
 70
     1
102
RTVSPropertyOp55
 70
     1
102
RTVSPropertyOp56
 70
     1
102
RTVSPropertyOp57
 70
     1
102
RTVSPost2010Prop28
280
     0
102
RTVSPost2010PropOp28
 70
     1
102
RTVSPost2010Prop29
280
     1
102
RTVSPost2010PropOp29
 70
     1
102
RTVSPost2010Prop30
280
     1
102
RTVSPost2010PropOp30
 70
     1
102
RTVSPost2010Prop31
280
     0
102
RTVSPost2010PropOp31
 70
     1
102
RTVSPost2010Prop32
280
     0
102
RTVSPost2010PropOp32
 70
     1
102
RTVSPost2010Prop33
280
     0
102
RTVSPost2010PropOp33
 70
     1
102
RTVSPost2010Prop34
280
     0
102
RTVSPost2010PropOp34
 70
     1
102
RTVSPost2010Prop35
280
     0
102
RTVSPost2010PropOp35
 70
     1
102
RTVSPost2010Prop36
280
     0
102
RTVSPost2010PropOp36
 70
     1
102
RTVSPost2010Prop37
 90
       50
102
RTVSPost2010PropOp37
 70
     1
102
RTVSPost2010Prop38
140
0.0
102
RTVSPost2010PropOp38
 70
     1
102
RTVSPost2010Prop39
140
1.0
102
RTVSPost2010PropOp39
 70
     1
102
RTVSPost2010Prop40
 90
        0
102
RTVSPost2010PropOp40
 70
     1
102
RTVSPost2010Prop41ColorIndex
 90
       18
102
RTVSPost2010Prop41ColorRGB
 90
        0
102
RTVSPost2010PropOp41
 70
     1
102
RTVSPost2010Prop42
 90
       50
102
RTVSPost2010PropOp42
 70
     1
102
RTVSPost2010Prop43
 90
        3
102
RTVSPost2010PropOp43
 70
     1
102
RTVSPost2010Prop44ColorIndex
 90
        5
102
RTVSPost2010Prop44ColorRGB
 90
      255
102
RTVSPost2010PropOp44
 70
     1
102
RTVSPost2010Prop45
280
     0
102
RTVSPost2010PropOp45
 70
     1
102
RTVSPost2010Prop46
 90
       50
102
RTVSPost2010PropOp46
 70
     1
102
RTVSPost2010Prop47
 90
       50
102
RTVSPost2010PropOp47
 70
     1
102
RTVSPost2010Prop48
 90
       50
102
RTVSPost2010PropOp48
 70
     1
102
RTVSPost2010Prop49
280
     0
102
RTVSPost2010PropOp49
 70
     1
102
RTVSPost2010Prop50
 90
       50
102
RTVSPost2010PropOp50
 70
     1
102
RTVSPost2010Prop51ColorIndex
 90
      256
102
RTVSPost2010Prop51ColorRGB
 90
-16777216
102
RTVSPost2010PropOp51
 70
     0
102
RTVSPost2010Prop52
140
1.0
102
RTVSPost2010PropOp52
 70
     0
102
RTVSPost2010Prop53
 90
        2
102
RTVSPost2010PropOp53
 70
     1
102
RTVSPost2010Prop54
  1
strokes_ogs.tif
102
RTVSPost2010PropOp54
 70
     1
102
RTVSPost2010Prop55
280
     0
102
RTVSPost2010PropOp55
 70
     1
102
RTVSPost2010Prop56
140
1.0
102
RTVSPost2010PropOp56
 70
     1
102
RTVSPost2010Prop57
140
1.0
102
RTVSPost2010PropOp57
 70
     1
  0
XRECORD
  5
277
102
{ACAD_REACTORS
330
276
102
}
330
276
100
AcDbXrecord
280
     1
102
RTVSPropertyOp0
 70
     1
102
RTVSPropertyOp1
 70
     1
102
RTVSPropertyOp2
 70
     1
102
RTVSPropertyOp3
 70
     1
102
RTVSPropertyOp4
 70
     1
102
RTVSPropertyOp5
 70
     1
102
RTVSPropertyOp6
 70
     1
102
RTVSPropertyOp7
 70
     1
102
RTVSPropertyOp8
 70
     1
102
RTVSPropertyOp9
 70
     1
102
RTVSPropertyOp10
 70
     1
102
RTVSPropertyOp11
 70
     1
102
RTVSPropertyOp12
 70
     1
102
RTVSPropertyOp13
 70
     1
102
RTVSPropertyOp14
 70
     1
102
RTVSPropertyOp15
 70
     1
102
RTVSPropertyOp16
 70
     1
102
RTVSPropertyOp17
 70
     1
102
RTVSPropertyOp18
 70
     1
102
RTVSPropertyOp19
 70
     1
102
RTVSPropertyOp20
 70
     1
102
RTVSPropertyOp21
 70
     1
102
RTVSPropertyOp22
 70
     1
102
RTVSPropertyOp23
 70
     1
102
RTVSPropertyOp24
 70
     1
102
RTVSPropertyOp25
 70
     1
102
RTVSPropertyOp26
 70
     1
102
RTVSPropertyOp27
 70
     1
102
RTVSPropertyOp28
 70
     1
102
RTVSPropertyOp29
 70
     1
102
RTVSPropertyOp30
 70
     1
102
RTVSPropertyOp31
 70
     1
102
RTVSPropertyOp32
 70
     1
102
RTVSPropertyOp33
 70
     1
102
RTVSPropertyOp34
 70
     1
102
RTVSPropertyOp35
 70
     1
102
RTVSPropertyOp36
 70
     1
102
RTVSPropertyOp37
 70
     1
102
RTVSPropertyOp38
 70
     1
102
RTVSPropertyOp39
 70
     1
102
RTVSPropertyOp40
 70
     1
102
RTVSPropertyOp41
 70
     1
102
RTVSPropertyOp42
 70
     1
102
RTVSPropertyOp43
 70
     1
102
RTVSPropertyOp44
 70
     1
102
RTVSPropertyOp45
 70
     1
102
RTVSPropertyOp46
 70
     1
102
RTVSPropertyOp47
 70
     1
102
RTVSPropertyOp48
 70
     1
102
RTVSPropertyOp49
 70
     1
102
RTVSPropertyOp50
 70
     1
102
RTVSPropertyOp51
 70
     0
102
RTVSPropertyOp52
 70
     0
102
RTVSPropertyOp53
 70
     1
102
RTVSPropertyOp54
 70
     1
102
RTVSPropertyOp55
 70
     1
102
RTVSPropertyOp56
 70
     1
102
RTVSPropertyOp57
 70
     1
102
RTVSPost2010Prop28
280
     0
102
RTVSPost2010PropOp28
 70
     1
102
RTVSPost2010Prop29
280
     1
102
RTVSPost2010PropOp29
 70
     1
102
RTVSPost2010Prop30
280
     1
102
RTVSPost2010PropOp30
 70
     1
102
RTVSPost2010Prop31
280
     0
102
RTVSPost2010PropOp31
 70
     1
102
RTVSPost2010Prop32
280
     0
102
RTVSPost2010PropOp32
 70
     1
102
RTVSPost2010Prop33
280
     0
102
RTVSPost2010PropOp33
 70
     1
102
RTVSPost2010Prop34
280
     0
102
RTVSPost2010PropOp34
 70
     1
102
RTVSPost2010Prop35
280
     0
102
RTVSPost2010PropOp35
 70
     1
102
RTVSPost2010Prop36
280
     0
102
RTVSPost2010PropOp36
 70
     1
102
RTVSPost2010Prop37
 90
       50
102
RTVSPost2010PropOp37
 70
     1
102
RTVSPost2010Prop38
140
0.0
102
RTVSPost2010PropOp38
 70
     1
102
RTVSPost2010Prop39
140
1.0
102
RTVSPost2010PropOp39
 70
     1
102
RTVSPost2010Prop40
 90
        0
102
RTVSPost2010PropOp40
 70
     1
102
RTVSPost2010Prop41ColorIndex
 90
       18
102
RTVSPost2010Prop41ColorRGB
 90
        0
102
RTVSPost2010PropOp41
 70
     1
102
RTVSPost2010Prop42
 90
       50
102
RTVSPost2010PropOp42
 70
     1
102
RTVSPost2010Prop43
 90
        3
102
RTVSPost2010PropOp43
 70
     1
102
RTVSPost2010Prop44ColorIndex
 90
        5
102
RTVSPost2010Prop44ColorRGB
 90
      255
102
RTVSPost2010PropOp44
 70
     1
102
RTVSPost2010Prop45
280
     0
102
RTVSPost2010PropOp45
 70
     1
102
RTVSPost2010Prop46
 90
       50
102
RTVSPost2010PropOp46
 70
     1
102
RTVSPost2010Prop47
 90
       50
102
RTVSPost2010PropOp47
 70
     1
102
RTVSPost2010Prop48
 90
       50
102
RTVSPost2010PropOp48
 70
     1
102
RTVSPost2010Prop49
280
     0
102
RTVSPost2010PropOp49
 70
     1
102
RTVSPost2010Prop50
 90
       50
102
RTVSPost2010PropOp50
 70
     1
102
RTVSPost2010Prop51ColorIndex
 90
      256
102
RTVSPost2010Prop51ColorRGB
 90
-16777216
102
RTVSPost2010PropOp51
 70
     0
102
RTVSPost2010Prop52
140
1.0
102
RTVSPost2010PropOp52
 70
     0
102
RTVSPost2010Prop53
 90
        2
102
RTVSPost2010PropOp53
 70
     1
102
RTVSPost2010Prop54
  1
strokes_ogs.tif
102
RTVSPost2010PropOp54
 70
     1
102
RTVSPost2010Prop55
280
     0
102
RTVSPost2010PropOp55
 70
     1
102
RTVSPost2010Prop56
140
1.0
102
RTVSPost2010PropOp56
 70
     1
102
RTVSPost2010Prop57
140
1.0
102
RTVSPost2010PropOp57
 70
     1
  0
XRECORD
  5
269
102
{ACAD_REACTORS
330
268
102
}
330
268
100
AcDbXrecord
280
     1
102
RTVSPropertyOp0
 70
     1
102
RTVSPropertyOp1
 70
     1
102
RTVSPropertyOp2
 70
     1
102
RTVSPropertyOp3
 70
     1
102
RTVSPropertyOp4
 70
     1
102
RTVSPropertyOp5
 70
     1
102
RTVSPropertyOp6
 70
     1
102
RTVSPropertyOp7
 70
     1
102
RTVSPropertyOp8
 70
     1
102
RTVSPropertyOp9
 70
     1
102
RTVSPropertyOp10
 70
     1
102
RTVSPropertyOp11
 70
     1
102
RTVSPropertyOp12
 70
     1
102
RTVSPropertyOp13
 70
     1
102
RTVSPropertyOp14
 70
     1
102
RTVSPropertyOp15
 70
     1
102
RTVSPropertyOp16
 70
     1
102
RTVSPropertyOp17
 70
     1
102
RTVSPropertyOp18
 70
     1
102
RTVSPropertyOp19
 70
     1
102
RTVSPropertyOp20
 70
     1
102
RTVSPropertyOp21
 70
     1
102
RTVSPropertyOp22
 70
     1
102
RTVSPropertyOp23
 70
     1
102
RTVSPropertyOp24
 70
     1
102
RTVSPropertyOp25
 70
     1
102
RTVSPropertyOp26
 70
     1
102
RTVSPropertyOp27
 70
     1
102
RTVSPropertyOp28
 70
     1
102
RTVSPropertyOp29
 70
     1
102
RTVSPropertyOp30
 70
     1
102
RTVSPropertyOp31
 70
     1
102
RTVSPropertyOp32
 70
     1
102
RTVSPropertyOp33
 70
     1
102
RTVSPropertyOp34
 70
     1
102
RTVSPropertyOp35
 70
     1
102
RTVSPropertyOp36
 70
     1
102
RTVSPropertyOp37
 70
     1
102
RTVSPropertyOp38
 70
     1
102
RTVSPropertyOp39
 70
     1
102
RTVSPropertyOp40
 70
     1
102
RTVSPropertyOp41
 70
     1
102
RTVSPropertyOp42
 70
     1
102
RTVSPropertyOp43
 70
     1
102
RTVSPropertyOp44
 70
     1
102
RTVSPropertyOp45
 70
     1
102
RTVSPropertyOp46
 70
     1
102
RTVSPropertyOp47
 70
     1
102
RTVSPropertyOp48
 70
     1
102
RTVSPropertyOp49
 70
     1
102
RTVSPropertyOp50
 70
     1
102
RTVSPropertyOp51
 70
     0
102
RTVSPropertyOp52
 70
     0
102
RTVSPropertyOp53
 70
     1
102
RTVSPropertyOp54
 70
     1
102
RTVSPropertyOp55
 70
     1
102
RTVSPropertyOp56
 70
     1
102
RTVSPropertyOp57
 70
     1
102
RTVSPost2010Prop28
280
     0
102
RTVSPost2010PropOp28
 70
     1
102
RTVSPost2010Prop29
280
     1
102
RTVSPost2010PropOp29
 70
     1
102
RTVSPost2010Prop30
280
     1
102
RTVSPost2010PropOp30
 70
     1
102
RTVSPost2010Prop31
280
     0
102
RTVSPost2010PropOp31
 70
     1
102
RTVSPost2010Prop32
280
     0
102
RTVSPost2010PropOp32
 70
     1
102
RTVSPost2010Prop33
280
     0
102
RTVSPost2010PropOp33
 70
     1
102
RTVSPost2010Prop34
280
     0
102
RTVSPost2010PropOp34
 70
     1
102
RTVSPost2010Prop35
280
     0
102
RTVSPost2010PropOp35
 70
     1
102
RTVSPost2010Prop36
280
     0
102
RTVSPost2010PropOp36
 70
     1
102
RTVSPost2010Prop37
 90
       50
102
RTVSPost2010PropOp37
 70
     1
102
RTVSPost2010Prop38
140
0.0
102
RTVSPost2010PropOp38
 70
     1
102
RTVSPost2010Prop39
140
1.0
102
RTVSPost2010PropOp39
 70
     1
102
RTVSPost2010Prop40
 90
        0
102
RTVSPost2010PropOp40
 70
     1
102
RTVSPost2010Prop41ColorIndex
 90
       18
102
RTVSPost2010Prop41ColorRGB
 90
        0
102
RTVSPost2010PropOp41
 70
     1
102
RTVSPost2010Prop42
 90
       50
102
RTVSPost2010PropOp42
 70
     1
102
RTVSPost2010Prop43
 90
        3
102
RTVSPost2010PropOp43
 70
     1
102
RTVSPost2010Prop44ColorIndex
 90
        5
102
RTVSPost2010Prop44ColorRGB
 90
      255
102
RTVSPost2010PropOp44
 70
     1
102
RTVSPost2010Prop45
280
     0
102
RTVSPost2010PropOp45
 70
     1
102
RTVSPost2010Prop46
 90
       50
102
RTVSPost2010PropOp46
 70
     1
102
RTVSPost2010Prop47
 90
       50
102
RTVSPost2010PropOp47
 70
     1
102
RTVSPost2010Prop48
 90
       50
102
RTVSPost2010PropOp48
 70
     1
102
RTVSPost2010Prop49
280
     0
102
RTVSPost2010PropOp49
 70
     1
102
RTVSPost2010Prop50
 90
       50
102
RTVSPost2010PropOp50
 70
     1
102
RTVSPost2010Prop51ColorIndex
 90
      256
102
RTVSPost2010Prop51ColorRGB
 90
-16777216
102
RTVSPost2010PropOp51
 70
     0
102
RTVSPost2010Prop52
140
1.0
102
RTVSPost2010PropOp52
 70
     0
102
RTVSPost2010Prop53
 90
        2
102
RTVSPost2010PropOp53
 70
     1
102
RTVSPost2010Prop54
  1
strokes_ogs.tif
102
RTVSPost2010PropOp54
 70
     1
102
RTVSPost2010Prop55
280
     0
102
RTVSPost2010PropOp55
 70
     1
102
RTVSPost2010Prop56
140
1.0
102
RTVSPost2010PropOp56
 70
     1
102
RTVSPost2010Prop57
140
1.0
102
RTVSPost2010PropOp57
 70
     1
  0
XRECORD
  5
289
102
{ACAD_REACTORS
330
288
102
}
330
288
100
AcDbXrecord
280
     1
102
RTVSPropertyOp0
 70
     1
102
RTVSPropertyOp1
 70
     1
102
RTVSPropertyOp2
 70
     1
102
RTVSPropertyOp3
 70
     1
102
RTVSPropertyOp4
 70
     1
102
RTVSPropertyOp5
 70
     1
102
RTVSPropertyOp6
 70
     1
102
RTVSPropertyOp7
 70
     1
102
RTVSPropertyOp8
 70
     1
102
RTVSPropertyOp9
 70
     1
102
RTVSPropertyOp10
 70
     1
102
RTVSPropertyOp11
 70
     1
102
RTVSPropertyOp12
 70
     1
102
RTVSPropertyOp13
 70
     1
102
RTVSPropertyOp14
 70
     1
102
RTVSPropertyOp15
 70
     1
102
RTVSPropertyOp16
 70
     1
102
RTVSPropertyOp17
 70
     1
102
RTVSPropertyOp18
 70
     1
102
RTVSPropertyOp19
 70
     1
102
RTVSPropertyOp20
 70
     1
102
RTVSPropertyOp21
 70
     1
102
RTVSPropertyOp22
 70
     1
102
RTVSPropertyOp23
 70
     1
102
RTVSPropertyOp24
 70
     1
102
RTVSPropertyOp25
 70
     1
102
RTVSPropertyOp26
 70
     1
102
RTVSPropertyOp27
 70
     1
102
RTVSPropertyOp28
 70
     1
102
RTVSPropertyOp29
 70
     1
102
RTVSPropertyOp30
 70
     1
102
RTVSPropertyOp31
 70
     1
102
RTVSPropertyOp32
 70
     1
102
RTVSPropertyOp33
 70
     1
102
RTVSPropertyOp34
 70
     1
102
RTVSPropertyOp35
 70
     1
102
RTVSPropertyOp36
 70
     1
102
RTVSPropertyOp37
 70
     1
102
RTVSPropertyOp38
 70
     1
102
RTVSPropertyOp39
 70
     1
102
RTVSPropertyOp40
 70
     1
102
RTVSPropertyOp41
 70
     1
102
RTVSPropertyOp42
 70
     1
102
RTVSPropertyOp43
 70
     1
102
RTVSPropertyOp44
 70
     1
102
RTVSPropertyOp45
 70
     1
102
RTVSPropertyOp46
 70
     1
102
RTVSPropertyOp47
 70
     1
102
RTVSPropertyOp48
 70
     1
102
RTVSPropertyOp49
 70
     1
102
RTVSPropertyOp50
 70
     1
102
RTVSPropertyOp51
 70
     0
102
RTVSPropertyOp52
 70
     0
102
RTVSPropertyOp53
 70
     1
102
RTVSPropertyOp54
 70
     1
102
RTVSPropertyOp55
 70
     1
102
RTVSPropertyOp56
 70
     1
102
RTVSPropertyOp57
 70
     1
102
RTVSPost2010Prop28
280
     0
102
RTVSPost2010PropOp28
 70
     1
102
RTVSPost2010Prop29
280
     1
102
RTVSPost2010PropOp29
 70
     1
102
RTVSPost2010Prop30
280
     1
102
RTVSPost2010PropOp30
 70
     1
102
RTVSPost2010Prop31
280
     0
102
RTVSPost2010PropOp31
 70
     1
102
RTVSPost2010Prop32
280
     0
102
RTVSPost2010PropOp32
 70
     1
102
RTVSPost2010Prop33
280
     0
102
RTVSPost2010PropOp33
 70
     1
102
RTVSPost2010Prop34
280
     0
102
RTVSPost2010PropOp34
 70
     1
102
RTVSPost2010Prop35
280
     0
102
RTVSPost2010PropOp35
 70
     1
102
RTVSPost2010Prop36
280
     0
102
RTVSPost2010PropOp36
 70
     1
102
RTVSPost2010Prop37
 90
       50
102
RTVSPost2010PropOp37
 70
     1
102
RTVSPost2010Prop38
140
0.0
102
RTVSPost2010PropOp38
 70
     1
102
RTVSPost2010Prop39
140
1.0
102
RTVSPost2010PropOp39
 70
     1
102
RTVSPost2010Prop40
 90
        0
102
RTVSPost2010PropOp40
 70
     1
102
RTVSPost2010Prop41ColorIndex
 90
       18
102
RTVSPost2010Prop41ColorRGB
 90
        0
102
RTVSPost2010PropOp41
 70
     1
102
RTVSPost2010Prop42
 90
       50
102
RTVSPost2010PropOp42
 70
     1
102
RTVSPost2010Prop43
 90
        3
102
RTVSPost2010PropOp43
 70
     1
102
RTVSPost2010Prop44ColorIndex
 90
        5
102
RTVSPost2010Prop44ColorRGB
 90
      255
102
RTVSPost2010PropOp44
 70
     1
102
RTVSPost2010Prop45
280
     0
102
RTVSPost2010PropOp45
 70
     1
102
RTVSPost2010Prop46
 90
       50
102
RTVSPost2010PropOp46
 70
     1
102
RTVSPost2010Prop47
 90
       50
102
RTVSPost2010PropOp47
 70
     1
102
RTVSPost2010Prop48
 90
       50
102
RTVSPost2010PropOp48
 70
     1
102
RTVSPost2010Prop49
280
     0
102
RTVSPost2010PropOp49
 70
     1
102
RTVSPost2010Prop50
 90
       50
102
RTVSPost2010PropOp50
 70
     1
102
RTVSPost2010Prop51ColorIndex
 90
      256
102
RTVSPost2010Prop51ColorRGB
 90
-16777216
102
RTVSPost2010PropOp51
 70
     0
102
RTVSPost2010Prop52
140
1.0
102
RTVSPost2010PropOp52
 70
     0
102
RTVSPost2010Prop53
 90
        2
102
RTVSPost2010PropOp53
 70
     1
102
RTVSPost2010Prop54
  1
strokes_ogs.tif
102
RTVSPost2010PropOp54
 70
     1
102
RTVSPost2010Prop55
280
     0
102
RTVSPost2010PropOp55
 70
     1
102
RTVSPost2010Prop56
140
1.0
102
RTVSPost2010PropOp56
 70
     1
102
RTVSPost2010Prop57
140
1.0
102
RTVSPost2010PropOp57
 70
     1
  0
ENDSEC
  0
EOF
