  0
SECTION
  2
HEADER
  9
$ACADVER
  1
AC1021
  9
$ACADMAINTVER
 70
    25
  9
$DWGCODEPAGE
  3
ANSI_1252
  9
$INSBASE
 10
0.0
 20
0.0
 30
0.0
  9
$EXTMIN
 10
0.0
 20
0.0
 30
0.0
  9
$EXTMAX
 10
210.0
 20
297.0
 30
0.0
  9
$LIMMIN
 10
0.0
 20
0.0
  9
$LIMMAX
 10
210.0
 20
297.0
  9
$ORTHOMODE
 70
     0
  9
$REGENMODE
 70
     1
  9
$FILLMODE
 70
     1
  9
$QTEXTMODE
 70
     0
  9
$MIRRTEXT
 70
     1
  9
$LTSCALE
 40
1.0
  9
$ATTMODE
 70
     1
  9
$TEXTSIZE
 40
2.5
  9
$TRACEWID
 40
1.0
  9
$TEXTSTYLE
  7
Standard
  9
$CLAYER
  8
0
  9
$CELTYPE
  6
ByLayer
  9
$CECOLOR
 62
   256
  9
$CELTSCALE
 40
1.0
  9
$DISPSILH
 70
     0
  9
$DIMSCALE
 40
1.0
  9
$DIMASZ
 40
2.5
  9
$DIMEXO
 40
0.625
  9
$DIMDLI
 40
3.75
  9
$DIMRND
 40
0.0
  9
$DIMDLE
 40
0.0
  9
$DIMEXE
 40
1.25
  9
$DIMTP
 40
0.0
  9
$DIMTM
 40
0.0
  9
$DIMTXT
 40
2.5
  9
$DIMCEN
 40
2.5
  9
$DIMTSZ
 40
0.0
  9
$DIMTOL
 70
     0
  9
$DIMLIM
 70
     0
  9
$DIMTIH
 70
     0
  9
$DIMTOH
 70
     0
  9
$DIMSE1
 70
     0
  9
$DIMSE2
 70
     0
  9
$DIMTAD
 70
     1
  9
$DIMZIN
 70
     8
  9
$DIMBLK
  1

  9
$DIMASO
 70
     1
  9
$DIMSHO
 70
     1
  9
$DIMPOST
  1

  9
$DIMAPOST
  1

  9
$DIMALT
 70
     0
  9
$DIMALTD
 70
     3
  9
$DIMALTF
 40
0.0393700787
  9
$DIMLFAC
 40
1.0
  9
$DIMTOFL
 70
     1
  9
$DIMTVP
 40
0.0
  9
$DIMTIX
 70
     0
  9
$DIMSOXD
 70
     0
  9
$DIMSAH
 70
     0
  9
$DIMBLK1
  1

  9
$DIMBLK2
  1

  9
$DIMSTYLE
  2
ISO-25
  9
$DIMCLRD
 70
     0
  9
$DIMCLRE
 70
     0
  9
$DIMCLRT
 70
     0
  9
$DIMTFAC
 40
1.0
  9
$DIMGAP
 40
0.625
  9
$DIMJUST
 70
     0
  9
$DIMSD1
 70
     0
  9
$DIMSD2
 70
     0
  9
$DIMTOLJ
 70
     0
  9
$DIMTZIN
 70
     8
  9
$DIMALTZ
 70
     0
  9
$DIMALTTZ
 70
     0
  9
$DIMUPT
 70
     0
  9
$DIMDEC
 70
     2
  9
$DIMTDEC
 70
     2
  9
$DIMALTU
 70
     2
  9
$DIMALTTD
 70
     3
  9
$DIMTXSTY
  7
Standard
  9
$DIMAUNIT
 70
     0
  9
$DIMADEC
 70
     0
  9
$DIMALTRND
 40
0.0
  9
$DIMAZIN
 70
     0
  9
$DIMDSEP
 70
    44
  9
$DIMATFIT
 70
     3
  9
$DIMFRAC
 70
     0
  9
$DIMLDRBLK
  1

  9
$DIMLUNIT
 70
     2
  9
$DIMLWD
 70
    -2
  9
$DIMLWE
 70
    -2
  9
$DIMTMOVE
 70
     0
  9
$DIMFXL
 40
1.0
  9
$DIMFXLON
 70
     0
  9
$DIMJOGANG
 40
0.7853981634
  9
$DIMTFILL
 70
     0
  9
$DIMTFILLCLR
 70
     0
  9
$DIMARCSYM
 70
     0
  9
$DIMLTYPE
  6

  9
$DIMLTEX1
  6

  9
$DIMLTEX2
  6

  9
$LUNITS
 70
     2
  9
$LUPREC
 70
     4
  9
$SKETCHINC
 40
1.0
  9
$FILLETRAD
 40
10.0
  9
$AUNITS
 70
     0
  9
$AUPREC
 70
     0
  9
$MENU
  1
.
  9
$ELEVATION
 40
0.0
  9
$PELEVATION
 40
0.0
  9
$THICKNESS
 40
0.0
  9
$LIMCHECK
 70
     0
  9
$CHAMFERA
 40
0.0
  9
$CHAMFERB
 40
0.0
  9
$CHAMFERC
 40
0.0
  9
$CHAMFERD
 40
0.0
  9
$SKPOLY
 70
     0
  9
$TDCREATE
 40
2457283.664709977
  9
$TDUCREATE
 40
2457283.581376643
  9
$TDUPDATE
 40
2457283.664715035
  9
$TDUUPDATE
 40
2457283.581381701
  9
$TDINDWG
 40
0.0000000116
  9
$TDUSRTIMER
 40
0.0000000116
  9
$USRTIMER
 70
     1
  9
$ANGBASE
 50
0.0
  9
$ANGDIR
 70
     0
  9
$PDMODE
 70
     0
  9
$PDSIZE
 40
0.0
  9
$PLINEWID
 40
0.0
  9
$SPLFRAME
 70
     0
  9
$SPLINETYPE
 70
     6
  9
$SPLINESEGS
 70
     8
  9
$HANDSEED
  5
2B2
  9
$SURFTAB1
 70
     6
  9
$SURFTAB2
 70
     6
  9
$SURFTYPE
 70
     6
  9
$SURFU
 70
     6
  9
$SURFV
 70
     6
  9
$UCSBASE
  2

  9
$UCSNAME
  2

  9
$UCSORG
 10
0.0
 20
0.0
 30
0.0
  9
$UCSXDIR
 10
1.0
 20
0.0
 30
0.0
  9
$UCSYDIR
 10
0.0
 20
1.0
 30
0.0
  9
$UCSORTHOREF
  2

  9
$UCSORTHOVIEW
 70
     0
  9
$UCSORGTOP
 10
0.0
 20
0.0
 30
0.0
  9
$UCSORGBOTTOM
 10
0.0
 20
0.0
 30
0.0
  9
$UCSORGLEFT
 10
0.0
 20
0.0
 30
0.0
  9
$UCSORGRIGHT
 10
0.0
 20
0.0
 30
0.0
  9
$UCSORGFRONT
 10
0.0
 20
0.0
 30
0.0
  9
$UCSORGBACK
 10
0.0
 20
0.0
 30
0.0
  9
$PUCSBASE
  2

  9
$PUCSNAME
  2

  9
$PUCSORG
 10
0.0
 20
0.0
 30
0.0
  9
$PUCSXDIR
 10
1.0
 20
0.0
 30
0.0
  9
$PUCSYDIR
 10
0.0
 20
1.0
 30
0.0
  9
$PUCSORTHOREF
  2

  9
$PUCSORTHOVIEW
 70
     0
  9
$PUCSORGTOP
 10
0.0
 20
0.0
 30
0.0
  9
$PUCSORGBOTTOM
 10
0.0
 20
0.0
 30
0.0
  9
$PUCSORGLEFT
 10
0.0
 20
0.0
 30
0.0
  9
$PUCSORGRIGHT
 10
0.0
 20
0.0
 30
0.0
  9
$PUCSORGFRONT
 10
0.0
 20
0.0
 30
0.0
  9
$PUCSORGBACK
 10
0.0
 20
0.0
 30
0.0
  9
$USERI1
 70
     0
  9
$USERI2
 70
     0
  9
$USERI3
 70
     0
  9
$USERI4
 70
     0
  9
$USERI5
 70
     0
  9
$USERR1
 40
0.0
  9
$USERR2
 40
0.0
  9
$USERR3
 40
0.0
  9
$USERR4
 40
0.0
  9
$USERR5
 40
0.0
  9
$WORLDVIEW
 70
     1
  9
$SHADEDGE
 70
     3
  9
$SHADEDIF
 70
    70
  9
$TILEMODE
 70
     1
  9
$MAXACTVP
 70
    64
  9
$PINSBASE
 10
0.0
 20
0.0
 30
0.0
  9
$PLIMCHECK
 70
     0
  9
$PEXTMIN
 10
0.0
 20
0.0
 30
0.0
  9
$PEXTMAX
 10
210.0
 20
297.0
 30
0.0
  9
$PLIMMIN
 10
0.0
 20
0.0
  9
$PLIMMAX
 10
210.0
 20
297.0
  9
$UNITMODE
 70
     0
  9
$VISRETAIN
 70
     1
  9
$PLINEGEN
 70
     0
  9
$PSLTSCALE
 70
     1
  9
$TREEDEPTH
 70
  3020
  9
$CMLSTYLE
  2
Standard
  9
$CMLJUST
 70
     0
  9
$CMLSCALE
 40
20.0
  9
$PROXYGRAPHICS
 70
     1
  9
$MEASUREMENT
 70
     1
  9
$CELWEIGHT
370
    -1
  9
$ENDCAPS
280
     0
  9
$JOINSTYLE
280
     0
  9
$LWDISPLAY
290
     0
  9
$INSUNITS
 70
     4
  9
$HYPERLINKBASE
  1

  9
$STYLESHEET
  1

  9
$XEDIT
290
     1
  9
$CEPSNTYPE
380
     0
  9
$PSTYLEMODE
290
     1
  9
$FINGERPRINTGUID
  2
{290C56B8-CB45-4B68-97E9-306B6C18FE32}
  9
$VERSIONGUID
  2
{FAEB1C32-E019-11D5-929B-00C0DF256EC4}
  9
$EXTNAMES
290
     1
  9
$PSVPSCALE
 40
0.0
  9
$OLESTARTUP
290
     0
  9
$SORTENTS
280
   127
  9
$INDEXCTL
280
     0
  9
$HIDETEXT
280
     1
  9
$XCLIPFRAME
290
     0
  9
$HALOGAP
280
     0
  9
$OBSCOLOR
 70
   257
  9
$OBSLTYPE
280
     0
  9
$INTERSECTIONDISPLAY
280
     0
  9
$INTERSECTIONCOLOR
 70
   257
  9
$DIMASSOC
280
     2
  9
$PROJECTNAME
  1

  9
$CAMERADISPLAY
290
     0
  9
$LENSLENGTH
 40
50.0
  9
$CAMERAHEIGHT
 40
0.0
  9
$STEPSPERSEC
 40
2.0
  9
$STEPSIZE
 40
6.0
  9
$3DDWFPREC
 40
2.0
  9
$PSOLWIDTH
 40
5.0
  9
$PSOLHEIGHT
 40
80.0
  9
$LOFTANG1
 40
1.5707963268
  9
$LOFTANG2
 40
1.5707963268
  9
$LOFTMAG1
 40
0.0
  9
$LOFTMAG2
 40
0.0
  9
$LOFTPARAM
 70
     7
  9
$LOFTNORMALS
280
     1
  9
$LATITUDE
 40
37.795
  9
$LONGITUDE
 40
-122.394
  9
$NORTHDIRECTION
 40
0.0
  9
$TIMEZONE
 70
 -8000
  9
$LIGHTGLYPHDISPLAY
280
     1
  9
$TILEMODELIGHTSYNCH
280
     1
  9
$CMATERIAL
347
44
  9
$SOLIDHIST
280
     0
  9
$SHOWHIST
280
     1
  9
$DWFFRAME
280
     2
  9
$DGNFRAME
280
     2
  9
$REALWORLDSCALE
290
     1
  9
$INTERFERECOLOR
 62
   256
  9
$CSHADOW
280
     0
  9
$SHADOWPLANELOCATION
 40
0.0
  0
ENDSEC
  0
SECTION
  2
CLASSES
  0
CLASS
  1
ACDBDICTIONARYWDFLT
  2
AcDbDictionaryWithDefault
  3
ObjectDBX Classes
 90
        0
 91
        4
280
     0
281
     0
  0
CLASS
  1
VISUALSTYLE
  2
AcDbVisualStyle
  3
ObjectDBX Classes
 90
     4095
 91
        4
280
     0
281
     0
  0
CLASS
  1
MATERIAL
  2
AcDbMaterial
  3
ObjectDBX Classes
 90
     1153
 91
        4
280
     0
281
     0
  0
CLASS
  1
SCALE
  2
AcDbScale
  3
ObjectDBX Classes
 90
     1153
 91
        4
280
     0
281
     0
  0
CLASS
  1
TABLESTYLE
  2
AcDbTableStyle
  3
ObjectDBX Classes
 90
     4095
 91
        4
280
     0
281
     0
  0
CLASS
  1
MLEADERSTYLE
  2
AcDbMLeaderStyle
  3
ACDB_MLEADERSTYLE_CLASS
 90
     4095
 91
        4
280
     0
281
     0
  0
CLASS
  1
SUN
  2
AcDbSun
  3
SCENEOE
 90
     1153
 91
        4
280
     0
281
     0
  0
CLASS
  1
DICTIONARYVAR
  2
AcDbDictionaryVar
  3
ObjectDBX Classes
 90
        0
 91
        4
280
     0
281
     0
  0
CLASS
  1
CELLSTYLEMAP
  2
AcDbCellStyleMap
  3
ObjectDBX Classes
 90
     1152
 91
        4
280
     0
281
     0
  0
ENDSEC
  0
SECTION
  2
TABLES
  0
TABLE
  2
VPORT
  5
8
330
0
100
AcDbSymbolTable
 70
     1
  0
VPORT
  5
29
330
8
100
AcDbSymbolTableRecord
100
AcDbViewportTableRecord
  2
*Active
 70
     0
 10
0.0
 20
0.0
 11
1.0
 21
1.0
 12
344.1869158879
 22
148.5
 13
0.0
 23
0.0
 14
10.0
 24
10.0
 15
10.0
 25
10.0
 16
0.0
 26
0.0
 36
1.0
 17
0.0
 27
0.0
 37
0.0
 40
297.0
 41
1.9729729729
 42
50.0
 43
0.0
 44
0.0
 50
0.0
 51
0.0
 71
     0
 72
   100
 73
     1
 74
     3
 75
     0
 76
     0
 77
     0
 78
     0
281
     0
 65
     1
110
0.0
120
0.0
130
0.0
111
1.0
121
0.0
131
0.0
112
0.0
122
1.0
132
0.0
 79
     0
146
0.0
 60
     3
 61
     5
292
     1
282
     1
141
0.0
142
0.0
 63
   250
361
6D
  0
ENDTAB
  0
TABLE
  2
LTYPE
  5
5
330
0
100
AcDbSymbolTable
 70
     1
  0
LTYPE
  5
14
330
5
100
AcDbSymbolTableRecord
100
AcDbLinetypeTableRecord
  2
ByBlock
 70
     0
  3

 72
    65
 73
     0
 40
0.0
  0
LTYPE
  5
15
330
5
100
AcDbSymbolTableRecord
100
AcDbLinetypeTableRecord
  2
ByLayer
 70
     0
  3

 72
    65
 73
     0
 40
0.0
  0
LTYPE
  5
16
330
5
100
AcDbSymbolTableRecord
100
AcDbLinetypeTableRecord
  2
Continuous
 70
     0
  3
Solid line
 72
    65
 73
     0
 40
0.0
  0
ENDTAB
  0
TABLE
  2
LAYER
  5
2
330
0
100
AcDbSymbolTable
 70
     9
  0
LAYER
  5
10
330
2
100
AcDbSymbolTableRecord
100
AcDbLayerTableRecord
  2
0
 70
     0
 62
     7
  6
Continuous
370
    -3
390
F
347
46
  0
LAYER
  5
6E
330
2
100
AcDbSymbolTableRecord
100
AcDbLayerTableRecord
  2
encadrement
 70
     1
 62
    -7
  6
Continuous
370
    -3
390
F
347
46
  0
LAYER
  5
74
330
2
100
AcDbSymbolTableRecord
100
AcDbLayerTableRecord
  2
Cartouche
 70
     0
 62
     7
  6
Continuous
370
    -3
390
F
347
46
  0
LAYER
  5
77
330
2
100
AcDbSymbolTableRecord
100
AcDbLayerTableRecord
  2
H658GLACE
 70
     0
 62
     7
  6
Continuous
370
    -3
390
F
347
46
  0
LAYER
  5
99
330
2
100
AcDbSymbolTableRecord
100
AcDbLayerTableRecord
  2
H658PATTE_FIXATI
 70
     0
 62
     7
  6
Continuous
370
    -3
390
F
347
46
  0
LAYER
  5
9C
330
2
100
AcDbSymbolTableRecord
100
AcDbLayerTableRecord
  2
H611ECROU_HM8
 70
     0
 62
     7
  6
Continuous
370
    -3
390
F
347
46
  0
LAYER
  5
AB
330
2
100
AcDbSymbolTableRecord
100
AcDbLayerTableRecord
  2
DV1_Défaut
 70
     0
 62
     7
  6
Continuous
370
    -3
390
F
347
46
  0
LAYER
  5
ED
330
2
100
AcDbSymbolTableRecord
100
AcDbLayerTableRecord
  2
H611RONDELLE_PLA
 70
     0
 62
     7
  6
Continuous
370
    -3
390
F
347
46
  0
LAYER
  5
EF
330
2
100
AcDbSymbolTableRecord
100
AcDbLayerTableRecord
  2
H658VIS_HM8X26
 70
     0
 62
     7
  6
Continuous
370
    -3
390
F
347
46
  0
ENDTAB
  0
TABLE
  2
STYLE
  5
3
330
0
100
AcDbSymbolTable
 70
     3
  0
STYLE
  5
11
330
3
100
AcDbSymbolTableRecord
100
AcDbTextStyleTableRecord
  2
Standard
 70
     0
 40
0.0
 41
1.0
 50
0.0
 71
     0
 42
2.5
  3
txt
  4

  0
STYLE
  5
1FC
330
3
100
AcDbSymbolTableRecord
100
AcDbTextStyleTableRecord
  2
SEACAD_Arial
 70
     0
 40
0.0
 41
1.0
 50
0.0
 71
     0
 42
2.5
  3

  4

1001
ACAD
1000
Arial
1071
        0
  0
STYLE
  5
1FF
330
3
100
AcDbSymbolTableRecord
100
AcDbTextStyleTableRecord
  2
SEACAD_ArialB
 70
     0
 40
0.0
 41
1.0
 50
0.0
 71
     0
 42
2.5
  3
arialbd.ttf
  4

1001
ACAD
1000
Arial
1071
 33554432
  0
ENDTAB
  0
TABLE
  2
VIEW
  5
6
330
0
100
AcDbSymbolTable
 70
     0
  0
ENDTAB
  0
TABLE
  2
UCS
  5
7
330
0
100
AcDbSymbolTable
 70
     0
  0
ENDTAB
  0
TABLE
  2
APPID
  5
9
330
0
100
AcDbSymbolTable
 70
     2
  0
APPID
  5
12
330
9
100
AcDbSymbolTableRecord
100
AcDbRegAppTableRecord
  2
ACAD
 70
     0
  0
APPID
  5
2AA
330
9
100
AcDbSymbolTableRecord
100
AcDbRegAppTableRecord
  2
ACAD_MLEADERVER
 70
     0
  0
ENDTAB
  0
TABLE
  2
DIMSTYLE
  5
A
330
0
100
AcDbSymbolTable
 70
     3
100
AcDbDimStyleTable
  0
DIMSTYLE
105
27
330
A
100
AcDbSymbolTableRecord
100
AcDbDimStyleTableRecord
  2
ISO-25
 70
     0
 41
2.5
 42
0.625
 43
3.75
 44
1.25
 73
     0
 74
     0
 77
     1
 78
     8
140
2.5
141
2.5
143
0.0393700787
147
0.625
171
     3
172
     1
178
     0
271
     2
272
     2
274
     3
278
    44
283
     0
284
     8
340
11
  0
DIMSTYLE
105
1EA
330
A
100
AcDbSymbolTableRecord
100
AcDbDimStyleTableRecord
  2
Standard
 70
     0
178
     0
340
11
  0
DIMSTYLE
105
1FD
102
{ACAD_REACTORS
330
1FE
330
209
330
213
330
261
330
26B
102
}
330
A
100
AcDbSymbolTableRecord
100
AcDbDimStyleTableRecord
  2
presto
 70
     0
 41
12.0
 42
2.4
 44
1.6
 73
     0
 74
     0
 77
     1
 78
     8
140
8.0
141
0.0
147
4.0
172
     1
173
     1
178
     0
271
     2
272
     2
278
    44
284
     8
340
1FC
343
1F7
344
1F7
  0
ENDTAB
  0
TABLE
  2
BLOCK_RECORD
  5
1
330
0
100
AcDbSymbolTable
 70
    13
  0
BLOCK_RECORD
  5
1F
330
1
100
AcDbSymbolTableRecord
100
AcDbBlockTableRecord
  2
*Model_Space
340
22
 70
     0
280
     1
281
     0
  0
BLOCK_RECORD
  5
1B
330
1
100
AcDbSymbolTableRecord
100
AcDbBlockTableRecord
  2
*Paper_Space
340
1E
 70
     0
280
     1
281
     0
  0
BLOCK_RECORD
  5
75
330
1
100
AcDbSymbolTableRecord
100
AcDbBlockTableRecord
  2
SE
340
0
102
{BLKREFS
331
76
102
}
 70
     0
280
     1
281
     0
  0
BLOCK_RECORD
  5
DE
330
1
100
AcDbSymbolTableRecord
100
AcDbBlockTableRecord
  2
SE1
340
0
102
{BLKREFS
331
DF
102
}
 70
     0
280
     1
281
     0
  0
BLOCK_RECORD
  5
121
330
1
100
AcDbSymbolTableRecord
100
AcDbBlockTableRecord
  2
SE2
340
0
102
{BLKREFS
331
122
102
}
 70
     0
280
     1
281
     0
  0
BLOCK_RECORD
  5
1EB
330
1
100
AcDbSymbolTableRecord
100
AcDbBlockTableRecord
  2
_OBLIQUE
340
0
 70
     0
280
     1
281
     0
  0
BLOCK_RECORD
  5
1EF
330
1
100
AcDbSymbolTableRecord
100
AcDbBlockTableRecord
  2
_DOT
340
0
 70
     0
280
     1
281
     0
  0
BLOCK_RECORD
  5
1F7
330
1
100
AcDbSymbolTableRecord
100
AcDbBlockTableRecord
  2
_SE_FILLED
340
0
 70
     0
280
     1
281
     0
  0
BLOCK_RECORD
  5
200
330
1
100
AcDbSymbolTableRecord
100
AcDbBlockTableRecord
  2
DMBLK6
340
0
 70
     0
280
     1
281
     0
  0
BLOCK_RECORD
  5
20A
330
1
100
AcDbSymbolTableRecord
100
AcDbBlockTableRecord
  2
DMBLK7
340
0
 70
     0
280
     1
281
     0
  0
BLOCK_RECORD
  5
214
330
1
100
AcDbSymbolTableRecord
100
AcDbBlockTableRecord
  2
DMBLK8
340
0
 70
     0
280
     1
281
     0
  0
BLOCK_RECORD
  5
21D
330
1
100
AcDbSymbolTableRecord
100
AcDbBlockTableRecord
  2
SE3
340
0
102
{BLKREFS
331
21E
102
}
 70
     0
280
     1
281
     0
  0
BLOCK_RECORD
  5
262
330
1
100
AcDbSymbolTableRecord
100
AcDbBlockTableRecord
  2
DMBLK9
340
0
 70
     0
280
     1
281
     0
  0
BLOCK_RECORD
  5
26C
330
1
100
AcDbSymbolTableRecord
100
AcDbBlockTableRecord
  2
DMBLK10
340
0
 70
     0
280
     1
281
     0
  0
ENDTAB
  0
ENDSEC
  0
SECTION
  2
BLOCKS
  0
BLOCK
  5
20
330
1F
100
AcDbEntity
  8
0
100
AcDbBlockBegin
  2
*Model_Space
 70
     0
 10
0.0
 20
0.0
 30
0.0
  3
*Model_Space
  1
*Model_Space
  0
ENDBLK
  5
21
330
1F
100
AcDbEntity
  8
0
100
AcDbBlockEnd
  0
BLOCK
  5
1C
330
1B
100
AcDbEntity
 67
     1
  8
0
100
AcDbBlockBegin
  2
*Paper_Space
 70
     0
 10
0.0
 20
0.0
 30
0.0
  3
*Paper_Space
  1
*Paper_Space
  0
ENDBLK
  5
1D
330
1B
100
AcDbEntity
 67
     1
  8
0
100
AcDbBlockEnd
  0
BLOCK
  5
DC
330
75
100
AcDbEntity
  8
0
100
AcDbBlockBegin
  2
SE
 70
     0
 10
0.0
 20
0.0
 30
0.0
  3
SE
  1
SE
  0
LINE
  5
78
330
75
100
AcDbEntity
  8
H658GLACE
  6
Continuous
 62
     7
100
AcDbLine
 10
-126.7965850682
 20
477.6725849577
 30
0.0
 11
330.2034149318
 21
477.6725849577
 31
0.0
  0
LINE
  5
79
330
75
100
AcDbEntity
  8
H658GLACE
  6
Continuous
 62
     7
100
AcDbLine
 10
367.4034149318
 20
489.9200336716
 30
0.0
 11
367.4034149318
 21
489.8289995134
 31
0.0
  0
LINE
  5
7A
330
75
100
AcDbEntity
  8
H658GLACE
  6
Continuous
 62
     7
100
AcDbLine
 10
-163.9965850682
 20
489.9200336716
 30
0.0
 11
-163.8741371907
 21
489.9200336716
 31
0.0
  0
LINE
  5
7B
330
75
100
AcDbEntity
  8
H658GLACE
  6
Continuous
 62
     7
100
AcDbLine
 10
367.2809670542
 20
489.9200336716
 30
0.0
 11
367.4034149318
 21
489.9200336716
 31
0.0
  0
ARC
  5
7C
330
75
100
AcDbEntity
  8
H658GLACE
  6
Continuous
 62
     7
100
AcDbCircle
 10
-126.7965850682
 20
439.9200336716
 30
0.0
 40
62.24744871391562
100
AcDbArc
 50
126.5588217722
 51
126.6992644847
  0
ARC
  5
7D
330
75
100
AcDbEntity
  8
H658GLACE
  6
Continuous
 62
     7
100
AcDbCircle
 10
-126.7965850682
 20
439.9200336716
 30
0.0
 40
37.75255128608379
100
AcDbArc
 50
90.0
 51
170.1851899144
  0
ARC
  5
7E
330
75
100
AcDbEntity
  8
H658GLACE
  6
Continuous
 62
     7
100
AcDbCircle
 10
330.2034149318
 20
439.9200336716
 30
0.0
 40
37.75255128608396
100
AcDbArc
 50
9.8148100856
 51
90.0
  0
ARC
  5
7F
330
75
100
AcDbEntity
  8
H658GLACE
  6
Continuous
 62
     7
100
AcDbCircle
 10
330.2034149318
 20
439.9200336716
 30
0.0
 40
62.24744871391562
100
AcDbArc
 50
53.3007355153
 51
53.4411782278
  0
LINE
  5
80
330
75
100
AcDbEntity
  8
H658GLACE
  6
Continuous
 62
     7
100
AcDbLine
 10
-163.9965850682
 20
489.9200336716
 30
0.0
 11
-163.9965850682
 21
489.8289995134
 31
0.0
  0
LINE
  5
81
330
75
100
AcDbEntity
  8
H658GLACE
  6
Continuous
 62
     7
100
AcDbLine
 10
367.4034149318
 20
446.3554923661
 30
0.0
 11
367.4034149318
 21
-108.5154250229
 31
0.0
  0
LINE
  5
82
330
75
100
AcDbEntity
  8
H658GLACE
  6
Continuous
 62
     7
100
AcDbLine
 10
-163.9965850682
 20
446.3554923661
 30
0.0
 11
-163.9965850682
 21
-108.5154250229
 31
0.0
  0
ARC
  5
83
330
75
100
AcDbEntity
  8
H658GLACE
  6
Continuous
 62
     7
100
AcDbCircle
 10
330.2034149318
 20
-102.0799663284
 30
0.0
 40
62.24744871391566
100
AcDbArc
 50
306.5588217722
 51
306.6992644847
  0
ARC
  5
84
330
75
100
AcDbEntity
  8
H658GLACE
  6
Continuous
 62
     7
100
AcDbCircle
 10
330.2034149318
 20
-102.0799663284
 30
0.0
 40
37.75255128608379
100
AcDbArc
 50
270.0
 51
350.1851899144
  0
LINE
  5
85
330
75
100
AcDbEntity
  8
H658GLACE
  6
Continuous
 62
     7
100
AcDbLine
 10
-163.9965850682
 20
-152.0799663284
 30
0.0
 11
-163.8741371907
 21
-152.0799663284
 31
0.0
  0
ARC
  5
86
330
75
100
AcDbEntity
  8
H658GLACE
  6
Continuous
 62
     7
100
AcDbCircle
 10
-126.7965850682
 20
-102.0799663284
 30
0.0
 40
62.24744871391564
100
AcDbArc
 50
233.3007355153
 51
233.4411782278
  0
LINE
  5
87
330
75
100
AcDbEntity
  8
H658GLACE
  6
Continuous
 62
     7
100
AcDbLine
 10
367.4034149318
 20
-152.0799663284
 30
0.0
 11
367.4034149318
 21
-151.9889321701
 31
0.0
  0
LINE
  5
88
330
75
100
AcDbEntity
  8
H658GLACE
  6
Continuous
 62
     7
100
AcDbLine
 10
367.2809670542
 20
-152.0799663284
 30
0.0
 11
367.4034149318
 21
-152.0799663284
 31
0.0
  0
LINE
  5
89
330
75
100
AcDbEntity
  8
H658GLACE
  6
Continuous
 62
     7
100
AcDbLine
 10
-163.9965850682
 20
-152.0799663284
 30
0.0
 11
-163.9965850682
 21
-151.9889321701
 31
0.0
  0
ARC
  5
8A
330
75
100
AcDbEntity
  8
H658GLACE
  6
Continuous
 62
     7
100
AcDbCircle
 10
-126.7965850682
 20
-102.0799663284
 30
0.0
 40
37.75255128608379
100
AcDbArc
 50
189.8148100857
 51
270.0
  0
LINE
  5
8B
330
75
100
AcDbEntity
  8
H658GLACE
  6
Continuous
 62
     7
100
AcDbLine
 10
-126.7965850682
 20
-139.8325176145
 30
0.0
 11
330.2034149318
 21
-139.8325176145
 31
0.0
  0
LINE
  5
8C
330
75
100
AcDbEntity
  8
H658GLACE
  6
Continuous
 62
     7
100
AcDbLine
 10
330.2034149318
 20
502.4200336716
 30
0.0
 11
-126.7965850682
 21
502.4200336716
 31
0.0
  0
ARC
  5
8D
330
75
100
AcDbEntity
  8
H658GLACE
  6
Continuous
 62
     7
100
AcDbCircle
 10
330.2034149318
 20
439.9200336716
 30
0.0
 40
37.49999999999973
100
AcDbArc
 50
0.0
 51
7.1731685214
  0
ARC
  5
8E
330
75
100
AcDbEntity
  8
H658GLACE
  6
Continuous
 62
     7
100
AcDbCircle
 10
330.2034149318
 20
439.9200336716
 30
0.0
 40
62.49999999999972
100
AcDbArc
 50
0.0
 51
90.0
  0
LINE
  5
8F
330
75
100
AcDbEntity
  8
H658GLACE
  6
Continuous
 62
     7
100
AcDbLine
 10
392.7034149318
 20
-102.0799663284
 30
0.0
 11
392.7034149318
 21
439.9200336716
 31
0.0
  0
ARC
  5
90
330
75
100
AcDbEntity
  8
H658GLACE
  6
Continuous
 62
     7
100
AcDbCircle
 10
330.2034149318
 20
-102.0799663284
 30
0.0
 40
37.49999999999973
100
AcDbArc
 50
352.7287480407
 51
0.0
  0
ARC
  5
91
330
75
100
AcDbEntity
  8
H658GLACE
  6
Continuous
 62
     7
100
AcDbCircle
 10
330.2034149318
 20
-102.0799663284
 30
0.0
 40
62.49999999999967
100
AcDbArc
 50
270.0
 51
0.0
  0
LINE
  5
92
330
75
100
AcDbEntity
  8
H658GLACE
  6
Continuous
 62
     7
100
AcDbLine
 10
-126.7965850682
 20
-164.5799663284
 30
0.0
 11
330.2034149318
 21
-164.5799663284
 31
0.0
  0
ARC
  5
93
330
75
100
AcDbEntity
  8
H658GLACE
  6
Continuous
 62
     7
100
AcDbCircle
 10
-126.7965850682
 20
-102.0799663284
 30
0.0
 40
37.4999999999997
100
AcDbArc
 50
180.0
 51
187.2663010793
  0
ARC
  5
94
330
75
100
AcDbEntity
  8
H658GLACE
  6
Continuous
 62
     7
100
AcDbCircle
 10
-126.7965850682
 20
-102.0799663284
 30
0.0
 40
62.49999999999975
100
AcDbArc
 50
180.0
 51
270.0
  0
LINE
  5
95
330
75
100
AcDbEntity
  8
H658GLACE
  6
Continuous
 62
     7
100
AcDbLine
 10
-189.2965850682
 20
439.9200336716
 30
0.0
 11
-189.2965850682
 21
-102.0799663284
 31
0.0
  0
LINE
  5
96
330
75
100
AcDbEntity
  8
H658GLACE
  6
Continuous
 62
     7
100
AcDbLine
 10
-164.2965850682
 20
-102.0799663284
 30
0.0
 11
-164.2965850682
 21
439.9200336716
 31
0.0
  0
ARC
  5
97
330
75
100
AcDbEntity
  8
H658GLACE
  6
Continuous
 62
     7
100
AcDbCircle
 10
-126.7965850682
 20
439.9200336716
 30
0.0
 40
37.4999999999997
100
AcDbArc
 50
172.8151869285
 51
180.0
  0
ARC
  5
98
330
75
100
AcDbEntity
  8
H658GLACE
  6
Continuous
 62
     7
100
AcDbCircle
 10
-126.7965850682
 20
439.9200336716
 30
0.0
 40
62.49999999999972
100
AcDbArc
 50
90.0
 51
180.0
  0
ARC
  5
9A
330
75
100
AcDbEntity
  8
H658PATTE_FIXATI
  6
Continuous
 62
     7
100
AcDbCircle
 10
364.4034149318
 20
113.9200336716
 30
0.0
 40
4.999999999999997
100
AcDbArc
 50
306.8698976459
 51
311.2998727917
  0
ARC
  5
9B
330
75
100
AcDbEntity
  8
H658PATTE_FIXATI
  6
Continuous
 62
     7
100
AcDbCircle
 10
364.4034149318
 20
223.9200336716
 30
0.0
 40
5.000000000000004
100
AcDbArc
 50
48.7001272083
 51
53.1301023541
  0
LINE
  5
9D
330
75
100
AcDbEntity
  8
H611ECROU_HM8
  6
Continuous
 62
     7
100
AcDbLine
 10
367.7034149318
 20
175.4200336716
 30
0.0
 11
367.4034149318
 21
175.4200336716
 31
0.0
  0
LINE
  5
9E
330
75
100
AcDbEntity
  8
H611ECROU_HM8
  6
Continuous
 62
     7
100
AcDbLine
 10
367.7034149318
 20
169.388959239
 30
0.0
 11
367.4034149318
 21
169.388959239
 31
0.0
  0
LINE
  5
9F
330
75
100
AcDbEntity
  8
H611ECROU_HM8
  6
Continuous
 62
     7
100
AcDbLine
 10
367.7034149318
 20
162.888959239
 30
0.0
 11
367.4034149318
 21
162.888959239
 31
0.0
  0
LINE
  5
A0
330
75
100
AcDbEntity
  8
H611ECROU_HM8
  6
Continuous
 62
     7
100
AcDbLine
 10
367.4034149318
 20
162.4200336716
 30
0.0
 11
367.7034149318
 21
162.4200336716
 31
0.0
  0
LINE
  5
A1
330
75
100
AcDbEntity
  8
H611ECROU_HM8
  6
Continuous
 62
     7
100
AcDbLine
 10
367.4034149318
 20
174.9511081043
 30
0.0
 11
367.7034149318
 21
174.9511081043
 31
0.0
  0
LINE
  5
A2
330
75
100
AcDbEntity
  8
H611ECROU_HM8
  6
Continuous
 62
     7
100
AcDbLine
 10
367.4034149318
 20
168.4511081043
 30
0.0
 11
367.7034149318
 21
168.4511081043
 31
0.0
  0
LINE
  5
A3
330
75
100
AcDbEntity
  8
H611ECROU_HM8
  6
Continuous
 62
     7
100
AcDbLine
 10
-164.2965850682
 20
162.4200336716
 30
0.0
 11
-163.9965850682
 21
162.4200336716
 31
0.0
  0
LINE
  5
A4
330
75
100
AcDbEntity
  8
H611ECROU_HM8
  6
Continuous
 62
     7
100
AcDbLine
 10
-164.2965850682
 20
168.4511081043
 30
0.0
 11
-163.9965850682
 21
168.4511081043
 31
0.0
  0
LINE
  5
A5
330
75
100
AcDbEntity
  8
H611ECROU_HM8
  6
Continuous
 62
     7
100
AcDbLine
 10
-164.2965850682
 20
174.9511081043
 30
0.0
 11
-163.9965850682
 21
174.9511081043
 31
0.0
  0
LINE
  5
A6
330
75
100
AcDbEntity
  8
H611ECROU_HM8
  6
Continuous
 62
     7
100
AcDbLine
 10
-163.9965850682
 20
169.388959239
 30
0.0
 11
-164.2965850682
 21
169.388959239
 31
0.0
  0
LINE
  5
A7
330
75
100
AcDbEntity
  8
H611ECROU_HM8
  6
Continuous
 62
     7
100
AcDbLine
 10
-163.9965850682
 20
175.4200336716
 30
0.0
 11
-164.2965850682
 21
175.4200336716
 31
0.0
  0
LINE
  5
A8
330
75
100
AcDbEntity
  8
H611ECROU_HM8
  6
Continuous
 62
     7
100
AcDbLine
 10
-163.9965850682
 20
162.888959239
 30
0.0
 11
-164.2965850682
 21
162.888959239
 31
0.0
  0
ARC
  5
A9
330
75
100
AcDbEntity
  8
H658PATTE_FIXATI
  6
Continuous
 62
     7
100
AcDbCircle
 10
-160.9965850682
 20
223.9200336716
 30
0.0
 40
4.999999999999997
100
AcDbArc
 50
126.8698976459
 51
131.2998727917
  0
ARC
  5
AA
330
75
100
AcDbEntity
  8
H658PATTE_FIXATI
  6
Continuous
 62
     7
100
AcDbCircle
 10
-160.9965850682
 20
113.9200336716
 30
0.0
 40
4.999999999999948
100
AcDbArc
 50
228.7001272083
 51
233.1301023541
  0
LINE
  5
AC
330
75
100
AcDbEntity
  8
DV1_Défaut
  6
Continuous
 62
     7
100
AcDbLine
 10
-88.3177535178
 20
378.8902370463
 30
0.0
 11
-49.1975936582
 21
421.7962188279
 31
0.0
  0
LINE
  5
AD
330
75
100
AcDbEntity
  8
DV1_Défaut
  6
Continuous
 62
     7
100
AcDbLine
 10
-115.5765628721
 20
293.3535011364
 30
0.0
 11
-71.9758549751
 21
341.1736323782
 31
0.0
  0
LINE
  5
AE
330
75
100
AcDbEntity
  8
DV1_Défaut
  6
Continuous
 62
     7
100
AcDbLine
 10
-99.3044940498
 20
266.5524466055
 30
0.0
 11
-49.8829400246
 21
320.7567316654
 31
0.0
  0
LINE
  5
AF
330
75
100
AcDbEntity
  8
DV1_Défaut
  6
Continuous
 62
     7
100
AcDbLine
 10
-43.5501138854
 20
-20.9627039244
 30
0.0
 11
101.0954211543
 21
137.566219523
 31
0.0
  0
LINE
  5
B0
330
75
100
AcDbEntity
  8
DV1_Défaut
  6
Continuous
 62
     7
100
AcDbLine
 10
-28.0661760924
 20
-34.690731246
 30
0.0
 11
116.5793589472
 21
123.8381922014
 31
0.0
  0
LINE
  5
B1
330
75
100
AcDbEntity
  8
DV1_Défaut
  6
Continuous
 62
     7
100
AcDbLine
 10
270.5386111973
 20
-39.2358576033
 30
0.0
 11
342.9129057096
 21
40.657844131
 31
0.0
  0
LINE
  5
B2
330
75
100
AcDbEntity
  8
DV1_Défaut
  6
Continuous
 62
     7
100
AcDbLine
 10
278.4824304716
 20
-46.2788313929
 30
0.0
 11
347.6988083044
 21
30.1288584225
 31
0.0
  0
LINE
  5
B3
330
75
100
AcDbEntity
  8
DV1_Défaut
  6
Continuous
 62
     7
100
AcDbLine
 10
284.7525519743
 20
-51.8379081891
 30
0.0
 11
357.270613494
 21
28.2144973846
 31
0.0
  0
LINE
  5
B4
330
75
100
AcDbEntity
  8
DV1_Défaut
  6
Continuous
 62
     7
100
AcDbLine
 10
-74.2791552379
 20
365.9166358773
 30
0.0
 11
-35.2963748633
 21
408.9495752518
 31
0.0
  0
LINE
  5
B5
330
75
100
AcDbEntity
  8
DV1_Défaut
  6
Continuous
 62
     7
100
AcDbLine
 10
-95.3279957539
 20
385.3686678025
 30
0.0
 11
-56.3452153793
 21
428.401607177
 31
0.0
  0
LINE
  5
B6
330
75
100
AcDbEntity
  8
DV1_Défaut
  6
Continuous
 62
     7
100
AcDbLine
 10
111.1146697682
 20
148.5471370887
 30
0.0
 11
301.7541433943
 21
357.4845959067
 31
0.0
  0
LINE
  5
B7
330
75
100
AcDbEntity
  8
DV1_Défaut
  6
Continuous
 62
     7
100
AcDbLine
 10
126.5986075611
 20
134.8191097671
 30
0.0
 11
296.9682407995
 21
321.5411854815
 31
0.0
  0
LINE
  5
B8
330
75
100
AcDbEntity
  8
DV1_Défaut
  6
Continuous
 62
     7
100
AcDbLine
 10
-127.0627290996
 20
-112.4910389025
 30
0.0
 11
-74.5083772793
 21
-54.892407778
 31
0.0
  0
LINE
  5
B9
330
75
100
AcDbEntity
  8
DV1_Défaut
  6
Continuous
 62
     7
100
AcDbLine
 10
-96.4329524929
 20
-109.6194973456
 30
0.0
 11
-59.0244394863
 21
-68.6204350996
 31
0.0
  0
LINE
  5
BA
330
75
100
AcDbEntity
  8
DV1_Défaut
  6
Continuous
 62
     7
100
AcDbLine
 10
-71.0687504824
 20
-51.1226382305
 30
0.0
 11
-60.5613973906
 21
-39.6067668732
 31
0.0
  0
LINE
  5
BB
330
75
100
AcDbEntity
  8
DV1_Défaut
  6
Continuous
 62
     7
100
AcDbLine
 10
-55.5848126894
 20
-64.8506655521
 30
0.0
 11
-45.0774595976
 21
-53.3347941948
 31
0.0
  0
LINE
  5
BC
330
75
100
AcDbEntity
  8
DV1_Défaut
  6
Continuous
 62
     7
100
AcDbLine
 10
-55.6886480647
 20
-34.2663206254
 30
0.0
 11
-47.0630356216
 21
-24.8128034166
 31
0.0
  0
LINE
  5
BD
330
75
100
AcDbEntity
  8
DV1_Défaut
  6
Continuous
 62
     7
100
AcDbLine
 10
-40.2047102717
 20
-47.994347947
 30
0.0
 11
-31.5790978287
 21
-38.5408307382
 31
0.0
  0
LINE
  5
BE
330
75
100
AcDbEntity
  8
DV1_Défaut
  6
Continuous
 62
     7
100
AcDbLine
 10
-164.3549548
 20
31.5847181748
 30
0.0
 11
-163.9965850682
 21
31.2669883095
 31
0.0
  0
LINE
  5
BF
330
75
100
AcDbEntity
  8
DV1_Défaut
  6
Continuous
 62
     7
100
AcDbLine
 10
-166.3685790028
 20
26.5506576676
 30
0.0
 11
-163.9965850682
 21
24.4476527359
 31
0.0
  0
LINE
  5
C0
330
75
100
AcDbEntity
  8
DV1_Défaut
  6
Continuous
 62
     7
100
AcDbLine
 10
195.5071057898
 20
-122.0628440921
 30
0.0
 11
230.8490021922
 21
-83.0490623492
 31
0.0
  0
LINE
  5
C1
330
75
100
AcDbEntity
  8
DV1_Défaut
  6
Continuous
 62
     7
100
AcDbLine
 10
200.2930083846
 20
-132.5918298007
 30
0.0
 11
238.7928214665
 21
-90.0920361388
 31
0.0
  0
LINE
  5
C2
330
75
100
AcDbEntity
  8
DV1_Défaut
  6
Continuous
 62
     7
100
AcDbLine
 10
209.8648135742
 20
-134.5061908386
 30
0.0
 11
245.0629429692
 21
-95.651112935
 31
0.0
  0
LINE
  5
C3
330
75
100
AcDbEntity
  8
DV1_Défaut
  6
Continuous
 62
     7
100
AcDbLine
 10
251.4423866297
 20
-60.3161055026
 30
0.0
 11
264.2971400834
 21
-46.1257932485
 31
0.0
  0
LINE
  5
C4
330
75
100
AcDbEntity
  8
DV1_Défaut
  6
Continuous
 62
     7
100
AcDbLine
 10
259.3862059041
 20
-67.3590792922
 30
0.0
 11
272.2409593578
 21
-53.1687670381
 31
0.0
  0
LINE
  5
C5
330
75
100
AcDbEntity
  8
DV1_Défaut
  6
Continuous
 62
     7
100
AcDbLine
 10
265.6563274068
 20
-72.9181560884
 30
0.0
 11
278.5110808604
 21
-58.7278438343
 31
0.0
  0
LINE
  5
C6
330
75
100
AcDbEntity
  8
DV1_Défaut
  6
Continuous
 62
     7
100
AcDbLine
 10
-60.7858209663
 20
-7.1741382597
 30
0.0
 11
83.8597140734
 21
151.3547851878
 31
0.0
  0
LINE
  5
C7
330
75
100
AcDbEntity
  8
DV1_Défaut
  6
Continuous
 62
     7
100
AcDbLine
 10
-25.1099448458
 20
45.9852999467
 30
0.0
 11
10.2319515566
 21
84.9990816896
 31
0.0
  0
LINE
  5
C8
330
75
100
AcDbEntity
  8
DV1_Défaut
  6
Continuous
 62
     7
100
AcDbLine
 10
206.0457781078
 20
271.9573952968
 30
0.0
 11
304.2229731324
 21
381.7810161208
 31
0.0
  0
LINE
  5
C9
330
75
100
AcDbEntity
  8
DV1_Défaut
  6
Continuous
 62
     7
100
AcDbLine
 10
-47.4479276619
 20
438.2232884236
 30
0.0
 11
-39.948040927
 21
446.5023841699
 31
0.0
  0
LINE
  5
CA
330
75
100
AcDbEntity
  8
DV1_Défaut
  6
Continuous
 62
     7
100
AcDbLine
 10
-40.2689509478
 20
431.5889237361
 30
0.0
 11
-26.6713840816
 21
446.5023841699
 31
0.0
  0
LINE
  5
CB
330
75
100
AcDbEntity
  8
DV1_Défaut
  6
Continuous
 62
     7
100
AcDbLine
 10
-26.3990871458
 20
418.7712564984
 30
0.0
 11
-1.277947961
 21
446.5023841699
 31
0.0
  0
LINE
  5
CC
330
75
100
AcDbEntity
  8
DV1_Défaut
  6
Continuous
 62
     7
100
AcDbLine
 10
-12.7368397854
 20
406.1454554895
 30
0.0
 11
3.1138214789
 21
423.5300517149
 31
0.0
  0
LINE
  5
CD
330
75
100
AcDbEntity
  8
DV1_Défaut
  6
Continuous
 62
     7
100
AcDbLine
 10
9.3560751651
 20
385.7285547766
 30
0.0
 11
19.3858903012
 21
396.728997184
 31
0.0
  0
LINE
  5
CE
330
75
100
AcDbEntity
  8
DV1_Défaut
  6
Continuous
 62
     7
100
AcDbLine
 10
-115.5765628721
 20
363.0163534513
 30
0.0
 11
-106.478911355
 21
373.0592155156
 31
0.0
  0
LINE
  5
CF
330
75
100
AcDbEntity
  8
DV1_Défaut
  6
Continuous
 62
     7
100
AcDbLine
 10
-115.5765628721
 20
348.9934783998
 30
0.0
 11
-99.5079661374
 21
366.6171006248
 31
0.0
  0
LINE
  5
D0
330
75
100
AcDbEntity
  8
DV1_Défaut
  6
Continuous
 62
     7
100
AcDbLine
 10
-115.5765628721
 20
320.3285884889
 30
0.0
 11
-85.4300708389
 21
353.6071835904
 31
0.0
  0
LINE
  5
D1
330
75
100
AcDbEntity
  8
DV1_Défaut
  6
Continuous
 62
     7
100
AcDbLine
 10
-60.7856423555
 20
353.4467687997
 30
0.0
 11
-21.6654824958
 21
396.3527505813
 31
0.0
  0
LINE
  5
D2
330
75
100
AcDbEntity
  8
DV1_Défaut
  6
Continuous
 62
     7
100
AcDbLine
 10
-38.692727405
 20
333.0298680869
 30
0.0
 11
0.4274324547
 21
375.9358498684
 31
0.0
  0
LINE
  5
D3
330
75
100
AcDbEntity
  8
DV1_Défaut
  6
Continuous
 62
     7
100
AcDbLine
 10
-99.7294846548
 20
387.6742096077
 30
0.0
 11
-60.7467042802
 21
430.7071489822
 31
0.0
  0
LINE
  5
D4
330
75
100
AcDbEntity
  8
DV1_Défaut
  6
Continuous
 62
     7
100
AcDbLine
 10
-105.2747888509
 20
422.435593524
 30
0.0
 11
-97.774902116
 21
430.7146892703
 31
0.0
  0
LINE
  5
D5
330
75
100
AcDbEntity
  8
DV1_Défaut
  6
Continuous
 62
     7
100
AcDbLine
 10
-147.5644738763
 20
232.0810324437
 30
0.0
 11
-98.1429198511
 21
286.2853175036
 31
0.0
  0
LINE
  5
D6
330
75
100
AcDbEntity
  8
DV1_Défaut
  6
Continuous
 62
     7
100
AcDbLine
 10
-22.9519457296
 20
436.0069635793
 30
0.0
 11
2.1691934552
 21
463.7380912508
 31
0.0
  0
LINE
  5
D7
330
75
100
AcDbEntity
  8
DV1_Défaut
  6
Continuous
 62
     7
100
AcDbLine
 10
-107.4855528412
 20
394.56849244
 30
0.0
 11
-68.5027724666
 21
437.6014318146
 31
0.0
  0
LINE
  5
D8
330
75
100
AcDbEntity
  8
DV1_Défaut
  6
Continuous
 62
     7
100
AcDbLine
 10
-107.9221060071
 20
-46.5275398378
 30
0.0
 11
-95.0673525535
 21
-32.3372275838
 31
0.0
  0
LINE
  5
D9
330
75
100
AcDbEntity
  8
DV1_Défaut
  6
Continuous
 62
     7
100
AcDbLine
 10
285.188962216
 20
2.9916247449
 30
0.0
 11
357.5632567284
 21
82.8853264792
 31
0.0
  0
LINE
  5
DA
330
75
100
AcDbEntity
  8
DV1_Défaut
  6
Continuous
 62
     7
100
AcDbLine
 10
211.8002603437
 20
-85.3078807699
 30
0.0
 11
224.6550137974
 21
-71.1175685158
 31
0.0
  0
LINE
  5
DB
330
75
100
AcDbEntity
  8
DV1_Défaut
  6
Continuous
 62
     7
100
AcDbLine
 10
245.54683593
 20
-22.0001505224
 30
0.0
 11
317.9211304423
 21
57.8935512119
 31
0.0
  0
ENDBLK
  5
DD
330
75
100
AcDbEntity
  8
0
100
AcDbBlockEnd
  0
BLOCK
  5
11F
330
DE
100
AcDbEntity
  8
0
100
AcDbBlockBegin
  2
SE1
 70
     0
 10
0.0
 20
0.0
 30
0.0
  3
SE1
  1
SE1
  0
ARC
  5
E0
330
DE
100
AcDbEntity
  8
H658GLACE
  6
Continuous
 62
     7
100
AcDbCircle
 10
574.4948313534
 20
489.9200336716
 30
0.0
 40
12.5
100
AcDbArc
 50
0.0
 51
180.0
  0
ARC
  5
E1
330
DE
100
AcDbEntity
  8
H658GLACE
  6
Continuous
 62
     7
100
AcDbCircle
 10
574.4948313534
 20
-152.0799663284
 30
0.0
 40
12.50000000000001
100
AcDbArc
 50
180.0
 51
0.0
  0
LINE
  5
E2
330
DE
100
AcDbEntity
  8
H658GLACE
  6
Continuous
 62
     7
100
AcDbLine
 10
562.2473826395
 20
148.9200336716
 30
0.0
 11
562.2473826395
 21
188.9200336716
 31
0.0
  0
LINE
  5
E3
330
DE
100
AcDbEntity
  8
H658GLACE
  6
Continuous
 62
     7
100
AcDbLine
 10
529.9948313534
 20
148.9200336716
 30
0.0
 11
562.2473826395
 21
148.9200336716
 31
0.0
  0
LINE
  5
E4
330
DE
100
AcDbEntity
  8
H658GLACE
  6
Continuous
 62
     7
100
AcDbLine
 10
529.9948313534
 20
188.9200336716
 30
0.0
 11
562.2473826395
 21
188.9200336716
 31
0.0
  0
ARC
  5
E5
330
DE
100
AcDbEntity
  8
H658GLACE
  6
Continuous
 62
     7
100
AcDbCircle
 10
529.9948313534
 20
168.9200336716
 30
0.0
 40
19.99999999999995
100
AcDbArc
 50
90.0
 51
270.0
  0
LINE
  5
E6
330
DE
100
AcDbEntity
  8
H658GLACE
  6
Continuous
 62
     7
100
AcDbLine
 10
586.9948313534
 20
-152.0799663284
 30
0.0
 11
586.9948313534
 21
-102.0799663284
 31
0.0
  0
LINE
  5
E7
330
DE
100
AcDbEntity
  8
H658GLACE
  6
Continuous
 62
     7
100
AcDbLine
 10
561.9948313534
 20
-102.0799663284
 30
0.0
 11
561.9948313534
 21
-152.0799663284
 31
0.0
  0
LINE
  5
E8
330
DE
100
AcDbEntity
  8
H658GLACE
  6
Continuous
 62
     7
100
AcDbLine
 10
561.9948313534
 20
148.9200336716
 30
0.0
 11
561.9948313534
 21
-102.0799663284
 31
0.0
  0
LINE
  5
E9
330
DE
100
AcDbEntity
  8
H658GLACE
  6
Continuous
 62
     7
100
AcDbLine
 10
561.9948313534
 20
439.9200336716
 30
0.0
 11
561.9948313534
 21
188.9200336716
 31
0.0
  0
LINE
  5
EA
330
DE
100
AcDbEntity
  8
H658GLACE
  6
Continuous
 62
     7
100
AcDbLine
 10
586.9948313534
 20
-102.0799663284
 30
0.0
 11
586.9948313534
 21
439.9200336716
 31
0.0
  0
LINE
  5
EB
330
DE
100
AcDbEntity
  8
H658GLACE
  6
Continuous
 62
     7
100
AcDbLine
 10
586.9948313534
 20
439.9200336716
 30
0.0
 11
586.9948313534
 21
489.9200336716
 31
0.0
  0
LINE
  5
EC
330
DE
100
AcDbEntity
  8
H658GLACE
  6
Continuous
 62
     7
100
AcDbLine
 10
561.9948313534
 20
489.9200336716
 30
0.0
 11
561.9948313534
 21
439.9200336716
 31
0.0
  0
CIRCLE
  5
EE
330
DE
100
AcDbEntity
  8
H611RONDELLE_PLA
  6
Continuous
 62
     7
100
AcDbCircle
 10
529.9948313534
 20
168.9200336716
 30
0.0
 40
8.0
  0
LINE
  5
F0
330
DE
100
AcDbEntity
  8
H658VIS_HM8X26
  6
Continuous
 62
     7
100
AcDbLine
 10
534.7139827418
 20
164.093843645
 30
0.0
 11
536.5340102142
 21
167.2462236982
 31
0.0
  0
ARC
  5
F1
330
DE
100
AcDbEntity
  8
H658VIS_HM8X26
  6
Continuous
 62
     7
100
AcDbCircle
 10
529.9948313534
 20
168.9200336716
 30
0.0
 40
6.749999999999987
100
AcDbArc
 50
285.642471013
 51
314.357528987
  0
LINE
  5
F2
330
DE
100
AcDbEntity
  8
H658VIS_HM8X26
  6
Continuous
 62
     7
100
AcDbLine
 10
534.7139827418
 20
164.093843645
 30
0.0
 11
534.0183424057
 21
162.888959239
 31
0.0
  0
ARC
  5
F3
330
DE
100
AcDbEntity
  8
H658VIS_HM8X26
  6
Continuous
 62
     7
100
AcDbCircle
 10
529.9948313534
 20
168.9200336716
 30
0.0
 40
7.249999999999988
100
AcDbArc
 50
296.2915552747
 51
303.7084447253
  0
LINE
  5
F4
330
DE
100
AcDbEntity
  8
H658VIS_HM8X26
  6
Continuous
 62
     7
100
AcDbLine
 10
533.2061394981
 20
162.4200336716
 30
0.0
 11
531.8148588257
 21
162.4200336716
 31
0.0
  0
LINE
  5
F5
330
DE
100
AcDbEntity
  8
H658VIS_HM8X26
  6
Continuous
 62
     7
100
AcDbLine
 10
525.275679965
 20
173.7462236982
 30
0.0
 11
523.4556524926
 21
170.593843645
 31
0.0
  0
ARC
  5
F6
330
DE
100
AcDbEntity
  8
H658VIS_HM8X26
  6
Continuous
 62
     7
100
AcDbCircle
 10
529.9948313534
 20
168.9200336716
 30
0.0
 40
6.749999999999987
100
AcDbArc
 50
105.642471013
 51
134.357528987
  0
LINE
  5
F7
330
DE
100
AcDbEntity
  8
H658VIS_HM8X26
  6
Continuous
 62
     7
100
AcDbLine
 10
525.275679965
 20
173.7462236982
 30
0.0
 11
525.9713203011
 21
174.9511081043
 31
0.0
  0
ARC
  5
F8
330
DE
100
AcDbEntity
  8
H658VIS_HM8X26
  6
Continuous
 62
     7
100
AcDbCircle
 10
529.9948313534
 20
168.9200336716
 30
0.0
 40
7.249999999999988
100
AcDbArc
 50
116.2915552747
 51
123.7084447253
  0
LINE
  5
F9
330
DE
100
AcDbEntity
  8
H658VIS_HM8X26
  6
Continuous
 62
     7
100
AcDbLine
 10
526.7835232087
 20
175.4200336716
 30
0.0
 11
528.1748038811
 21
175.4200336716
 31
0.0
  0
LINE
  5
FA
330
DE
100
AcDbEntity
  8
H658VIS_HM8X26
  6
Continuous
 62
     7
100
AcDbLine
 10
531.8148588257
 20
175.4200336716
 30
0.0
 11
528.1748038811
 21
175.4200336716
 31
0.0
  0
ARC
  5
FB
330
DE
100
AcDbEntity
  8
H658VIS_HM8X26
  6
Continuous
 62
     7
100
AcDbCircle
 10
529.9948313534
 20
168.9200336716
 30
0.0
 40
6.749999999999987
100
AcDbArc
 50
45.642471013
 51
74.357528987
  0
LINE
  5
FC
330
DE
100
AcDbEntity
  8
H658VIS_HM8X26
  6
Continuous
 62
     7
100
AcDbLine
 10
531.8148588257
 20
175.4200336716
 30
0.0
 11
533.2061394981
 21
175.4200336716
 31
0.0
  0
ARC
  5
FD
330
DE
100
AcDbEntity
  8
H658VIS_HM8X26
  6
Continuous
 62
     7
100
AcDbCircle
 10
529.9948313534
 20
168.9200336716
 30
0.0
 40
7.249999999999988
100
AcDbArc
 50
56.2915552747
 51
63.7084447253
  0
LINE
  5
FE
330
DE
100
AcDbEntity
  8
H658VIS_HM8X26
  6
Continuous
 62
     7
100
AcDbLine
 10
534.0183424057
 20
174.9511081043
 30
0.0
 11
534.7139827418
 21
173.7462236982
 31
0.0
  0
LINE
  5
FF
330
DE
100
AcDbEntity
  8
H658VIS_HM8X26
  6
Continuous
 62
     7
100
AcDbLine
 10
536.5340102142
 20
170.593843645
 30
0.0
 11
534.7139827418
 21
173.7462236982
 31
0.0
  0
ARC
  5
100
330
DE
100
AcDbEntity
  8
H658VIS_HM8X26
  6
Continuous
 62
     7
100
AcDbCircle
 10
529.9948313534
 20
168.9200336716
 30
0.0
 40
6.749999999999992
100
AcDbArc
 50
345.642471013
 51
14.357528987
  0
LINE
  5
101
330
DE
100
AcDbEntity
  8
H658VIS_HM8X26
  6
Continuous
 62
     7
100
AcDbLine
 10
536.5340102142
 20
170.593843645
 30
0.0
 11
537.2296505503
 21
169.388959239
 31
0.0
  0
ARC
  5
102
330
DE
100
AcDbEntity
  8
H658VIS_HM8X26
  6
Continuous
 62
     7
100
AcDbCircle
 10
529.9948313534
 20
168.9200336716
 30
0.0
 40
7.249999999999986
100
AcDbArc
 50
356.2915552747
 51
3.7084447253
  0
LINE
  5
103
330
DE
100
AcDbEntity
  8
H658VIS_HM8X26
  6
Continuous
 62
     7
100
AcDbLine
 10
537.2296505503
 20
168.4511081043
 30
0.0
 11
536.5340102142
 21
167.2462236982
 31
0.0
  0
LINE
  5
104
330
DE
100
AcDbEntity
  8
H658VIS_HM8X26
  6
Continuous
 62
     7
100
AcDbLine
 10
523.4556524926
 20
167.2462236982
 30
0.0
 11
525.275679965
 21
164.093843645
 31
0.0
  0
ARC
  5
105
330
DE
100
AcDbEntity
  8
H658VIS_HM8X26
  6
Continuous
 62
     7
100
AcDbCircle
 10
529.9948313534
 20
168.9200336716
 30
0.0
 40
6.74999999999999
100
AcDbArc
 50
165.642471013
 51
194.357528987
  0
LINE
  5
106
330
DE
100
AcDbEntity
  8
H658VIS_HM8X26
  6
Continuous
 62
     7
100
AcDbLine
 10
523.4556524926
 20
167.2462236982
 30
0.0
 11
522.7600121565
 21
168.4511081043
 31
0.0
  0
ARC
  5
107
330
DE
100
AcDbEntity
  8
H658VIS_HM8X26
  6
Continuous
 62
     7
100
AcDbCircle
 10
529.9948313534
 20
168.9200336716
 30
0.0
 40
7.24999999999999
100
AcDbArc
 50
176.2915552747
 51
183.7084447253
  0
LINE
  5
108
330
DE
100
AcDbEntity
  8
H658VIS_HM8X26
  6
Continuous
 62
     7
100
AcDbLine
 10
522.7600121565
 20
169.388959239
 30
0.0
 11
523.4556524926
 21
170.593843645
 31
0.0
  0
LINE
  5
109
330
DE
100
AcDbEntity
  8
H658VIS_HM8X26
  6
Continuous
 62
     7
100
AcDbLine
 10
528.1748038811
 20
162.4200336716
 30
0.0
 11
531.8148588257
 21
162.4200336716
 31
0.0
  0
ARC
  5
10A
330
DE
100
AcDbEntity
  8
H658VIS_HM8X26
  6
Continuous
 62
     7
100
AcDbCircle
 10
529.9948313534
 20
168.9200336716
 30
0.0
 40
6.749999999999986
100
AcDbArc
 50
225.642471013
 51
254.357528987
  0
LINE
  5
10B
330
DE
100
AcDbEntity
  8
H658VIS_HM8X26
  6
Continuous
 62
     7
100
AcDbLine
 10
528.1748038811
 20
162.4200336716
 30
0.0
 11
526.7835232087
 21
162.4200336716
 31
0.0
  0
ARC
  5
10C
330
DE
100
AcDbEntity
  8
H658VIS_HM8X26
  6
Continuous
 62
     7
100
AcDbCircle
 10
529.9948313534
 20
168.9200336716
 30
0.0
 40
7.249999999999988
100
AcDbArc
 50
236.2915552747
 51
243.7084447253
  0
LINE
  5
10D
330
DE
100
AcDbEntity
  8
H658VIS_HM8X26
  6
Continuous
 62
     7
100
AcDbLine
 10
525.9713203011
 20
162.888959239
 30
0.0
 11
525.275679965
 21
164.093843645
 31
0.0
  0
LINE
  5
10E
330
DE
100
AcDbEntity
  8
H658PATTE_FIXATI
  6
Continuous
 62
     7
100
AcDbLine
 10
463.9948313534
 20
148.9200336716
 30
0.0
 11
463.9948313534
 21
188.9200336716
 31
0.0
  0
LINE
  5
10F
330
DE
100
AcDbEntity
  8
H658PATTE_FIXATI
  6
Continuous
 62
     7
100
AcDbLine
 10
463.9948313534
 20
148.9200336716
 30
0.0
 11
470.9948313534
 21
148.9200336716
 31
0.0
  0
LINE
  5
110
330
DE
100
AcDbEntity
  8
H658PATTE_FIXATI
  6
Continuous
 62
     7
100
AcDbLine
 10
470.9948313534
 20
148.9200336716
 30
0.0
 11
529.9948313534
 21
148.9200336716
 31
0.0
  0
LINE
  5
111
330
DE
100
AcDbEntity
  8
H658PATTE_FIXATI
  6
Continuous
 62
     7
100
AcDbLine
 10
463.9948313534
 20
188.9200336716
 30
0.0
 11
463.9948313534
 21
223.9200336716
 31
0.0
  0
LINE
  5
112
330
DE
100
AcDbEntity
  8
H658PATTE_FIXATI
  6
Continuous
 62
     7
100
AcDbLine
 10
529.9948313534
 20
188.9200336716
 30
0.0
 11
470.9948313534
 21
188.9200336716
 31
0.0
  0
LINE
  5
113
330
DE
100
AcDbEntity
  8
H658PATTE_FIXATI
  6
Continuous
 62
     7
100
AcDbLine
 10
470.9948313534
 20
188.9200336716
 30
0.0
 11
463.9948313534
 21
188.9200336716
 31
0.0
  0
LINE
  5
114
330
DE
100
AcDbEntity
  8
H658PATTE_FIXATI
  6
Continuous
 62
     7
100
AcDbLine
 10
468.9948313534
 20
188.9200336716
 30
0.0
 11
468.9948313534
 21
223.9200336716
 31
0.0
  0
LINE
  5
115
330
DE
100
AcDbEntity
  8
H658PATTE_FIXATI
  6
Continuous
 62
     7
100
AcDbLine
 10
463.9948313534
 20
113.9200336716
 30
0.0
 11
463.9948313534
 21
148.9200336716
 31
0.0
  0
LINE
  5
116
330
DE
100
AcDbEntity
  8
H658PATTE_FIXATI
  6
Continuous
 62
     7
100
AcDbLine
 10
463.9948313534
 20
223.9200336716
 30
0.0
 11
463.9948313534
 21
228.9200336716
 31
0.0
  0
LINE
  5
117
330
DE
100
AcDbEntity
  8
H658PATTE_FIXATI
  6
Continuous
 62
     7
100
AcDbLine
 10
463.9948313534
 20
108.9200336716
 30
0.0
 11
463.9948313534
 21
113.9200336716
 31
0.0
  0
LINE
  5
118
330
DE
100
AcDbEntity
  8
H658PATTE_FIXATI
  6
Continuous
 62
     7
100
AcDbLine
 10
468.9948313534
 20
108.9200336716
 30
0.0
 11
463.9948313534
 21
108.9200336716
 31
0.0
  0
LINE
  5
119
330
DE
100
AcDbEntity
  8
H658PATTE_FIXATI
  6
Continuous
 62
     7
100
AcDbLine
 10
468.9948313534
 20
113.9200336716
 30
0.0
 11
468.9948313534
 21
148.9200336716
 31
0.0
  0
LINE
  5
11A
330
DE
100
AcDbEntity
  8
H658PATTE_FIXATI
  6
Continuous
 62
     7
100
AcDbLine
 10
468.9948313534
 20
228.9200336716
 30
0.0
 11
468.9948313534
 21
223.9200336716
 31
0.0
  0
LINE
  5
11B
330
DE
100
AcDbEntity
  8
H658PATTE_FIXATI
  6
Continuous
 62
     7
100
AcDbLine
 10
468.9948313534
 20
113.9200336716
 30
0.0
 11
468.9948313534
 21
108.9200336716
 31
0.0
  0
LINE
  5
11C
330
DE
100
AcDbEntity
  8
H658PATTE_FIXATI
  6
Continuous
 62
     7
100
AcDbLine
 10
463.9948313534
 20
113.9200336716
 30
0.0
 11
468.9948313534
 21
113.9200336716
 31
0.0
  0
LINE
  5
11D
330
DE
100
AcDbEntity
  8
H658PATTE_FIXATI
  6
Continuous
 62
     7
100
AcDbLine
 10
463.9948313534
 20
228.9200336716
 30
0.0
 11
468.9948313534
 21
228.9200336716
 31
0.0
  0
LINE
  5
11E
330
DE
100
AcDbEntity
  8
H658PATTE_FIXATI
  6
Continuous
 62
     7
100
AcDbLine
 10
468.9948313534
 20
223.9200336716
 30
0.0
 11
463.9948313534
 21
223.9200336716
 31
0.0
  0
ENDBLK
  5
120
330
DE
100
AcDbEntity
  8
0
100
AcDbBlockEnd
  0
BLOCK
  5
1E8
330
121
100
AcDbEntity
  8
0
100
AcDbBlockBegin
  2
SE2
 70
     0
 10
0.0
 20
0.0
 30
0.0
  3
SE2
  1
SE2
  0
ARC
  5
123
330
121
100
AcDbEntity
  8
H658GLACE
  6
Continuous
 62
     7
100
AcDbCircle
 10
380.2034149318
 20
-356.4263701371
 30
0.0
 40
12.5
100
AcDbArc
 50
270.0
 51
0.0
  0
ARC
  5
124
330
121
100
AcDbEntity
  8
H658GLACE
  6
Continuous
 62
     7
100
AcDbCircle
 10
380.2034149318
 20
-356.4263701371
 30
0.0
 40
12.5
100
AcDbArc
 50
0.0
 51
90.0
  0
ARC
  5
125
330
121
100
AcDbEntity
  8
H658GLACE
  6
Continuous
 62
     7
100
AcDbCircle
 10
-176.7965850682
 20
-356.4263701371
 30
0.0
 40
12.5
100
AcDbArc
 50
90.0
 51
270.0
  0
LINE
  5
126
330
121
100
AcDbEntity
  8
H658GLACE
  6
Continuous
 62
     7
100
AcDbLine
 10
-174.2965850682
 20
-311.9263701371
 30
0.0
 11
-174.2965850682
 21
-343.9263701371
 31
0.0
  0
LINE
  5
127
330
121
100
AcDbEntity
  8
H658GLACE
  6
Continuous
 62
     7
100
AcDbLine
 10
-174.2965850682
 20
-311.9263701371
 30
0.0
 11
-174.2965850682
 21
-291.9263701371
 31
0.0
  0
LINE
  5
128
330
121
100
AcDbEntity
  8
H658GLACE
  6
Continuous
 62
     7
100
AcDbLine
 10
-179.2965850682
 20
-311.9263701371
 30
0.0
 11
-179.2965850682
 21
-344.1789214232
 31
0.0
  0
LINE
  5
129
330
121
100
AcDbEntity
  8
H658GLACE
  6
Continuous
 62
     7
100
AcDbLine
 10
-179.2965850682
 20
-311.9263701371
 30
0.0
 11
-179.2965850682
 21
-291.9263701371
 31
0.0
  0
LINE
  5
12A
330
121
100
AcDbEntity
  8
H658GLACE
  6
Continuous
 62
     7
100
AcDbLine
 10
377.7034149318
 20
-311.9263701371
 30
0.0
 11
377.7034149318
 21
-343.9263701371
 31
0.0
  0
LINE
  5
12B
330
121
100
AcDbEntity
  8
H658GLACE
  6
Continuous
 62
     7
100
AcDbLine
 10
382.7034149318
 20
-311.9263701371
 30
0.0
 11
382.7034149318
 21
-344.1789214232
 31
0.0
  0
LINE
  5
12C
330
121
100
AcDbEntity
  8
H658GLACE
  6
Continuous
 62
     7
100
AcDbLine
 10
377.7034149318
 20
-311.9263701371
 30
0.0
 11
377.7034149318
 21
-291.9263701371
 31
0.0
  0
LINE
  5
12D
330
121
100
AcDbEntity
  8
H658GLACE
  6
Continuous
 62
     7
100
AcDbLine
 10
382.7034149318
 20
-311.9263701371
 30
0.0
 11
382.7034149318
 21
-291.9263701371
 31
0.0
  0
LINE
  5
12E
330
121
100
AcDbEntity
  8
H658GLACE
  6
Continuous
 62
     7
100
AcDbLine
 10
330.2034149318
 20
-343.9263701371
 30
0.0
 11
-126.7965850682
 21
-343.9263701371
 31
0.0
  0
LINE
  5
12F
330
121
100
AcDbEntity
  8
H658GLACE
  6
Continuous
 62
     7
100
AcDbLine
 10
-126.7965850682
 20
-368.9263701371
 30
0.0
 11
330.2034149318
 21
-368.9263701371
 31
0.0
  0
LINE
  5
130
330
121
100
AcDbEntity
  8
H658GLACE
  6
Continuous
 62
     7
100
AcDbLine
 10
330.2034149318
 20
-368.9263701371
 30
0.0
 11
380.2034149318
 21
-368.9263701371
 31
0.0
  0
LINE
  5
131
330
121
100
AcDbEntity
  8
H658GLACE
  6
Continuous
 62
     7
100
AcDbLine
 10
380.2034149318
 20
-343.9263701371
 30
0.0
 11
330.2034149318
 21
-343.9263701371
 31
0.0
  0
LINE
  5
132
330
121
100
AcDbEntity
  8
H658GLACE
  6
Continuous
 62
     7
100
AcDbLine
 10
-176.7965850682
 20
-368.9263701371
 30
0.0
 11
-126.7965850682
 21
-368.9263701371
 31
0.0
  0
LINE
  5
133
330
121
100
AcDbEntity
  8
H658GLACE
  6
Continuous
 62
     7
100
AcDbLine
 10
-126.7965850682
 20
-343.9263701371
 30
0.0
 11
-176.7965850682
 21
-343.9263701371
 31
0.0
  0
LINE
  5
134
330
121
100
AcDbEntity
  8
H658GLACE
  6
Continuous
 62
     7
100
AcDbLine
 10
-174.2965850682
 20
-291.9263701371
 30
0.0
 11
-179.2965850682
 21
-291.9263701371
 31
0.0
  0
LINE
  5
135
330
121
100
AcDbEntity
  8
H658GLACE
  6
Continuous
 62
     7
100
AcDbLine
 10
382.7034149318
 20
-291.9263701371
 30
0.0
 11
377.7034149318
 21
-291.9263701371
 31
0.0
  0
ARC
  5
136
330
121
100
AcDbEntity
  8
H658PATTE_FIXATI
  6
Continuous
 62
     7
100
AcDbCircle
 10
369.4034149318
 20
-252.9263701371
 30
0.0
 40
7.000000000000006
100
AcDbArc
 50
0.0
 51
90.0
  0
LINE
  5
137
330
121
100
AcDbEntity
  8
H658PATTE_FIXATI
  6
Continuous
 62
     7
100
AcDbLine
 10
376.4034149318
 20
-252.9263701371
 30
0.0
 11
376.4034149318
 21
-311.9263701371
 31
0.0
  0
ARC
  5
138
330
121
100
AcDbEntity
  8
H658PATTE_FIXATI
  6
Continuous
 62
     7
100
AcDbCircle
 10
369.4034149318
 20
-252.9263701371
 30
0.0
 40
2.000000000000002
100
AcDbArc
 50
0.0
 51
90.0
  0
LINE
  5
139
330
121
100
AcDbEntity
  8
H658PATTE_FIXATI
  6
Continuous
 62
     7
100
AcDbLine
 10
371.4034149318
 20
-252.9263701371
 30
0.0
 11
371.4034149318
 21
-311.9263701371
 31
0.0
  0
LINE
  5
13A
330
121
100
AcDbEntity
  8
H658PATTE_FIXATI
  6
Continuous
 62
     7
100
AcDbLine
 10
376.4034149318
 20
-311.9263701371
 30
0.0
 11
376.4034149318
 21
-331.9263701371
 31
0.0
  0
LINE
  5
13B
330
121
100
AcDbEntity
  8
H658PATTE_FIXATI
  6
Continuous
 62
     7
100
AcDbLine
 10
371.4034149318
 20
-311.9263701371
 30
0.0
 11
371.4034149318
 21
-331.9263701371
 31
0.0
  0
LINE
  5
13C
330
121
100
AcDbEntity
  8
H658PATTE_FIXATI
  6
Continuous
 62
     7
100
AcDbLine
 10
331.4034149318
 20
-250.9263701371
 30
0.0
 11
331.4034149318
 21
-245.9263701371
 31
0.0
  0
LINE
  5
13D
330
121
100
AcDbEntity
  8
H658PATTE_FIXATI
  6
Continuous
 62
     7
100
AcDbLine
 10
336.4034149318
 20
-245.9263701371
 30
0.0
 11
364.4034149318
 21
-245.9263701371
 31
0.0
  0
LINE
  5
13E
330
121
100
AcDbEntity
  8
H658PATTE_FIXATI
  6
Continuous
 62
     7
100
AcDbLine
 10
364.4034149318
 20
-245.9263701371
 30
0.0
 11
369.4034149318
 21
-245.9263701371
 31
0.0
  0
LINE
  5
13F
330
121
100
AcDbEntity
  8
H658PATTE_FIXATI
  6
Continuous
 62
     7
100
AcDbLine
 10
331.4034149318
 20
-245.9263701371
 30
0.0
 11
336.4034149318
 21
-245.9263701371
 31
0.0
  0
LINE
  5
140
330
121
100
AcDbEntity
  8
H658PATTE_FIXATI
  6
Continuous
 62
     7
100
AcDbLine
 10
336.4034149318
 20
-250.9263701371
 30
0.0
 11
364.4034149318
 21
-250.9263701371
 31
0.0
  0
LINE
  5
141
330
121
100
AcDbEntity
  8
H658PATTE_FIXATI
  6
Continuous
 62
     7
100
AcDbLine
 10
369.4034149318
 20
-250.9263701371
 30
0.0
 11
364.4034149318
 21
-250.9263701371
 31
0.0
  0
LINE
  5
142
330
121
100
AcDbEntity
  8
H658PATTE_FIXATI
  6
Continuous
 62
     7
100
AcDbLine
 10
336.4034149318
 20
-250.9263701371
 30
0.0
 11
331.4034149318
 21
-250.9263701371
 31
0.0
  0
LINE
  5
143
330
121
100
AcDbEntity
  8
H658PATTE_FIXATI
  6
Continuous
 62
     7
100
AcDbLine
 10
369.4034149318
 20
-245.9263701371
 30
0.0
 11
369.4034149318
 21
-250.9263701371
 31
0.0
  0
LINE
  5
144
330
121
100
AcDbEntity
  8
H658PATTE_FIXATI
  6
Continuous
 62
     7
100
AcDbLine
 10
371.4034149318
 20
-331.9263701371
 30
0.0
 11
376.4034149318
 21
-331.9263701371
 31
0.0
  0
LINE
  5
145
330
121
100
AcDbEntity
  8
H658VIS_HM8X26
  6
Continuous
 62
     7
100
AcDbLine
 10
384.2034149318
 20
-315.9498811893
 30
0.0
 11
390.7034149318
 21
-315.9498811893
 31
0.0
  0
LINE
  5
146
330
121
100
AcDbEntity
  8
H658VIS_HM8X26
  6
Continuous
 62
     7
100
AcDbLine
 10
384.2034149318
 20
-308.7150619924
 30
0.0
 11
390.7034149318
 21
-308.7150619924
 31
0.0
  0
LINE
  5
147
330
121
100
AcDbEntity
  8
H658VIS_HM8X26
  6
Continuous
 62
     7
100
AcDbLine
 10
384.2034149318
 20
-304.6915509401
 30
0.0
 11
390.7034149318
 21
-304.6915509401
 31
0.0
  0
LINE
  5
148
330
121
100
AcDbEntity
  8
H658VIS_HM8X26
  6
Continuous
 62
     7
100
AcDbLine
 10
391.2034149318
 20
-305.3871912763
 30
0.0
 11
391.2034149318
 21
-307.2072187486
 31
0.0
  0
LINE
  5
149
330
121
100
AcDbEntity
  8
H658VIS_HM8X26
  6
Continuous
 62
     7
100
AcDbLine
 10
391.2034149318
 20
-305.3871912763
 30
0.0
 11
391.2034149318
 21
-305.1763701371
 31
0.0
  0
SPLINE
  5
14A
330
121
100
AcDbEntity
  8
H658VIS_HM8X26
  6
Continuous
 62
     7
100
AcDbSpline
210
0.0
220
0.0
230
1.0
 70
     8
 71
     3
 72
    14
 73
    10
 74
     0
 42
0.000000001
 43
0.0000000001
 40
0.0
 40
0.0
 40
0.0
 40
0.0
 40
0.4999999999999996
 40
0.4999999999999996
 40
0.7499999999999993
 40
0.7499999999999993
 40
0.8749999999999997
 40
0.8749999999999997
 40
1.0
 40
1.0
 40
1.0
 40
1.0
 10
391.2034149317634
 20
-305.3871912763221
 30
0.0
 10
391.2034149317634
 20
-305.2554680738862
 30
0.0
 10
391.191037283526
 20
-305.1245442154351
 30
0.0
 10
391.1079802637941
 20
-304.9323232036622
 30
0.0
 10
391.0693827737683
 20
-304.8677012937231
 30
0.0
 10
390.9724452020508
 20
-304.7797712613342
 30
0.0
 10
390.9338398263825
 20
-304.7522241786554
 30
0.0
 10
390.8339128813807
 20
-304.7077074992079
 30
0.0
 10
390.7710820987674
 20
-304.691550940149
 30
0.0
 10
390.7034149317634
 20
-304.691550940149
 30
0.0
  0
LINE
  5
14B
330
121
100
AcDbEntity
  8
H658VIS_HM8X26
  6
Continuous
 62
     7
100
AcDbLine
 10
390.7034149318
 20
-304.6915509401
 30
0.0
 11
390.7034149318
 21
-304.6763701371
 31
0.0
  0
LINE
  5
14C
330
121
100
AcDbEntity
  8
H658VIS_HM8X26
  6
Continuous
 62
     7
100
AcDbLine
 10
391.2034149318
 20
-318.4655489978
 30
0.0
 11
391.2034149318
 21
-318.6763701371
 31
0.0
  0
LINE
  5
14D
330
121
100
AcDbEntity
  8
H658VIS_HM8X26
  6
Continuous
 62
     7
100
AcDbLine
 10
390.7034149318
 20
-319.161189334
 30
0.0
 11
384.2034149318
 21
-319.161189334
 31
0.0
  0
LINE
  5
14E
330
121
100
AcDbEntity
  8
H658VIS_HM8X26
  6
Continuous
 62
     7
100
AcDbLine
 10
390.7034149318
 20
-319.161189334
 30
0.0
 11
390.7034149318
 21
-319.1763701371
 31
0.0
  0
SPLINE
  5
14F
330
121
100
AcDbEntity
  8
H658VIS_HM8X26
  6
Continuous
 62
     7
100
AcDbSpline
210
0.0
220
0.0
230
1.0
 70
     8
 71
     3
 72
    14
 73
    10
 74
     0
 42
0.000000001
 43
0.0000000001
 40
0.0
 40
0.0
 40
0.0
 40
0.0
 40
0.1249999999999997
 40
0.1249999999999997
 40
0.2499999999999994
 40
0.2499999999999994
 40
0.4999999999999993
 40
0.4999999999999993
 40
1.0
 40
1.0
 40
1.0
 40
1.0
 10
390.7034149317634
 20
-319.1611893340129
 30
0.0
 10
390.7710696822863
 20
-319.1611893340129
 30
0.0
 10
390.8340524749819
 20
-319.1449776471175
 30
0.0
 10
390.9337965370333
 20
-319.1005283137256
 30
0.0
 10
390.9725980143024
 20
-319.0728083178529
 30
0.0
 10
391.0686788070303
 20
-318.9857215611916
 30
0.0
 10
391.1075518229109
 20
-318.9212258417436
 30
0.0
 10
391.191099801158
 20
-318.7284143367559
 30
0.0
 10
391.2034149317634
 20
-318.5973410785296
 30
0.0
 10
391.2034149317634
 20
-318.4655489978398
 30
0.0
  0
LINE
  5
150
330
121
100
AcDbEntity
  8
H658VIS_HM8X26
  6
Continuous
 62
     7
100
AcDbLine
 10
391.2034149318
 20
-316.6455215255
 30
0.0
 11
391.2034149318
 21
-318.4655489978
 31
0.0
  0
LINE
  5
151
330
121
100
AcDbEntity
  8
H658VIS_HM8X26
  6
Continuous
 62
     7
100
AcDbLine
 10
391.2034149318
 20
-313.7463976094
 30
0.0
 11
391.2034149318
 21
-316.6455215255
 31
0.0
  0
SPLINE
  5
152
330
121
100
AcDbEntity
  8
H658VIS_HM8X26
  6
Continuous
 62
     7
100
AcDbSpline
210
0.0
220
0.0
230
1.0
 70
     8
 71
     3
 72
    14
 73
    10
 74
     0
 42
0.000000001
 43
0.0000000001
 40
0.0
 40
0.0
 40
0.0
 40
0.0
 40
0.5000000000000003
 40
0.5000000000000003
 40
0.7500000000000004
 40
0.7500000000000004
 40
0.8750000000000002
 40
0.8750000000000002
 40
1.0
 40
1.0
 40
1.0
 40
1.0
 10
391.2034149317634
 20
-316.6455215255198
 30
0.0
 10
391.2034149317634
 20
-316.5137983230839
 30
0.0
 10
391.1910372835279
 20
-316.3828744646327
 30
0.0
 10
391.1079802637964
 20
-316.1906534528598
 30
0.0
 10
391.0693827737683
 20
-316.1260315429208
 30
0.0
 10
390.9724452020508
 20
-316.038101510532
 30
0.0
 10
390.9338398263825
 20
-316.010554427853
 30
0.0
 10
390.8339128813807
 20
-315.9660377484055
 30
0.0
 10
390.7710820987674
 20
-315.9498811893467
 30
0.0
 10
390.7034149317634
 20
-315.9498811893467
 30
0.0
  0
LINE
  5
153
330
121
100
AcDbEntity
  8
H658VIS_HM8X26
  6
Continuous
 62
     7
100
AcDbLine
 10
390.7034149318
 20
-315.1376782817
 30
0.0
 11
384.2034149318
 21
-315.1376782817
 31
0.0
  0
LINE
  5
154
330
121
100
AcDbEntity
  8
H658VIS_HM8X26
  6
Continuous
 62
     7
100
AcDbLine
 10
390.7034149318
 20
-315.9498811893
 30
0.0
 11
390.7034149318
 21
-315.1376782817
 31
0.0
  0
SPLINE
  5
155
330
121
100
AcDbEntity
  8
H658VIS_HM8X26
  6
Continuous
 62
     7
100
AcDbSpline
210
0.0
220
0.0
230
1.0
 70
     8
 71
     3
 72
    14
 73
    10
 74
     0
 42
0.000000001
 43
0.0000000001
 40
0.0
 40
0.0
 40
0.0
 40
0.0
 40
0.1249999999999997
 40
0.1249999999999997
 40
0.2499999999999994
 40
0.2499999999999994
 40
0.4999999999999997
 40
0.4999999999999997
 40
1.0
 40
1.0
 40
1.0
 40
1.0
 10
390.7034149317634
 20
-315.1376782817472
 30
0.0
 10
390.7710696822863
 20
-315.1376782817472
 30
0.0
 10
390.8340524749819
 20
-315.1052549079564
 30
0.0
 10
390.9337965370333
 20
-315.0163562411726
 30
0.0
 10
390.9725980143024
 20
-314.9609162494271
 30
0.0
 10
391.0686788070303
 20
-314.7867427361044
 30
0.0
 10
391.1075518229109
 20
-314.6577512972084
 30
0.0
 10
391.191099801158
 20
-314.272128287233
 30
0.0
 10
391.2034149317634
 20
-314.0099817707804
 30
0.0
 10
391.2034149317634
 20
-313.746397609401
 30
0.0
  0
LINE
  5
156
330
121
100
AcDbEntity
  8
H658VIS_HM8X26
  6
Continuous
 62
     7
100
AcDbLine
 10
391.2034149318
 20
-310.1063426648
 30
0.0
 11
391.2034149318
 21
-313.7463976094
 31
0.0
  0
LINE
  5
157
330
121
100
AcDbEntity
  8
H658VIS_HM8X26
  6
Continuous
 62
     7
100
AcDbLine
 10
391.2034149318
 20
-307.2072187486
 30
0.0
 11
391.2034149318
 21
-310.1063426648
 31
0.0
  0
SPLINE
  5
158
330
121
100
AcDbEntity
  8
H658VIS_HM8X26
  6
Continuous
 62
     7
100
AcDbSpline
210
0.0
220
0.0
230
1.0
 70
     8
 71
     3
 72
    14
 73
    10
 74
     0
 42
0.000000001
 43
0.0000000001
 40
0.0
 40
0.0
 40
0.0
 40
0.0
 40
0.4999999999999989
 40
0.4999999999999989
 40
0.7499999999999988
 40
0.7499999999999988
 40
0.8749999999999993
 40
0.8749999999999993
 40
1.0
 40
1.0
 40
1.0
 40
1.0
 10
391.2034149317634
 20
-310.106342664761
 30
0.0
 10
391.2034149317634
 20
-309.8428962598891
 30
0.0
 10
391.1910372835279
 20
-309.5810485429868
 30
0.0
 10
391.1079802637964
 20
-309.1966065194409
 30
0.0
 10
391.0693827737683
 20
-309.067362699563
 30
0.0
 10
390.9724452020508
 20
-308.8915026347853
 30
0.0
 10
390.9338398263825
 20
-308.8364084694274
 30
0.0
 10
390.8339128813807
 20
-308.7473751105324
 30
0.0
 10
390.7710820987674
 20
-308.7150619924147
 30
0.0
 10
390.7034149317634
 20
-308.7150619924147
 30
0.0
  0
LINE
  5
159
330
121
100
AcDbEntity
  8
H658VIS_HM8X26
  6
Continuous
 62
     7
100
AcDbLine
 10
390.7034149318
 20
-307.9028590848
 30
0.0
 11
384.2034149318
 21
-307.9028590848
 31
0.0
  0
LINE
  5
15A
330
121
100
AcDbEntity
  8
H658VIS_HM8X26
  6
Continuous
 62
     7
100
AcDbLine
 10
390.7034149318
 20
-308.7150619924
 30
0.0
 11
390.7034149318
 21
-307.9028590848
 31
0.0
  0
SPLINE
  5
15B
330
121
100
AcDbEntity
  8
H658VIS_HM8X26
  6
Continuous
 62
     7
100
AcDbSpline
210
0.0
220
0.0
230
1.0
 70
     8
 71
     3
 72
    14
 73
    10
 74
     0
 42
0.000000001
 43
0.0000000001
 40
0.0
 40
0.0
 40
0.0
 40
0.0
 40
0.1250000000000002
 40
0.1250000000000002
 40
0.2500000000000005
 40
0.2500000000000005
 40
0.5000000000000002
 40
0.5000000000000002
 40
1.0
 40
1.0
 40
1.0
 40
1.0
 10
390.7034149317634
 20
-307.9028590848152
 30
0.0
 10
390.7710696822863
 20
-307.9028590848152
 30
0.0
 10
390.8340524749819
 20
-307.8866473979198
 30
0.0
 10
390.9337965370333
 20
-307.842198064528
 30
0.0
 10
390.9725980143024
 20
-307.8144780686553
 30
0.0
 10
391.0686788070303
 20
-307.7273913119939
 30
0.0
 10
391.1075518229109
 20
-307.6628955925459
 30
0.0
 10
391.191099801158
 20
-307.4700840875582
 30
0.0
 10
391.2034149317634
 20
-307.3390108293319
 30
0.0
 10
391.2034149317634
 20
-307.2072187486422
 30
0.0
  0
LINE
  5
15C
330
121
100
AcDbEntity
  8
H658VIS_HM8X26
  6
Continuous
 62
     7
100
AcDbLine
 10
361.2034149318
 20
-315.9263701371
 30
0.0
 11
361.2034149318
 21
-307.9263701371
 31
0.0
  0
LINE
  5
15D
330
121
100
AcDbEntity
  8
H658VIS_HM8X26
  6
Continuous
 62
     7
100
AcDbLine
 10
360.2034149318
 20
-308.9263701371
 30
0.0
 11
360.2034149318
 21
-314.9263701371
 31
0.0
  0
LINE
  5
15E
330
121
100
AcDbEntity
  8
H658VIS_HM8X26
  6
Continuous
 62
     7
100
AcDbLine
 10
361.9034149318
 20
-307.9263701371
 30
0.0
 11
361.2034149318
 21
-307.9263701371
 31
0.0
  0
LINE
  5
15F
330
121
100
AcDbEntity
  8
H658VIS_HM8X26
  6
Continuous
 62
     7
100
AcDbLine
 10
361.2034149318
 20
-315.9263701371
 30
0.0
 11
361.9034149318
 21
-315.9263701371
 31
0.0
  0
LINE
  5
160
330
121
100
AcDbEntity
  8
H658VIS_HM8X26
  6
Continuous
 62
     7
100
AcDbLine
 10
384.2034149318
 20
-319.1763701371
 30
0.0
 11
390.7034149318
 21
-319.1763701371
 31
0.0
  0
LINE
  5
161
330
121
100
AcDbEntity
  8
H658VIS_HM8X26
  6
Continuous
 62
     7
100
AcDbLine
 10
390.7034149318
 20
-304.6763701371
 30
0.0
 11
384.2034149318
 21
-304.6763701371
 31
0.0
  0
ARC
  5
162
330
121
100
AcDbEntity
  8
H658VIS_HM8X26
  6
Continuous
 62
     7
100
AcDbCircle
 10
390.7034149318
 20
-305.1763701371
 30
0.0
 40
0.5000000000000004
100
AcDbArc
 50
0.0
 51
90.0
  0
ARC
  5
163
330
121
100
AcDbEntity
  8
H658VIS_HM8X26
  6
Continuous
 62
     7
100
AcDbCircle
 10
390.7034149318
 20
-318.6763701371
 30
0.0
 40
0.5000000000000004
100
AcDbArc
 50
270.0
 51
0.0
  0
LINE
  5
164
330
121
100
AcDbEntity
  8
H658VIS_HM8X26
  6
Continuous
 62
     7
100
AcDbLine
 10
361.2034149318
 20
-307.9263701371
 30
0.0
 11
360.2034149318
 21
-308.9263701371
 31
0.0
  0
LINE
  5
165
330
121
100
AcDbEntity
  8
H658VIS_HM8X26
  6
Continuous
 62
     7
100
AcDbLine
 10
360.2034149318
 20
-314.9263701371
 30
0.0
 11
361.2034149318
 21
-315.9263701371
 31
0.0
  0
LINE
  5
166
330
121
100
AcDbEntity
  8
H611RONDELLE_PLA
  6
Continuous
 62
     7
100
AcDbLine
 10
384.2034149318
 20
-303.9263701371
 30
0.0
 11
384.2034149318
 21
-319.9263701371
 31
0.0
  0
LINE
  5
167
330
121
100
AcDbEntity
  8
H611RONDELLE_PLA
  6
Continuous
 62
     7
100
AcDbLine
 10
382.7034149318
 20
-319.9263701371
 30
0.0
 11
384.2034149318
 21
-319.9263701371
 31
0.0
  0
LINE
  5
168
330
121
100
AcDbEntity
  8
H611RONDELLE_PLA
  6
Continuous
 62
     7
100
AcDbLine
 10
384.2034149318
 20
-303.9263701371
 30
0.0
 11
382.7034149318
 21
-303.9263701371
 31
0.0
  0
LINE
  5
169
330
121
100
AcDbEntity
  8
H611RONDELLE_PLA
  6
Continuous
 62
     7
100
AcDbLine
 10
369.9034149318
 20
-319.9263701371
 30
0.0
 11
369.9034149318
 21
-303.9263701371
 31
0.0
  0
LINE
  5
16A
330
121
100
AcDbEntity
  8
H611RONDELLE_PLA
  6
Continuous
 62
     7
100
AcDbLine
 10
371.4034149318
 20
-303.9263701371
 30
0.0
 11
369.9034149318
 21
-303.9263701371
 31
0.0
  0
LINE
  5
16B
330
121
100
AcDbEntity
  8
H611RONDELLE_PLA
  6
Continuous
 62
     7
100
AcDbLine
 10
369.9034149318
 20
-319.9263701371
 30
0.0
 11
371.4034149318
 21
-319.9263701371
 31
0.0
  0
LINE
  5
16C
330
121
100
AcDbEntity
  8
H611ECROU_HM8
  6
Continuous
 62
     7
100
AcDbLine
 10
369.9034149318
 20
-307.9028590848
 30
0.0
 11
364.4034149318
 21
-307.9028590848
 31
0.0
  0
LINE
  5
16D
330
121
100
AcDbEntity
  8
H611ECROU_HM8
  6
Continuous
 62
     7
100
AcDbLine
 10
369.9034149318
 20
-315.1376782817
 30
0.0
 11
364.4034149318
 21
-315.1376782817
 31
0.0
  0
LINE
  5
16E
330
121
100
AcDbEntity
  8
H611ECROU_HM8
  6
Continuous
 62
     7
100
AcDbLine
 10
369.9034149318
 20
-319.161189334
 30
0.0
 11
364.4034149318
 21
-319.161189334
 31
0.0
  0
LINE
  5
16F
330
121
100
AcDbEntity
  8
H611ECROU_HM8
  6
Continuous
 62
     7
100
AcDbLine
 10
363.9034149318
 20
-317.5555352617
 30
0.0
 11
363.9034149318
 21
-316.6455215255
 31
0.0
  0
LINE
  5
170
330
121
100
AcDbEntity
  8
H611ECROU_HM8
  6
Continuous
 62
     7
100
AcDbLine
 10
363.9034149318
 20
-311.9263701371
 30
0.0
 11
363.9034149318
 21
-310.1063426648
 31
0.0
  0
LINE
  5
171
330
121
100
AcDbEntity
  8
H611ECROU_HM8
  6
Continuous
 62
     7
100
AcDbLine
 10
363.9034149318
 20
-306.2972050125
 30
0.0
 11
363.9034149318
 21
-305.3871912763
 31
0.0
  0
LINE
  5
172
330
121
100
AcDbEntity
  8
H611ECROU_HM8
  6
Continuous
 62
     7
100
AcDbLine
 10
361.9034149318
 20
-307.4263701371
 30
0.0
 11
361.9034149318
 21
-316.4263701371
 31
0.0
  0
LINE
  5
173
330
121
100
AcDbEntity
  8
H611ECROU_HM8
  6
Continuous
 62
     7
100
AcDbLine
 10
363.9034149318
 20
-307.2072187486
 30
0.0
 11
363.9034149318
 21
-306.2972050125
 31
0.0
  0
LINE
  5
174
330
121
100
AcDbEntity
  8
H611ECROU_HM8
  6
Continuous
 62
     7
100
AcDbLine
 10
363.9034149318
 20
-310.1063426648
 30
0.0
 11
363.9034149318
 21
-307.2072187486
 31
0.0
  0
SPLINE
  5
175
330
121
100
AcDbEntity
  8
H611ECROU_HM8
  6
Continuous
 62
     7
100
AcDbSpline
210
0.0
220
0.0
230
1.0
 70
     8
 71
     3
 72
    14
 73
    10
 74
     0
 42
0.000000001
 43
0.0000000001
 40
0.0
 40
0.0
 40
0.0
 40
0.0
 40
0.4999999999999996
 40
0.4999999999999996
 40
0.7499999999999993
 40
0.7499999999999993
 40
0.8749999999999997
 40
0.8749999999999997
 40
1.0
 40
1.0
 40
1.0
 40
1.0
 10
363.9034149317633
 20
-307.2072187486422
 30
0.0
 10
363.9034149317633
 20
-307.3389419510781
 30
0.0
 10
363.9157925799988
 20
-307.4698658095293
 30
0.0
 10
363.9988495997303
 20
-307.6620868213022
 30
0.0
 10
364.0374470897584
 20
-307.7267087312412
 30
0.0
 10
364.134384661476
 20
-307.8146387636299
 30
0.0
 10
364.1729900371442
 20
-307.842185846309
 30
0.0
 10
364.272916982146
 20
-307.8867025257564
 30
0.0
 10
364.3357477647593
 20
-307.9028590848153
 30
0.0
 10
364.4034149317633
 20
-307.9028590848153
 30
0.0
  0
LINE
  5
176
330
121
100
AcDbEntity
  8
H611ECROU_HM8
  6
Continuous
 62
     7
100
AcDbLine
 10
364.4034149318
 20
-308.7150619924
 30
0.0
 11
369.9034149318
 21
-308.7150619924
 31
0.0
  0
LINE
  5
177
330
121
100
AcDbEntity
  8
H611ECROU_HM8
  6
Continuous
 62
     7
100
AcDbLine
 10
364.4034149318
 20
-307.9028590848
 30
0.0
 11
364.4034149318
 21
-308.7150619924
 31
0.0
  0
SPLINE
  5
178
330
121
100
AcDbEntity
  8
H611ECROU_HM8
  6
Continuous
 62
     7
100
AcDbSpline
210
0.0
220
0.0
230
1.0
 70
     8
 71
     3
 72
    14
 73
    10
 74
     0
 42
0.000000001
 43
0.0000000001
 40
0.0
 40
0.0
 40
0.0
 40
0.0
 40
0.1250000000000008
 40
0.1250000000000008
 40
0.2500000000000017
 40
0.2500000000000017
 40
0.5000000000000012
 40
0.5000000000000012
 40
1.0
 40
1.0
 40
1.0
 40
1.0
 10
364.4034149317633
 20
-308.7150619924147
 30
0.0
 10
364.3357601812403
 20
-308.7150619924147
 30
0.0
 10
364.2727773885448
 20
-308.7474853662056
 30
0.0
 10
364.1730333264934
 20
-308.8363840329893
 30
0.0
 10
364.1342318492242
 20
-308.8918240247348
 30
0.0
 10
364.0381510564964
 20
-309.0659975380575
 30
0.0
 10
363.9992780406159
 20
-309.1949889769534
 30
0.0
 10
363.9157300623687
 20
-309.5806119869288
 30
0.0
 10
363.9034149317633
 20
-309.8427585033816
 30
0.0
 10
363.9034149317633
 20
-310.1063426647609
 30
0.0
  0
LINE
  5
179
330
121
100
AcDbEntity
  8
H611ECROU_HM8
  6
Continuous
 62
     7
100
AcDbLine
 10
363.9034149318
 20
-313.7463976094
 30
0.0
 11
363.9034149318
 21
-311.9263701371
 31
0.0
  0
LINE
  5
17A
330
121
100
AcDbEntity
  8
H611ECROU_HM8
  6
Continuous
 62
     7
100
AcDbLine
 10
363.9034149318
 20
-316.6455215255
 30
0.0
 11
363.9034149318
 21
-313.7463976094
 31
0.0
  0
SPLINE
  5
17B
330
121
100
AcDbEntity
  8
H611ECROU_HM8
  6
Continuous
 62
     7
100
AcDbSpline
210
0.0
220
0.0
230
1.0
 70
     8
 71
     3
 72
    14
 73
    10
 74
     0
 42
0.000000001
 43
0.0000000001
 40
0.0
 40
0.0
 40
0.0
 40
0.0
 40
0.4999999999999996
 40
0.4999999999999996
 40
0.7499999999999993
 40
0.7499999999999993
 40
0.8749999999999997
 40
0.8749999999999997
 40
1.0
 40
1.0
 40
1.0
 40
1.0
 10
363.9034149317633
 20
-313.746397609401
 30
0.0
 10
363.9034149317633
 20
-314.0098440142729
 30
0.0
 10
363.9157925799988
 20
-314.2716917311752
 30
0.0
 10
363.9988495997303
 20
-314.6561337547211
 30
0.0
 10
364.0374470897584
 20
-314.785377574599
 30
0.0
 10
364.134384661476
 20
-314.9612376393767
 30
0.0
 10
364.1729900371442
 20
-315.0163318047345
 30
0.0
 10
364.272916982146
 20
-315.1053651636295
 30
0.0
 10
364.3357477647593
 20
-315.1376782817472
 30
0.0
 10
364.4034149317633
 20
-315.1376782817472
 30
0.0
  0
LINE
  5
17C
330
121
100
AcDbEntity
  8
H611ECROU_HM8
  6
Continuous
 62
     7
100
AcDbLine
 10
364.4034149318
 20
-315.9498811893
 30
0.0
 11
369.9034149318
 21
-315.9498811893
 31
0.0
  0
LINE
  5
17D
330
121
100
AcDbEntity
  8
H611ECROU_HM8
  6
Continuous
 62
     7
100
AcDbLine
 10
364.4034149318
 20
-315.1376782817
 30
0.0
 11
364.4034149318
 21
-315.9498811893
 31
0.0
  0
SPLINE
  5
17E
330
121
100
AcDbEntity
  8
H611ECROU_HM8
  6
Continuous
 62
     7
100
AcDbSpline
210
0.0
220
0.0
230
1.0
 70
     8
 71
     3
 72
    14
 73
    10
 74
     0
 42
0.000000001
 43
0.0000000001
 40
0.0
 40
0.0
 40
0.0
 40
0.0
 40
0.1249999999999997
 40
0.1249999999999997
 40
0.2499999999999993
 40
0.2499999999999993
 40
0.4999999999999996
 40
0.4999999999999996
 40
1.0
 40
1.0
 40
1.0
 40
1.0
 10
364.4034149317633
 20
-315.9498811893467
 30
0.0
 10
364.3357601812403
 20
-315.9498811893467
 30
0.0
 10
364.2727773885448
 20
-315.9660928762422
 30
0.0
 10
364.1730333264934
 20
-316.010542209634
 30
0.0
 10
364.1342318492242
 20
-316.0382622055068
 30
0.0
 10
364.0381510564964
 20
-316.1253489621682
 30
0.0
 10
363.9992780406159
 20
-316.1898446816161
 30
0.0
 10
363.9157300623687
 20
-316.3826561866038
 30
0.0
 10
363.9034149317633
 20
-316.5137294448301
 30
0.0
 10
363.9034149317633
 20
-316.6455215255198
 30
0.0
  0
LINE
  5
17F
330
121
100
AcDbEntity
  8
H611ECROU_HM8
  6
Continuous
 62
     7
100
AcDbLine
 10
363.9034149318
 20
-318.4655489978
 30
0.0
 11
363.9034149318
 21
-317.5555352617
 31
0.0
  0
LINE
  5
180
330
121
100
AcDbEntity
  8
H611ECROU_HM8
  6
Continuous
 62
     7
100
AcDbLine
 10
363.9034149318
 20
-318.6763701371
 30
0.0
 11
363.9034149318
 21
-318.4655489978
 31
0.0
  0
SPLINE
  5
181
330
121
100
AcDbEntity
  8
H611ECROU_HM8
  6
Continuous
 62
     7
100
AcDbSpline
210
0.0
220
0.0
230
1.0
 70
     8
 71
     3
 72
    14
 73
    10
 74
     0
 42
0.000000001
 43
0.0000000001
 40
0.0
 40
0.0
 40
0.0
 40
0.0
 40
0.4999999999999999
 40
0.4999999999999999
 40
0.7499999999999992
 40
0.7499999999999992
 40
0.8749999999999996
 40
0.8749999999999996
 40
1.0
 40
1.0
 40
1.0
 40
1.0
 10
363.9034149317633
 20
-318.4655489978398
 30
0.0
 10
363.9034149317633
 20
-318.5972722002758
 30
0.0
 10
363.9157925799988
 20
-318.728196058727
 30
0.0
 10
363.9988495997303
 20
-318.9204170704999
 30
0.0
 10
364.0374470897584
 20
-318.9850389804388
 30
0.0
 10
364.134384661476
 20
-319.0729690128277
 30
0.0
 10
364.1729900371442
 20
-319.1005160955066
 30
0.0
 10
364.272916982146
 20
-319.1450327749541
 30
0.0
 10
364.3357477647593
 20
-319.1611893340129
 30
0.0
 10
364.4034149317633
 20
-319.1611893340129
 30
0.0
  0
LINE
  5
182
330
121
100
AcDbEntity
  8
H611ECROU_HM8
  6
Continuous
 62
     7
100
AcDbLine
 10
364.4034149318
 20
-319.161189334
 30
0.0
 11
364.4034149318
 21
-319.1763701371
 31
0.0
  0
LINE
  5
183
330
121
100
AcDbEntity
  8
H611ECROU_HM8
  6
Continuous
 62
     7
100
AcDbLine
 10
363.9034149318
 20
-305.1763701371
 30
0.0
 11
363.9034149318
 21
-305.3871912763
 31
0.0
  0
LINE
  5
184
330
121
100
AcDbEntity
  8
H611ECROU_HM8
  6
Continuous
 62
     7
100
AcDbLine
 10
364.4034149318
 20
-304.6915509401
 30
0.0
 11
369.9034149318
 21
-304.6915509401
 31
0.0
  0
LINE
  5
185
330
121
100
AcDbEntity
  8
H611ECROU_HM8
  6
Continuous
 62
     7
100
AcDbLine
 10
364.4034149318
 20
-304.6915509401
 30
0.0
 11
364.4034149318
 21
-304.6763701371
 31
0.0
  0
SPLINE
  5
186
330
121
100
AcDbEntity
  8
H611ECROU_HM8
  6
Continuous
 62
     7
100
AcDbSpline
210
0.0
220
0.0
230
1.0
 70
     8
 71
     3
 72
    14
 73
    10
 74
     0
 42
0.000000001
 43
0.0000000001
 40
0.0
 40
0.0
 40
0.0
 40
0.0
 40
0.1250000000000001
 40
0.1250000000000001
 40
0.2500000000000003
 40
0.2500000000000003
 40
0.4999999999999998
 40
0.4999999999999998
 40
1.0
 40
1.0
 40
1.0
 40
1.0
 10
364.4034149317633
 20
-304.691550940149
 30
0.0
 10
364.3357601812403
 20
-304.691550940149
 30
0.0
 10
364.2727773885448
 20
-304.7077626270444
 30
0.0
 10
364.1730333264934
 20
-304.7522119604363
 30
0.0
 10
364.1342318492242
 20
-304.779931956309
 30
0.0
 10
364.0381510564964
 20
-304.8670187129704
 30
0.0
 10
363.9992780406159
 20
-304.9315144324183
 30
0.0
 10
363.9157300623687
 20
-305.124325937406
 30
0.0
 10
363.9034149317633
 20
-305.2553991956324
 30
0.0
 10
363.9034149317633
 20
-305.3871912763221
 30
0.0
  0
LINE
  5
187
330
121
100
AcDbEntity
  8
H611ECROU_HM8
  6
Continuous
 62
     7
100
AcDbLine
 10
364.4034149318
 20
-319.1763701371
 30
0.0
 11
369.9034149318
 21
-319.1763701371
 31
0.0
  0
LINE
  5
188
330
121
100
AcDbEntity
  8
H611ECROU_HM8
  6
Continuous
 62
     7
100
AcDbLine
 10
369.9034149318
 20
-304.6763701371
 30
0.0
 11
364.4034149318
 21
-304.6763701371
 31
0.0
  0
ARC
  5
189
330
121
100
AcDbEntity
  8
H611ECROU_HM8
  6
Continuous
 62
     7
100
AcDbCircle
 10
363.9034149318
 20
-307.4263701371
 30
0.0
 40
2.000000000000002
100
AcDbArc
 50
90.0
 51
180.0
  0
ARC
  5
18A
330
121
100
AcDbEntity
  8
H611ECROU_HM8
  6
Continuous
 62
     7
100
AcDbCircle
 10
363.9034149318
 20
-316.4263701371
 30
0.0
 40
2.000000000000002
100
AcDbArc
 50
180.0
 51
270.0
  0
ARC
  5
18B
330
121
100
AcDbEntity
  8
H611ECROU_HM8
  6
Continuous
 62
     7
100
AcDbCircle
 10
364.4034149318
 20
-318.6763701371
 30
0.0
 40
0.5000000000000004
100
AcDbArc
 50
180.0
 51
270.0
  0
ARC
  5
18C
330
121
100
AcDbEntity
  8
H611ECROU_HM8
  6
Continuous
 62
     7
100
AcDbCircle
 10
364.4034149318
 20
-305.1763701371
 30
0.0
 40
0.5000000000000004
100
AcDbArc
 50
90.0
 51
180.0
  0
LINE
  5
18D
330
121
100
AcDbEntity
  8
H611RONDELLE_PLA
  6
Continuous
 62
     7
100
AcDbLine
 10
-172.9965850682
 20
-299.4263701371
 30
0.0
 11
-174.2965850682
 21
-299.4263701371
 31
0.0
  0
LINE
  5
18E
330
121
100
AcDbEntity
  8
H611RONDELLE_PLA
  6
Continuous
 62
     7
100
AcDbLine
 10
-174.2965850682
 20
-324.4263701371
 30
0.0
 11
-172.9965850682
 21
-324.4263701371
 31
0.0
  0
LINE
  5
18F
330
121
100
AcDbEntity
  8
H611ECROU_HM8
  6
Continuous
 62
     7
100
AcDbLine
 10
-166.4965850682
 20
-315.9498811893
 30
0.0
 11
-160.9965850682
 21
-315.9498811893
 31
0.0
  0
LINE
  5
190
330
121
100
AcDbEntity
  8
H611ECROU_HM8
  6
Continuous
 62
     7
100
AcDbLine
 10
-166.4965850682
 20
-308.7150619924
 30
0.0
 11
-160.9965850682
 21
-308.7150619924
 31
0.0
  0
LINE
  5
191
330
121
100
AcDbEntity
  8
H611ECROU_HM8
  6
Continuous
 62
     7
100
AcDbLine
 10
-166.4965850682
 20
-304.6915509401
 30
0.0
 11
-160.9965850682
 21
-304.6915509401
 31
0.0
  0
LINE
  5
192
330
121
100
AcDbEntity
  8
H611ECROU_HM8
  6
Continuous
 62
     7
100
AcDbLine
 10
-160.4965850682
 20
-306.2972050125
 30
0.0
 11
-160.4965850682
 21
-307.2072187486
 31
0.0
  0
LINE
  5
193
330
121
100
AcDbEntity
  8
H611ECROU_HM8
  6
Continuous
 62
     7
100
AcDbLine
 10
-160.4965850682
 20
-311.9263701371
 30
0.0
 11
-160.4965850682
 21
-313.7463976094
 31
0.0
  0
LINE
  5
194
330
121
100
AcDbEntity
  8
H611ECROU_HM8
  6
Continuous
 62
     7
100
AcDbLine
 10
-160.4965850682
 20
-317.5555352617
 30
0.0
 11
-160.4965850682
 21
-318.4655489978
 31
0.0
  0
LINE
  5
195
330
121
100
AcDbEntity
  8
H611ECROU_HM8
  6
Continuous
 62
     7
100
AcDbLine
 10
-158.4965850682
 20
-316.4263701371
 30
0.0
 11
-158.4965850682
 21
-307.4263701371
 31
0.0
  0
LINE
  5
196
330
121
100
AcDbEntity
  8
H611ECROU_HM8
  6
Continuous
 62
     7
100
AcDbLine
 10
-160.4965850682
 20
-305.3871912763
 30
0.0
 11
-160.4965850682
 21
-306.2972050125
 31
0.0
  0
LINE
  5
197
330
121
100
AcDbEntity
  8
H611ECROU_HM8
  6
Continuous
 62
     7
100
AcDbLine
 10
-160.4965850682
 20
-305.3871912763
 30
0.0
 11
-160.4965850682
 21
-305.1763701371
 31
0.0
  0
SPLINE
  5
198
330
121
100
AcDbEntity
  8
H611ECROU_HM8
  6
Continuous
 62
     7
100
AcDbSpline
210
0.0
220
0.0
230
1.0
 70
     8
 71
     3
 72
    14
 73
    10
 74
     0
 42
0.000000001
 43
0.0000000001
 40
0.0
 40
0.0
 40
0.0
 40
0.0
 40
0.5000000000000003
 40
0.5000000000000003
 40
0.750000000000001
 40
0.750000000000001
 40
0.8750000000000004
 40
0.8750000000000004
 40
1.0
 40
1.0
 40
1.0
 40
1.0
 10
-160.4965850682368
 20
-305.3871912763222
 30
0.0
 10
-160.4965850682368
 20
-305.2554680738863
 30
0.0
 10
-160.5089627164742
 20
-305.1245442154352
 30
0.0
 10
-160.5920197362061
 20
-304.9323232036623
 30
0.0
 10
-160.6306172262318
 20
-304.8677012937233
 30
0.0
 10
-160.7275547979494
 20
-304.7797712613344
 30
0.0
 10
-160.7661601736177
 20
-304.7522241786555
 30
0.0
 10
-160.8660871186194
 20
-304.707707499208
 30
0.0
 10
-160.9289179012328
 20
-304.6915509401491
 30
0.0
 10
-160.9965850682368
 20
-304.6915509401491
 30
0.0
  0
LINE
  5
199
330
121
100
AcDbEntity
  8
H611ECROU_HM8
  6
Continuous
 62
     7
100
AcDbLine
 10
-160.9965850682
 20
-304.6915509401
 30
0.0
 11
-160.9965850682
 21
-304.6763701371
 31
0.0
  0
LINE
  5
19A
330
121
100
AcDbEntity
  8
H611ECROU_HM8
  6
Continuous
 62
     7
100
AcDbLine
 10
-160.4965850682
 20
-318.4655489978
 30
0.0
 11
-160.4965850682
 21
-318.6763701371
 31
0.0
  0
LINE
  5
19B
330
121
100
AcDbEntity
  8
H611ECROU_HM8
  6
Continuous
 62
     7
100
AcDbLine
 10
-160.9965850682
 20
-319.161189334
 30
0.0
 11
-166.4965850682
 21
-319.161189334
 31
0.0
  0
LINE
  5
19C
330
121
100
AcDbEntity
  8
H611ECROU_HM8
  6
Continuous
 62
     7
100
AcDbLine
 10
-160.9965850682
 20
-319.161189334
 30
0.0
 11
-160.9965850682
 21
-319.1763701371
 31
0.0
  0
SPLINE
  5
19D
330
121
100
AcDbEntity
  8
H611ECROU_HM8
  6
Continuous
 62
     7
100
AcDbSpline
210
0.0
220
0.0
230
1.0
 70
     8
 71
     3
 72
    14
 73
    10
 74
     0
 42
0.000000001
 43
0.0000000001
 40
0.0
 40
0.0
 40
0.0
 40
0.0
 40
0.1250000000000008
 40
0.1250000000000008
 40
0.2500000000000017
 40
0.2500000000000017
 40
0.5000000000000012
 40
0.5000000000000012
 40
1.0
 40
1.0
 40
1.0
 40
1.0
 10
-160.9965850682368
 20
-319.161189334013
 30
0.0
 10
-160.9289303177138
 20
-319.161189334013
 30
0.0
 10
-160.8659475250183
 20
-319.1449776471176
 30
0.0
 10
-160.7662034629669
 20
-319.1005283137258
 30
0.0
 10
-160.7274019856977
 20
-319.0728083178531
 30
0.0
 10
-160.6313211929699
 20
-318.9857215611917
 30
0.0
 10
-160.5924481770894
 20
-318.9212258417437
 30
0.0
 10
-160.5089001988422
 20
-318.728414336756
 30
0.0
 10
-160.4965850682368
 20
-318.5973410785297
 30
0.0
 10
-160.4965850682368
 20
-318.46554899784
 30
0.0
  0
LINE
  5
19E
330
121
100
AcDbEntity
  8
H611ECROU_HM8
  6
Continuous
 62
     7
100
AcDbLine
 10
-160.4965850682
 20
-316.6455215255
 30
0.0
 11
-160.4965850682
 21
-317.5555352617
 31
0.0
  0
LINE
  5
19F
330
121
100
AcDbEntity
  8
H611ECROU_HM8
  6
Continuous
 62
     7
100
AcDbLine
 10
-160.4965850682
 20
-313.7463976094
 30
0.0
 11
-160.4965850682
 21
-316.6455215255
 31
0.0
  0
SPLINE
  5
1A0
330
121
100
AcDbEntity
  8
H611ECROU_HM8
  6
Continuous
 62
     7
100
AcDbSpline
210
0.0
220
0.0
230
1.0
 70
     8
 71
     3
 72
    14
 73
    10
 74
     0
 42
0.000000001
 43
0.0000000001
 40
0.0
 40
0.0
 40
0.0
 40
0.0
 40
0.4999999999999996
 40
0.4999999999999996
 40
0.7499999999999993
 40
0.7499999999999993
 40
0.8749999999999997
 40
0.8749999999999997
 40
1.0
 40
1.0
 40
1.0
 40
1.0
 10
-160.4965850682368
 20
-316.6455215255199
 30
0.0
 10
-160.4965850682368
 20
-316.513798323084
 30
0.0
 10
-160.5089627164722
 20
-316.3828744646328
 30
0.0
 10
-160.5920197362038
 20
-316.1906534528599
 30
0.0
 10
-160.6306172262318
 20
-316.1260315429209
 30
0.0
 10
-160.7275547979494
 20
-316.0381015105322
 30
0.0
 10
-160.7661601736177
 20
-316.0105544278532
 30
0.0
 10
-160.8660871186194
 20
-315.9660377484057
 30
0.0
 10
-160.9289179012328
 20
-315.9498811893469
 30
0.0
 10
-160.9965850682368
 20
-315.9498811893469
 30
0.0
  0
LINE
  5
1A1
330
121
100
AcDbEntity
  8
H611ECROU_HM8
  6
Continuous
 62
     7
100
AcDbLine
 10
-160.9965850682
 20
-315.1376782817
 30
0.0
 11
-166.4965850682
 21
-315.1376782817
 31
0.0
  0
LINE
  5
1A2
330
121
100
AcDbEntity
  8
H611ECROU_HM8
  6
Continuous
 62
     7
100
AcDbLine
 10
-160.9965850682
 20
-315.9498811893
 30
0.0
 11
-160.9965850682
 21
-315.1376782817
 31
0.0
  0
SPLINE
  5
1A3
330
121
100
AcDbEntity
  8
H611ECROU_HM8
  6
Continuous
 62
     7
100
AcDbSpline
210
0.0
220
0.0
230
1.0
 70
     8
 71
     3
 72
    14
 73
    10
 74
     0
 42
0.000000001
 43
0.0000000001
 40
0.0
 40
0.0
 40
0.0
 40
0.0
 40
0.1249999999999997
 40
0.1249999999999997
 40
0.2499999999999993
 40
0.2499999999999993
 40
0.4999999999999996
 40
0.4999999999999996
 40
1.0
 40
1.0
 40
1.0
 40
1.0
 10
-160.9965850682368
 20
-315.1376782817473
 30
0.0
 10
-160.9289303177138
 20
-315.1376782817473
 30
0.0
 10
-160.8659475250183
 20
-315.1052549079565
 30
0.0
 10
-160.7662034629669
 20
-315.0163562411727
 30
0.0
 10
-160.7274019856977
 20
-314.9609162494273
 30
0.0
 10
-160.6313211929699
 20
-314.7867427361045
 30
0.0
 10
-160.5924481770894
 20
-314.6577512972086
 30
0.0
 10
-160.5089001988422
 20
-314.2721282872332
 30
0.0
 10
-160.4965850682368
 20
-314.0099817707805
 30
0.0
 10
-160.4965850682368
 20
-313.7463976094011
 30
0.0
  0
LINE
  5
1A4
330
121
100
AcDbEntity
  8
H611ECROU_HM8
  6
Continuous
 62
     7
100
AcDbLine
 10
-160.4965850682
 20
-310.1063426648
 30
0.0
 11
-160.4965850682
 21
-311.9263701371
 31
0.0
  0
LINE
  5
1A5
330
121
100
AcDbEntity
  8
H611ECROU_HM8
  6
Continuous
 62
     7
100
AcDbLine
 10
-160.4965850682
 20
-307.2072187486
 30
0.0
 11
-160.4965850682
 21
-310.1063426648
 31
0.0
  0
SPLINE
  5
1A6
330
121
100
AcDbEntity
  8
H611ECROU_HM8
  6
Continuous
 62
     7
100
AcDbSpline
210
0.0
220
0.0
230
1.0
 70
     8
 71
     3
 72
    14
 73
    10
 74
     0
 42
0.000000001
 43
0.0000000001
 40
0.0
 40
0.0
 40
0.0
 40
0.0
 40
0.4999999999999999
 40
0.4999999999999999
 40
0.7499999999999992
 40
0.7499999999999992
 40
0.8749999999999996
 40
0.8749999999999996
 40
1.0
 40
1.0
 40
1.0
 40
1.0
 10
-160.4965850682368
 20
-310.1063426647611
 30
0.0
 10
-160.4965850682368
 20
-309.8428962598892
 30
0.0
 10
-160.5089627164722
 20
-309.5810485429868
 30
0.0
 10
-160.5920197362038
 20
-309.196606519441
 30
0.0
 10
-160.6306172262318
 20
-309.0673626995631
 30
0.0
 10
-160.7275547979494
 20
-308.8915026347855
 30
0.0
 10
-160.7661601736177
 20
-308.8364084694275
 30
0.0
 10
-160.8660871186194
 20
-308.7473751105326
 30
0.0
 10
-160.9289179012328
 20
-308.7150619924149
 30
0.0
 10
-160.9965850682368
 20
-308.7150619924149
 30
0.0
  0
LINE
  5
1A7
330
121
100
AcDbEntity
  8
H611ECROU_HM8
  6
Continuous
 62
     7
100
AcDbLine
 10
-160.9965850682
 20
-307.9028590848
 30
0.0
 11
-166.4965850682
 21
-307.9028590848
 31
0.0
  0
LINE
  5
1A8
330
121
100
AcDbEntity
  8
H611ECROU_HM8
  6
Continuous
 62
     7
100
AcDbLine
 10
-160.9965850682
 20
-308.7150619924
 30
0.0
 11
-160.9965850682
 21
-307.9028590848
 31
0.0
  0
SPLINE
  5
1A9
330
121
100
AcDbEntity
  8
H611ECROU_HM8
  6
Continuous
 62
     7
100
AcDbSpline
210
0.0
220
0.0
230
1.0
 70
     8
 71
     3
 72
    14
 73
    10
 74
     0
 42
0.000000001
 43
0.0000000001
 40
0.0
 40
0.0
 40
0.0
 40
0.0
 40
0.1249999999999999
 40
0.1249999999999999
 40
0.2499999999999999
 40
0.2499999999999999
 40
0.4999999999999998
 40
0.4999999999999998
 40
1.0
 40
1.0
 40
1.0
 40
1.0
 10
-160.9965850682368
 20
-307.9028590848154
 30
0.0
 10
-160.9289303177138
 20
-307.9028590848154
 30
0.0
 10
-160.8659475250183
 20
-307.88664739792
 30
0.0
 10
-160.7662034629669
 20
-307.8421980645281
 30
0.0
 10
-160.7274019856977
 20
-307.8144780686554
 30
0.0
 10
-160.6313211929699
 20
-307.727391311994
 30
0.0
 10
-160.5924481770894
 20
-307.662895592546
 30
0.0
 10
-160.5089001988422
 20
-307.4700840875583
 30
0.0
 10
-160.4965850682368
 20
-307.339010829332
 30
0.0
 10
-160.4965850682368
 20
-307.2072187486423
 30
0.0
  0
LINE
  5
1AA
330
121
100
AcDbEntity
  8
H611ECROU_HM8
  6
Continuous
 62
     7
100
AcDbLine
 10
-166.4965850682
 20
-319.1763701371
 30
0.0
 11
-160.9965850682
 21
-319.1763701371
 31
0.0
  0
LINE
  5
1AB
330
121
100
AcDbEntity
  8
H611ECROU_HM8
  6
Continuous
 62
     7
100
AcDbLine
 10
-160.9965850682
 20
-304.6763701371
 30
0.0
 11
-166.4965850682
 21
-304.6763701371
 31
0.0
  0
ARC
  5
1AC
330
121
100
AcDbEntity
  8
H611ECROU_HM8
  6
Continuous
 62
     7
100
AcDbCircle
 10
-160.4965850682
 20
-316.4263701371
 30
0.0
 40
2.000000000000002
100
AcDbArc
 50
270.0
 51
0.0
  0
ARC
  5
1AD
330
121
100
AcDbEntity
  8
H611ECROU_HM8
  6
Continuous
 62
     7
100
AcDbCircle
 10
-160.4965850682
 20
-307.4263701371
 30
0.0
 40
2.000000000000002
100
AcDbArc
 50
0.0
 51
90.0
  0
ARC
  5
1AE
330
121
100
AcDbEntity
  8
H611ECROU_HM8
  6
Continuous
 62
     7
100
AcDbCircle
 10
-160.9965850682
 20
-305.1763701371
 30
0.0
 40
0.5000000000000004
100
AcDbArc
 50
0.0
 51
90.0
  0
ARC
  5
1AF
330
121
100
AcDbEntity
  8
H611ECROU_HM8
  6
Continuous
 62
     7
100
AcDbCircle
 10
-160.9965850682
 20
-318.6763701371
 30
0.0
 40
0.5000000000000004
100
AcDbArc
 50
270.0
 51
0.0
  0
LINE
  5
1B0
330
121
100
AcDbEntity
  8
H611RONDELLE_PLA
  6
Continuous
 62
     7
100
AcDbLine
 10
-166.4965850682
 20
-319.9263701371
 30
0.0
 11
-166.4965850682
 21
-303.9263701371
 31
0.0
  0
LINE
  5
1B1
330
121
100
AcDbEntity
  8
H611RONDELLE_PLA
  6
Continuous
 62
     7
100
AcDbLine
 10
-166.4965850682
 20
-303.9263701371
 30
0.0
 11
-167.9965850682
 21
-303.9263701371
 31
0.0
  0
LINE
  5
1B2
330
121
100
AcDbEntity
  8
H611RONDELLE_PLA
  6
Continuous
 62
     7
100
AcDbLine
 10
-167.9965850682
 20
-319.9263701371
 30
0.0
 11
-166.4965850682
 21
-319.9263701371
 31
0.0
  0
LINE
  5
1B3
330
121
100
AcDbEntity
  8
H611RONDELLE_PLA
  6
Continuous
 62
     7
100
AcDbLine
 10
-180.7965850682
 20
-303.9263701371
 30
0.0
 11
-180.7965850682
 21
-319.9263701371
 31
0.0
  0
LINE
  5
1B4
330
121
100
AcDbEntity
  8
H611RONDELLE_PLA
  6
Continuous
 62
     7
100
AcDbLine
 10
-180.7965850682
 20
-319.9263701371
 30
0.0
 11
-179.2965850682
 21
-319.9263701371
 31
0.0
  0
LINE
  5
1B5
330
121
100
AcDbEntity
  8
H611RONDELLE_PLA
  6
Continuous
 62
     7
100
AcDbLine
 10
-179.2965850682
 20
-303.9263701371
 30
0.0
 11
-180.7965850682
 21
-303.9263701371
 31
0.0
  0
LINE
  5
1B6
330
121
100
AcDbEntity
  8
H658VIS_HM8X26
  6
Continuous
 62
     7
100
AcDbLine
 10
-180.7965850682
 20
-307.9028590848
 30
0.0
 11
-187.2965850682
 21
-307.9028590848
 31
0.0
  0
LINE
  5
1B7
330
121
100
AcDbEntity
  8
H658VIS_HM8X26
  6
Continuous
 62
     7
100
AcDbLine
 10
-180.7965850682
 20
-315.1376782817
 30
0.0
 11
-187.2965850682
 21
-315.1376782817
 31
0.0
  0
LINE
  5
1B8
330
121
100
AcDbEntity
  8
H658VIS_HM8X26
  6
Continuous
 62
     7
100
AcDbLine
 10
-180.7965850682
 20
-319.161189334
 30
0.0
 11
-187.2965850682
 21
-319.161189334
 31
0.0
  0
LINE
  5
1B9
330
121
100
AcDbEntity
  8
H658VIS_HM8X26
  6
Continuous
 62
     7
100
AcDbLine
 10
-187.7965850682
 20
-307.2072187486
 30
0.0
 11
-187.7965850682
 21
-305.3871912763
 31
0.0
  0
LINE
  5
1BA
330
121
100
AcDbEntity
  8
H658VIS_HM8X26
  6
Continuous
 62
     7
100
AcDbLine
 10
-187.7965850682
 20
-310.1063426648
 30
0.0
 11
-187.7965850682
 21
-307.2072187486
 31
0.0
  0
SPLINE
  5
1BB
330
121
100
AcDbEntity
  8
H658VIS_HM8X26
  6
Continuous
 62
     7
100
AcDbSpline
210
0.0
220
0.0
230
1.0
 70
     8
 71
     3
 72
    14
 73
    10
 74
     0
 42
0.000000001
 43
0.0000000001
 40
0.0
 40
0.0
 40
0.0
 40
0.0
 40
0.4999999999999992
 40
0.4999999999999992
 40
0.7499999999999992
 40
0.7499999999999992
 40
0.8749999999999997
 40
0.8749999999999997
 40
1.0
 40
1.0
 40
1.0
 40
1.0
 10
-187.7965850682369
 20
-307.2072187486422
 30
0.0
 10
-187.7965850682369
 20
-307.338941951078
 30
0.0
 10
-187.7842074200014
 20
-307.4698658095292
 30
0.0
 10
-187.7011504002699
 20
-307.6620868213021
 30
0.0
 10
-187.6625529102418
 20
-307.7267087312411
 30
0.0
 10
-187.5656153385242
 20
-307.8146387636299
 30
0.0
 10
-187.5270099628559
 20
-307.8421858463089
 30
0.0
 10
-187.4270830178542
 20
-307.8867025257564
 30
0.0
 10
-187.3642522352408
 20
-307.9028590848152
 30
0.0
 10
-187.2965850682369
 20
-307.9028590848152
 30
0.0
  0
LINE
  5
1BC
330
121
100
AcDbEntity
  8
H658VIS_HM8X26
  6
Continuous
 62
     7
100
AcDbLine
 10
-187.2965850682
 20
-308.7150619924
 30
0.0
 11
-180.7965850682
 21
-308.7150619924
 31
0.0
  0
LINE
  5
1BD
330
121
100
AcDbEntity
  8
H658VIS_HM8X26
  6
Continuous
 62
     7
100
AcDbLine
 10
-187.2965850682
 20
-307.9028590848
 30
0.0
 11
-187.2965850682
 21
-308.7150619924
 31
0.0
  0
SPLINE
  5
1BE
330
121
100
AcDbEntity
  8
H658VIS_HM8X26
  6
Continuous
 62
     7
100
AcDbSpline
210
0.0
220
0.0
230
1.0
 70
     8
 71
     3
 72
    14
 73
    10
 74
     0
 42
0.000000001
 43
0.0000000001
 40
0.0
 40
0.0
 40
0.0
 40
0.0
 40
0.1249999999999997
 40
0.1249999999999997
 40
0.2499999999999994
 40
0.2499999999999994
 40
0.4999999999999993
 40
0.4999999999999993
 40
1.0
 40
1.0
 40
1.0
 40
1.0
 10
-187.2965850682369
 20
-308.7150619924147
 30
0.0
 10
-187.3642398187598
 20
-308.7150619924147
 30
0.0
 10
-187.4272226114554
 20
-308.7474853662055
 30
0.0
 10
-187.5269666735068
 20
-308.8363840329893
 30
0.0
 10
-187.5657681507759
 20
-308.8918240247347
 30
0.0
 10
-187.6618489435038
 20
-309.0659975380574
 30
0.0
 10
-187.7007219593843
 20
-309.1949889769534
 30
0.0
 10
-187.7842699376315
 20
-309.5806119869288
 30
0.0
 10
-187.7965850682369
 20
-309.8427585033815
 30
0.0
 10
-187.7965850682369
 20
-310.1063426647609
 30
0.0
  0
LINE
  5
1BF
330
121
100
AcDbEntity
  8
H658VIS_HM8X26
  6
Continuous
 62
     7
100
AcDbLine
 10
-187.7965850682
 20
-313.7463976094
 30
0.0
 11
-187.7965850682
 21
-310.1063426648
 31
0.0
  0
LINE
  5
1C0
330
121
100
AcDbEntity
  8
H658VIS_HM8X26
  6
Continuous
 62
     7
100
AcDbLine
 10
-187.7965850682
 20
-316.6455215255
 30
0.0
 11
-187.7965850682
 21
-313.7463976094
 31
0.0
  0
SPLINE
  5
1C1
330
121
100
AcDbEntity
  8
H658VIS_HM8X26
  6
Continuous
 62
     7
100
AcDbSpline
210
0.0
220
0.0
230
1.0
 70
     8
 71
     3
 72
    14
 73
    10
 74
     0
 42
0.000000001
 43
0.0000000001
 40
0.0
 40
0.0
 40
0.0
 40
0.0
 40
0.5000000000000003
 40
0.5000000000000003
 40
0.7500000000000004
 40
0.7500000000000004
 40
0.8750000000000002
 40
0.8750000000000002
 40
1.0
 40
1.0
 40
1.0
 40
1.0
 10
-187.7965850682369
 20
-313.746397609401
 30
0.0
 10
-187.7965850682369
 20
-314.0098440142728
 30
0.0
 10
-187.7842074200014
 20
-314.2716917311752
 30
0.0
 10
-187.7011504002699
 20
-314.656133754721
 30
0.0
 10
-187.6625529102418
 20
-314.7853775745989
 30
0.0
 10
-187.5656153385242
 20
-314.9612376393766
 30
0.0
 10
-187.5270099628559
 20
-315.0163318047345
 30
0.0
 10
-187.4270830178542
 20
-315.1053651636295
 30
0.0
 10
-187.3642522352408
 20
-315.1376782817472
 30
0.0
 10
-187.2965850682369
 20
-315.1376782817472
 30
0.0
  0
LINE
  5
1C2
330
121
100
AcDbEntity
  8
H658VIS_HM8X26
  6
Continuous
 62
     7
100
AcDbLine
 10
-187.2965850682
 20
-315.9498811893
 30
0.0
 11
-180.7965850682
 21
-315.9498811893
 31
0.0
  0
LINE
  5
1C3
330
121
100
AcDbEntity
  8
H658VIS_HM8X26
  6
Continuous
 62
     7
100
AcDbLine
 10
-187.2965850682
 20
-315.1376782817
 30
0.0
 11
-187.2965850682
 21
-315.9498811893
 31
0.0
  0
SPLINE
  5
1C4
330
121
100
AcDbEntity
  8
H658VIS_HM8X26
  6
Continuous
 62
     7
100
AcDbSpline
210
0.0
220
0.0
230
1.0
 70
     8
 71
     3
 72
    14
 73
    10
 74
     0
 42
0.000000001
 43
0.0000000001
 40
0.0
 40
0.0
 40
0.0
 40
0.0
 40
0.1249999999999997
 40
0.1249999999999997
 40
0.2499999999999994
 40
0.2499999999999994
 40
0.4999999999999997
 40
0.4999999999999997
 40
1.0
 40
1.0
 40
1.0
 40
1.0
 10
-187.2965850682369
 20
-315.9498811893467
 30
0.0
 10
-187.3642398187598
 20
-315.9498811893467
 30
0.0
 10
-187.4272226114554
 20
-315.9660928762421
 30
0.0
 10
-187.5269666735068
 20
-316.010542209634
 30
0.0
 10
-187.5657681507759
 20
-316.0382622055067
 30
0.0
 10
-187.6618489435038
 20
-316.1253489621681
 30
0.0
 10
-187.7007219593843
 20
-316.189844681616
 30
0.0
 10
-187.7842699376315
 20
-316.3826561866037
 30
0.0
 10
-187.7965850682369
 20
-316.5137294448301
 30
0.0
 10
-187.7965850682369
 20
-316.6455215255198
 30
0.0
  0
LINE
  5
1C5
330
121
100
AcDbEntity
  8
H658VIS_HM8X26
  6
Continuous
 62
     7
100
AcDbLine
 10
-187.7965850682
 20
-318.4655489978
 30
0.0
 11
-187.7965850682
 21
-316.6455215255
 31
0.0
  0
LINE
  5
1C6
330
121
100
AcDbEntity
  8
H658VIS_HM8X26
  6
Continuous
 62
     7
100
AcDbLine
 10
-187.7965850682
 20
-318.6763701371
 30
0.0
 11
-187.7965850682
 21
-318.4655489978
 31
0.0
  0
SPLINE
  5
1C7
330
121
100
AcDbEntity
  8
H658VIS_HM8X26
  6
Continuous
 62
     7
100
AcDbSpline
210
0.0
220
0.0
230
1.0
 70
     8
 71
     3
 72
    14
 73
    10
 74
     0
 42
0.000000001
 43
0.0000000001
 40
0.0
 40
0.0
 40
0.0
 40
0.0
 40
0.4999999999999989
 40
0.4999999999999989
 40
0.7499999999999988
 40
0.7499999999999988
 40
0.8749999999999993
 40
0.8749999999999993
 40
1.0
 40
1.0
 40
1.0
 40
1.0
 10
-187.7965850682369
 20
-318.4655489978398
 30
0.0
 10
-187.7965850682369
 20
-318.5972722002757
 30
0.0
 10
-187.7842074200014
 20
-318.728196058727
 30
0.0
 10
-187.7011504002699
 20
-318.9204170704999
 30
0.0
 10
-187.6625529102418
 20
-318.9850389804388
 30
0.0
 10
-187.5656153385242
 20
-319.0729690128276
 30
0.0
 10
-187.527009962856
 20
-319.1005160955066
 30
0.0
 10
-187.4270830178542
 20
-319.145032774954
 30
0.0
 10
-187.3642522352408
 20
-319.1611893340129
 30
0.0
 10
-187.2965850682369
 20
-319.1611893340129
 30
0.0
  0
LINE
  5
1C8
330
121
100
AcDbEntity
  8
H658VIS_HM8X26
  6
Continuous
 62
     7
100
AcDbLine
 10
-187.2965850682
 20
-319.161189334
 30
0.0
 11
-187.2965850682
 21
-319.1763701371
 31
0.0
  0
LINE
  5
1C9
330
121
100
AcDbEntity
  8
H658VIS_HM8X26
  6
Continuous
 62
     7
100
AcDbLine
 10
-187.7965850682
 20
-305.1763701371
 30
0.0
 11
-187.7965850682
 21
-305.3871912763
 31
0.0
  0
LINE
  5
1CA
330
121
100
AcDbEntity
  8
H658VIS_HM8X26
  6
Continuous
 62
     7
100
AcDbLine
 10
-187.2965850682
 20
-304.6915509401
 30
0.0
 11
-180.7965850682
 21
-304.6915509401
 31
0.0
  0
LINE
  5
1CB
330
121
100
AcDbEntity
  8
H658VIS_HM8X26
  6
Continuous
 62
     7
100
AcDbLine
 10
-187.2965850682
 20
-304.6915509401
 30
0.0
 11
-187.2965850682
 21
-304.6763701371
 31
0.0
  0
SPLINE
  5
1CC
330
121
100
AcDbEntity
  8
H658VIS_HM8X26
  6
Continuous
 62
     7
100
AcDbSpline
210
0.0
220
0.0
230
1.0
 70
     8
 71
     3
 72
    14
 73
    10
 74
     0
 42
0.000000001
 43
0.0000000001
 40
0.0
 40
0.0
 40
0.0
 40
0.0
 40
0.1250000000000003
 40
0.1250000000000003
 40
0.2500000000000007
 40
0.2500000000000007
 40
0.5000000000000006
 40
0.5000000000000006
 40
1.0
 40
1.0
 40
1.0
 40
1.0
 10
-187.2965850682369
 20
-304.6915509401489
 30
0.0
 10
-187.3642398187598
 20
-304.6915509401489
 30
0.0
 10
-187.4272226114554
 20
-304.7077626270444
 30
0.0
 10
-187.5269666735068
 20
-304.7522119604362
 30
0.0
 10
-187.5657681507759
 20
-304.779931956309
 30
0.0
 10
-187.6618489435038
 20
-304.8670187129703
 30
0.0
 10
-187.7007219593843
 20
-304.9315144324183
 30
0.0
 10
-187.7842699376315
 20
-305.124325937406
 30
0.0
 10
-187.7965850682369
 20
-305.2553991956324
 30
0.0
 10
-187.7965850682369
 20
-305.387191276322
 30
0.0
  0
LINE
  5
1CD
330
121
100
AcDbEntity
  8
H658VIS_HM8X26
  6
Continuous
 62
     7
100
AcDbLine
 10
-157.7965850682
 20
-307.9263701371
 30
0.0
 11
-157.7965850682
 21
-315.9263701371
 31
0.0
  0
LINE
  5
1CE
330
121
100
AcDbEntity
  8
H658VIS_HM8X26
  6
Continuous
 62
     7
100
AcDbLine
 10
-156.7965850682
 20
-314.9263701371
 30
0.0
 11
-156.7965850682
 21
-308.9263701371
 31
0.0
  0
LINE
  5
1CF
330
121
100
AcDbEntity
  8
H658VIS_HM8X26
  6
Continuous
 62
     7
100
AcDbLine
 10
-158.4965850682
 20
-315.9263701371
 30
0.0
 11
-157.7965850682
 21
-315.9263701371
 31
0.0
  0
LINE
  5
1D0
330
121
100
AcDbEntity
  8
H658VIS_HM8X26
  6
Continuous
 62
     7
100
AcDbLine
 10
-157.7965850682
 20
-307.9263701371
 30
0.0
 11
-158.4965850682
 21
-307.9263701371
 31
0.0
  0
LINE
  5
1D1
330
121
100
AcDbEntity
  8
H658VIS_HM8X26
  6
Continuous
 62
     7
100
AcDbLine
 10
-187.2965850682
 20
-319.1763701371
 30
0.0
 11
-180.7965850682
 21
-319.1763701371
 31
0.0
  0
LINE
  5
1D2
330
121
100
AcDbEntity
  8
H658VIS_HM8X26
  6
Continuous
 62
     7
100
AcDbLine
 10
-180.7965850682
 20
-304.6763701371
 30
0.0
 11
-187.2965850682
 21
-304.6763701371
 31
0.0
  0
ARC
  5
1D3
330
121
100
AcDbEntity
  8
H658VIS_HM8X26
  6
Continuous
 62
     7
100
AcDbCircle
 10
-187.2965850682
 20
-318.6763701371
 30
0.0
 40
0.5000000000000004
100
AcDbArc
 50
180.0
 51
270.0
  0
ARC
  5
1D4
330
121
100
AcDbEntity
  8
H658VIS_HM8X26
  6
Continuous
 62
     7
100
AcDbCircle
 10
-187.2965850682
 20
-305.1763701371
 30
0.0
 40
0.5000000000000004
100
AcDbArc
 50
90.0
 51
180.0
  0
LINE
  5
1D5
330
121
100
AcDbEntity
  8
H658VIS_HM8X26
  6
Continuous
 62
     7
100
AcDbLine
 10
-157.7965850682
 20
-315.9263701371
 30
0.0
 11
-156.7965850682
 21
-314.9263701371
 31
0.0
  0
LINE
  5
1D6
330
121
100
AcDbEntity
  8
H658VIS_HM8X26
  6
Continuous
 62
     7
100
AcDbLine
 10
-156.7965850682
 20
-308.9263701371
 30
0.0
 11
-157.7965850682
 21
-307.9263701371
 31
0.0
  0
LINE
  5
1D7
330
121
100
AcDbEntity
  8
H658PATTE_FIXATI
  6
Continuous
 62
     7
100
AcDbLine
 10
-172.9965850682
 20
-311.9263701371
 30
0.0
 11
-172.9965850682
 21
-252.9263701371
 31
0.0
  0
ARC
  5
1D8
330
121
100
AcDbEntity
  8
H658PATTE_FIXATI
  6
Continuous
 62
     7
100
AcDbCircle
 10
-165.9965850682
 20
-252.9263701371
 30
0.0
 40
7.000000000000006
100
AcDbArc
 50
90.0
 51
180.0
  0
ARC
  5
1D9
330
121
100
AcDbEntity
  8
H658PATTE_FIXATI
  6
Continuous
 62
     7
100
AcDbCircle
 10
-165.9965850682
 20
-252.9263701371
 30
0.0
 40
2.000000000000002
100
AcDbArc
 50
90.0
 51
180.0
  0
LINE
  5
1DA
330
121
100
AcDbEntity
  8
H658PATTE_FIXATI
  6
Continuous
 62
     7
100
AcDbLine
 10
-167.9965850682
 20
-311.9263701371
 30
0.0
 11
-167.9965850682
 21
-252.9263701371
 31
0.0
  0
LINE
  5
1DB
330
121
100
AcDbEntity
  8
H658PATTE_FIXATI
  6
Continuous
 62
     7
100
AcDbLine
 10
-172.9965850682
 20
-311.9263701371
 30
0.0
 11
-172.9965850682
 21
-331.9263701371
 31
0.0
  0
LINE
  5
1DC
330
121
100
AcDbEntity
  8
H658PATTE_FIXATI
  6
Continuous
 62
     7
100
AcDbLine
 10
-167.9965850682
 20
-311.9263701371
 30
0.0
 11
-167.9965850682
 21
-331.9263701371
 31
0.0
  0
LINE
  5
1DD
330
121
100
AcDbEntity
  8
H658PATTE_FIXATI
  6
Continuous
 62
     7
100
AcDbLine
 10
-127.9965850682
 20
-245.9263701371
 30
0.0
 11
-127.9965850682
 21
-250.9263701371
 31
0.0
  0
LINE
  5
1DE
330
121
100
AcDbEntity
  8
H658PATTE_FIXATI
  6
Continuous
 62
     7
100
AcDbLine
 10
-160.9965850682
 20
-245.9263701371
 30
0.0
 11
-132.9965850682
 21
-245.9263701371
 31
0.0
  0
LINE
  5
1DF
330
121
100
AcDbEntity
  8
H658PATTE_FIXATI
  6
Continuous
 62
     7
100
AcDbLine
 10
-165.9965850682
 20
-245.9263701371
 30
0.0
 11
-160.9965850682
 21
-245.9263701371
 31
0.0
  0
LINE
  5
1E0
330
121
100
AcDbEntity
  8
H658PATTE_FIXATI
  6
Continuous
 62
     7
100
AcDbLine
 10
-132.9965850682
 20
-245.9263701371
 30
0.0
 11
-127.9965850682
 21
-245.9263701371
 31
0.0
  0
LINE
  5
1E1
330
121
100
AcDbEntity
  8
H658PATTE_FIXATI
  6
Continuous
 62
     7
100
AcDbLine
 10
-160.9965850682
 20
-250.9263701371
 30
0.0
 11
-132.9965850682
 21
-250.9263701371
 31
0.0
  0
LINE
  5
1E2
330
121
100
AcDbEntity
  8
H658PATTE_FIXATI
  6
Continuous
 62
     7
100
AcDbLine
 10
-160.9965850682
 20
-250.9263701371
 30
0.0
 11
-165.9965850682
 21
-250.9263701371
 31
0.0
  0
LINE
  5
1E3
330
121
100
AcDbEntity
  8
H658PATTE_FIXATI
  6
Continuous
 62
     7
100
AcDbLine
 10
-127.9965850682
 20
-250.9263701371
 30
0.0
 11
-132.9965850682
 21
-250.9263701371
 31
0.0
  0
LINE
  5
1E4
330
121
100
AcDbEntity
  8
H658PATTE_FIXATI
  6
Continuous
 62
     7
100
AcDbLine
 10
-165.9965850682
 20
-250.9263701371
 30
0.0
 11
-165.9965850682
 21
-245.9263701371
 31
0.0
  0
LINE
  5
1E5
330
121
100
AcDbEntity
  8
H658PATTE_FIXATI
  6
Continuous
 62
     7
100
AcDbLine
 10
-172.9965850682
 20
-331.9263701371
 30
0.0
 11
-167.9965850682
 21
-331.9263701371
 31
0.0
  0
LINE
  5
1E6
330
121
100
AcDbEntity
  8
H611RONDELLE_PLA
  6
Continuous
 62
     7
100
AcDbLine
 10
377.7034149318
 20
-299.4263701371
 30
0.0
 11
376.4034149318
 21
-299.4263701371
 31
0.0
  0
LINE
  5
1E7
330
121
100
AcDbEntity
  8
H611RONDELLE_PLA
  6
Continuous
 62
     7
100
AcDbLine
 10
376.4034149318
 20
-324.4263701371
 30
0.0
 11
377.7034149318
 21
-324.4263701371
 31
0.0
  0
ENDBLK
  5
1E9
330
121
100
AcDbEntity
  8
0
100
AcDbBlockEnd
  0
BLOCK
  5
1EC
330
1EB
100
AcDbEntity
  8
0
100
AcDbBlockBegin
  2
_OBLIQUE
 70
     0
 10
0.0
 20
0.0
 30
0.0
  3
_OBLIQUE
  1
_OBLIQUE
  0
LINE
  5
1EE
330
1EB
100
AcDbEntity
  8
0
  6
ByBlock
 62
     0
370
    -2
100
AcDbLine
 10
-0.5
 20
-0.5
 30
0.0
 11
0.5
 21
0.5
 31
0.0
  0
ENDBLK
  5
1ED
330
1EB
100
AcDbEntity
  8
0
100
AcDbBlockEnd
  0
BLOCK
  5
1F0
330
1EF
100
AcDbEntity
  8
0
100
AcDbBlockBegin
  2
_DOT
 70
     0
 10
0.0
 20
0.0
 30
0.0
  3
_DOT
  1
_DOT
  0
POLYLINE
  5
1F2
330
1EF
100
AcDbEntity
  8
0
  6
ByBlock
 62
     0
100
AcDb2dPolyline
 66
     1
 10
0.0
 20
0.0
 30
0.0
 70
     1
 40
0.5
 41
0.5
  0
VERTEX
  5
1F4
330
1F2
100
AcDbEntity
  8
0
  6
ByBlock
 62
     0
100
AcDbVertex
100
AcDb2dVertex
 10
-0.25
 20
0.0
 30
0.0
 42
1.0
  0
VERTEX
  5
1F5
330
1F2
100
AcDbEntity
  8
0
  6
ByBlock
 62
     0
100
AcDbVertex
100
AcDb2dVertex
 10
0.25
 20
0.0
 30
0.0
 42
1.0
  0
SEQEND
  5
1F6
330
1F2
100
AcDbEntity
  8
0
  6
ByBlock
 62
     0
  0
LINE
  5
1F3
330
1EF
100
AcDbEntity
  8
0
  6
ByBlock
 62
     0
370
    -2
100
AcDbLine
 10
-0.5
 20
0.0
 30
0.0
 11
-1.0
 21
0.0
 31
0.0
  0
ENDBLK
  5
1F1
330
1EF
100
AcDbEntity
  8
0
100
AcDbBlockEnd
  0
BLOCK
  5
1FA
330
1F7
100
AcDbEntity
  8
0
100
AcDbBlockBegin
  2
_SE_FILLED
 70
     0
 10
0.0
 20
0.0
 30
0.0
  3
_SE_FILLED
  1
_SE_FILLED
  0
SOLID
  5
1F8
330
1F7
100
AcDbEntity
  8
0
 62
     0
100
AcDbTrace
 10
0.0
 20
0.0
 30
0.0
 11
-1.0
 21
-0.1665
 31
0.0
 12
-1.0
 22
0.1665
 32
0.0
 13
0.0
 23
0.0
 33
0.0
  0
LINE
  5
1F9
330
1F7
100
AcDbEntity
  8
0
 62
     0
100
AcDbLine
 10
0.0
 20
0.0
 30
0.0
 11
-1.0
 21
0.0
 31
0.0
  0
ENDBLK
  5
1FB
330
1F7
100
AcDbEntity
  8
0
100
AcDbBlockEnd
  0
BLOCK
  5
207
330
200
100
AcDbEntity
  8
0
100
AcDbBlockBegin
  2
DMBLK6
 70
     0
 10
0.0
 20
0.0
 30
0.0
  3
DMBLK6
  1
DMBLK6
  0
HATCH
  5
201
330
200
100
AcDbEntity
  8
Cartouche
  6
Continuous
 62
     7
100
AcDbHatch
 10
0.0
 20
0.0
 30
0.0
210
0.0
220
0.0
230
1.0
  2
SOLID
 70
     1
 71
     0
 91
        1
 92
        1
 93
        3
 72
     1
 10
-177.2965849639298
 20
548.284783061005
 11
-189.296585068238
 21
546.2847830436203
 72
     1
 10
-189.296585068238
 20
546.2847830436203
 11
-177.2965849639298
 21
544.2847830262357
 72
     1
 10
-177.2965849639298
 20
544.2847830262357
 11
-177.2965849639298
 21
548.284783061005
 97
        0
 75
     0
 76
     1
 98
        0
  0
HATCH
  5
202
330
200
100
AcDbEntity
  8
Cartouche
  6
Continuous
 62
     7
100
AcDbHatch
 10
0.0
 20
0.0
 30
0.0
210
0.0
220
0.0
230
1.0
  2
SOLID
 70
     1
 71
     0
 91
        1
 92
        1
 93
        3
 72
     1
 10
380.7034319935916
 20
548.284783061005
 11
380.7034319935916
 21
544.2847830262357
 72
     1
 10
380.7034319935916
 20
544.2847830262357
 11
392.7034320978997
 21
546.2847830436203
 72
     1
 10
392.7034320978997
 20
546.2847830436203
 11
380.7034319935916
 21
548.284783061005
 97
        0
 75
     0
 76
     1
 98
        0
  0
LINE
  5
203
330
200
100
AcDbEntity
  8
Cartouche
  6
Continuous
 62
     7
100
AcDbLine
 10
-189.2965850682
 20
442.3200337856
 30
0.0
 11
-189.2965850682
 21
547.8847830032
 31
0.0
  0
LINE
  5
204
330
200
100
AcDbEntity
  8
Cartouche
  6
Continuous
 62
     7
100
AcDbLine
 10
392.7034149318
 20
171.3200337856
 30
0.0
 11
392.7034149318
 21
547.8847830032
 31
0.0
  0
LINE
  5
205
330
200
100
AcDbEntity
  8
Cartouche
  6
Continuous
 62
     7
100
AcDbLine
 10
-189.2965850682
 20
546.2847830436
 30
0.0
 11
392.7034320979
 21
546.2847830436
 31
0.0
  0
TEXT
  5
206
330
200
100
AcDbEntity
  8
Cartouche
  6
Continuous
 62
     7
100
AcDbText
 10
92.6367568482
 20
548.2847830436
 30
0.0
 40
8.0
  1
582
  7
SEACAD_ArialB
 11
92.6367568482
 21
556.2847830436
 31
0.0
100
AcDbText
 73
     3
  0
ENDBLK
  5
208
330
200
100
AcDbEntity
  8
0
100
AcDbBlockEnd
  0
BLOCK
  5
211
330
20A
100
AcDbEntity
  8
0
100
AcDbBlockBegin
  2
DMBLK7
 70
     0
 10
0.0
 20
0.0
 30
0.0
  3
DMBLK7
  1
DMBLK7
  0
HATCH
  5
20B
330
20A
100
AcDbEntity
  8
Cartouche
  6
Continuous
 62
     7
100
AcDbHatch
 10
0.0
 20
0.0
 30
0.0
210
0.0
220
0.0
230
1.0
  2
SOLID
 70
     1
 71
     0
 91
        1
 92
        1
 93
        3
 72
     1
 10
434.3017011010355
 20
490.4200335673066
 11
432.3017010836508
 21
502.4200336716147
 72
     1
 10
432.3017010836508
 20
502.4200336716147
 11
430.3017010662661
 21
490.4200335673066
 72
     1
 10
430.3017010662661
 20
490.4200335673066
 11
434.3017011010355
 21
490.4200335673066
 97
        0
 75
     0
 76
     1
 98
        0
  0
HATCH
  5
20C
330
20A
100
AcDbEntity
  8
Cartouche
  6
Continuous
 62
     7
100
AcDbHatch
 10
0.0
 20
0.0
 30
0.0
210
0.0
220
0.0
230
1.0
  2
SOLID
 70
     1
 71
     0
 91
        1
 92
        1
 93
        3
 72
     1
 10
434.3017011010355
 20
-152.5799619325427
 11
430.3017010662661
 21
-152.5799619325427
 72
     1
 10
430.3017010662661
 20
-152.5799619325427
 11
432.3017010836508
 21
-164.5799620368509
 72
     1
 10
432.3017010836508
 20
-164.5799620368509
 11
434.3017011010355
 21
-152.5799619325427
 97
        0
 75
     0
 76
     1
 98
        0
  0
LINE
  5
20D
330
20A
100
AcDbEntity
  8
Cartouche
  6
Continuous
 62
     7
100
AcDbLine
 10
332.6034150458
 20
502.4200336716
 30
0.0
 11
433.9017010432
 21
502.4200336716
 31
0.0
  0
LINE
  5
20E
330
20A
100
AcDbEntity
  8
Cartouche
  6
Continuous
 62
     7
100
AcDbLine
 10
104.1034150458
 20
-164.5799663284
 30
0.0
 11
433.9017010432
 21
-164.5799663284
 31
0.0
  0
LINE
  5
20F
330
20A
100
AcDbEntity
  8
Cartouche
  6
Continuous
 62
     7
100
AcDbLine
 10
432.3017010837
 20
502.4200336716
 30
0.0
 11
432.3017010837
 21
-164.5799620369
 31
0.0
  0
TEXT
  5
210
330
20A
100
AcDbEntity
  8
Cartouche
  6
Continuous
 62
     7
100
AcDbText
 10
430.3017010837
 20
159.8533691507
 30
0.0
 40
8.0
  1
667
 50
90.0
  7
SEACAD_ArialB
 11
422.3017010837
 21
159.8533691507
 31
0.0
100
AcDbText
 73
     3
  0
ENDBLK
  5
212
330
20A
100
AcDbEntity
  8
0
100
AcDbBlockEnd
  0
BLOCK
  5
21B
330
214
100
AcDbEntity
  8
0
100
AcDbBlockBegin
  2
DMBLK8
 70
     0
 10
0.0
 20
0.0
 30
0.0
  3
DMBLK8
  1
DMBLK8
  0
HATCH
  5
215
330
214
100
AcDbEntity
  8
Cartouche
  6
Continuous
 62
     7
100
AcDbHatch
 10
0.0
 20
0.0
 30
0.0
210
0.0
220
0.0
230
1.0
  2
SOLID
 70
     1
 71
     0
 91
        1
 92
        1
 93
        3
 72
     1
 10
451.9948312490885
 20
548.2847943262825
 11
451.9948312490885
 21
544.2847942915132
 72
     1
 10
451.9948312490885
 20
544.2847942915132
 11
463.9948313533966
 21
546.2847943088979
 72
     1
 10
463.9948313533966
 20
546.2847943088979
 11
451.9948312490885
 21
548.2847943262825
 97
        0
 75
     0
 76
     1
 98
        0
  0
HATCH
  5
216
330
214
100
AcDbEntity
  8
Cartouche
  6
Continuous
 62
     7
100
AcDbHatch
 10
0.0
 20
0.0
 30
0.0
210
0.0
220
0.0
230
1.0
  2
SOLID
 70
     1
 71
     0
 91
        1
 92
        1
 93
        3
 72
     1
 10
598.9948314577048
 20
548.2847943262825
 11
586.9948313533966
 21
546.2847943088979
 72
     1
 10
586.9948313533966
 20
546.2847943088979
 11
598.9948314577048
 21
544.2847942915132
 72
     1
 10
598.9948314577048
 20
544.2847942915132
 11
598.9948314577048
 21
548.2847943262825
 97
        0
 75
     0
 76
     1
 98
        0
  0
LINE
  5
217
330
214
100
AcDbEntity
  8
Cartouche
  6
Continuous
 62
     7
100
AcDbLine
 10
463.9948313534
 20
208.8200337856
 30
0.0
 11
463.9948313534
 21
547.8847942685
 31
0.0
  0
LINE
  5
218
330
214
100
AcDbEntity
  8
Cartouche
  6
Continuous
 62
     7
100
AcDbLine
 10
586.9948313534
 20
442.320010402
 30
0.0
 11
586.9948313534
 21
547.8847942685
 31
0.0
  0
LINE
  5
219
330
214
100
AcDbEntity
  8
Cartouche
  6
Continuous
 62
     7
100
AcDbLine
 10
439.9948311448
 20
546.2847943089
 30
0.0
 11
610.9948312342
 21
546.2847943089
 31
0.0
  0
TEXT
  5
21A
330
214
100
AcDbEntity
  8
Cartouche
  6
Continuous
 62
     7
100
AcDbText
 10
513.6281663855
 20
548.2847943089
 30
0.0
 40
8.0
  1
125
  7
SEACAD_ArialB
 11
513.6281663855
 21
556.2847943089
 31
0.0
100
AcDbText
 73
     3
  0
ENDBLK
  5
21C
330
214
100
AcDbEntity
  8
0
100
AcDbBlockEnd
  0
BLOCK
  5
25F
330
21D
100
AcDbEntity
  8
0
100
AcDbBlockBegin
  2
SE3
 70
     0
 10
0.0
 20
0.0
 30
0.0
  3
SE3
  1
SE3
  0
ARC
  5
21F
330
21D
100
AcDbEntity
  8
H658GLACE
  6
Continuous
 62
     7
100
AcDbCircle
 10
-372.3496192822
 20
489.9200336716
 30
0.0
 40
12.5
100
AcDbArc
 50
0.0
 51
180.0
  0
LINE
  5
220
330
21D
100
AcDbEntity
  8
H658GLACE
  6
Continuous
 62
     7
100
AcDbLine
 10
-384.8496192822
 20
439.9200336716
 30
0.0
 11
-359.8496192822
 21
439.9200336716
 31
0.0
  0
LINE
  5
221
330
21D
100
AcDbEntity
  8
H658GLACE
  6
Continuous
 62
     7
100
AcDbLine
 10
-384.8496192822
 20
-102.0799663284
 30
0.0
 11
-359.8496192822
 21
-102.0799663284
 31
0.0
  0
ARC
  5
222
330
21D
100
AcDbEntity
  8
H658GLACE
  6
Continuous
 62
     7
100
AcDbCircle
 10
-372.3496192822
 20
-152.0799663284
 30
0.0
 40
12.49999999999995
100
AcDbArc
 50
180.0
 51
360.0
  0
LINE
  5
223
330
21D
100
AcDbEntity
  8
H658GLACE
  6
Continuous
 62
     7
100
AcDbLine
 10
-360.1021705682
 20
188.9200336716
 30
0.0
 11
-360.1021705682
 21
148.9200336716
 31
0.0
  0
LINE
  5
224
330
21D
100
AcDbEntity
  8
H658GLACE
  6
Continuous
 62
     7
100
AcDbLine
 10
-327.8496192822
 20
148.9200336716
 30
0.0
 11
-360.1021705682
 21
148.9200336716
 31
0.0
  0
LINE
  5
225
330
21D
100
AcDbEntity
  8
H658GLACE
  6
Continuous
 62
     7
100
AcDbLine
 10
-327.8496192822
 20
188.9200336716
 30
0.0
 11
-360.1021705682
 21
188.9200336716
 31
0.0
  0
ARC
  5
226
330
21D
100
AcDbEntity
  8
H658GLACE
  6
Continuous
 62
     7
100
AcDbCircle
 10
-327.8496192822
 20
168.9200336716
 30
0.0
 40
19.99999999999995
100
AcDbArc
 50
270.0
 51
90.0
  0
LINE
  5
227
330
21D
100
AcDbEntity
  8
H658GLACE
  6
Continuous
 62
     7
100
AcDbLine
 10
-384.8496192822
 20
489.9200336716
 30
0.0
 11
-384.8496192822
 21
439.9200336716
 31
0.0
  0
LINE
  5
228
330
21D
100
AcDbEntity
  8
H658GLACE
  6
Continuous
 62
     7
100
AcDbLine
 10
-359.8496192822
 20
439.9200336716
 30
0.0
 11
-359.8496192822
 21
489.9200336716
 31
0.0
  0
LINE
  5
229
330
21D
100
AcDbEntity
  8
H658GLACE
  6
Continuous
 62
     7
100
AcDbLine
 10
-359.8496192822
 20
188.9200336716
 30
0.0
 11
-359.8496192822
 21
439.9200336716
 31
0.0
  0
LINE
  5
22A
330
21D
100
AcDbEntity
  8
H658GLACE
  6
Continuous
 62
     7
100
AcDbLine
 10
-359.8496192822
 20
-102.0799663284
 30
0.0
 11
-359.8496192822
 21
148.9200336716
 31
0.0
  0
LINE
  5
22B
330
21D
100
AcDbEntity
  8
H658GLACE
  6
Continuous
 62
     7
100
AcDbLine
 10
-384.8496192822
 20
439.9200336716
 30
0.0
 11
-384.8496192822
 21
-102.0799663284
 31
0.0
  0
LINE
  5
22C
330
21D
100
AcDbEntity
  8
H658GLACE
  6
Continuous
 62
     7
100
AcDbLine
 10
-384.8496192822
 20
-102.0799663284
 30
0.0
 11
-384.8496192822
 21
-152.0799663284
 31
0.0
  0
LINE
  5
22D
330
21D
100
AcDbEntity
  8
H658GLACE
  6
Continuous
 62
     7
100
AcDbLine
 10
-359.8496192822
 20
-152.0799663284
 30
0.0
 11
-359.8496192822
 21
-102.0799663284
 31
0.0
  0
LINE
  5
22E
330
21D
100
AcDbEntity
  8
H658PATTE_FIXATI
  6
Continuous
 62
     7
100
AcDbLine
 10
-268.8496192822
 20
148.9200336716
 30
0.0
 11
-268.8496192822
 21
188.9200336716
 31
0.0
  0
LINE
  5
22F
330
21D
100
AcDbEntity
  8
H658PATTE_FIXATI
  6
Continuous
 62
     7
100
AcDbLine
 10
-261.8496192822
 20
188.9200336716
 30
0.0
 11
-261.8496192822
 21
148.9200336716
 31
0.0
  0
LINE
  5
230
330
21D
100
AcDbEntity
  8
H658PATTE_FIXATI
  6
Continuous
 62
     7
100
AcDbLine
 10
-261.8496192822
 20
188.9200336716
 30
0.0
 11
-268.8496192822
 21
188.9200336716
 31
0.0
  0
LINE
  5
231
330
21D
100
AcDbEntity
  8
H658PATTE_FIXATI
  6
Continuous
 62
     7
100
AcDbLine
 10
-268.8496192822
 20
188.9200336716
 30
0.0
 11
-327.8496192822
 21
188.9200336716
 31
0.0
  0
LINE
  5
232
330
21D
100
AcDbEntity
  8
H658PATTE_FIXATI
  6
Continuous
 62
     7
100
AcDbLine
 10
-261.8496192822
 20
148.9200336716
 30
0.0
 11
-261.8496192822
 21
113.9200336716
 31
0.0
  0
LINE
  5
233
330
21D
100
AcDbEntity
  8
H658PATTE_FIXATI
  6
Continuous
 62
     7
100
AcDbLine
 10
-327.8496192822
 20
148.9200336716
 30
0.0
 11
-268.8496192822
 21
148.9200336716
 31
0.0
  0
LINE
  5
234
330
21D
100
AcDbEntity
  8
H658PATTE_FIXATI
  6
Continuous
 62
     7
100
AcDbLine
 10
-268.8496192822
 20
148.9200336716
 30
0.0
 11
-261.8496192822
 21
148.9200336716
 31
0.0
  0
LINE
  5
235
330
21D
100
AcDbEntity
  8
H658PATTE_FIXATI
  6
Continuous
 62
     7
100
AcDbLine
 10
-266.8496192822
 20
148.9200336716
 30
0.0
 11
-266.8496192822
 21
113.9200336716
 31
0.0
  0
LINE
  5
236
330
21D
100
AcDbEntity
  8
H658PATTE_FIXATI
  6
Continuous
 62
     7
100
AcDbLine
 10
-261.8496192822
 20
223.9200336716
 30
0.0
 11
-261.8496192822
 21
188.9200336716
 31
0.0
  0
LINE
  5
237
330
21D
100
AcDbEntity
  8
H658PATTE_FIXATI
  6
Continuous
 62
     7
100
AcDbLine
 10
-261.8496192822
 20
113.9200336716
 30
0.0
 11
-261.8496192822
 21
108.9200336716
 31
0.0
  0
LINE
  5
238
330
21D
100
AcDbEntity
  8
H658PATTE_FIXATI
  6
Continuous
 62
     7
100
AcDbLine
 10
-261.8496192822
 20
228.9200336716
 30
0.0
 11
-261.8496192822
 21
223.9200336716
 31
0.0
  0
LINE
  5
239
330
21D
100
AcDbEntity
  8
H658PATTE_FIXATI
  6
Continuous
 62
     7
100
AcDbLine
 10
-266.8496192822
 20
228.9200336716
 30
0.0
 11
-261.8496192822
 21
228.9200336716
 31
0.0
  0
LINE
  5
23A
330
21D
100
AcDbEntity
  8
H658PATTE_FIXATI
  6
Continuous
 62
     7
100
AcDbLine
 10
-266.8496192822
 20
223.9200336716
 30
0.0
 11
-266.8496192822
 21
188.9200336716
 31
0.0
  0
LINE
  5
23B
330
21D
100
AcDbEntity
  8
H658PATTE_FIXATI
  6
Continuous
 62
     7
100
AcDbLine
 10
-266.8496192822
 20
108.9200336716
 30
0.0
 11
-266.8496192822
 21
113.9200336716
 31
0.0
  0
LINE
  5
23C
330
21D
100
AcDbEntity
  8
H658PATTE_FIXATI
  6
Continuous
 62
     7
100
AcDbLine
 10
-266.8496192822
 20
223.9200336716
 30
0.0
 11
-266.8496192822
 21
228.9200336716
 31
0.0
  0
LINE
  5
23D
330
21D
100
AcDbEntity
  8
H658PATTE_FIXATI
  6
Continuous
 62
     7
100
AcDbLine
 10
-261.8496192822
 20
223.9200336716
 30
0.0
 11
-266.8496192822
 21
223.9200336716
 31
0.0
  0
LINE
  5
23E
330
21D
100
AcDbEntity
  8
H658PATTE_FIXATI
  6
Continuous
 62
     7
100
AcDbLine
 10
-261.8496192822
 20
108.9200336716
 30
0.0
 11
-266.8496192822
 21
108.9200336716
 31
0.0
  0
LINE
  5
23F
330
21D
100
AcDbEntity
  8
H658PATTE_FIXATI
  6
Continuous
 62
     7
100
AcDbLine
 10
-266.8496192822
 20
113.9200336716
 30
0.0
 11
-261.8496192822
 21
113.9200336716
 31
0.0
  0
LINE
  5
240
330
21D
100
AcDbEntity
  8
H658VIS_HM8X26
  6
Continuous
 62
     7
100
AcDbLine
 10
-321.3104404214
 20
170.593843645
 30
0.0
 11
-323.1304678937
 21
173.7462236982
 31
0.0
  0
ARC
  5
241
330
21D
100
AcDbEntity
  8
H658VIS_HM8X26
  6
Continuous
 62
     7
100
AcDbCircle
 10
-327.8496192822
 20
168.9200336716
 30
0.0
 40
6.749999999999989
100
AcDbArc
 50
345.642471013
 51
14.357528987
  0
LINE
  5
242
330
21D
100
AcDbEntity
  8
H658VIS_HM8X26
  6
Continuous
 62
     7
100
AcDbLine
 10
-321.3104404214
 20
170.593843645
 30
0.0
 11
-320.6148000852
 21
169.388959239
 31
0.0
  0
ARC
  5
243
330
21D
100
AcDbEntity
  8
H658VIS_HM8X26
  6
Continuous
 62
     7
100
AcDbCircle
 10
-327.8496192822
 20
168.9200336716
 30
0.0
 40
7.249999999999989
100
AcDbArc
 50
356.2915552747
 51
3.7084447253
  0
LINE
  5
244
330
21D
100
AcDbEntity
  8
H658VIS_HM8X26
  6
Continuous
 62
     7
100
AcDbLine
 10
-320.6148000852
 20
168.4511081043
 30
0.0
 11
-321.3104404214
 21
167.2462236982
 31
0.0
  0
LINE
  5
245
330
21D
100
AcDbEntity
  8
H658VIS_HM8X26
  6
Continuous
 62
     7
100
AcDbLine
 10
-334.3887981429
 20
167.2462236982
 30
0.0
 11
-332.5687706706
 21
164.093843645
 31
0.0
  0
ARC
  5
246
330
21D
100
AcDbEntity
  8
H658VIS_HM8X26
  6
Continuous
 62
     7
100
AcDbCircle
 10
-327.8496192822
 20
168.9200336716
 30
0.0
 40
6.749999999999991
100
AcDbArc
 50
165.642471013
 51
194.357528987
  0
LINE
  5
247
330
21D
100
AcDbEntity
  8
H658VIS_HM8X26
  6
Continuous
 62
     7
100
AcDbLine
 10
-334.3887981429
 20
167.2462236982
 30
0.0
 11
-335.0844384791
 21
168.4511081043
 31
0.0
  0
ARC
  5
248
330
21D
100
AcDbEntity
  8
H658VIS_HM8X26
  6
Continuous
 62
     7
100
AcDbCircle
 10
-327.8496192822
 20
168.9200336716
 30
0.0
 40
7.249999999999989
100
AcDbArc
 50
176.2915552747
 51
183.7084447253
  0
LINE
  5
249
330
21D
100
AcDbEntity
  8
H658VIS_HM8X26
  6
Continuous
 62
     7
100
AcDbLine
 10
-335.0844384791
 20
169.388959239
 30
0.0
 11
-334.3887981429
 21
170.593843645
 31
0.0
  0
LINE
  5
24A
330
21D
100
AcDbEntity
  8
H658VIS_HM8X26
  6
Continuous
 62
     7
100
AcDbLine
 10
-332.5687706706
 20
173.7462236982
 30
0.0
 11
-334.3887981429
 21
170.593843645
 31
0.0
  0
ARC
  5
24B
330
21D
100
AcDbEntity
  8
H658VIS_HM8X26
  6
Continuous
 62
     7
100
AcDbCircle
 10
-327.8496192822
 20
168.9200336716
 30
0.0
 40
6.749999999999988
100
AcDbArc
 50
105.642471013
 51
134.357528987
  0
LINE
  5
24C
330
21D
100
AcDbEntity
  8
H658VIS_HM8X26
  6
Continuous
 62
     7
100
AcDbLine
 10
-332.5687706706
 20
173.7462236982
 30
0.0
 11
-331.8731303344
 21
174.9511081043
 31
0.0
  0
ARC
  5
24D
330
21D
100
AcDbEntity
  8
H658VIS_HM8X26
  6
Continuous
 62
     7
100
AcDbCircle
 10
-327.8496192822
 20
168.9200336716
 30
0.0
 40
7.249999999999988
100
AcDbArc
 50
116.2915552747
 51
123.7084447253
  0
LINE
  5
24E
330
21D
100
AcDbEntity
  8
H658VIS_HM8X26
  6
Continuous
 62
     7
100
AcDbLine
 10
-331.0609274268
 20
175.4200336716
 30
0.0
 11
-329.6696467545
 21
175.4200336716
 31
0.0
  0
LINE
  5
24F
330
21D
100
AcDbEntity
  8
H658VIS_HM8X26
  6
Continuous
 62
     7
100
AcDbLine
 10
-326.0295918098
 20
175.4200336716
 30
0.0
 11
-329.6696467545
 21
175.4200336716
 31
0.0
  0
ARC
  5
250
330
21D
100
AcDbEntity
  8
H658VIS_HM8X26
  6
Continuous
 62
     7
100
AcDbCircle
 10
-327.8496192822
 20
168.9200336716
 30
0.0
 40
6.749999999999989
100
AcDbArc
 50
45.642471013
 51
74.357528987
  0
LINE
  5
251
330
21D
100
AcDbEntity
  8
H658VIS_HM8X26
  6
Continuous
 62
     7
100
AcDbLine
 10
-326.0295918098
 20
175.4200336716
 30
0.0
 11
-324.6383111375
 21
175.4200336716
 31
0.0
  0
ARC
  5
252
330
21D
100
AcDbEntity
  8
H658VIS_HM8X26
  6
Continuous
 62
     7
100
AcDbCircle
 10
-327.8496192822
 20
168.9200336716
 30
0.0
 40
7.249999999999988
100
AcDbArc
 50
56.2915552747
 51
63.7084447253
  0
LINE
  5
253
330
21D
100
AcDbEntity
  8
H658VIS_HM8X26
  6
Continuous
 62
     7
100
AcDbLine
 10
-323.8261082299
 20
174.9511081043
 30
0.0
 11
-323.1304678937
 21
173.7462236982
 31
0.0
  0
LINE
  5
254
330
21D
100
AcDbEntity
  8
H658VIS_HM8X26
  6
Continuous
 62
     7
100
AcDbLine
 10
-329.6696467545
 20
162.4200336716
 30
0.0
 11
-326.0295918098
 21
162.4200336716
 31
0.0
  0
ARC
  5
255
330
21D
100
AcDbEntity
  8
H658VIS_HM8X26
  6
Continuous
 62
     7
100
AcDbCircle
 10
-327.8496192822
 20
168.9200336716
 30
0.0
 40
6.749999999999986
100
AcDbArc
 50
225.642471013
 51
254.357528987
  0
LINE
  5
256
330
21D
100
AcDbEntity
  8
H658VIS_HM8X26
  6
Continuous
 62
     7
100
AcDbLine
 10
-329.6696467545
 20
162.4200336716
 30
0.0
 11
-331.0609274268
 21
162.4200336716
 31
0.0
  0
ARC
  5
257
330
21D
100
AcDbEntity
  8
H658VIS_HM8X26
  6
Continuous
 62
     7
100
AcDbCircle
 10
-327.8496192822
 20
168.9200336716
 30
0.0
 40
7.249999999999987
100
AcDbArc
 50
236.2915552747
 51
243.7084447253
  0
LINE
  5
258
330
21D
100
AcDbEntity
  8
H658VIS_HM8X26
  6
Continuous
 62
     7
100
AcDbLine
 10
-331.8731303344
 20
162.888959239
 30
0.0
 11
-332.5687706706
 21
164.093843645
 31
0.0
  0
LINE
  5
259
330
21D
100
AcDbEntity
  8
H658VIS_HM8X26
  6
Continuous
 62
     7
100
AcDbLine
 10
-323.1304678937
 20
164.093843645
 30
0.0
 11
-321.3104404214
 21
167.2462236982
 31
0.0
  0
ARC
  5
25A
330
21D
100
AcDbEntity
  8
H658VIS_HM8X26
  6
Continuous
 62
     7
100
AcDbCircle
 10
-327.8496192822
 20
168.9200336716
 30
0.0
 40
6.749999999999986
100
AcDbArc
 50
285.642471013
 51
314.357528987
  0
LINE
  5
25B
330
21D
100
AcDbEntity
  8
H658VIS_HM8X26
  6
Continuous
 62
     7
100
AcDbLine
 10
-323.1304678937
 20
164.093843645
 30
0.0
 11
-323.8261082299
 21
162.888959239
 31
0.0
  0
ARC
  5
25C
330
21D
100
AcDbEntity
  8
H658VIS_HM8X26
  6
Continuous
 62
     7
100
AcDbCircle
 10
-327.8496192822
 20
168.9200336716
 30
0.0
 40
7.249999999999987
100
AcDbArc
 50
296.2915552747
 51
303.7084447253
  0
LINE
  5
25D
330
21D
100
AcDbEntity
  8
H658VIS_HM8X26
  6
Continuous
 62
     7
100
AcDbLine
 10
-324.6383111375
 20
162.4200336716
 30
0.0
 11
-326.0295918098
 21
162.4200336716
 31
0.0
  0
CIRCLE
  5
25E
330
21D
100
AcDbEntity
  8
H611RONDELLE_PLA
  6
Continuous
 62
     7
100
AcDbCircle
 10
-327.8496192822
 20
168.9200336716
 30
0.0
 40
8.0
  0
ENDBLK
  5
260
330
21D
100
AcDbEntity
  8
0
100
AcDbBlockEnd
  0
BLOCK
  5
269
330
262
100
AcDbEntity
  8
0
100
AcDbBlockBegin
  2
DMBLK9
 70
     0
 10
0.0
 20
0.0
 30
0.0
  3
DMBLK9
  1
DMBLK9
  0
HATCH
  5
263
330
262
100
AcDbEntity
  8
Cartouche
  6
Continuous
 62
     7
100
AcDbHatch
 10
0.0
 20
0.0
 30
0.0
210
0.0
220
0.0
230
1.0
  2
SOLID
 70
     1
 71
     0
 91
        1
 92
        1
 93
        3
 72
     1
 10
-224.4362418605573
 20
490.4200335673066
 11
-226.436241877942
 21
502.4200336716147
 72
     1
 10
-226.436241877942
 20
502.4200336716147
 11
-228.4362418953266
 21
490.4200335673066
 72
     1
 10
-228.4362418953266
 20
490.4200335673066
 11
-224.4362418605573
 21
490.4200335673066
 97
        0
 75
     0
 76
     1
 98
        0
  0
HATCH
  5
264
330
262
100
AcDbEntity
  8
Cartouche
  6
Continuous
 62
     7
100
AcDbHatch
 10
0.0
 20
0.0
 30
0.0
210
0.0
220
0.0
230
1.0
  2
SOLID
 70
     1
 71
     0
 91
        1
 92
        1
 93
        3
 72
     1
 10
-224.4362418605573
 20
180.92003592169
 11
-228.4362418953266
 21
180.92003592169
 72
     1
 10
-228.4362418953266
 20
180.92003592169
 11
-226.436241877942
 21
168.9200358173819
 72
     1
 10
-226.436241877942
 20
168.9200358173819
 11
-224.4362418605573
 21
180.92003592169
 97
        0
 75
     0
 76
     1
 98
        0
  0
LINE
  5
265
330
262
100
AcDbEntity
  8
Cartouche
  6
Continuous
 62
     7
100
AcDbLine
 10
-369.9496191682
 20
502.4200336716
 30
0.0
 11
-224.8362419184
 21
502.4200336716
 31
0.0
  0
LINE
  5
266
330
262
100
AcDbEntity
  8
Cartouche
  6
Continuous
 62
     7
100
AcDbLine
 10
-259.4496191682
 20
168.9200336716
 30
0.0
 11
-224.8362419184
 21
168.9200336716
 31
0.0
  0
LINE
  5
267
330
262
100
AcDbEntity
  8
Cartouche
  6
Continuous
 62
     7
100
AcDbLine
 10
-226.4362418779
 20
502.4200336716
 30
0.0
 11
-226.4362418779
 21
168.9200358174
 31
0.0
  0
TEXT
  5
268
330
262
100
AcDbEntity
  8
Cartouche
  6
Continuous
 62
     7
100
AcDbText
 10
-228.4362418779
 20
329.6700347445
 30
0.0
 40
8.0
  1
=
 50
90.0
  7
SEACAD_ArialB
 11
-236.4362418779
 21
329.6700347445
 31
0.0
100
AcDbText
 73
     3
  0
ENDBLK
  5
26A
330
262
100
AcDbEntity
  8
0
100
AcDbBlockEnd
  0
BLOCK
  5
273
330
26C
100
AcDbEntity
  8
0
100
AcDbBlockBegin
  2
DMBLK10
 70
     0
 10
0.0
 20
0.0
 30
0.0
  3
DMBLK10
  1
DMBLK10
  0
HATCH
  5
26D
330
26C
100
AcDbEntity
  8
Cartouche
  6
Continuous
 62
     7
100
AcDbHatch
 10
0.0
 20
0.0
 30
0.0
210
0.0
220
0.0
230
1.0
  2
SOLID
 70
     1
 71
     0
 91
        1
 92
        1
 93
        3
 72
     1
 10
-224.4362418605573
 20
-152.5799662240772
 11
-228.4362418953267
 21
-152.5799662240772
 72
     1
 10
-228.4362418953267
 20
-152.5799662240772
 11
-226.436241877942
 21
-164.5799663283854
 72
     1
 10
-226.436241877942
 20
-164.5799663283854
 11
-224.4362418605573
 21
-152.5799662240772
 97
        0
 75
     0
 76
     1
 98
        0
  0
HATCH
  5
26E
330
26C
100
AcDbEntity
  8
Cartouche
  6
Continuous
 62
     7
100
AcDbHatch
 10
0.0
 20
0.0
 30
0.0
210
0.0
220
0.0
230
1.0
  2
SOLID
 70
     1
 71
     0
 91
        1
 92
        1
 93
        3
 72
     1
 10
-224.4362418605573
 20
156.9200314215393
 11
-226.436241877942
 21
168.9200315258474
 72
     1
 10
-226.436241877942
 20
168.9200315258474
 11
-228.4362418953267
 21
156.9200314215393
 72
     1
 10
-228.4362418953267
 20
156.9200314215393
 11
-224.4362418605573
 21
156.9200314215393
 97
        0
 75
     0
 76
     1
 98
        0
  0
LINE
  5
26F
330
26C
100
AcDbEntity
  8
Cartouche
  6
Continuous
 62
     7
100
AcDbLine
 10
-369.9496191682
 20
-164.5799663284
 30
0.0
 11
-224.8362419184
 21
-164.5799663284
 31
0.0
  0
LINE
  5
270
330
26C
100
AcDbEntity
  8
Cartouche
  6
Continuous
 62
     7
100
AcDbLine
 10
-259.4496191682
 20
168.9200336716
 30
0.0
 11
-224.8362419184
 21
168.9200336716
 31
0.0
  0
LINE
  5
271
330
26C
100
AcDbEntity
  8
Cartouche
  6
Continuous
 62
     7
100
AcDbLine
 10
-226.4362418779
 20
-164.5799663284
 30
0.0
 11
-226.4362418779
 21
168.9200315258
 31
0.0
  0
TEXT
  5
272
330
26C
100
AcDbEntity
  8
Cartouche
  6
Continuous
 62
     7
100
AcDbText
 10
-228.4362418779
 20
-3.8299674013
 30
0.0
 40
8.0
  1
=
 50
90.0
  7
SEACAD_ArialB
 11
-236.4362418779
 21
-3.8299674013
 31
0.0
100
AcDbText
 73
     3
  0
ENDBLK
  5
274
330
26C
100
AcDbEntity
  8
0
100
AcDbBlockEnd
  0
ENDSEC
  0
SECTION
  2
ENTITIES
  0
LINE
  5
6F
330
1F
100
AcDbEntity
  8
encadrement
  6
Continuous
 62
     7
100
AcDbLine
 10
10.0
 20
80.035459542
 30
0.0
 11
200.0
 21
80.035459542
 31
0.0
  0
LINE
  5
70
330
1F
100
AcDbEntity
  8
encadrement
  6
Continuous
 62
     7
100
AcDbLine
 10
10.0
 20
65.035459542
 30
0.0
 11
200.0
 21
65.035459542
 31
0.0
  0
LINE
  5
71
330
1F
100
AcDbEntity
  8
encadrement
  6
Continuous
 62
     7
100
AcDbLine
 10
10.0
 20
55.035459542
 30
0.0
 11
200.0
 21
55.035459542
 31
0.0
  0
LINE
  5
72
330
1F
100
AcDbEntity
  8
encadrement
  6
Continuous
 62
     7
100
AcDbLine
 10
10.0
 20
45.035459542
 30
0.0
 11
200.0
 21
45.035459542
 31
0.0
  0
LINE
  5
73
330
1F
100
AcDbEntity
  8
encadrement
  6
Continuous
 62
     7
100
AcDbLine
 10
10.0
 20
35.035459542
 30
0.0
 11
200.0
 21
35.035459542
 31
0.0
  0
INSERT
  5
76
330
1F
100
AcDbEntity
  8
Cartouche
100
AcDbBlockReference
  2
SE
 10
0.0
 20
0.0
 30
0.0
  0
INSERT
  5
DF
330
1F
100
AcDbEntity
  8
Cartouche
100
AcDbBlockReference
  2
SE1
 10
0.0
 20
0.0
 30
0.0
  0
INSERT
  5
122
330
1F
100
AcDbEntity
  8
Cartouche
100
AcDbBlockReference
  2
SE2
 10
0.0
 20
0.0
 30
0.0
  0
DIMENSION
  5
1FE
330
1F
100
AcDbEntity
  8
Cartouche
  6
Continuous
 62
     7
100
AcDbDimension
  2
DMBLK6
 10
392.7034149318
 20
546.2847830436
 30
0.0
 11
101.7034235148
 21
546.2847830436
 31
0.0
 70
   160
  1
\A1;<>
 71
     5
 42
-1.0
 73
     0
 74
     0
 75
     0
  3
presto
100
AcDbAlignedDimension
 13
-189.2965850682
 23
439.9200336716
 33
0.0
 14
392.7034149318
 24
168.9200336716
 34
0.0
100
AcDbRotatedDimension
  0
DIMENSION
  5
209
330
1F
100
AcDbEntity
  8
Cartouche
  6
Continuous
 62
     7
100
AcDbDimension
  2
DMBLK7
 10
432.3017010837
 20
-164.5799663284
 30
0.0
 11
432.3017010837
 21
168.9200358174
 31
0.0
 70
   160
  1
\A1;<>
 71
     5
 42
-1.0
 73
     0
 74
     0
 75
     0
  3
presto
100
AcDbAlignedDimension
 13
330.2034149318
 23
502.4200336716
 33
0.0
 14
101.7034149318
 24
-164.5799663284
 34
0.0
 50
90.0
100
AcDbRotatedDimension
  0
DIMENSION
  5
213
330
1F
100
AcDbEntity
  8
Cartouche
  6
Continuous
 62
     7
100
AcDbDimension
  2
DMBLK8
 10
586.9948313534
 20
546.2847943089
 30
0.0
 11
525.4948330521
 21
546.2847943089
 31
0.0
 70
   160
  1
\A1;125 {}
 71
     5
 42
-1.0
 73
     0
 74
     0
 75
     0
  3
presto
100
AcDbAlignedDimension
 13
463.9948313534
 23
206.4200336716
 33
0.0
 14
586.9948313534
 24
-102.0799663284
 34
0.0
100
AcDbRotatedDimension
  0
INSERT
  5
21E
330
1F
100
AcDbEntity
  8
Cartouche
100
AcDbBlockReference
  2
SE3
 10
0.0
 20
0.0
 30
0.0
  0
DIMENSION
  5
261
330
1F
100
AcDbEntity
  8
Cartouche
  6
Continuous
 62
     7
100
AcDbDimension
  2
DMBLK9
 10
-226.4362418779
 20
168.9200336716
 30
0.0
 11
-226.4362418779
 21
335.6700347445
 31
0.0
 70
   160
  1
\A1;= {}
 71
     5
 42
-1.0
 73
     0
 74
     0
 75
     0
  3
presto
100
AcDbAlignedDimension
 13
-372.3496192822
 23
502.4200336716
 33
0.0
 14
-261.8496192822
 24
168.9200336716
 34
0.0
 50
90.0
100
AcDbRotatedDimension
  0
DIMENSION
  5
26B
330
1F
100
AcDbEntity
  8
Cartouche
  6
Continuous
 62
     7
100
AcDbDimension
  2
DMBLK10
 10
-226.4362418779
 20
168.9200336716
 30
0.0
 11
-226.4362418779
 21
2.1700325987
 31
0.0
 70
   160
  1
\A1;= {}
 71
     5
 42
-1.0
 73
     0
 74
     0
 75
     0
  3
presto
100
AcDbAlignedDimension
 13
-372.3496192822
 23
-164.5799663284
 33
0.0
 14
-261.8496192822
 24
168.9200336716
 34
0.0
 50
90.0
100
AcDbRotatedDimension
  0
ENDSEC
  0
SECTION
  2
OBJECTS
  0
DICTIONARY
  5
C
330
0
100
AcDbDictionary
281
     1
  3
ACAD_DETAILVIEWSTYLE
350
2B0
  3
ACAD_GROUP
350
D
  3
ACAD_LAYOUT
350
1A
  3
ACAD_MATERIAL
350
43
  3
ACAD_MLEADERSTYLE
350
6B
  3
ACAD_MLINESTYLE
350
17
  3
ACAD_PLOTSETTINGS
350
19
  3
ACAD_PLOTSTYLENAME
350
E
  3
ACAD_SCALELIST
350
47
  3
ACAD_SECTIONVIEWSTYLE
350
2B1
  3
ACAD_TABLESTYLE
350
69
  3
ACAD_VISUALSTYLE
350
2A
  3
ACDB_RECOMPOSE_DATA
350
2AD
  3
AcDbVariableDictionary
350
275
  0
SUN
  5
6D
330
29
100
AcDbSun
 90
        1
290
     0
 63
     7
421
 16777215
 40
1.0
291
     1
 91
  2455826
 92
 54000000
292
     0
 70
     2
 71
   256
280
     1
  0
DICTIONARY
  5
2B0
102
{ACAD_REACTORS
330
C
102
}
330
C
100
AcDbDictionary
281
     1
  0
DICTIONARY
  5
D
102
{ACAD_REACTORS
330
C
102
}
330
C
100
AcDbDictionary
281
     1
  0
DICTIONARY
  5
1A
102
{ACAD_REACTORS
330
C
102
}
330
C
100
AcDbDictionary
281
     1
  3
Layout1
350
1E
  3
Model
350
22
  0
DICTIONARY
  5
43
102
{ACAD_REACTORS
330
C
102
}
330
C
100
AcDbDictionary
281
     1
  3
ByBlock
350
45
  3
ByLayer
350
44
  3
Global
350
46
  0
DICTIONARY
  5
6B
102
{ACAD_REACTORS
330
C
102
}
330
C
100
AcDbDictionary
281
     1
  3
Standard
350
6C
  0
DICTIONARY
  5
17
102
{ACAD_REACTORS
330
C
102
}
330
C
100
AcDbDictionary
281
     1
  3
Standard
350
18
  0
DICTIONARY
  5
19
102
{ACAD_REACTORS
330
C
102
}
330
C
100
AcDbDictionary
281
     1
  0
ACDBDICTIONARYWDFLT
  5
E
102
{ACAD_REACTORS
330
C
102
}
330
C
100
AcDbDictionary
281
     1
  3
Normal
350
F
100
AcDbDictionaryWithDefault
340
F
  0
DICTIONARY
  5
47
102
{ACAD_REACTORS
330
C
102
}
330
C
100
AcDbDictionary
281
     1
  3
A0
350
48
  3
A1
350
49
  3
A2
350
4A
  3
A3
350
4B
  3
A4
350
4C
  3
A5
350
4D
  3
A6
350
4E
  3
A7
350
4F
  3
A8
350
50
  3
A9
350
51
  3
B0
350
52
  3
B1
350
53
  3
B2
350
54
  3
B3
350
55
  3
B4
350
56
  3
B5
350
57
  3
B6
350
58
  3
B7
350
59
  3
B8
350
5A
  3
B9
350
5B
  3
C0
350
5C
  3
C1
350
5D
  3
C2
350
5E
  3
C3
350
5F
  3
C4
350
60
  3
C5
350
61
  3
C6
350
62
  3
C7
350
63
  3
C8
350
64
  3
C9
350
65
  3
D0
350
66
  3
D1
350
67
  3
D2
350
68
  0
DICTIONARY
  5
2B1
102
{ACAD_REACTORS
330
C
102
}
330
C
100
AcDbDictionary
281
     1
  0
DICTIONARY
  5
69
102
{ACAD_REACTORS
330
C
102
}
330
C
100
AcDbDictionary
281
     1
  3
Standard
350
6A
  0
DICTIONARY
  5
2A
102
{ACAD_REACTORS
330
C
102
}
330
C
100
AcDbDictionary
281
     1
  3
2dWireframe
350
2F
  3
Basic
350
32
  3
Brighten
350
36
  3
ColorChange
350
3A
  3
Conceptual
350
34
  3
Dim
350
35
  3
EdgeColorOff
350
3D
  3
Facepattern
350
39
  3
Flat
350
2B
  3
FlatWithEdges
350
2C
  3
Gouraud
350
2D
  3
GouraudWithEdges
350
2E
  3
Hidden
350
31
  3
JitterOff
350
3B
  3
Linepattern
350
38
  3
OverhangOff
350
3C
  3
Realistic
350
33
  3
Shaded
350
42
  3
Shaded with edges
350
41
  3
Shades of Gray
350
3E
  3
Sketchy
350
3F
  3
Thicken
350
37
  3
Wireframe
350
30
  3
X-Ray
350
40
  0
XRECORD
  5
2AD
102
{ACAD_REACTORS
330
C
102
}
330
C
100
AcDbXrecord
280
     1
 90
        1
330
6A
  0
DICTIONARY
  5
275
102
{ACAD_REACTORS
330
C
102
}
330
C
100
AcDbDictionary
281
     1
  3
CANNOSCALE
350
276
  3
CMLEADERSTYLE
350
2AF
  3
CTABLESTYLE
350
2AE
  3
XCLIPFRAME
350
277
  0
LAYOUT
  5
1E
102
{ACAD_REACTORS
330
1A
102
}
330
1A
100
AcDbPlotSettings
  1

  2
none_device
  4

  6

 40
0.0
 41
0.0
 42
0.0
 43
0.0
 44
0.0
 45
0.0
 46
0.0
 47
0.0
 48
0.0
 49
0.0
140
0.0
141
0.0
142
1.0
143
1.0
 70
   688
 72
     1
 73
     0
 74
     5
  7

 75
    16
 76
     0
 77
     2
 78
   300
147
1.0
148
0.0
149
0.0
100
AcDbLayout
  1
Layout1
 70
     1
 71
     1
 10
0.0
 20
0.0
 11
210.0
 21
297.0
 12
0.0
 22
0.0
 32
0.0
 14
0.0
 24
0.0
 34
0.0
 15
210.0
 25
297.0
 35
0.0
146
0.0
 13
0.0
 23
0.0
 33
0.0
 16
1.0
 26
0.0
 36
0.0
 17
0.0
 27
1.0
 37
0.0
 76
     0
330
1B
  0
LAYOUT
  5
22
102
{ACAD_REACTORS
330
1A
102
}
330
1A
100
AcDbPlotSettings
  1

  2
none_device
  4
Letter_(8.50_x_11.00_Inches)
  6

 40
6.35
 41
6.35
 42
6.35000508
 43
6.35000508
 44
215.9
 45
279.4
 46
0.0
 47
0.0
 48
0.0
 49
0.0
140
0.0
141
0.0
142
1.0
143
1.0
 70
  1712
 72
     1
 73
     0
 74
     0
  7

 75
     0
 76
     0
 77
     2
 78
   300
147
1.0
148
0.0
149
0.0
100
AcDbLayout
  1
Model
 70
     1
 71
     0
 10
0.0
 20
0.0
 11
210.0
 21
297.0
 12
0.0
 22
0.0
 32
0.0
 14
0.0
 24
0.0
 34
0.0
 15
210.0
 25
297.0
 35
0.0
146
0.0
 13
0.0
 23
0.0
 33
0.0
 16
1.0
 26
0.0
 36
0.0
 17
0.0
 27
1.0
 37
0.0
 76
     0
330
1F
331
29
  0
MATERIAL
  5
45
102
{ACAD_REACTORS
330
43
102
}
330
43
100
AcDbMaterial
  1
ByBlock
 72
     1
 94
      127
  0
MATERIAL
  5
44
102
{ACAD_REACTORS
330
43
102
}
330
43
100
AcDbMaterial
  1
ByLayer
 72
     1
 94
      127
  0
MATERIAL
  5
46
102
{ACAD_REACTORS
330
43
102
}
330
43
100
AcDbMaterial
  1
Global
 72
     1
 94
      127
  0
MLEADERSTYLE
  5
6C
102
{ACAD_REACTORS
330
6B
102
}
102
{ACAD_XDICTIONARY
360
2AB
102
}
330
6B
100
AcDbMLeaderStyle
170
     2
171
     1
172
     0
 90
        2
 40
0.0
 41
0.0
173
     1
 91
-1056964608
340
14
 92
       -2
290
     1
 42
2.0
291
     1
 43
8.0
  3
Standard
341
0
 44
4.0
300

342
11
174
     1
178
     6
175
     1
176
     0
 93
-1056964608
 45
4.0
292
     0
297
     0
 46
4.0
343
0
 94
-1056964608
 47
1.0
 49
1.0
140
1.0
293
     1
141
0.0
294
     1
177
     0
142
1.0
295
     0
296
     0
143
3.75
1001
ACAD_MLEADERVER
1070
     2
  0
MLINESTYLE
  5
18
102
{ACAD_REACTORS
330
17
102
}
330
17
100
AcDbMlineStyle
  2
Standard
 70
     0
  3

 62
   256
 51
90.0
 52
90.0
 71
     2
 49
0.5
 62
   256
  6
BYLAYER
 49
-0.5
 62
   256
  6
BYLAYER
  0
ACDBPLACEHOLDER
  5
F
102
{ACAD_REACTORS
330
E
102
}
330
E
  0
SCALE
  5
48
102
{ACAD_REACTORS
330
47
102
}
330
47
100
AcDbScale
 70
     0
300
1:1
140
1.0
141
1.0
290
     1
  0
SCALE
  5
49
102
{ACAD_REACTORS
330
47
102
}
330
47
100
AcDbScale
 70
     0
300
1:2
140
1.0
141
2.0
290
     0
  0
SCALE
  5
4A
102
{ACAD_REACTORS
330
47
102
}
330
47
100
AcDbScale
 70
     0
300
1:4
140
1.0
141
4.0
290
     0
  0
SCALE
  5
4B
102
{ACAD_REACTORS
330
47
102
}
330
47
100
AcDbScale
 70
     0
300
1:5
140
1.0
141
5.0
290
     0
  0
SCALE
  5
4C
102
{ACAD_REACTORS
330
47
102
}
330
47
100
AcDbScale
 70
     0
300
1:8
140
1.0
141
8.0
290
     0
  0
SCALE
  5
4D
102
{ACAD_REACTORS
330
47
102
}
330
47
100
AcDbScale
 70
     0
300
1:10
140
1.0
141
10.0
290
     0
  0
SCALE
  5
4E
102
{ACAD_REACTORS
330
47
102
}
330
47
100
AcDbScale
 70
     0
300
1:16
140
1.0
141
16.0
290
     0
  0
SCALE
  5
4F
102
{ACAD_REACTORS
330
47
102
}
330
47
100
AcDbScale
 70
     0
300
1:20
140
1.0
141
20.0
290
     0
  0
SCALE
  5
50
102
{ACAD_REACTORS
330
47
102
}
330
47
100
AcDbScale
 70
     0
300
1:30
140
1.0
141
30.0
290
     0
  0
SCALE
  5
51
102
{ACAD_REACTORS
330
47
102
}
330
47
100
AcDbScale
 70
     0
300
1:40
140
1.0
141
40.0
290
     0
  0
SCALE
  5
52
102
{ACAD_REACTORS
330
47
102
}
330
47
100
AcDbScale
 70
     0
300
1:50
140
1.0
141
50.0
290
     0
  0
SCALE
  5
53
102
{ACAD_REACTORS
330
47
102
}
330
47
100
AcDbScale
 70
     0
300
1:100
140
1.0
141
100.0
290
     0
  0
SCALE
  5
54
102
{ACAD_REACTORS
330
47
102
}
330
47
100
AcDbScale
 70
     0
300
2:1
140
2.0
141
1.0
290
     0
  0
SCALE
  5
55
102
{ACAD_REACTORS
330
47
102
}
330
47
100
AcDbScale
 70
     0
300
4:1
140
4.0
141
1.0
290
     0
  0
SCALE
  5
56
102
{ACAD_REACTORS
330
47
102
}
330
47
100
AcDbScale
 70
     0
300
8:1
140
8.0
141
1.0
290
     0
  0
SCALE
  5
57
102
{ACAD_REACTORS
330
47
102
}
330
47
100
AcDbScale
 70
     0
300
10:1
140
10.0
141
1.0
290
     0
  0
SCALE
  5
58
102
{ACAD_REACTORS
330
47
102
}
330
47
100
AcDbScale
 70
     0
300
100:1
140
100.0
141
1.0
290
     0
  0
SCALE
  5
59
102
{ACAD_REACTORS
330
47
102
}
330
47
100
AcDbScale
 70
     0
300
1/128" = 1'-0"
140
0.0078125
141
12.0
290
     0
  0
SCALE
  5
5A
102
{ACAD_REACTORS
330
47
102
}
330
47
100
AcDbScale
 70
     0
300
1/64" = 1'-0"
140
0.015625
141
12.0
290
     0
  0
SCALE
  5
5B
102
{ACAD_REACTORS
330
47
102
}
330
47
100
AcDbScale
 70
     0
300
1/32" = 1'-0"
140
0.03125
141
12.0
290
     0
  0
SCALE
  5
5C
102
{ACAD_REACTORS
330
47
102
}
330
47
100
AcDbScale
 70
     0
300
1/16" = 1'-0"
140
0.0625
141
12.0
290
     0
  0
SCALE
  5
5D
102
{ACAD_REACTORS
330
47
102
}
330
47
100
AcDbScale
 70
     0
300
3/32" = 1'-0"
140
0.09375
141
12.0
290
     0
  0
SCALE
  5
5E
102
{ACAD_REACTORS
330
47
102
}
330
47
100
AcDbScale
 70
     0
300
1/8" = 1'-0"
140
0.125
141
12.0
290
     0
  0
SCALE
  5
5F
102
{ACAD_REACTORS
330
47
102
}
330
47
100
AcDbScale
 70
     0
300
3/16" = 1'-0"
140
0.1875
141
12.0
290
     0
  0
SCALE
  5
60
102
{ACAD_REACTORS
330
47
102
}
330
47
100
AcDbScale
 70
     0
300
1/4" = 1'-0"
140
0.25
141
12.0
290
     0
  0
SCALE
  5
61
102
{ACAD_REACTORS
330
47
102
}
330
47
100
AcDbScale
 70
     0
300
3/8" = 1'-0"
140
0.375
141
12.0
290
     0
  0
SCALE
  5
62
102
{ACAD_REACTORS
330
47
102
}
330
47
100
AcDbScale
 70
     0
300
1/2" = 1'-0"
140
0.5
141
12.0
290
     0
  0
SCALE
  5
63
102
{ACAD_REACTORS
330
47
102
}
330
47
100
AcDbScale
 70
     0
300
3/4" = 1'-0"
140
0.75
141
12.0
290
     0
  0
SCALE
  5
64
102
{ACAD_REACTORS
330
47
102
}
330
47
100
AcDbScale
 70
     0
300
1" = 1'-0"
140
1.0
141
12.0
290
     0
  0
SCALE
  5
65
102
{ACAD_REACTORS
330
47
102
}
330
47
100
AcDbScale
 70
     0
300
1-1/2" = 1'-0"
140
1.5
141
12.0
290
     0
  0
SCALE
  5
66
102
{ACAD_REACTORS
330
47
102
}
330
47
100
AcDbScale
 70
     0
300
3" = 1'-0"
140
3.0
141
12.0
290
     0
  0
SCALE
  5
67
102
{ACAD_REACTORS
330
47
102
}
330
47
100
AcDbScale
 70
     0
300
6" = 1'-0"
140
6.0
141
12.0
290
     0
  0
SCALE
  5
68
102
{ACAD_REACTORS
330
47
102
}
330
47
100
AcDbScale
 70
     0
300
1'-0" = 1'-0"
140
12.0
141
12.0
290
     0
  0
TABLESTYLE
  5
6A
102
{ACAD_REACTORS
330
69
102
}
102
{ACAD_XDICTIONARY
360
2A8
102
}
330
69
100
AcDbTableStyle
  3
Standard
 70
     0
 71
     0
 40
0.06
 41
0.06
280
     0
281
     0
  7
Standard
140
4.5
170
     2
 62
     0
 63
   257
283
     0
 90
        4
 91
        0
  1

274
    -2
284
     1
 64
     0
275
    -2
285
     1
 65
     0
276
    -2
286
     1
 66
     0
277
    -2
287
     1
 67
     0
278
    -2
288
     1
 68
     0
279
    -2
289
     1
 69
     0
  7
Standard
140
6.0
170
     5
 62
     0
 63
   257
283
     0
 90
        4
 91
        0
  1

274
    -2
284
     1
 64
     0
275
    -2
285
     1
 65
     0
276
    -2
286
     1
 66
     0
277
    -2
287
     1
 67
     0
278
    -2
288
     1
 68
     0
279
    -2
289
     1
 69
     0
  7
Standard
140
4.5
170
     5
 62
     0
 63
   257
283
     0
 90
        4
 91
        0
  1

274
    -2
284
     1
 64
     0
275
    -2
285
     1
 65
     0
276
    -2
286
     1
 66
     0
277
    -2
287
     1
 67
     0
278
    -2
288
     1
 68
     0
279
    -2
289
     1
 69
     0
  0
VISUALSTYLE
  5
2F
102
{ACAD_REACTORS
330
2A
102
}
102
{ACAD_XDICTIONARY
360
280
102
}
330
2A
100
AcDbVisualStyle
  2
2dWireframe
 70
     4
 71
     0
 72
     2
 73
     0
 90
        0
 40
0.6
 41
30.0
 62
     5
 63
     7
421
 16777215
 74
     1
 91
        4
 64
     7
 65
   257
 75
     1
175
     1
 42
1.0
 92
        0
 66
   257
 43
1.0
 76
     1
 77
     6
 78
     2
 67
     7
 79
     5
170
     0
171
     0
290
     0
174
     0
 93
        1
 44
0.0
173
     0
291
     0
 45
0.0
  0
VISUALSTYLE
  5
32
102
{ACAD_REACTORS
330
2A
102
}
102
{ACAD_XDICTIONARY
360
286
102
}
330
2A
100
AcDbVisualStyle
  2
Basic
 70
     7
 71
     1
 72
     0
 73
     1
 90
        0
 40
0.6
 41
30.0
 62
     5
 63
     7
421
 16777215
 74
     0
 91
        4
 64
     7
 65
   257
 75
     1
175
     1
 42
1.0
 92
        8
 66
     7
 43
1.0
 76
     1
 77
     6
 78
     2
 67
     7
 79
     5
170
     0
171
     0
290
     0
174
     0
 93
        1
 44
0.0
173
     0
291
     1
 45
0.0
  0
VISUALSTYLE
  5
36
102
{ACAD_REACTORS
330
2A
102
}
102
{ACAD_XDICTIONARY
360
28E
102
}
330
2A
100
AcDbVisualStyle
  2
Brighten
 70
    12
 71
     2
 72
     2
 73
     0
 90
        0
 40
0.6
 41
30.0
 62
     5
 63
     7
421
 16777215
 74
     1
 91
        4
 64
     7
 65
   257
 75
     1
175
     1
 42
1.0
 92
        8
 66
     7
 43
1.0
 76
     1
 77
     6
 78
     2
 67
     7
 79
     5
170
     0
171
     0
290
     0
174
     0
 93
        1
 44
50.0
173
     0
291
     1
 45
0.0
  0
VISUALSTYLE
  5
3A
102
{ACAD_REACTORS
330
2A
102
}
102
{ACAD_XDICTIONARY
360
296
102
}
330
2A
100
AcDbVisualStyle
  2
ColorChange
 70
    16
 71
     2
 72
     2
 73
     3
 90
        0
 40
0.6
 41
30.0
 62
     5
 63
     8
421
  8421504
 74
     1
 91
        4
 64
     7
 65
   257
 75
     1
175
     1
 42
1.0
 92
        8
 66
     8
424
  8421504
 43
1.0
 76
     1
 77
     6
 78
     2
 67
     7
 79
     5
170
     0
171
     0
290
     0
174
     0
 93
        1
 44
0.0
173
     0
291
     1
 45
0.0
  0
VISUALSTYLE
  5
34
102
{ACAD_REACTORS
330
2A
102
}
102
{ACAD_XDICTIONARY
360
28A
102
}
330
2A
100
AcDbVisualStyle
  2
Conceptual
 70
     9
 71
     3
 72
     2
 73
     0
 90
        0
 40
0.6
 41
30.0
 62
     5
 63
     7
421
 16777215
 74
     2
 91
        2
 64
     7
 65
   257
 75
     1
175
     1
 42
179.0
 92
        8
 66
     7
 43
1.0
 76
     1
 77
     6
 78
     2
 67
     7
 79
     3
170
     0
171
     0
290
     0
174
     0
 93
        1
 44
0.0
173
     0
291
     0
 45
0.0
  0
VISUALSTYLE
  5
35
102
{ACAD_REACTORS
330
2A
102
}
102
{ACAD_XDICTIONARY
360
28C
102
}
330
2A
100
AcDbVisualStyle
  2
Dim
 70
    11
 71
     2
 72
     2
 73
     0
 90
        0
 40
0.6
 41
30.0
 62
     5
 63
     7
421
 16777215
 74
     1
 91
        4
 64
     7
 65
   257
 75
     1
175
     1
 42
1.0
 92
        8
 66
     7
 43
1.0
 76
     1
 77
     6
 78
     2
 67
     7
 79
     5
170
     0
171
     0
290
     0
174
     0
 93
        1
 44
-50.0
173
     0
291
     1
 45
0.0
  0
VISUALSTYLE
  5
3D
102
{ACAD_REACTORS
330
2A
102
}
102
{ACAD_XDICTIONARY
360
29C
102
}
330
2A
100
AcDbVisualStyle
  2
EdgeColorOff
 70
    22
 71
     2
 72
     2
 73
     0
 90
        0
 40
0.6
 41
30.0
 62
     5
 63
     7
421
 16777215
 74
     1
 91
        4
 64
     7
 65
   257
 75
     1
175
     1
 42
1.0
 92
        8
 66
     7
 43
1.0
 76
     1
 77
     6
 78
     2
 67
     7
 79
     5
170
     0
171
     0
290
     0
174
     0
 93
        1
 44
0.0
173
     0
291
     1
 45
0.0
  0
VISUALSTYLE
  5
39
102
{ACAD_REACTORS
330
2A
102
}
102
{ACAD_XDICTIONARY
360
294
102
}
330
2A
100
AcDbVisualStyle
  2
Facepattern
 70
    15
 71
     2
 72
     2
 73
     0
 90
        0
 40
0.6
 41
30.0
 62
     5
 63
     7
421
 16777215
 74
     1
 91
        4
 64
     7
 65
   257
 75
     1
175
     1
 42
1.0
 92
        8
 66
     7
 43
1.0
 76
     1
 77
     6
 78
     2
 67
     7
 79
     5
170
     0
171
     0
290
     0
174
     0
 93
        1
 44
0.0
173
     0
291
     1
 45
0.0
  0
VISUALSTYLE
  5
2B
102
{ACAD_REACTORS
330
2A
102
}
102
{ACAD_XDICTIONARY
360
278
102
}
330
2A
100
AcDbVisualStyle
  2
Flat
 70
     0
 71
     2
 72
     1
 73
     1
 90
        2
 40
0.6
 41
30.0
 62
     5
 63
     7
421
 16777215
 74
     0
 91
        0
 64
     7
 65
   257
 75
     1
175
     1
 42
1.0
 92
        8
 66
     7
 43
1.0
 76
     1
 77
     6
 78
     2
 67
     7
 79
     5
170
     0
171
     0
290
     0
174
     0
 93
       13
 44
0.0
173
     0
291
     1
 45
0.0
  0
VISUALSTYLE
  5
2C
102
{ACAD_REACTORS
330
2A
102
}
102
{ACAD_XDICTIONARY
360
27A
102
}
330
2A
100
AcDbVisualStyle
  2
FlatWithEdges
 70
     1
 71
     2
 72
     1
 73
     1
 90
        2
 40
0.6
 41
30.0
 62
     5
 63
     7
421
 16777215
 74
     1
 91
        0
 64
     7
 65
   257
 75
     1
175
     1
 42
1.0
 92
        0
 66
   257
 43
1.0
 76
     1
 77
     6
 78
     2
 67
     7
 79
     5
170
     0
171
     0
290
     0
174
     0
 93
       13
 44
0.0
173
     0
291
     1
 45
0.0
  0
VISUALSTYLE
  5
2D
102
{ACAD_REACTORS
330
2A
102
}
102
{ACAD_XDICTIONARY
360
27C
102
}
330
2A
100
AcDbVisualStyle
  2
Gouraud
 70
     2
 71
     2
 72
     2
 73
     1
 90
        2
 40
0.6
 41
30.0
 62
     5
 63
     7
421
 16777215
 74
     0
 91
        0
 64
     7
 65
   257
 75
     1
175
     1
 42
1.0
 92
        0
 66
     7
 43
1.0
 76
     1
 77
     6
 78
     2
 67
     7
 79
     5
170
     0
171
     0
290
     0
174
     0
 93
       13
 44
0.0
173
     0
291
     1
 45
0.0
  0
VISUALSTYLE
  5
2E
102
{ACAD_REACTORS
330
2A
102
}
102
{ACAD_XDICTIONARY
360
27E
102
}
330
2A
100
AcDbVisualStyle
  2
GouraudWithEdges
 70
     3
 71
     2
 72
     2
 73
     1
 90
        2
 40
0.6
 41
30.0
 62
     5
 63
     7
421
 16777215
 74
     1
 91
        0
 64
     7
 65
   257
 75
     1
175
     1
 42
1.0
 92
        0
 66
   257
 43
1.0
 76
     1
 77
     6
 78
     2
 67
     7
 79
     5
170
     0
171
     0
290
     0
174
     0
 93
       13
 44
0.0
173
     0
291
     1
 45
0.0
  0
VISUALSTYLE
  5
31
102
{ACAD_REACTORS
330
2A
102
}
102
{ACAD_XDICTIONARY
360
284
102
}
330
2A
100
AcDbVisualStyle
  2
Hidden
 70
     6
 71
     1
 72
     2
 73
     2
 90
        0
 40
0.6
 41
30.0
 62
     5
 63
     7
421
 16777215
 74
     2
 91
        2
 64
     7
 65
   257
 75
     2
175
     1
 42
40.0
 92
        0
 66
   257
 43
1.0
 76
     1
 77
     6
 78
     2
 67
     7
 79
     3
170
     0
171
     0
290
     0
174
     0
 93
        1
 44
0.0
173
     0
291
     0
 45
0.0
  0
VISUALSTYLE
  5
3B
102
{ACAD_REACTORS
330
2A
102
}
102
{ACAD_XDICTIONARY
360
298
102
}
330
2A
100
AcDbVisualStyle
  2
JitterOff
 70
    20
 71
     2
 72
     2
 73
     0
 90
        0
 40
0.6
 41
30.0
 62
     5
 63
     7
421
 16777215
 74
     1
 91
        4
 64
     7
 65
   257
 75
     1
175
     1
 42
1.0
 92
       10
 66
     7
 43
1.0
 76
     1
 77
     6
 78
     2
 67
     7
 79
     5
170
     0
171
     0
290
     0
174
     0
 93
        1
 44
0.0
173
     0
291
     1
 45
0.0
  0
VISUALSTYLE
  5
38
102
{ACAD_REACTORS
330
2A
102
}
102
{ACAD_XDICTIONARY
360
292
102
}
330
2A
100
AcDbVisualStyle
  2
Linepattern
 70
    14
 71
     2
 72
     2
 73
     0
 90
        0
 40
0.6
 41
30.0
 62
     5
 63
     7
421
 16777215
 74
     1
 91
        4
 64
     7
 65
   257
 75
     7
175
     7
 42
1.0
 92
        8
 66
     7
 43
1.0
 76
     1
 77
     6
 78
     2
 67
     7
 79
     5
170
     0
171
     0
290
     0
174
     0
 93
        1
 44
0.0
173
     0
291
     1
 45
0.0
  0
VISUALSTYLE
  5
3C
102
{ACAD_REACTORS
330
2A
102
}
102
{ACAD_XDICTIONARY
360
29A
102
}
330
2A
100
AcDbVisualStyle
  2
OverhangOff
 70
    21
 71
     2
 72
     2
 73
     0
 90
        0
 40
0.6
 41
30.0
 62
     5
 63
     7
421
 16777215
 74
     1
 91
        4
 64
     7
 65
   257
 75
     1
175
     1
 42
1.0
 92
        9
 66
     7
 43
1.0
 76
     1
 77
     6
 78
     2
 67
     7
 79
     5
170
     0
171
     0
290
     0
174
     0
 93
        1
 44
0.0
173
     0
291
     1
 45
0.0
  0
VISUALSTYLE
  5
33
102
{ACAD_REACTORS
330
2A
102
}
102
{ACAD_XDICTIONARY
360
288
102
}
330
2A
100
AcDbVisualStyle
  2
Realistic
 70
     8
 71
     2
 72
     3
 73
     0
 90
        2
 40
0.6
 41
30.0
 62
     5
 63
     7
421
 16777215
 74
     0
 91
        0
 64
     7
 65
   257
 75
     1
175
     1
 42
1.0
 92
        8
 66
   257
 43
1.0
 76
     1
 77
     6
 78
     2
 67
     7
 79
     3
170
     0
171
     0
290
     0
174
     0
 93
       13
 44
0.0
173
     0
291
     0
 45
0.0
  0
VISUALSTYLE
  5
42
102
{ACAD_REACTORS
330
2A
102
}
102
{ACAD_XDICTIONARY
360
2A6
102
}
330
2A
100
AcDbVisualStyle
  2
Shaded
 70
    27
 71
     2
 72
     2
 73
     1
 90
        2
 40
0.6
 41
30.0
 62
     5
 63
     7
421
 16777215
 74
     0
 91
        4
 64
     7
 65
   257
 75
     1
175
     1
 42
1.0
 92
        8
 66
   257
 43
1.0
 76
     1
 77
     6
 78
     2
 67
     8
425
  7895160
 79
     3
170
     0
171
     0
290
     0
174
     0
 93
        5
 44
0.0
173
     0
291
     0
 45
0.0
  0
VISUALSTYLE
  5
41
102
{ACAD_REACTORS
330
2A
102
}
102
{ACAD_XDICTIONARY
360
2A4
102
}
330
2A
100
AcDbVisualStyle
  2
Shaded with edges
 70
    26
 71
     2
 72
     2
 73
     1
 90
        2
 40
0.6
 41
30.0
 62
     5
 63
     7
421
 16777215
 74
     1
 91
       10
 64
     7
 65
   257
 75
     2
175
     1
 42
1.0
 92
        8
 66
   257
 43
1.0
 76
     1
 77
     6
 78
     2
 67
     7
 79
     3
170
     0
171
     0
290
     0
174
     0
 93
        5
 44
0.0
173
     0
291
     0
 45
0.0
  0
VISUALSTYLE
  5
3E
102
{ACAD_REACTORS
330
2A
102
}
102
{ACAD_XDICTIONARY
360
29E
102
}
330
2A
100
AcDbVisualStyle
  2
Shades of Gray
 70
    23
 71
     2
 72
     2
 73
     3
 90
        0
 40
0.6
 41
30.0
 62
     5
 63
     7
421
 16777215
 74
     2
 91
        2
 64
     7
 65
     7
 75
     1
175
     1
 42
40.0
 92
        8
 66
     7
 43
1.0
 76
     1
 77
     6
 78
     2
 67
     7
 79
     3
170
     0
171
     0
290
     0
174
     0
 93
        1
 44
0.0
173
     0
291
     0
 45
0.0
  0
VISUALSTYLE
  5
3F
102
{ACAD_REACTORS
330
2A
102
}
102
{ACAD_XDICTIONARY
360
2A0
102
}
330
2A
100
AcDbVisualStyle
  2
Sketchy
 70
    24
 71
     1
 72
     2
 73
     2
 90
        0
 40
0.6
 41
30.0
 62
     5
 63
     7
421
 16777215
 74
     2
 91
        2
 64
     7
 65
     7
 75
     1
175
     1
 42
40.0
 92
       11
 66
     7
 43
1.0
 76
     1
 77
     6
 78
     2
 67
     7
 79
     6
170
     0
171
     0
290
     0
174
     0
 93
        1
 44
0.0
173
     0
291
     0
 45
0.0
  0
VISUALSTYLE
  5
37
102
{ACAD_REACTORS
330
2A
102
}
102
{ACAD_XDICTIONARY
360
290
102
}
330
2A
100
AcDbVisualStyle
  2
Thicken
 70
    13
 71
     2
 72
     2
 73
     0
 90
        0
 40
0.6
 41
30.0
 62
     5
 63
     7
421
 16777215
 74
     1
 91
        4
 64
     7
 65
   257
 75
     1
175
     1
 42
1.0
 92
       12
 66
     7
 43
1.0
 76
     1
 77
     6
 78
     2
 67
     7
 79
     5
170
     0
171
     0
290
     0
174
     0
 93
        1
 44
0.0
173
     0
291
     1
 45
0.0
  0
VISUALSTYLE
  5
30
102
{ACAD_REACTORS
330
2A
102
}
102
{ACAD_XDICTIONARY
360
282
102
}
330
2A
100
AcDbVisualStyle
  2
Wireframe
 70
     5
 71
     0
 72
     2
 73
     0
 90
        0
 40
0.6
 41
30.0
 62
     5
 63
     7
421
 16777215
 74
     1
 91
        4
 64
     7
 65
   257
 75
     1
175
     1
 42
1.0
 92
        0
 66
   257
 43
1.0
 76
     1
 77
     6
 78
     2
 67
     7
 79
     3
170
     0
171
     0
290
     0
174
     0
 93
        1
 44
0.0
173
     0
291
     0
 45
0.0
  0
VISUALSTYLE
  5
40
102
{ACAD_REACTORS
330
2A
102
}
102
{ACAD_XDICTIONARY
360
2A2
102
}
330
2A
100
AcDbVisualStyle
  2
X-Ray
 70
    25
 71
     2
 72
     2
 73
     1
 90
        1
 40
0.5
 41
30.0
 62
     5
 63
     7
421
 16777215
 74
     1
 91
        0
 64
     7
 65
   257
 75
     1
175
     1
 42
1.0
 92
        8
 66
     7
 43
1.0
 76
     1
 77
     6
 78
     2
 67
     7
 79
     3
170
     0
171
     0
290
     0
174
     0
 93
       13
 44
0.0
173
     0
291
     0
 45
0.0
  0
DICTIONARYVAR
  5
276
102
{ACAD_REACTORS
330
275
102
}
330
275
100
DictionaryVariables
280
     0
  1
1:1
  0
DICTIONARYVAR
  5
2AF
102
{ACAD_REACTORS
330
275
102
}
330
275
100
DictionaryVariables
280
     0
  1
Standard
  0
DICTIONARYVAR
  5
2AE
102
{ACAD_REACTORS
330
275
102
}
330
275
100
DictionaryVariables
280
     0
  1
Standard
  0
DICTIONARYVAR
  5
277
102
{ACAD_REACTORS
330
275
102
}
330
275
100
DictionaryVariables
280
     0
  1
2
  0
DICTIONARY
  5
2AB
330
6C
100
AcDbDictionary
280
     1
281
     1
  3
ACAD_XREC_ROUNDTRIP
360
2AC
  0
DICTIONARY
  5
2A8
330
6A
100
AcDbDictionary
280
     1
281
     1
  3
ACAD_ROUNDTRIP_2008_TABLESTYLE_CELLSTYLEMAP
360
2A9
  0
DICTIONARY
  5
280
330
2F
100
AcDbDictionary
280
     1
281
     1
  3
ACAD_XREC_ROUNDTRIP
360
281
  0
DICTIONARY
  5
286
330
32
100
AcDbDictionary
280
     1
281
     1
  3
ACAD_XREC_ROUNDTRIP
360
287
  0
DICTIONARY
  5
28E
330
36
100
AcDbDictionary
280
     1
281
     1
  3
ACAD_XREC_ROUNDTRIP
360
28F
  0
DICTIONARY
  5
296
330
3A
100
AcDbDictionary
280
     1
281
     1
  3
ACAD_XREC_ROUNDTRIP
360
297
  0
DICTIONARY
  5
28A
330
34
100
AcDbDictionary
280
     1
281
     1
  3
ACAD_XREC_ROUNDTRIP
360
28B
  0
DICTIONARY
  5
28C
330
35
100
AcDbDictionary
280
     1
281
     1
  3
ACAD_XREC_ROUNDTRIP
360
28D
  0
DICTIONARY
  5
29C
330
3D
100
AcDbDictionary
280
     1
281
     1
  3
ACAD_XREC_ROUNDTRIP
360
29D
  0
DICTIONARY
  5
294
330
39
100
AcDbDictionary
280
     1
281
     1
  3
ACAD_XREC_ROUNDTRIP
360
295
  0
DICTIONARY
  5
278
330
2B
100
AcDbDictionary
280
     1
281
     1
  3
ACAD_XREC_ROUNDTRIP
360
279
  0
DICTIONARY
  5
27A
330
2C
100
AcDbDictionary
280
     1
281
     1
  3
ACAD_XREC_ROUNDTRIP
360
27B
  0
DICTIONARY
  5
27C
330
2D
100
AcDbDictionary
280
     1
281
     1
  3
ACAD_XREC_ROUNDTRIP
360
27D
  0
DICTIONARY
  5
27E
330
2E
100
AcDbDictionary
280
     1
281
     1
  3
ACAD_XREC_ROUNDTRIP
360
27F
  0
DICTIONARY
  5
284
330
31
100
AcDbDictionary
280
     1
281
     1
  3
ACAD_XREC_ROUNDTRIP
360
285
  0
DICTIONARY
  5
298
330
3B
100
AcDbDictionary
280
     1
281
     1
  3
ACAD_XREC_ROUNDTRIP
360
299
  0
DICTIONARY
  5
292
330
38
100
AcDbDictionary
280
     1
281
     1
  3
ACAD_XREC_ROUNDTRIP
360
293
  0
DICTIONARY
  5
29A
330
3C
100
AcDbDictionary
280
     1
281
     1
  3
ACAD_XREC_ROUNDTRIP
360
29B
  0
DICTIONARY
  5
288
330
33
100
AcDbDictionary
280
     1
281
     1
  3
ACAD_XREC_ROUNDTRIP
360
289
  0
DICTIONARY
  5
2A6
330
42
100
AcDbDictionary
280
     1
281
     1
  3
ACAD_XREC_ROUNDTRIP
360
2A7
  0
DICTIONARY
  5
2A4
330
41
100
AcDbDictionary
280
     1
281
     1
  3
ACAD_XREC_ROUNDTRIP
360
2A5
  0
DICTIONARY
  5
29E
330
3E
100
AcDbDictionary
280
     1
281
     1
  3
ACAD_XREC_ROUNDTRIP
360
29F
  0
DICTIONARY
  5
2A0
330
3F
100
AcDbDictionary
280
     1
281
     1
  3
ACAD_XREC_ROUNDTRIP
360
2A1
  0
DICTIONARY
  5
290
330
37
100
AcDbDictionary
280
     1
281
     1
  3
ACAD_XREC_ROUNDTRIP
360
291
  0
DICTIONARY
  5
282
330
30
100
AcDbDictionary
280
     1
281
     1
  3
ACAD_XREC_ROUNDTRIP
360
283
  0
DICTIONARY
  5
2A2
330
40
100
AcDbDictionary
280
     1
281
     1
  3
ACAD_XREC_ROUNDTRIP
360
2A3
  0
XRECORD
  5
2AC
102
{ACAD_REACTORS
330
2AB
102
}
330
2AB
100
AcDbXrecord
280
     1
102
ACAD_ROUNDTRIP_2010_MLEADER_STYLE
  0
CELLSTYLEMAP
  5
2A9
102
{ACAD_REACTORS
330
2A8
102
}
330
2A8
100
AcDbCellStyleMap
 90
        3
300
CELLSTYLE
  1
TABLEFORMAT_BEGIN
 90
        5
170
     1
 91
        0
 92
    32768
 62
   257
 93
        1
300
CONTENTFORMAT
  1
CONTENTFORMAT_BEGIN
 90
        0
 91
        0
 92
        4
 93
        0
300

 40
0.0
140
1.0
 94
        5
 62
     0
340
11
144
6.0
309
CONTENTFORMAT_END
171
     1
301
MARGIN
  1
CELLMARGIN_BEGIN
 40
1.5
 40
1.5
 40
1.5
 40
1.5
 40
1.5
 40
1.5
309
CELLMARGIN_END
 94
        6
 95
        1
302
GRIDFORMAT
  1
GRIDFORMAT_BEGIN
 90
        0
 91
        1
 62
     0
 92
       -2
340
14
 93
        0
 40
0.045
309
GRIDFORMAT_END
 95
        2
302
GRIDFORMAT
  1
GRIDFORMAT_BEGIN
 90
        0
 91
        1
 62
     0
 92
       -2
340
14
 93
        0
 40
0.045
309
GRIDFORMAT_END
 95
        4
302
GRIDFORMAT
  1
GRIDFORMAT_BEGIN
 90
        0
 91
        1
 62
     0
 92
       -2
340
14
 93
        0
 40
0.045
309
GRIDFORMAT_END
 95
        8
302
GRIDFORMAT
  1
GRIDFORMAT_BEGIN
 90
        0
 91
        1
 62
     0
 92
       -2
340
14
 93
        0
 40
0.045
309
GRIDFORMAT_END
 95
       16
302
GRIDFORMAT
  1
GRIDFORMAT_BEGIN
 90
        0
 91
        1
 62
     0
 92
       -2
340
14
 93
        0
 40
0.045
309
GRIDFORMAT_END
 95
       32
302
GRIDFORMAT
  1
GRIDFORMAT_BEGIN
 90
        0
 91
        1
 62
     0
 92
       -2
340
14
 93
        0
 40
0.045
309
GRIDFORMAT_END
309
TABLEFORMAT_END
  1
CELLSTYLE_BEGIN
 90
        1
 91
        1
300
_TITLE
309
CELLSTYLE_END
300
CELLSTYLE
  1
TABLEFORMAT_BEGIN
 90
        5
170
     1
 91
        0
 92
        0
 62
   257
 93
        1
300
CONTENTFORMAT
  1
CONTENTFORMAT_BEGIN
 90
        0
 91
        0
 92
        4
 93
        0
300

 40
0.0
140
1.0
 94
        5
 62
     0
340
11
144
4.5
309
CONTENTFORMAT_END
171
     1
301
MARGIN
  1
CELLMARGIN_BEGIN
 40
1.5
 40
1.5
 40
1.5
 40
1.5
 40
1.5
 40
1.5
309
CELLMARGIN_END
 94
        6
 95
        1
302
GRIDFORMAT
  1
GRIDFORMAT_BEGIN
 90
        0
 91
        1
 62
     0
 92
       -2
340
14
 93
        0
 40
0.045
309
GRIDFORMAT_END
 95
        2
302
GRIDFORMAT
  1
GRIDFORMAT_BEGIN
 90
        0
 91
        1
 62
     0
 92
       -2
340
14
 93
        0
 40
0.045
309
GRIDFORMAT_END
 95
        4
302
GRIDFORMAT
  1
GRIDFORMAT_BEGIN
 90
        0
 91
        1
 62
     0
 92
       -2
340
14
 93
        0
 40
0.045
309
GRIDFORMAT_END
 95
        8
302
GRIDFORMAT
  1
GRIDFORMAT_BEGIN
 90
        0
 91
        1
 62
     0
 92
       -2
340
14
 93
        0
 40
0.045
309
GRIDFORMAT_END
 95
       16
302
GRIDFORMAT
  1
GRIDFORMAT_BEGIN
 90
        0
 91
        1
 62
     0
 92
       -2
340
14
 93
        0
 40
0.045
309
GRIDFORMAT_END
 95
       32
302
GRIDFORMAT
  1
GRIDFORMAT_BEGIN
 90
        0
 91
        1
 62
     0
 92
       -2
340
14
 93
        0
 40
0.045
309
GRIDFORMAT_END
309
TABLEFORMAT_END
  1
CELLSTYLE_BEGIN
 90
        2
 91
        1
300
_HEADER
309
CELLSTYLE_END
300
CELLSTYLE
  1
TABLEFORMAT_BEGIN
 90
        5
170
     1
 91
        0
 92
        0
 62
   257
 93
        1
300
CONTENTFORMAT
  1
CONTENTFORMAT_BEGIN
 90
        0
 91
        0
 92
        4
 93
        0
300

 40
0.0
140
1.0
 94
        2
 62
     0
340
11
144
4.5
309
CONTENTFORMAT_END
171
     1
301
MARGIN
  1
CELLMARGIN_BEGIN
 40
1.5
 40
1.5
 40
1.5
 40
1.5
 40
1.5
 40
1.5
309
CELLMARGIN_END
 94
        6
 95
        1
302
GRIDFORMAT
  1
GRIDFORMAT_BEGIN
 90
        0
 91
        1
 62
     0
 92
       -2
340
14
 93
        0
 40
0.045
309
GRIDFORMAT_END
 95
        2
302
GRIDFORMAT
  1
GRIDFORMAT_BEGIN
 90
        0
 91
        1
 62
     0
 92
       -2
340
14
 93
        0
 40
0.045
309
GRIDFORMAT_END
 95
        4
302
GRIDFORMAT
  1
GRIDFORMAT_BEGIN
 90
        0
 91
        1
 62
     0
 92
       -2
340
14
 93
        0
 40
0.045
309
GRIDFORMAT_END
 95
        8
302
GRIDFORMAT
  1
GRIDFORMAT_BEGIN
 90
        0
 91
        1
 62
     0
 92
       -2
340
14
 93
        0
 40
0.045
309
GRIDFORMAT_END
 95
       16
302
GRIDFORMAT
  1
GRIDFORMAT_BEGIN
 90
        0
 91
        1
 62
     0
 92
       -2
340
14
 93
        0
 40
0.045
309
GRIDFORMAT_END
 95
       32
302
GRIDFORMAT
  1
GRIDFORMAT_BEGIN
 90
        0
 91
        1
 62
     0
 92
       -2
340
14
 93
        0
 40
0.045
309
GRIDFORMAT_END
309
TABLEFORMAT_END
  1
CELLSTYLE_BEGIN
 90
        3
 91
        2
300
_DATA
309
CELLSTYLE_END
  0
XRECORD
  5
281
102
{ACAD_REACTORS
330
280
102
}
330
280
100
AcDbXrecord
280
     1
102
RTVSPropertyOp0
 70
     1
102
RTVSPropertyOp1
 70
     1
102
RTVSPropertyOp2
 70
     1
102
RTVSPropertyOp3
 70
     1
102
RTVSPropertyOp4
 70
     1
102
RTVSPropertyOp5
 70
     1
102
RTVSPropertyOp6
 70
     1
102
RTVSPropertyOp7
 70
     1
102
RTVSPropertyOp8
 70
     1
102
RTVSPropertyOp9
 70
     1
102
RTVSPropertyOp10
 70
     1
102
RTVSPropertyOp11
 70
     1
102
RTVSPropertyOp12
 70
     1
102
RTVSPropertyOp13
 70
     1
102
RTVSPropertyOp14
 70
     1
102
RTVSPropertyOp15
 70
     1
102
RTVSPropertyOp16
 70
     1
102
RTVSPropertyOp17
 70
     1
102
RTVSPropertyOp18
 70
     1
102
RTVSPropertyOp19
 70
     1
102
RTVSPropertyOp20
 70
     1
102
RTVSPropertyOp21
 70
     1
102
RTVSPropertyOp22
 70
     1
102
RTVSPropertyOp23
 70
     1
102
RTVSPropertyOp24
 70
     1
102
RTVSPropertyOp25
 70
     1
102
RTVSPropertyOp26
 70
     1
102
RTVSPropertyOp27
 70
     1
102
RTVSPropertyOp28
 70
     1
102
RTVSPropertyOp29
 70
     1
102
RTVSPropertyOp30
 70
     1
102
RTVSPropertyOp31
 70
     1
102
RTVSPropertyOp32
 70
     1
102
RTVSPropertyOp33
 70
     1
102
RTVSPropertyOp34
 70
     1
102
RTVSPropertyOp35
 70
     1
102
RTVSPropertyOp36
 70
     1
102
RTVSPropertyOp37
 70
     1
102
RTVSPropertyOp38
 70
     1
102
RTVSPropertyOp39
 70
     1
102
RTVSPropertyOp40
 70
     1
102
RTVSPropertyOp41
 70
     1
102
RTVSPropertyOp42
 70
     1
102
RTVSPropertyOp43
 70
     1
102
RTVSPropertyOp44
 70
     1
102
RTVSPropertyOp45
 70
     1
102
RTVSPropertyOp46
 70
     1
102
RTVSPropertyOp47
 70
     1
102
RTVSPropertyOp48
 70
     1
102
RTVSPropertyOp49
 70
     1
102
RTVSPropertyOp50
 70
     1
102
RTVSPropertyOp51
 70
     0
102
RTVSPropertyOp52
 70
     0
102
RTVSPropertyOp53
 70
     1
102
RTVSPropertyOp54
 70
     1
102
RTVSPropertyOp55
 70
     1
102
RTVSPropertyOp56
 70
     1
102
RTVSPropertyOp57
 70
     1
102
RTVSPost2010Prop28
280
     1
102
RTVSPost2010PropOp28
 70
     1
102
RTVSPost2010Prop29
280
     1
102
RTVSPost2010PropOp29
 70
     1
102
RTVSPost2010Prop30
280
     0
102
RTVSPost2010PropOp30
 70
     1
102
RTVSPost2010Prop31
280
     0
102
RTVSPost2010PropOp31
 70
     1
102
RTVSPost2010Prop32
280
     0
102
RTVSPost2010PropOp32
 70
     1
102
RTVSPost2010Prop33
280
     0
102
RTVSPost2010PropOp33
 70
     1
102
RTVSPost2010Prop34
280
     0
102
RTVSPost2010PropOp34
 70
     1
102
RTVSPost2010Prop35
280
     0
102
RTVSPost2010PropOp35
 70
     1
102
RTVSPost2010Prop36
280
     0
102
RTVSPost2010PropOp36
 70
     1
102
RTVSPost2010Prop37
 90
       50
102
RTVSPost2010PropOp37
 70
     1
102
RTVSPost2010Prop38
140
0.0
102
RTVSPost2010PropOp38
 70
     1
102
RTVSPost2010Prop39
140
1.0
102
RTVSPost2010PropOp39
 70
     1
102
RTVSPost2010Prop40
 90
        0
102
RTVSPost2010PropOp40
 70
     1
102
RTVSPost2010Prop41ColorIndex
 90
       18
102
RTVSPost2010Prop41ColorRGB
 90
        0
102
RTVSPost2010PropOp41
 70
     1
102
RTVSPost2010Prop42
 90
       50
102
RTVSPost2010PropOp42
 70
     1
102
RTVSPost2010Prop43
 90
        3
102
RTVSPost2010PropOp43
 70
     1
102
RTVSPost2010Prop44ColorIndex
 90
        5
102
RTVSPost2010Prop44ColorRGB
 90
      255
102
RTVSPost2010PropOp44
 70
     1
102
RTVSPost2010Prop45
280
     0
102
RTVSPost2010PropOp45
 70
     1
102
RTVSPost2010Prop46
 90
       50
102
RTVSPost2010PropOp46
 70
     1
102
RTVSPost2010Prop47
 90
       50
102
RTVSPost2010PropOp47
 70
     1
102
RTVSPost2010Prop48
 90
       50
102
RTVSPost2010PropOp48
 70
     1
102
RTVSPost2010Prop49
280
     0
102
RTVSPost2010PropOp49
 70
     1
102
RTVSPost2010Prop50
 90
       50
102
RTVSPost2010PropOp50
 70
     1
102
RTVSPost2010Prop51ColorIndex
 90
      256
102
RTVSPost2010Prop51ColorRGB
 90
-16777216
102
RTVSPost2010PropOp51
 70
     0
102
RTVSPost2010Prop52
140
1.0
102
RTVSPost2010PropOp52
 70
     0
102
RTVSPost2010Prop53
 90
        2
102
RTVSPost2010PropOp53
 70
     1
102
RTVSPost2010Prop54
  1
strokes_ogs.tif
102
RTVSPost2010PropOp54
 70
     1
102
RTVSPost2010Prop55
280
     0
102
RTVSPost2010PropOp55
 70
     1
102
RTVSPost2010Prop56
140
1.0
102
RTVSPost2010PropOp56
 70
     1
102
RTVSPost2010Prop57
140
1.0
102
RTVSPost2010PropOp57
 70
     1
  0
XRECORD
  5
287
102
{ACAD_REACTORS
330
286
102
}
330
286
100
AcDbXrecord
280
     1
102
RTVSPropertyOp0
 70
     1
102
RTVSPropertyOp1
 70
     1
102
RTVSPropertyOp2
 70
     1
102
RTVSPropertyOp3
 70
     1
102
RTVSPropertyOp4
 70
     1
102
RTVSPropertyOp5
 70
     1
102
RTVSPropertyOp6
 70
     1
102
RTVSPropertyOp7
 70
     1
102
RTVSPropertyOp8
 70
     1
102
RTVSPropertyOp9
 70
     1
102
RTVSPropertyOp10
 70
     1
102
RTVSPropertyOp11
 70
     1
102
RTVSPropertyOp12
 70
     1
102
RTVSPropertyOp13
 70
     1
102
RTVSPropertyOp14
 70
     1
102
RTVSPropertyOp15
 70
     1
102
RTVSPropertyOp16
 70
     1
102
RTVSPropertyOp17
 70
     1
102
RTVSPropertyOp18
 70
     1
102
RTVSPropertyOp19
 70
     1
102
RTVSPropertyOp20
 70
     1
102
RTVSPropertyOp21
 70
     1
102
RTVSPropertyOp22
 70
     1
102
RTVSPropertyOp23
 70
     1
102
RTVSPropertyOp24
 70
     1
102
RTVSPropertyOp25
 70
     1
102
RTVSPropertyOp26
 70
     1
102
RTVSPropertyOp27
 70
     1
102
RTVSPropertyOp28
 70
     1
102
RTVSPropertyOp29
 70
     1
102
RTVSPropertyOp30
 70
     1
102
RTVSPropertyOp31
 70
     1
102
RTVSPropertyOp32
 70
     1
102
RTVSPropertyOp33
 70
     1
102
RTVSPropertyOp34
 70
     1
102
RTVSPropertyOp35
 70
     1
102
RTVSPropertyOp36
 70
     1
102
RTVSPropertyOp37
 70
     1
102
RTVSPropertyOp38
 70
     1
102
RTVSPropertyOp39
 70
     1
102
RTVSPropertyOp40
 70
     1
102
RTVSPropertyOp41
 70
     1
102
RTVSPropertyOp42
 70
     1
102
RTVSPropertyOp43
 70
     1
102
RTVSPropertyOp44
 70
     1
102
RTVSPropertyOp45
 70
     1
102
RTVSPropertyOp46
 70
     1
102
RTVSPropertyOp47
 70
     1
102
RTVSPropertyOp48
 70
     1
102
RTVSPropertyOp49
 70
     1
102
RTVSPropertyOp50
 70
     1
102
RTVSPropertyOp51
 70
     0
102
RTVSPropertyOp52
 70
     0
102
RTVSPropertyOp53
 70
     1
102
RTVSPropertyOp54
 70
     1
102
RTVSPropertyOp55
 70
     1
102
RTVSPropertyOp56
 70
     1
102
RTVSPropertyOp57
 70
     1
102
RTVSPost2010Prop28
280
     0
102
RTVSPost2010PropOp28
 70
     1
102
RTVSPost2010Prop29
280
     1
102
RTVSPost2010PropOp29
 70
     1
102
RTVSPost2010Prop30
280
     1
102
RTVSPost2010PropOp30
 70
     1
102
RTVSPost2010Prop31
280
     0
102
RTVSPost2010PropOp31
 70
     1
102
RTVSPost2010Prop32
280
     0
102
RTVSPost2010PropOp32
 70
     1
102
RTVSPost2010Prop33
280
     0
102
RTVSPost2010PropOp33
 70
     1
102
RTVSPost2010Prop34
280
     0
102
RTVSPost2010PropOp34
 70
     1
102
RTVSPost2010Prop35
280
     0
102
RTVSPost2010PropOp35
 70
     1
102
RTVSPost2010Prop36
280
     0
102
RTVSPost2010PropOp36
 70
     1
102
RTVSPost2010Prop37
 90
       50
102
RTVSPost2010PropOp37
 70
     1
102
RTVSPost2010Prop38
140
0.0
102
RTVSPost2010PropOp38
 70
     1
102
RTVSPost2010Prop39
140
1.0
102
RTVSPost2010PropOp39
 70
     1
102
RTVSPost2010Prop40
 90
        0
102
RTVSPost2010PropOp40
 70
     1
102
RTVSPost2010Prop41ColorIndex
 90
       18
102
RTVSPost2010Prop41ColorRGB
 90
        0
102
RTVSPost2010PropOp41
 70
     1
102
RTVSPost2010Prop42
 90
       50
102
RTVSPost2010PropOp42
 70
     1
102
RTVSPost2010Prop43
 90
        3
102
RTVSPost2010PropOp43
 70
     1
102
RTVSPost2010Prop44ColorIndex
 90
        5
102
RTVSPost2010Prop44ColorRGB
 90
      255
102
RTVSPost2010PropOp44
 70
     1
102
RTVSPost2010Prop45
280
     0
102
RTVSPost2010PropOp45
 70
     1
102
RTVSPost2010Prop46
 90
       50
102
RTVSPost2010PropOp46
 70
     1
102
RTVSPost2010Prop47
 90
       50
102
RTVSPost2010PropOp47
 70
     1
102
RTVSPost2010Prop48
 90
       50
102
RTVSPost2010PropOp48
 70
     1
102
RTVSPost2010Prop49
280
     0
102
RTVSPost2010PropOp49
 70
     1
102
RTVSPost2010Prop50
 90
       50
102
RTVSPost2010PropOp50
 70
     1
102
RTVSPost2010Prop51ColorIndex
 90
      256
102
RTVSPost2010Prop51ColorRGB
 90
-16777216
102
RTVSPost2010PropOp51
 70
     0
102
RTVSPost2010Prop52
140
1.0
102
RTVSPost2010PropOp52
 70
     0
102
RTVSPost2010Prop53
 90
        2
102
RTVSPost2010PropOp53
 70
     1
102
RTVSPost2010Prop54
  1
strokes_ogs.tif
102
RTVSPost2010PropOp54
 70
     1
102
RTVSPost2010Prop55
280
     0
102
RTVSPost2010PropOp55
 70
     1
102
RTVSPost2010Prop56
140
1.0
102
RTVSPost2010PropOp56
 70
     1
102
RTVSPost2010Prop57
140
1.0
102
RTVSPost2010PropOp57
 70
     1
  0
XRECORD
  5
28F
102
{ACAD_REACTORS
330
28E
102
}
330
28E
100
AcDbXrecord
280
     1
102
RTVSPropertyOp0
 70
     1
102
RTVSPropertyOp1
 70
     1
102
RTVSPropertyOp2
 70
     1
102
RTVSPropertyOp3
 70
     1
102
RTVSPropertyOp4
 70
     1
102
RTVSPropertyOp5
 70
     1
102
RTVSPropertyOp6
 70
     1
102
RTVSPropertyOp7
 70
     1
102
RTVSPropertyOp8
 70
     1
102
RTVSPropertyOp9
 70
     1
102
RTVSPropertyOp10
 70
     1
102
RTVSPropertyOp11
 70
     1
102
RTVSPropertyOp12
 70
     1
102
RTVSPropertyOp13
 70
     1
102
RTVSPropertyOp14
 70
     1
102
RTVSPropertyOp15
 70
     1
102
RTVSPropertyOp16
 70
     1
102
RTVSPropertyOp17
 70
     1
102
RTVSPropertyOp18
 70
     1
102
RTVSPropertyOp19
 70
     1
102
RTVSPropertyOp20
 70
     1
102
RTVSPropertyOp21
 70
     1
102
RTVSPropertyOp22
 70
     1
102
RTVSPropertyOp23
 70
     1
102
RTVSPropertyOp24
 70
     1
102
RTVSPropertyOp25
 70
     1
102
RTVSPropertyOp26
 70
     1
102
RTVSPropertyOp27
 70
     1
102
RTVSPropertyOp28
 70
     1
102
RTVSPropertyOp29
 70
     1
102
RTVSPropertyOp30
 70
     1
102
RTVSPropertyOp31
 70
     1
102
RTVSPropertyOp32
 70
     1
102
RTVSPropertyOp33
 70
     1
102
RTVSPropertyOp34
 70
     1
102
RTVSPropertyOp35
 70
     1
102
RTVSPropertyOp36
 70
     1
102
RTVSPropertyOp37
 70
     1
102
RTVSPropertyOp38
 70
     1
102
RTVSPropertyOp39
 70
     1
102
RTVSPropertyOp40
 70
     1
102
RTVSPropertyOp41
 70
     1
102
RTVSPropertyOp42
 70
     1
102
RTVSPropertyOp43
 70
     1
102
RTVSPropertyOp44
 70
     1
102
RTVSPropertyOp45
 70
     1
102
RTVSPropertyOp46
 70
     1
102
RTVSPropertyOp47
 70
     1
102
RTVSPropertyOp48
 70
     1
102
RTVSPropertyOp49
 70
     1
102
RTVSPropertyOp50
 70
     1
102
RTVSPropertyOp51
 70
     0
102
RTVSPropertyOp52
 70
     0
102
RTVSPropertyOp53
 70
     1
102
RTVSPropertyOp54
 70
     1
102
RTVSPropertyOp55
 70
     1
102
RTVSPropertyOp56
 70
     1
102
RTVSPropertyOp57
 70
     1
102
RTVSPost2010Prop28
280
     0
102
RTVSPost2010PropOp28
 70
     1
102
RTVSPost2010Prop29
280
     1
102
RTVSPost2010PropOp29
 70
     1
102
RTVSPost2010Prop30
280
     1
102
RTVSPost2010PropOp30
 70
     1
102
RTVSPost2010Prop31
280
     0
102
RTVSPost2010PropOp31
 70
     1
102
RTVSPost2010Prop32
280
     0
102
RTVSPost2010PropOp32
 70
     1
102
RTVSPost2010Prop33
280
     0
102
RTVSPost2010PropOp33
 70
     1
102
RTVSPost2010Prop34
280
     0
102
RTVSPost2010PropOp34
 70
     1
102
RTVSPost2010Prop35
280
     0
102
RTVSPost2010PropOp35
 70
     1
102
RTVSPost2010Prop36
280
     0
102
RTVSPost2010PropOp36
 70
     1
102
RTVSPost2010Prop37
 90
       50
102
RTVSPost2010PropOp37
 70
     1
102
RTVSPost2010Prop38
140
0.0
102
RTVSPost2010PropOp38
 70
     1
102
RTVSPost2010Prop39
140
1.0
102
RTVSPost2010PropOp39
 70
     1
102
RTVSPost2010Prop40
 90
        0
102
RTVSPost2010PropOp40
 70
     1
102
RTVSPost2010Prop41ColorIndex
 90
       18
102
RTVSPost2010Prop41ColorRGB
 90
        0
102
RTVSPost2010PropOp41
 70
     1
102
RTVSPost2010Prop42
 90
       50
102
RTVSPost2010PropOp42
 70
     1
102
RTVSPost2010Prop43
 90
        3
102
RTVSPost2010PropOp43
 70
     1
102
RTVSPost2010Prop44ColorIndex
 90
        5
102
RTVSPost2010Prop44ColorRGB
 90
      255
102
RTVSPost2010PropOp44
 70
     1
102
RTVSPost2010Prop45
280
     0
102
RTVSPost2010PropOp45
 70
     1
102
RTVSPost2010Prop46
 90
       50
102
RTVSPost2010PropOp46
 70
     1
102
RTVSPost2010Prop47
 90
       50
102
RTVSPost2010PropOp47
 70
     1
102
RTVSPost2010Prop48
 90
       50
102
RTVSPost2010PropOp48
 70
     1
102
RTVSPost2010Prop49
280
     0
102
RTVSPost2010PropOp49
 70
     1
102
RTVSPost2010Prop50
 90
       50
102
RTVSPost2010PropOp50
 70
     1
102
RTVSPost2010Prop51ColorIndex
 90
      256
102
RTVSPost2010Prop51ColorRGB
 90
-16777216
102
RTVSPost2010PropOp51
 70
     0
102
RTVSPost2010Prop52
140
1.0
102
RTVSPost2010PropOp52
 70
     0
102
RTVSPost2010Prop53
 90
        2
102
RTVSPost2010PropOp53
 70
     1
102
RTVSPost2010Prop54
  1
strokes_ogs.tif
102
RTVSPost2010PropOp54
 70
     1
102
RTVSPost2010Prop55
280
     0
102
RTVSPost2010PropOp55
 70
     1
102
RTVSPost2010Prop56
140
1.0
102
RTVSPost2010PropOp56
 70
     1
102
RTVSPost2010Prop57
140
1.0
102
RTVSPost2010PropOp57
 70
     1
  0
XRECORD
  5
297
102
{ACAD_REACTORS
330
296
102
}
330
296
100
AcDbXrecord
280
     1
102
RTVSPropertyOp0
 70
     1
102
RTVSPropertyOp1
 70
     1
102
RTVSPropertyOp2
 70
     1
102
RTVSPropertyOp3
 70
     1
102
RTVSPropertyOp4
 70
     1
102
RTVSPropertyOp5
 70
     1
102
RTVSPropertyOp6
 70
     1
102
RTVSPropertyOp7
 70
     1
102
RTVSPropertyOp8
 70
     1
102
RTVSPropertyOp9
 70
     1
102
RTVSPropertyOp10
 70
     1
102
RTVSPropertyOp11
 70
     1
102
RTVSPropertyOp12
 70
     1
102
RTVSPropertyOp13
 70
     1
102
RTVSPropertyOp14
 70
     1
102
RTVSPropertyOp15
 70
     1
102
RTVSPropertyOp16
 70
     1
102
RTVSPropertyOp17
 70
     1
102
RTVSPropertyOp18
 70
     1
102
RTVSPropertyOp19
 70
     1
102
RTVSPropertyOp20
 70
     1
102
RTVSPropertyOp21
 70
     1
102
RTVSPropertyOp22
 70
     1
102
RTVSPropertyOp23
 70
     1
102
RTVSPropertyOp24
 70
     1
102
RTVSPropertyOp25
 70
     1
102
RTVSPropertyOp26
 70
     1
102
RTVSPropertyOp27
 70
     1
102
RTVSPropertyOp28
 70
     1
102
RTVSPropertyOp29
 70
     1
102
RTVSPropertyOp30
 70
     1
102
RTVSPropertyOp31
 70
     1
102
RTVSPropertyOp32
 70
     1
102
RTVSPropertyOp33
 70
     1
102
RTVSPropertyOp34
 70
     1
102
RTVSPropertyOp35
 70
     1
102
RTVSPropertyOp36
 70
     1
102
RTVSPropertyOp37
 70
     1
102
RTVSPropertyOp38
 70
     1
102
RTVSPropertyOp39
 70
     1
102
RTVSPropertyOp40
 70
     1
102
RTVSPropertyOp41
 70
     1
102
RTVSPropertyOp42
 70
     1
102
RTVSPropertyOp43
 70
     1
102
RTVSPropertyOp44
 70
     1
102
RTVSPropertyOp45
 70
     1
102
RTVSPropertyOp46
 70
     1
102
RTVSPropertyOp47
 70
     1
102
RTVSPropertyOp48
 70
     1
102
RTVSPropertyOp49
 70
     1
102
RTVSPropertyOp50
 70
     1
102
RTVSPropertyOp51
 70
     0
102
RTVSPropertyOp52
 70
     0
102
RTVSPropertyOp53
 70
     1
102
RTVSPropertyOp54
 70
     1
102
RTVSPropertyOp55
 70
     1
102
RTVSPropertyOp56
 70
     1
102
RTVSPropertyOp57
 70
     1
102
RTVSPost2010Prop28
280
     0
102
RTVSPost2010PropOp28
 70
     1
102
RTVSPost2010Prop29
280
     1
102
RTVSPost2010PropOp29
 70
     1
102
RTVSPost2010Prop30
280
     1
102
RTVSPost2010PropOp30
 70
     1
102
RTVSPost2010Prop31
280
     0
102
RTVSPost2010PropOp31
 70
     1
102
RTVSPost2010Prop32
280
     0
102
RTVSPost2010PropOp32
 70
     1
102
RTVSPost2010Prop33
280
     0
102
RTVSPost2010PropOp33
 70
     1
102
RTVSPost2010Prop34
280
     0
102
RTVSPost2010PropOp34
 70
     1
102
RTVSPost2010Prop35
280
     0
102
RTVSPost2010PropOp35
 70
     1
102
RTVSPost2010Prop36
280
     0
102
RTVSPost2010PropOp36
 70
     1
102
RTVSPost2010Prop37
 90
       50
102
RTVSPost2010PropOp37
 70
     1
102
RTVSPost2010Prop38
140
0.0
102
RTVSPost2010PropOp38
 70
     1
102
RTVSPost2010Prop39
140
1.0
102
RTVSPost2010PropOp39
 70
     1
102
RTVSPost2010Prop40
 90
        0
102
RTVSPost2010PropOp40
 70
     1
102
RTVSPost2010Prop41ColorIndex
 90
       18
102
RTVSPost2010Prop41ColorRGB
 90
        0
102
RTVSPost2010PropOp41
 70
     1
102
RTVSPost2010Prop42
 90
       50
102
RTVSPost2010PropOp42
 70
     1
102
RTVSPost2010Prop43
 90
        3
102
RTVSPost2010PropOp43
 70
     1
102
RTVSPost2010Prop44ColorIndex
 90
        5
102
RTVSPost2010Prop44ColorRGB
 90
      255
102
RTVSPost2010PropOp44
 70
     1
102
RTVSPost2010Prop45
280
     0
102
RTVSPost2010PropOp45
 70
     1
102
RTVSPost2010Prop46
 90
       50
102
RTVSPost2010PropOp46
 70
     1
102
RTVSPost2010Prop47
 90
       50
102
RTVSPost2010PropOp47
 70
     1
102
RTVSPost2010Prop48
 90
       50
102
RTVSPost2010PropOp48
 70
     1
102
RTVSPost2010Prop49
280
     0
102
RTVSPost2010PropOp49
 70
     1
102
RTVSPost2010Prop50
 90
       50
102
RTVSPost2010PropOp50
 70
     1
102
RTVSPost2010Prop51ColorIndex
 90
      256
102
RTVSPost2010Prop51ColorRGB
 90
-16777216
102
RTVSPost2010PropOp51
 70
     0
102
RTVSPost2010Prop52
140
1.0
102
RTVSPost2010PropOp52
 70
     0
102
RTVSPost2010Prop53
 90
        2
102
RTVSPost2010PropOp53
 70
     1
102
RTVSPost2010Prop54
  1
strokes_ogs.tif
102
RTVSPost2010PropOp54
 70
     1
102
RTVSPost2010Prop55
280
     0
102
RTVSPost2010PropOp55
 70
     1
102
RTVSPost2010Prop56
140
1.0
102
RTVSPost2010PropOp56
 70
     1
102
RTVSPost2010Prop57
140
1.0
102
RTVSPost2010PropOp57
 70
     1
  0
XRECORD
  5
28B
102
{ACAD_REACTORS
330
28A
102
}
330
28A
100
AcDbXrecord
280
     1
102
RTVSPropertyOp0
 70
     1
102
RTVSPropertyOp1
 70
     1
102
RTVSPropertyOp2
 70
     1
102
RTVSPropertyOp3
 70
     1
102
RTVSPropertyOp4
 70
     1
102
RTVSPropertyOp5
 70
     1
102
RTVSPropertyOp6
 70
     1
102
RTVSPropertyOp7
 70
     1
102
RTVSPropertyOp8
 70
     1
102
RTVSPropertyOp9
 70
     1
102
RTVSPropertyOp10
 70
     1
102
RTVSPropertyOp11
 70
     1
102
RTVSPropertyOp12
 70
     1
102
RTVSPropertyOp13
 70
     1
102
RTVSPropertyOp14
 70
     1
102
RTVSPropertyOp15
 70
     1
102
RTVSPropertyOp16
 70
     1
102
RTVSPropertyOp17
 70
     1
102
RTVSPropertyOp18
 70
     1
102
RTVSPropertyOp19
 70
     1
102
RTVSPropertyOp20
 70
     1
102
RTVSPropertyOp21
 70
     1
102
RTVSPropertyOp22
 70
     1
102
RTVSPropertyOp23
 70
     1
102
RTVSPropertyOp24
 70
     1
102
RTVSPropertyOp25
 70
     1
102
RTVSPropertyOp26
 70
     1
102
RTVSPropertyOp27
 70
     1
102
RTVSPropertyOp28
 70
     1
102
RTVSPropertyOp29
 70
     1
102
RTVSPropertyOp30
 70
     1
102
RTVSPropertyOp31
 70
     1
102
RTVSPropertyOp32
 70
     1
102
RTVSPropertyOp33
 70
     1
102
RTVSPropertyOp34
 70
     1
102
RTVSPropertyOp35
 70
     1
102
RTVSPropertyOp36
 70
     1
102
RTVSPropertyOp37
 70
     1
102
RTVSPropertyOp38
 70
     1
102
RTVSPropertyOp39
 70
     1
102
RTVSPropertyOp40
 70
     1
102
RTVSPropertyOp41
 70
     1
102
RTVSPropertyOp42
 70
     1
102
RTVSPropertyOp43
 70
     1
102
RTVSPropertyOp44
 70
     1
102
RTVSPropertyOp45
 70
     1
102
RTVSPropertyOp46
 70
     1
102
RTVSPropertyOp47
 70
     1
102
RTVSPropertyOp48
 70
     1
102
RTVSPropertyOp49
 70
     1
102
RTVSPropertyOp50
 70
     1
102
RTVSPropertyOp51
 70
     0
102
RTVSPropertyOp52
 70
     0
102
RTVSPropertyOp53
 70
     1
102
RTVSPropertyOp54
 70
     1
102
RTVSPropertyOp55
 70
     1
102
RTVSPropertyOp56
 70
     1
102
RTVSPropertyOp57
 70
     1
102
RTVSPost2010Prop28
280
     0
102
RTVSPost2010PropOp28
 70
     1
102
RTVSPost2010Prop29
280
     1
102
RTVSPost2010PropOp29
 70
     1
102
RTVSPost2010Prop30
280
     1
102
RTVSPost2010PropOp30
 70
     1
102
RTVSPost2010Prop31
280
     0
102
RTVSPost2010PropOp31
 70
     1
102
RTVSPost2010Prop32
280
     0
102
RTVSPost2010PropOp32
 70
     1
102
RTVSPost2010Prop33
280
     0
102
RTVSPost2010PropOp33
 70
     1
102
RTVSPost2010Prop34
280
     0
102
RTVSPost2010PropOp34
 70
     1
102
RTVSPost2010Prop35
280
     0
102
RTVSPost2010PropOp35
 70
     1
102
RTVSPost2010Prop36
280
     0
102
RTVSPost2010PropOp36
 70
     1
102
RTVSPost2010Prop37
 90
       50
102
RTVSPost2010PropOp37
 70
     1
102
RTVSPost2010Prop38
140
0.0
102
RTVSPost2010PropOp38
 70
     1
102
RTVSPost2010Prop39
140
1.0
102
RTVSPost2010PropOp39
 70
     1
102
RTVSPost2010Prop40
 90
        0
102
RTVSPost2010PropOp40
 70
     1
102
RTVSPost2010Prop41ColorIndex
 90
       18
102
RTVSPost2010Prop41ColorRGB
 90
        0
102
RTVSPost2010PropOp41
 70
     1
102
RTVSPost2010Prop42
 90
       50
102
RTVSPost2010PropOp42
 70
     1
102
RTVSPost2010Prop43
 90
        3
102
RTVSPost2010PropOp43
 70
     1
102
RTVSPost2010Prop44ColorIndex
 90
        5
102
RTVSPost2010Prop44ColorRGB
 90
      255
102
RTVSPost2010PropOp44
 70
     1
102
RTVSPost2010Prop45
280
     0
102
RTVSPost2010PropOp45
 70
     1
102
RTVSPost2010Prop46
 90
       50
102
RTVSPost2010PropOp46
 70
     1
102
RTVSPost2010Prop47
 90
       50
102
RTVSPost2010PropOp47
 70
     1
102
RTVSPost2010Prop48
 90
       50
102
RTVSPost2010PropOp48
 70
     1
102
RTVSPost2010Prop49
280
     0
102
RTVSPost2010PropOp49
 70
     1
102
RTVSPost2010Prop50
 90
       50
102
RTVSPost2010PropOp50
 70
     1
102
RTVSPost2010Prop51ColorIndex
 90
      256
102
RTVSPost2010Prop51ColorRGB
 90
-16777216
102
RTVSPost2010PropOp51
 70
     0
102
RTVSPost2010Prop52
140
1.0
102
RTVSPost2010PropOp52
 70
     0
102
RTVSPost2010Prop53
 90
        2
102
RTVSPost2010PropOp53
 70
     1
102
RTVSPost2010Prop54
  1
strokes_ogs.tif
102
RTVSPost2010PropOp54
 70
     1
102
RTVSPost2010Prop55
280
     0
102
RTVSPost2010PropOp55
 70
     1
102
RTVSPost2010Prop56
140
1.0
102
RTVSPost2010PropOp56
 70
     1
102
RTVSPost2010Prop57
140
1.0
102
RTVSPost2010PropOp57
 70
     1
  0
XRECORD
  5
28D
102
{ACAD_REACTORS
330
28C
102
}
330
28C
100
AcDbXrecord
280
     1
102
RTVSPropertyOp0
 70
     1
102
RTVSPropertyOp1
 70
     1
102
RTVSPropertyOp2
 70
     1
102
RTVSPropertyOp3
 70
     1
102
RTVSPropertyOp4
 70
     1
102
RTVSPropertyOp5
 70
     1
102
RTVSPropertyOp6
 70
     1
102
RTVSPropertyOp7
 70
     1
102
RTVSPropertyOp8
 70
     1
102
RTVSPropertyOp9
 70
     1
102
RTVSPropertyOp10
 70
     1
102
RTVSPropertyOp11
 70
     1
102
RTVSPropertyOp12
 70
     1
102
RTVSPropertyOp13
 70
     1
102
RTVSPropertyOp14
 70
     1
102
RTVSPropertyOp15
 70
     1
102
RTVSPropertyOp16
 70
     1
102
RTVSPropertyOp17
 70
     1
102
RTVSPropertyOp18
 70
     1
102
RTVSPropertyOp19
 70
     1
102
RTVSPropertyOp20
 70
     1
102
RTVSPropertyOp21
 70
     1
102
RTVSPropertyOp22
 70
     1
102
RTVSPropertyOp23
 70
     1
102
RTVSPropertyOp24
 70
     1
102
RTVSPropertyOp25
 70
     1
102
RTVSPropertyOp26
 70
     1
102
RTVSPropertyOp27
 70
     1
102
RTVSPropertyOp28
 70
     1
102
RTVSPropertyOp29
 70
     1
102
RTVSPropertyOp30
 70
     1
102
RTVSPropertyOp31
 70
     1
102
RTVSPropertyOp32
 70
     1
102
RTVSPropertyOp33
 70
     1
102
RTVSPropertyOp34
 70
     1
102
RTVSPropertyOp35
 70
     1
102
RTVSPropertyOp36
 70
     1
102
RTVSPropertyOp37
 70
     1
102
RTVSPropertyOp38
 70
     1
102
RTVSPropertyOp39
 70
     1
102
RTVSPropertyOp40
 70
     1
102
RTVSPropertyOp41
 70
     1
102
RTVSPropertyOp42
 70
     1
102
RTVSPropertyOp43
 70
     1
102
RTVSPropertyOp44
 70
     1
102
RTVSPropertyOp45
 70
     1
102
RTVSPropertyOp46
 70
     1
102
RTVSPropertyOp47
 70
     1
102
RTVSPropertyOp48
 70
     1
102
RTVSPropertyOp49
 70
     1
102
RTVSPropertyOp50
 70
     1
102
RTVSPropertyOp51
 70
     0
102
RTVSPropertyOp52
 70
     0
102
RTVSPropertyOp53
 70
     1
102
RTVSPropertyOp54
 70
     1
102
RTVSPropertyOp55
 70
     1
102
RTVSPropertyOp56
 70
     1
102
RTVSPropertyOp57
 70
     1
102
RTVSPost2010Prop28
280
     0
102
RTVSPost2010PropOp28
 70
     1
102
RTVSPost2010Prop29
280
     1
102
RTVSPost2010PropOp29
 70
     1
102
RTVSPost2010Prop30
280
     1
102
RTVSPost2010PropOp30
 70
     1
102
RTVSPost2010Prop31
280
     0
102
RTVSPost2010PropOp31
 70
     1
102
RTVSPost2010Prop32
280
     0
102
RTVSPost2010PropOp32
 70
     1
102
RTVSPost2010Prop33
280
     0
102
RTVSPost2010PropOp33
 70
     1
102
RTVSPost2010Prop34
280
     0
102
RTVSPost2010PropOp34
 70
     1
102
RTVSPost2010Prop35
280
     0
102
RTVSPost2010PropOp35
 70
     1
102
RTVSPost2010Prop36
280
     0
102
RTVSPost2010PropOp36
 70
     1
102
RTVSPost2010Prop37
 90
       50
102
RTVSPost2010PropOp37
 70
     1
102
RTVSPost2010Prop38
140
0.0
102
RTVSPost2010PropOp38
 70
     1
102
RTVSPost2010Prop39
140
1.0
102
RTVSPost2010PropOp39
 70
     1
102
RTVSPost2010Prop40
 90
        0
102
RTVSPost2010PropOp40
 70
     1
102
RTVSPost2010Prop41ColorIndex
 90
       18
102
RTVSPost2010Prop41ColorRGB
 90
        0
102
RTVSPost2010PropOp41
 70
     1
102
RTVSPost2010Prop42
 90
       50
102
RTVSPost2010PropOp42
 70
     1
102
RTVSPost2010Prop43
 90
        3
102
RTVSPost2010PropOp43
 70
     1
102
RTVSPost2010Prop44ColorIndex
 90
        5
102
RTVSPost2010Prop44ColorRGB
 90
      255
102
RTVSPost2010PropOp44
 70
     1
102
RTVSPost2010Prop45
280
     0
102
RTVSPost2010PropOp45
 70
     1
102
RTVSPost2010Prop46
 90
       50
102
RTVSPost2010PropOp46
 70
     1
102
RTVSPost2010Prop47
 90
       50
102
RTVSPost2010PropOp47
 70
     1
102
RTVSPost2010Prop48
 90
       50
102
RTVSPost2010PropOp48
 70
     1
102
RTVSPost2010Prop49
280
     0
102
RTVSPost2010PropOp49
 70
     1
102
RTVSPost2010Prop50
 90
       50
102
RTVSPost2010PropOp50
 70
     1
102
RTVSPost2010Prop51ColorIndex
 90
      256
102
RTVSPost2010Prop51ColorRGB
 90
-16777216
102
RTVSPost2010PropOp51
 70
     0
102
RTVSPost2010Prop52
140
1.0
102
RTVSPost2010PropOp52
 70
     0
102
RTVSPost2010Prop53
 90
        2
102
RTVSPost2010PropOp53
 70
     1
102
RTVSPost2010Prop54
  1
strokes_ogs.tif
102
RTVSPost2010PropOp54
 70
     1
102
RTVSPost2010Prop55
280
     0
102
RTVSPost2010PropOp55
 70
     1
102
RTVSPost2010Prop56
140
1.0
102
RTVSPost2010PropOp56
 70
     1
102
RTVSPost2010Prop57
140
1.0
102
RTVSPost2010PropOp57
 70
     1
  0
XRECORD
  5
29D
102
{ACAD_REACTORS
330
29C
102
}
330
29C
100
AcDbXrecord
280
     1
102
RTVSPropertyOp0
 70
     0
102
RTVSPropertyOp1
 70
     0
102
RTVSPropertyOp2
 70
     0
102
RTVSPropertyOp3
 70
     0
102
RTVSPropertyOp4
 70
     0
102
RTVSPropertyOp5
 70
     0
102
RTVSPropertyOp6
 70
     0
102
RTVSPropertyOp7
 70
     0
102
RTVSPropertyOp8
 70
     0
102
RTVSPropertyOp9
 70
     0
102
RTVSPropertyOp10
 70
     0
102
RTVSPropertyOp11
 70
     0
102
RTVSPropertyOp12
 70
     0
102
RTVSPropertyOp13
 70
     0
102
RTVSPropertyOp14
 70
     2
102
RTVSPropertyOp15
 70
     0
102
RTVSPropertyOp16
 70
     0
102
RTVSPropertyOp17
 70
     0
102
RTVSPropertyOp18
 70
     0
102
RTVSPropertyOp19
 70
     0
102
RTVSPropertyOp20
 70
     0
102
RTVSPropertyOp21
 70
     0
102
RTVSPropertyOp22
 70
     0
102
RTVSPropertyOp23
 70
     0
102
RTVSPropertyOp24
 70
     0
102
RTVSPropertyOp25
 70
     0
102
RTVSPropertyOp26
 70
     0
102
RTVSPropertyOp27
 70
     0
102
RTVSPropertyOp28
 70
     0
102
RTVSPropertyOp29
 70
     0
102
RTVSPropertyOp30
 70
     0
102
RTVSPropertyOp31
 70
     0
102
RTVSPropertyOp32
 70
     0
102
RTVSPropertyOp33
 70
     0
102
RTVSPropertyOp34
 70
     0
102
RTVSPropertyOp35
 70
     0
102
RTVSPropertyOp36
 70
     0
102
RTVSPropertyOp37
 70
     0
102
RTVSPropertyOp38
 70
     0
102
RTVSPropertyOp39
 70
     0
102
RTVSPropertyOp40
 70
     0
102
RTVSPropertyOp41
 70
     0
102
RTVSPropertyOp42
 70
     0
102
RTVSPropertyOp43
 70
     0
102
RTVSPropertyOp44
 70
     0
102
RTVSPropertyOp45
 70
     0
102
RTVSPropertyOp46
 70
     0
102
RTVSPropertyOp47
 70
     0
102
RTVSPropertyOp48
 70
     0
102
RTVSPropertyOp49
 70
     0
102
RTVSPropertyOp50
 70
     0
102
RTVSPropertyOp51
 70
     0
102
RTVSPropertyOp52
 70
     0
102
RTVSPropertyOp53
 70
     0
102
RTVSPropertyOp54
 70
     0
102
RTVSPropertyOp55
 70
     0
102
RTVSPropertyOp56
 70
     0
102
RTVSPropertyOp57
 70
     0
102
RTVSPost2010Prop28
280
     0
102
RTVSPost2010PropOp28
 70
     0
102
RTVSPost2010Prop29
280
     1
102
RTVSPost2010PropOp29
 70
     0
102
RTVSPost2010Prop30
280
     1
102
RTVSPost2010PropOp30
 70
     0
102
RTVSPost2010Prop31
280
     0
102
RTVSPost2010PropOp31
 70
     0
102
RTVSPost2010Prop32
280
     0
102
RTVSPost2010PropOp32
 70
     0
102
RTVSPost2010Prop33
280
     0
102
RTVSPost2010PropOp33
 70
     0
102
RTVSPost2010Prop34
280
     0
102
RTVSPost2010PropOp34
 70
     0
102
RTVSPost2010Prop35
280
     0
102
RTVSPost2010PropOp35
 70
     0
102
RTVSPost2010Prop36
280
     0
102
RTVSPost2010PropOp36
 70
     0
102
RTVSPost2010Prop37
 90
       50
102
RTVSPost2010PropOp37
 70
     0
102
RTVSPost2010Prop38
140
0.0
102
RTVSPost2010PropOp38
 70
     0
102
RTVSPost2010Prop39
140
1.0
102
RTVSPost2010PropOp39
 70
     0
102
RTVSPost2010Prop40
 90
        0
102
RTVSPost2010PropOp40
 70
     0
102
RTVSPost2010Prop41ColorIndex
 90
       18
102
RTVSPost2010Prop41ColorRGB
 90
        0
102
RTVSPost2010PropOp41
 70
     0
102
RTVSPost2010Prop42
 90
       50
102
RTVSPost2010PropOp42
 70
     0
102
RTVSPost2010Prop43
 90
        3
102
RTVSPost2010PropOp43
 70
     0
102
RTVSPost2010Prop44ColorIndex
 90
        5
102
RTVSPost2010Prop44ColorRGB
 90
      255
102
RTVSPost2010PropOp44
 70
     0
102
RTVSPost2010Prop45
280
     0
102
RTVSPost2010PropOp45
 70
     0
102
RTVSPost2010Prop46
 90
       50
102
RTVSPost2010PropOp46
 70
     0
102
RTVSPost2010Prop47
 90
       50
102
RTVSPost2010PropOp47
 70
     0
102
RTVSPost2010Prop48
 90
       50
102
RTVSPost2010PropOp48
 70
     0
102
RTVSPost2010Prop49
280
     0
102
RTVSPost2010PropOp49
 70
     0
102
RTVSPost2010Prop50
 90
       50
102
RTVSPost2010PropOp50
 70
     0
102
RTVSPost2010Prop51ColorIndex
 90
      256
102
RTVSPost2010Prop51ColorRGB
 90
-16777216
102
RTVSPost2010PropOp51
 70
     0
102
RTVSPost2010Prop52
140
1.0
102
RTVSPost2010PropOp52
 70
     0
102
RTVSPost2010Prop53
 90
        2
102
RTVSPost2010PropOp53
 70
     0
102
RTVSPost2010Prop54
  1
strokes_ogs.tif
102
RTVSPost2010PropOp54
 70
     0
102
RTVSPost2010Prop55
280
     0
102
RTVSPost2010PropOp55
 70
     0
102
RTVSPost2010Prop56
140
1.0
102
RTVSPost2010PropOp56
 70
     0
102
RTVSPost2010Prop57
140
1.0
102
RTVSPost2010PropOp57
 70
     0
  0
XRECORD
  5
295
102
{ACAD_REACTORS
330
294
102
}
330
294
100
AcDbXrecord
280
     1
102
RTVSPropertyOp0
 70
     1
102
RTVSPropertyOp1
 70
     1
102
RTVSPropertyOp2
 70
     1
102
RTVSPropertyOp3
 70
     1
102
RTVSPropertyOp4
 70
     1
102
RTVSPropertyOp5
 70
     1
102
RTVSPropertyOp6
 70
     1
102
RTVSPropertyOp7
 70
     1
102
RTVSPropertyOp8
 70
     1
102
RTVSPropertyOp9
 70
     1
102
RTVSPropertyOp10
 70
     1
102
RTVSPropertyOp11
 70
     1
102
RTVSPropertyOp12
 70
     1
102
RTVSPropertyOp13
 70
     1
102
RTVSPropertyOp14
 70
     1
102
RTVSPropertyOp15
 70
     1
102
RTVSPropertyOp16
 70
     1
102
RTVSPropertyOp17
 70
     1
102
RTVSPropertyOp18
 70
     1
102
RTVSPropertyOp19
 70
     1
102
RTVSPropertyOp20
 70
     1
102
RTVSPropertyOp21
 70
     1
102
RTVSPropertyOp22
 70
     1
102
RTVSPropertyOp23
 70
     1
102
RTVSPropertyOp24
 70
     1
102
RTVSPropertyOp25
 70
     1
102
RTVSPropertyOp26
 70
     1
102
RTVSPropertyOp27
 70
     1
102
RTVSPropertyOp28
 70
     1
102
RTVSPropertyOp29
 70
     1
102
RTVSPropertyOp30
 70
     1
102
RTVSPropertyOp31
 70
     1
102
RTVSPropertyOp32
 70
     1
102
RTVSPropertyOp33
 70
     1
102
RTVSPropertyOp34
 70
     1
102
RTVSPropertyOp35
 70
     1
102
RTVSPropertyOp36
 70
     1
102
RTVSPropertyOp37
 70
     1
102
RTVSPropertyOp38
 70
     1
102
RTVSPropertyOp39
 70
     1
102
RTVSPropertyOp40
 70
     1
102
RTVSPropertyOp41
 70
     1
102
RTVSPropertyOp42
 70
     1
102
RTVSPropertyOp43
 70
     1
102
RTVSPropertyOp44
 70
     1
102
RTVSPropertyOp45
 70
     1
102
RTVSPropertyOp46
 70
     1
102
RTVSPropertyOp47
 70
     1
102
RTVSPropertyOp48
 70
     1
102
RTVSPropertyOp49
 70
     1
102
RTVSPropertyOp50
 70
     1
102
RTVSPropertyOp51
 70
     0
102
RTVSPropertyOp52
 70
     0
102
RTVSPropertyOp53
 70
     1
102
RTVSPropertyOp54
 70
     1
102
RTVSPropertyOp55
 70
     1
102
RTVSPropertyOp56
 70
     1
102
RTVSPropertyOp57
 70
     1
102
RTVSPost2010Prop28
280
     0
102
RTVSPost2010PropOp28
 70
     1
102
RTVSPost2010Prop29
280
     1
102
RTVSPost2010PropOp29
 70
     1
102
RTVSPost2010Prop30
280
     1
102
RTVSPost2010PropOp30
 70
     1
102
RTVSPost2010Prop31
280
     0
102
RTVSPost2010PropOp31
 70
     1
102
RTVSPost2010Prop32
280
     0
102
RTVSPost2010PropOp32
 70
     1
102
RTVSPost2010Prop33
280
     0
102
RTVSPost2010PropOp33
 70
     1
102
RTVSPost2010Prop34
280
     0
102
RTVSPost2010PropOp34
 70
     1
102
RTVSPost2010Prop35
280
     0
102
RTVSPost2010PropOp35
 70
     1
102
RTVSPost2010Prop36
280
     0
102
RTVSPost2010PropOp36
 70
     1
102
RTVSPost2010Prop37
 90
       50
102
RTVSPost2010PropOp37
 70
     1
102
RTVSPost2010Prop38
140
0.0
102
RTVSPost2010PropOp38
 70
     1
102
RTVSPost2010Prop39
140
1.0
102
RTVSPost2010PropOp39
 70
     1
102
RTVSPost2010Prop40
 90
        0
102
RTVSPost2010PropOp40
 70
     1
102
RTVSPost2010Prop41ColorIndex
 90
       18
102
RTVSPost2010Prop41ColorRGB
 90
        0
102
RTVSPost2010PropOp41
 70
     1
102
RTVSPost2010Prop42
 90
       50
102
RTVSPost2010PropOp42
 70
     1
102
RTVSPost2010Prop43
 90
        3
102
RTVSPost2010PropOp43
 70
     1
102
RTVSPost2010Prop44ColorIndex
 90
        5
102
RTVSPost2010Prop44ColorRGB
 90
      255
102
RTVSPost2010PropOp44
 70
     1
102
RTVSPost2010Prop45
280
     0
102
RTVSPost2010PropOp45
 70
     1
102
RTVSPost2010Prop46
 90
       50
102
RTVSPost2010PropOp46
 70
     1
102
RTVSPost2010Prop47
 90
       50
102
RTVSPost2010PropOp47
 70
     1
102
RTVSPost2010Prop48
 90
       50
102
RTVSPost2010PropOp48
 70
     1
102
RTVSPost2010Prop49
280
     0
102
RTVSPost2010PropOp49
 70
     1
102
RTVSPost2010Prop50
 90
       50
102
RTVSPost2010PropOp50
 70
     1
102
RTVSPost2010Prop51ColorIndex
 90
      256
102
RTVSPost2010Prop51ColorRGB
 90
-16777216
102
RTVSPost2010PropOp51
 70
     0
102
RTVSPost2010Prop52
140
1.0
102
RTVSPost2010PropOp52
 70
     0
102
RTVSPost2010Prop53
 90
        2
102
RTVSPost2010PropOp53
 70
     1
102
RTVSPost2010Prop54
  1
strokes_ogs.tif
102
RTVSPost2010PropOp54
 70
     1
102
RTVSPost2010Prop55
280
     0
102
RTVSPost2010PropOp55
 70
     1
102
RTVSPost2010Prop56
140
1.0
102
RTVSPost2010PropOp56
 70
     1
102
RTVSPost2010Prop57
140
1.0
102
RTVSPost2010PropOp57
 70
     1
  0
XRECORD
  5
279
102
{ACAD_REACTORS
330
278
102
}
330
278
100
AcDbXrecord
280
     1
102
RTVSPropertyOp0
 70
     1
102
RTVSPropertyOp1
 70
     1
102
RTVSPropertyOp2
 70
     1
102
RTVSPropertyOp3
 70
     1
102
RTVSPropertyOp4
 70
     1
102
RTVSPropertyOp5
 70
     1
102
RTVSPropertyOp6
 70
     1
102
RTVSPropertyOp7
 70
     1
102
RTVSPropertyOp8
 70
     1
102
RTVSPropertyOp9
 70
     1
102
RTVSPropertyOp10
 70
     1
102
RTVSPropertyOp11
 70
     1
102
RTVSPropertyOp12
 70
     1
102
RTVSPropertyOp13
 70
     1
102
RTVSPropertyOp14
 70
     1
102
RTVSPropertyOp15
 70
     1
102
RTVSPropertyOp16
 70
     1
102
RTVSPropertyOp17
 70
     1
102
RTVSPropertyOp18
 70
     1
102
RTVSPropertyOp19
 70
     1
102
RTVSPropertyOp20
 70
     1
102
RTVSPropertyOp21
 70
     1
102
RTVSPropertyOp22
 70
     1
102
RTVSPropertyOp23
 70
     1
102
RTVSPropertyOp24
 70
     1
102
RTVSPropertyOp25
 70
     1
102
RTVSPropertyOp26
 70
     1
102
RTVSPropertyOp27
 70
     1
102
RTVSPropertyOp28
 70
     1
102
RTVSPropertyOp29
 70
     1
102
RTVSPropertyOp30
 70
     1
102
RTVSPropertyOp31
 70
     1
102
RTVSPropertyOp32
 70
     1
102
RTVSPropertyOp33
 70
     1
102
RTVSPropertyOp34
 70
     1
102
RTVSPropertyOp35
 70
     1
102
RTVSPropertyOp36
 70
     1
102
RTVSPropertyOp37
 70
     1
102
RTVSPropertyOp38
 70
     1
102
RTVSPropertyOp39
 70
     1
102
RTVSPropertyOp40
 70
     1
102
RTVSPropertyOp41
 70
     1
102
RTVSPropertyOp42
 70
     1
102
RTVSPropertyOp43
 70
     1
102
RTVSPropertyOp44
 70
     1
102
RTVSPropertyOp45
 70
     1
102
RTVSPropertyOp46
 70
     1
102
RTVSPropertyOp47
 70
     1
102
RTVSPropertyOp48
 70
     1
102
RTVSPropertyOp49
 70
     1
102
RTVSPropertyOp50
 70
     1
102
RTVSPropertyOp51
 70
     0
102
RTVSPropertyOp52
 70
     0
102
RTVSPropertyOp53
 70
     1
102
RTVSPropertyOp54
 70
     1
102
RTVSPropertyOp55
 70
     1
102
RTVSPropertyOp56
 70
     1
102
RTVSPropertyOp57
 70
     1
102
RTVSPost2010Prop28
280
     0
102
RTVSPost2010PropOp28
 70
     1
102
RTVSPost2010Prop29
280
     1
102
RTVSPost2010PropOp29
 70
     1
102
RTVSPost2010Prop30
280
     1
102
RTVSPost2010PropOp30
 70
     1
102
RTVSPost2010Prop31
280
     0
102
RTVSPost2010PropOp31
 70
     1
102
RTVSPost2010Prop32
280
     0
102
RTVSPost2010PropOp32
 70
     1
102
RTVSPost2010Prop33
280
     0
102
RTVSPost2010PropOp33
 70
     1
102
RTVSPost2010Prop34
280
     0
102
RTVSPost2010PropOp34
 70
     1
102
RTVSPost2010Prop35
280
     0
102
RTVSPost2010PropOp35
 70
     1
102
RTVSPost2010Prop36
280
     0
102
RTVSPost2010PropOp36
 70
     1
102
RTVSPost2010Prop37
 90
       50
102
RTVSPost2010PropOp37
 70
     1
102
RTVSPost2010Prop38
140
0.0
102
RTVSPost2010PropOp38
 70
     1
102
RTVSPost2010Prop39
140
1.0
102
RTVSPost2010PropOp39
 70
     1
102
RTVSPost2010Prop40
 90
        0
102
RTVSPost2010PropOp40
 70
     1
102
RTVSPost2010Prop41ColorIndex
 90
       18
102
RTVSPost2010Prop41ColorRGB
 90
        0
102
RTVSPost2010PropOp41
 70
     1
102
RTVSPost2010Prop42
 90
       50
102
RTVSPost2010PropOp42
 70
     1
102
RTVSPost2010Prop43
 90
        3
102
RTVSPost2010PropOp43
 70
     1
102
RTVSPost2010Prop44ColorIndex
 90
        5
102
RTVSPost2010Prop44ColorRGB
 90
      255
102
RTVSPost2010PropOp44
 70
     1
102
RTVSPost2010Prop45
280
     0
102
RTVSPost2010PropOp45
 70
     1
102
RTVSPost2010Prop46
 90
       50
102
RTVSPost2010PropOp46
 70
     1
102
RTVSPost2010Prop47
 90
       50
102
RTVSPost2010PropOp47
 70
     1
102
RTVSPost2010Prop48
 90
       50
102
RTVSPost2010PropOp48
 70
     1
102
RTVSPost2010Prop49
280
     0
102
RTVSPost2010PropOp49
 70
     1
102
RTVSPost2010Prop50
 90
       50
102
RTVSPost2010PropOp50
 70
     1
102
RTVSPost2010Prop51ColorIndex
 90
      256
102
RTVSPost2010Prop51ColorRGB
 90
-16777216
102
RTVSPost2010PropOp51
 70
     0
102
RTVSPost2010Prop52
140
1.0
102
RTVSPost2010PropOp52
 70
     0
102
RTVSPost2010Prop53
 90
        2
102
RTVSPost2010PropOp53
 70
     1
102
RTVSPost2010Prop54
  1
strokes_ogs.tif
102
RTVSPost2010PropOp54
 70
     1
102
RTVSPost2010Prop55
280
     0
102
RTVSPost2010PropOp55
 70
     1
102
RTVSPost2010Prop56
140
1.0
102
RTVSPost2010PropOp56
 70
     1
102
RTVSPost2010Prop57
140
1.0
102
RTVSPost2010PropOp57
 70
     1
  0
XRECORD
  5
27B
102
{ACAD_REACTORS
330
27A
102
}
330
27A
100
AcDbXrecord
280
     1
102
RTVSPropertyOp0
 70
     1
102
RTVSPropertyOp1
 70
     1
102
RTVSPropertyOp2
 70
     1
102
RTVSPropertyOp3
 70
     1
102
RTVSPropertyOp4
 70
     1
102
RTVSPropertyOp5
 70
     1
102
RTVSPropertyOp6
 70
     1
102
RTVSPropertyOp7
 70
     1
102
RTVSPropertyOp8
 70
     1
102
RTVSPropertyOp9
 70
     1
102
RTVSPropertyOp10
 70
     1
102
RTVSPropertyOp11
 70
     1
102
RTVSPropertyOp12
 70
     1
102
RTVSPropertyOp13
 70
     1
102
RTVSPropertyOp14
 70
     1
102
RTVSPropertyOp15
 70
     1
102
RTVSPropertyOp16
 70
     1
102
RTVSPropertyOp17
 70
     1
102
RTVSPropertyOp18
 70
     1
102
RTVSPropertyOp19
 70
     1
102
RTVSPropertyOp20
 70
     1
102
RTVSPropertyOp21
 70
     1
102
RTVSPropertyOp22
 70
     1
102
RTVSPropertyOp23
 70
     1
102
RTVSPropertyOp24
 70
     1
102
RTVSPropertyOp25
 70
     1
102
RTVSPropertyOp26
 70
     1
102
RTVSPropertyOp27
 70
     1
102
RTVSPropertyOp28
 70
     1
102
RTVSPropertyOp29
 70
     1
102
RTVSPropertyOp30
 70
     1
102
RTVSPropertyOp31
 70
     1
102
RTVSPropertyOp32
 70
     1
102
RTVSPropertyOp33
 70
     1
102
RTVSPropertyOp34
 70
     1
102
RTVSPropertyOp35
 70
     1
102
RTVSPropertyOp36
 70
     1
102
RTVSPropertyOp37
 70
     1
102
RTVSPropertyOp38
 70
     1
102
RTVSPropertyOp39
 70
     1
102
RTVSPropertyOp40
 70
     1
102
RTVSPropertyOp41
 70
     1
102
RTVSPropertyOp42
 70
     1
102
RTVSPropertyOp43
 70
     1
102
RTVSPropertyOp44
 70
     1
102
RTVSPropertyOp45
 70
     1
102
RTVSPropertyOp46
 70
     1
102
RTVSPropertyOp47
 70
     1
102
RTVSPropertyOp48
 70
     1
102
RTVSPropertyOp49
 70
     1
102
RTVSPropertyOp50
 70
     1
102
RTVSPropertyOp51
 70
     0
102
RTVSPropertyOp52
 70
     0
102
RTVSPropertyOp53
 70
     1
102
RTVSPropertyOp54
 70
     1
102
RTVSPropertyOp55
 70
     1
102
RTVSPropertyOp56
 70
     1
102
RTVSPropertyOp57
 70
     1
102
RTVSPost2010Prop28
280
     0
102
RTVSPost2010PropOp28
 70
     1
102
RTVSPost2010Prop29
280
     1
102
RTVSPost2010PropOp29
 70
     1
102
RTVSPost2010Prop30
280
     1
102
RTVSPost2010PropOp30
 70
     1
102
RTVSPost2010Prop31
280
     0
102
RTVSPost2010PropOp31
 70
     1
102
RTVSPost2010Prop32
280
     0
102
RTVSPost2010PropOp32
 70
     1
102
RTVSPost2010Prop33
280
     0
102
RTVSPost2010PropOp33
 70
     1
102
RTVSPost2010Prop34
280
     0
102
RTVSPost2010PropOp34
 70
     1
102
RTVSPost2010Prop35
280
     0
102
RTVSPost2010PropOp35
 70
     1
102
RTVSPost2010Prop36
280
     0
102
RTVSPost2010PropOp36
 70
     1
102
RTVSPost2010Prop37
 90
       50
102
RTVSPost2010PropOp37
 70
     1
102
RTVSPost2010Prop38
140
0.0
102
RTVSPost2010PropOp38
 70
     1
102
RTVSPost2010Prop39
140
1.0
102
RTVSPost2010PropOp39
 70
     1
102
RTVSPost2010Prop40
 90
        0
102
RTVSPost2010PropOp40
 70
     1
102
RTVSPost2010Prop41ColorIndex
 90
       18
102
RTVSPost2010Prop41ColorRGB
 90
        0
102
RTVSPost2010PropOp41
 70
     1
102
RTVSPost2010Prop42
 90
       50
102
RTVSPost2010PropOp42
 70
     1
102
RTVSPost2010Prop43
 90
        3
102
RTVSPost2010PropOp43
 70
     1
102
RTVSPost2010Prop44ColorIndex
 90
        5
102
RTVSPost2010Prop44ColorRGB
 90
      255
102
RTVSPost2010PropOp44
 70
     1
102
RTVSPost2010Prop45
280
     0
102
RTVSPost2010PropOp45
 70
     1
102
RTVSPost2010Prop46
 90
       50
102
RTVSPost2010PropOp46
 70
     1
102
RTVSPost2010Prop47
 90
       50
102
RTVSPost2010PropOp47
 70
     1
102
RTVSPost2010Prop48
 90
       50
102
RTVSPost2010PropOp48
 70
     1
102
RTVSPost2010Prop49
280
     0
102
RTVSPost2010PropOp49
 70
     1
102
RTVSPost2010Prop50
 90
       50
102
RTVSPost2010PropOp50
 70
     1
102
RTVSPost2010Prop51ColorIndex
 90
      256
102
RTVSPost2010Prop51ColorRGB
 90
-16777216
102
RTVSPost2010PropOp51
 70
     0
102
RTVSPost2010Prop52
140
1.0
102
RTVSPost2010PropOp52
 70
     0
102
RTVSPost2010Prop53
 90
        2
102
RTVSPost2010PropOp53
 70
     1
102
RTVSPost2010Prop54
  1
strokes_ogs.tif
102
RTVSPost2010PropOp54
 70
     1
102
RTVSPost2010Prop55
280
     0
102
RTVSPost2010PropOp55
 70
     1
102
RTVSPost2010Prop56
140
1.0
102
RTVSPost2010PropOp56
 70
     1
102
RTVSPost2010Prop57
140
1.0
102
RTVSPost2010PropOp57
 70
     1
  0
XRECORD
  5
27D
102
{ACAD_REACTORS
330
27C
102
}
330
27C
100
AcDbXrecord
280
     1
102
RTVSPropertyOp0
 70
     1
102
RTVSPropertyOp1
 70
     1
102
RTVSPropertyOp2
 70
     1
102
RTVSPropertyOp3
 70
     1
102
RTVSPropertyOp4
 70
     1
102
RTVSPropertyOp5
 70
     1
102
RTVSPropertyOp6
 70
     1
102
RTVSPropertyOp7
 70
     1
102
RTVSPropertyOp8
 70
     1
102
RTVSPropertyOp9
 70
     1
102
RTVSPropertyOp10
 70
     1
102
RTVSPropertyOp11
 70
     1
102
RTVSPropertyOp12
 70
     1
102
RTVSPropertyOp13
 70
     1
102
RTVSPropertyOp14
 70
     1
102
RTVSPropertyOp15
 70
     1
102
RTVSPropertyOp16
 70
     1
102
RTVSPropertyOp17
 70
     1
102
RTVSPropertyOp18
 70
     1
102
RTVSPropertyOp19
 70
     1
102
RTVSPropertyOp20
 70
     1
102
RTVSPropertyOp21
 70
     1
102
RTVSPropertyOp22
 70
     1
102
RTVSPropertyOp23
 70
     1
102
RTVSPropertyOp24
 70
     1
102
RTVSPropertyOp25
 70
     1
102
RTVSPropertyOp26
 70
     1
102
RTVSPropertyOp27
 70
     1
102
RTVSPropertyOp28
 70
     1
102
RTVSPropertyOp29
 70
     1
102
RTVSPropertyOp30
 70
     1
102
RTVSPropertyOp31
 70
     1
102
RTVSPropertyOp32
 70
     1
102
RTVSPropertyOp33
 70
     1
102
RTVSPropertyOp34
 70
     1
102
RTVSPropertyOp35
 70
     1
102
RTVSPropertyOp36
 70
     1
102
RTVSPropertyOp37
 70
     1
102
RTVSPropertyOp38
 70
     1
102
RTVSPropertyOp39
 70
     1
102
RTVSPropertyOp40
 70
     1
102
RTVSPropertyOp41
 70
     1
102
RTVSPropertyOp42
 70
     1
102
RTVSPropertyOp43
 70
     1
102
RTVSPropertyOp44
 70
     1
102
RTVSPropertyOp45
 70
     1
102
RTVSPropertyOp46
 70
     1
102
RTVSPropertyOp47
 70
     1
102
RTVSPropertyOp48
 70
     1
102
RTVSPropertyOp49
 70
     1
102
RTVSPropertyOp50
 70
     1
102
RTVSPropertyOp51
 70
     0
102
RTVSPropertyOp52
 70
     0
102
RTVSPropertyOp53
 70
     1
102
RTVSPropertyOp54
 70
     1
102
RTVSPropertyOp55
 70
     1
102
RTVSPropertyOp56
 70
     1
102
RTVSPropertyOp57
 70
     1
102
RTVSPost2010Prop28
280
     0
102
RTVSPost2010PropOp28
 70
     1
102
RTVSPost2010Prop29
280
     1
102
RTVSPost2010PropOp29
 70
     1
102
RTVSPost2010Prop30
280
     1
102
RTVSPost2010PropOp30
 70
     1
102
RTVSPost2010Prop31
280
     0
102
RTVSPost2010PropOp31
 70
     1
102
RTVSPost2010Prop32
280
     0
102
RTVSPost2010PropOp32
 70
     1
102
RTVSPost2010Prop33
280
     0
102
RTVSPost2010PropOp33
 70
     1
102
RTVSPost2010Prop34
280
     0
102
RTVSPost2010PropOp34
 70
     1
102
RTVSPost2010Prop35
280
     0
102
RTVSPost2010PropOp35
 70
     1
102
RTVSPost2010Prop36
280
     0
102
RTVSPost2010PropOp36
 70
     1
102
RTVSPost2010Prop37
 90
       50
102
RTVSPost2010PropOp37
 70
     1
102
RTVSPost2010Prop38
140
0.0
102
RTVSPost2010PropOp38
 70
     1
102
RTVSPost2010Prop39
140
1.0
102
RTVSPost2010PropOp39
 70
     1
102
RTVSPost2010Prop40
 90
        0
102
RTVSPost2010PropOp40
 70
     1
102
RTVSPost2010Prop41ColorIndex
 90
       18
102
RTVSPost2010Prop41ColorRGB
 90
        0
102
RTVSPost2010PropOp41
 70
     1
102
RTVSPost2010Prop42
 90
       50
102
RTVSPost2010PropOp42
 70
     1
102
RTVSPost2010Prop43
 90
        3
102
RTVSPost2010PropOp43
 70
     1
102
RTVSPost2010Prop44ColorIndex
 90
        5
102
RTVSPost2010Prop44ColorRGB
 90
      255
102
RTVSPost2010PropOp44
 70
     1
102
RTVSPost2010Prop45
280
     0
102
RTVSPost2010PropOp45
 70
     1
102
RTVSPost2010Prop46
 90
       50
102
RTVSPost2010PropOp46
 70
     1
102
RTVSPost2010Prop47
 90
       50
102
RTVSPost2010PropOp47
 70
     1
102
RTVSPost2010Prop48
 90
       50
102
RTVSPost2010PropOp48
 70
     1
102
RTVSPost2010Prop49
280
     0
102
RTVSPost2010PropOp49
 70
     1
102
RTVSPost2010Prop50
 90
       50
102
RTVSPost2010PropOp50
 70
     1
102
RTVSPost2010Prop51ColorIndex
 90
      256
102
RTVSPost2010Prop51ColorRGB
 90
-16777216
102
RTVSPost2010PropOp51
 70
     0
102
RTVSPost2010Prop52
140
1.0
102
RTVSPost2010PropOp52
 70
     0
102
RTVSPost2010Prop53
 90
        2
102
RTVSPost2010PropOp53
 70
     1
102
RTVSPost2010Prop54
  1
strokes_ogs.tif
102
RTVSPost2010PropOp54
 70
     1
102
RTVSPost2010Prop55
280
     0
102
RTVSPost2010PropOp55
 70
     1
102
RTVSPost2010Prop56
140
1.0
102
RTVSPost2010PropOp56
 70
     1
102
RTVSPost2010Prop57
140
1.0
102
RTVSPost2010PropOp57
 70
     1
  0
XRECORD
  5
27F
102
{ACAD_REACTORS
330
27E
102
}
330
27E
100
AcDbXrecord
280
     1
102
RTVSPropertyOp0
 70
     1
102
RTVSPropertyOp1
 70
     1
102
RTVSPropertyOp2
 70
     1
102
RTVSPropertyOp3
 70
     1
102
RTVSPropertyOp4
 70
     1
102
RTVSPropertyOp5
 70
     1
102
RTVSPropertyOp6
 70
     1
102
RTVSPropertyOp7
 70
     1
102
RTVSPropertyOp8
 70
     1
102
RTVSPropertyOp9
 70
     1
102
RTVSPropertyOp10
 70
     1
102
RTVSPropertyOp11
 70
     1
102
RTVSPropertyOp12
 70
     1
102
RTVSPropertyOp13
 70
     1
102
RTVSPropertyOp14
 70
     1
102
RTVSPropertyOp15
 70
     1
102
RTVSPropertyOp16
 70
     1
102
RTVSPropertyOp17
 70
     1
102
RTVSPropertyOp18
 70
     1
102
RTVSPropertyOp19
 70
     1
102
RTVSPropertyOp20
 70
     1
102
RTVSPropertyOp21
 70
     1
102
RTVSPropertyOp22
 70
     1
102
RTVSPropertyOp23
 70
     1
102
RTVSPropertyOp24
 70
     1
102
RTVSPropertyOp25
 70
     1
102
RTVSPropertyOp26
 70
     1
102
RTVSPropertyOp27
 70
     1
102
RTVSPropertyOp28
 70
     1
102
RTVSPropertyOp29
 70
     1
102
RTVSPropertyOp30
 70
     1
102
RTVSPropertyOp31
 70
     1
102
RTVSPropertyOp32
 70
     1
102
RTVSPropertyOp33
 70
     1
102
RTVSPropertyOp34
 70
     1
102
RTVSPropertyOp35
 70
     1
102
RTVSPropertyOp36
 70
     1
102
RTVSPropertyOp37
 70
     1
102
RTVSPropertyOp38
 70
     1
102
RTVSPropertyOp39
 70
     1
102
RTVSPropertyOp40
 70
     1
102
RTVSPropertyOp41
 70
     1
102
RTVSPropertyOp42
 70
     1
102
RTVSPropertyOp43
 70
     1
102
RTVSPropertyOp44
 70
     1
102
RTVSPropertyOp45
 70
     1
102
RTVSPropertyOp46
 70
     1
102
RTVSPropertyOp47
 70
     1
102
RTVSPropertyOp48
 70
     1
102
RTVSPropertyOp49
 70
     1
102
RTVSPropertyOp50
 70
     1
102
RTVSPropertyOp51
 70
     0
102
RTVSPropertyOp52
 70
     0
102
RTVSPropertyOp53
 70
     1
102
RTVSPropertyOp54
 70
     1
102
RTVSPropertyOp55
 70
     1
102
RTVSPropertyOp56
 70
     1
102
RTVSPropertyOp57
 70
     1
102
RTVSPost2010Prop28
280
     0
102
RTVSPost2010PropOp28
 70
     1
102
RTVSPost2010Prop29
280
     1
102
RTVSPost2010PropOp29
 70
     1
102
RTVSPost2010Prop30
280
     1
102
RTVSPost2010PropOp30
 70
     1
102
RTVSPost2010Prop31
280
     0
102
RTVSPost2010PropOp31
 70
     1
102
RTVSPost2010Prop32
280
     0
102
RTVSPost2010PropOp32
 70
     1
102
RTVSPost2010Prop33
280
     0
102
RTVSPost2010PropOp33
 70
     1
102
RTVSPost2010Prop34
280
     0
102
RTVSPost2010PropOp34
 70
     1
102
RTVSPost2010Prop35
280
     0
102
RTVSPost2010PropOp35
 70
     1
102
RTVSPost2010Prop36
280
     0
102
RTVSPost2010PropOp36
 70
     1
102
RTVSPost2010Prop37
 90
       50
102
RTVSPost2010PropOp37
 70
     1
102
RTVSPost2010Prop38
140
0.0
102
RTVSPost2010PropOp38
 70
     1
102
RTVSPost2010Prop39
140
1.0
102
RTVSPost2010PropOp39
 70
     1
102
RTVSPost2010Prop40
 90
        0
102
RTVSPost2010PropOp40
 70
     1
102
RTVSPost2010Prop41ColorIndex
 90
       18
102
RTVSPost2010Prop41ColorRGB
 90
        0
102
RTVSPost2010PropOp41
 70
     1
102
RTVSPost2010Prop42
 90
       50
102
RTVSPost2010PropOp42
 70
     1
102
RTVSPost2010Prop43
 90
        3
102
RTVSPost2010PropOp43
 70
     1
102
RTVSPost2010Prop44ColorIndex
 90
        5
102
RTVSPost2010Prop44ColorRGB
 90
      255
102
RTVSPost2010PropOp44
 70
     1
102
RTVSPost2010Prop45
280
     0
102
RTVSPost2010PropOp45
 70
     1
102
RTVSPost2010Prop46
 90
       50
102
RTVSPost2010PropOp46
 70
     1
102
RTVSPost2010Prop47
 90
       50
102
RTVSPost2010PropOp47
 70
     1
102
RTVSPost2010Prop48
 90
       50
102
RTVSPost2010PropOp48
 70
     1
102
RTVSPost2010Prop49
280
     0
102
RTVSPost2010PropOp49
 70
     1
102
RTVSPost2010Prop50
 90
       50
102
RTVSPost2010PropOp50
 70
     1
102
RTVSPost2010Prop51ColorIndex
 90
      256
102
RTVSPost2010Prop51ColorRGB
 90
-16777216
102
RTVSPost2010PropOp51
 70
     0
102
RTVSPost2010Prop52
140
1.0
102
RTVSPost2010PropOp52
 70
     0
102
RTVSPost2010Prop53
 90
        2
102
RTVSPost2010PropOp53
 70
     1
102
RTVSPost2010Prop54
  1
strokes_ogs.tif
102
RTVSPost2010PropOp54
 70
     1
102
RTVSPost2010Prop55
280
     0
102
RTVSPost2010PropOp55
 70
     1
102
RTVSPost2010Prop56
140
1.0
102
RTVSPost2010PropOp56
 70
     1
102
RTVSPost2010Prop57
140
1.0
102
RTVSPost2010PropOp57
 70
     1
  0
XRECORD
  5
285
102
{ACAD_REACTORS
330
284
102
}
330
284
100
AcDbXrecord
280
     1
102
RTVSPropertyOp0
 70
     1
102
RTVSPropertyOp1
 70
     1
102
RTVSPropertyOp2
 70
     1
102
RTVSPropertyOp3
 70
     1
102
RTVSPropertyOp4
 70
     1
102
RTVSPropertyOp5
 70
     1
102
RTVSPropertyOp6
 70
     1
102
RTVSPropertyOp7
 70
     1
102
RTVSPropertyOp8
 70
     1
102
RTVSPropertyOp9
 70
     1
102
RTVSPropertyOp10
 70
     1
102
RTVSPropertyOp11
 70
     1
102
RTVSPropertyOp12
 70
     1
102
RTVSPropertyOp13
 70
     1
102
RTVSPropertyOp14
 70
     1
102
RTVSPropertyOp15
 70
     1
102
RTVSPropertyOp16
 70
     1
102
RTVSPropertyOp17
 70
     1
102
RTVSPropertyOp18
 70
     1
102
RTVSPropertyOp19
 70
     1
102
RTVSPropertyOp20
 70
     1
102
RTVSPropertyOp21
 70
     1
102
RTVSPropertyOp22
 70
     1
102
RTVSPropertyOp23
 70
     1
102
RTVSPropertyOp24
 70
     1
102
RTVSPropertyOp25
 70
     1
102
RTVSPropertyOp26
 70
     1
102
RTVSPropertyOp27
 70
     1
102
RTVSPropertyOp28
 70
     1
102
RTVSPropertyOp29
 70
     1
102
RTVSPropertyOp30
 70
     1
102
RTVSPropertyOp31
 70
     1
102
RTVSPropertyOp32
 70
     1
102
RTVSPropertyOp33
 70
     1
102
RTVSPropertyOp34
 70
     1
102
RTVSPropertyOp35
 70
     1
102
RTVSPropertyOp36
 70
     1
102
RTVSPropertyOp37
 70
     1
102
RTVSPropertyOp38
 70
     1
102
RTVSPropertyOp39
 70
     1
102
RTVSPropertyOp40
 70
     1
102
RTVSPropertyOp41
 70
     1
102
RTVSPropertyOp42
 70
     1
102
RTVSPropertyOp43
 70
     1
102
RTVSPropertyOp44
 70
     1
102
RTVSPropertyOp45
 70
     1
102
RTVSPropertyOp46
 70
     1
102
RTVSPropertyOp47
 70
     1
102
RTVSPropertyOp48
 70
     1
102
RTVSPropertyOp49
 70
     1
102
RTVSPropertyOp50
 70
     1
102
RTVSPropertyOp51
 70
     0
102
RTVSPropertyOp52
 70
     0
102
RTVSPropertyOp53
 70
     1
102
RTVSPropertyOp54
 70
     1
102
RTVSPropertyOp55
 70
     1
102
RTVSPropertyOp56
 70
     1
102
RTVSPropertyOp57
 70
     1
102
RTVSPost2010Prop28
280
     0
102
RTVSPost2010PropOp28
 70
     1
102
RTVSPost2010Prop29
280
     1
102
RTVSPost2010PropOp29
 70
     1
102
RTVSPost2010Prop30
280
     1
102
RTVSPost2010PropOp30
 70
     1
102
RTVSPost2010Prop31
280
     0
102
RTVSPost2010PropOp31
 70
     1
102
RTVSPost2010Prop32
280
     0
102
RTVSPost2010PropOp32
 70
     1
102
RTVSPost2010Prop33
280
     0
102
RTVSPost2010PropOp33
 70
     1
102
RTVSPost2010Prop34
280
     0
102
RTVSPost2010PropOp34
 70
     1
102
RTVSPost2010Prop35
280
     0
102
RTVSPost2010PropOp35
 70
     1
102
RTVSPost2010Prop36
280
     0
102
RTVSPost2010PropOp36
 70
     1
102
RTVSPost2010Prop37
 90
       50
102
RTVSPost2010PropOp37
 70
     1
102
RTVSPost2010Prop38
140
0.0
102
RTVSPost2010PropOp38
 70
     1
102
RTVSPost2010Prop39
140
1.0
102
RTVSPost2010PropOp39
 70
     1
102
RTVSPost2010Prop40
 90
        0
102
RTVSPost2010PropOp40
 70
     1
102
RTVSPost2010Prop41ColorIndex
 90
       18
102
RTVSPost2010Prop41ColorRGB
 90
        0
102
RTVSPost2010PropOp41
 70
     1
102
RTVSPost2010Prop42
 90
       50
102
RTVSPost2010PropOp42
 70
     1
102
RTVSPost2010Prop43
 90
        3
102
RTVSPost2010PropOp43
 70
     1
102
RTVSPost2010Prop44ColorIndex
 90
        5
102
RTVSPost2010Prop44ColorRGB
 90
      255
102
RTVSPost2010PropOp44
 70
     1
102
RTVSPost2010Prop45
280
     0
102
RTVSPost2010PropOp45
 70
     1
102
RTVSPost2010Prop46
 90
       50
102
RTVSPost2010PropOp46
 70
     1
102
RTVSPost2010Prop47
 90
       50
102
RTVSPost2010PropOp47
 70
     1
102
RTVSPost2010Prop48
 90
       50
102
RTVSPost2010PropOp48
 70
     1
102
RTVSPost2010Prop49
280
     0
102
RTVSPost2010PropOp49
 70
     1
102
RTVSPost2010Prop50
 90
       50
102
RTVSPost2010PropOp50
 70
     1
102
RTVSPost2010Prop51ColorIndex
 90
      256
102
RTVSPost2010Prop51ColorRGB
 90
-16777216
102
RTVSPost2010PropOp51
 70
     0
102
RTVSPost2010Prop52
140
1.0
102
RTVSPost2010PropOp52
 70
     0
102
RTVSPost2010Prop53
 90
        2
102
RTVSPost2010PropOp53
 70
     1
102
RTVSPost2010Prop54
  1
strokes_ogs.tif
102
RTVSPost2010PropOp54
 70
     1
102
RTVSPost2010Prop55
280
     0
102
RTVSPost2010PropOp55
 70
     1
102
RTVSPost2010Prop56
140
1.0
102
RTVSPost2010PropOp56
 70
     1
102
RTVSPost2010Prop57
140
1.0
102
RTVSPost2010PropOp57
 70
     1
  0
XRECORD
  5
299
102
{ACAD_REACTORS
330
298
102
}
330
298
100
AcDbXrecord
280
     1
102
RTVSPropertyOp0
 70
     0
102
RTVSPropertyOp1
 70
     0
102
RTVSPropertyOp2
 70
     0
102
RTVSPropertyOp3
 70
     0
102
RTVSPropertyOp4
 70
     0
102
RTVSPropertyOp5
 70
     0
102
RTVSPropertyOp6
 70
     0
102
RTVSPropertyOp7
 70
     0
102
RTVSPropertyOp8
 70
     0
102
RTVSPropertyOp9
 70
     0
102
RTVSPropertyOp10
 70
     0
102
RTVSPropertyOp11
 70
     0
102
RTVSPropertyOp12
 70
     0
102
RTVSPropertyOp13
 70
     0
102
RTVSPropertyOp14
 70
     2
102
RTVSPropertyOp15
 70
     0
102
RTVSPropertyOp16
 70
     0
102
RTVSPropertyOp17
 70
     0
102
RTVSPropertyOp18
 70
     0
102
RTVSPropertyOp19
 70
     0
102
RTVSPropertyOp20
 70
     0
102
RTVSPropertyOp21
 70
     0
102
RTVSPropertyOp22
 70
     0
102
RTVSPropertyOp23
 70
     0
102
RTVSPropertyOp24
 70
     0
102
RTVSPropertyOp25
 70
     0
102
RTVSPropertyOp26
 70
     0
102
RTVSPropertyOp27
 70
     0
102
RTVSPropertyOp28
 70
     0
102
RTVSPropertyOp29
 70
     0
102
RTVSPropertyOp30
 70
     0
102
RTVSPropertyOp31
 70
     0
102
RTVSPropertyOp32
 70
     0
102
RTVSPropertyOp33
 70
     0
102
RTVSPropertyOp34
 70
     0
102
RTVSPropertyOp35
 70
     0
102
RTVSPropertyOp36
 70
     0
102
RTVSPropertyOp37
 70
     0
102
RTVSPropertyOp38
 70
     0
102
RTVSPropertyOp39
 70
     0
102
RTVSPropertyOp40
 70
     0
102
RTVSPropertyOp41
 70
     0
102
RTVSPropertyOp42
 70
     0
102
RTVSPropertyOp43
 70
     0
102
RTVSPropertyOp44
 70
     0
102
RTVSPropertyOp45
 70
     0
102
RTVSPropertyOp46
 70
     0
102
RTVSPropertyOp47
 70
     0
102
RTVSPropertyOp48
 70
     0
102
RTVSPropertyOp49
 70
     0
102
RTVSPropertyOp50
 70
     0
102
RTVSPropertyOp51
 70
     0
102
RTVSPropertyOp52
 70
     0
102
RTVSPropertyOp53
 70
     0
102
RTVSPropertyOp54
 70
     0
102
RTVSPropertyOp55
 70
     0
102
RTVSPropertyOp56
 70
     0
102
RTVSPropertyOp57
 70
     0
102
RTVSPost2010Prop28
280
     0
102
RTVSPost2010PropOp28
 70
     0
102
RTVSPost2010Prop29
280
     1
102
RTVSPost2010PropOp29
 70
     0
102
RTVSPost2010Prop30
280
     1
102
RTVSPost2010PropOp30
 70
     0
102
RTVSPost2010Prop31
280
     0
102
RTVSPost2010PropOp31
 70
     0
102
RTVSPost2010Prop32
280
     0
102
RTVSPost2010PropOp32
 70
     0
102
RTVSPost2010Prop33
280
     0
102
RTVSPost2010PropOp33
 70
     0
102
RTVSPost2010Prop34
280
     0
102
RTVSPost2010PropOp34
 70
     0
102
RTVSPost2010Prop35
280
     0
102
RTVSPost2010PropOp35
 70
     0
102
RTVSPost2010Prop36
280
     0
102
RTVSPost2010PropOp36
 70
     0
102
RTVSPost2010Prop37
 90
       50
102
RTVSPost2010PropOp37
 70
     0
102
RTVSPost2010Prop38
140
0.0
102
RTVSPost2010PropOp38
 70
     0
102
RTVSPost2010Prop39
140
1.0
102
RTVSPost2010PropOp39
 70
     0
102
RTVSPost2010Prop40
 90
        0
102
RTVSPost2010PropOp40
 70
     0
102
RTVSPost2010Prop41ColorIndex
 90
       18
102
RTVSPost2010Prop41ColorRGB
 90
        0
102
RTVSPost2010PropOp41
 70
     0
102
RTVSPost2010Prop42
 90
       50
102
RTVSPost2010PropOp42
 70
     0
102
RTVSPost2010Prop43
 90
        3
102
RTVSPost2010PropOp43
 70
     0
102
RTVSPost2010Prop44ColorIndex
 90
        5
102
RTVSPost2010Prop44ColorRGB
 90
      255
102
RTVSPost2010PropOp44
 70
     0
102
RTVSPost2010Prop45
280
     0
102
RTVSPost2010PropOp45
 70
     0
102
RTVSPost2010Prop46
 90
       50
102
RTVSPost2010PropOp46
 70
     0
102
RTVSPost2010Prop47
 90
       50
102
RTVSPost2010PropOp47
 70
     0
102
RTVSPost2010Prop48
 90
       50
102
RTVSPost2010PropOp48
 70
     0
102
RTVSPost2010Prop49
280
     0
102
RTVSPost2010PropOp49
 70
     0
102
RTVSPost2010Prop50
 90
       50
102
RTVSPost2010PropOp50
 70
     0
102
RTVSPost2010Prop51ColorIndex
 90
      256
102
RTVSPost2010Prop51ColorRGB
 90
-16777216
102
RTVSPost2010PropOp51
 70
     0
102
RTVSPost2010Prop52
140
1.0
102
RTVSPost2010PropOp52
 70
     0
102
RTVSPost2010Prop53
 90
        2
102
RTVSPost2010PropOp53
 70
     0
102
RTVSPost2010Prop54
  1
strokes_ogs.tif
102
RTVSPost2010PropOp54
 70
     0
102
RTVSPost2010Prop55
280
     0
102
RTVSPost2010PropOp55
 70
     0
102
RTVSPost2010Prop56
140
1.0
102
RTVSPost2010PropOp56
 70
     0
102
RTVSPost2010Prop57
140
1.0
102
RTVSPost2010PropOp57
 70
     0
  0
XRECORD
  5
293
102
{ACAD_REACTORS
330
292
102
}
330
292
100
AcDbXrecord
280
     1
102
RTVSPropertyOp0
 70
     1
102
RTVSPropertyOp1
 70
     1
102
RTVSPropertyOp2
 70
     1
102
RTVSPropertyOp3
 70
     1
102
RTVSPropertyOp4
 70
     1
102
RTVSPropertyOp5
 70
     1
102
RTVSPropertyOp6
 70
     1
102
RTVSPropertyOp7
 70
     1
102
RTVSPropertyOp8
 70
     1
102
RTVSPropertyOp9
 70
     1
102
RTVSPropertyOp10
 70
     1
102
RTVSPropertyOp11
 70
     1
102
RTVSPropertyOp12
 70
     1
102
RTVSPropertyOp13
 70
     1
102
RTVSPropertyOp14
 70
     1
102
RTVSPropertyOp15
 70
     1
102
RTVSPropertyOp16
 70
     1
102
RTVSPropertyOp17
 70
     1
102
RTVSPropertyOp18
 70
     1
102
RTVSPropertyOp19
 70
     1
102
RTVSPropertyOp20
 70
     1
102
RTVSPropertyOp21
 70
     1
102
RTVSPropertyOp22
 70
     1
102
RTVSPropertyOp23
 70
     1
102
RTVSPropertyOp24
 70
     1
102
RTVSPropertyOp25
 70
     1
102
RTVSPropertyOp26
 70
     1
102
RTVSPropertyOp27
 70
     1
102
RTVSPropertyOp28
 70
     1
102
RTVSPropertyOp29
 70
     1
102
RTVSPropertyOp30
 70
     1
102
RTVSPropertyOp31
 70
     1
102
RTVSPropertyOp32
 70
     1
102
RTVSPropertyOp33
 70
     1
102
RTVSPropertyOp34
 70
     1
102
RTVSPropertyOp35
 70
     1
102
RTVSPropertyOp36
 70
     1
102
RTVSPropertyOp37
 70
     1
102
RTVSPropertyOp38
 70
     1
102
RTVSPropertyOp39
 70
     1
102
RTVSPropertyOp40
 70
     1
102
RTVSPropertyOp41
 70
     1
102
RTVSPropertyOp42
 70
     1
102
RTVSPropertyOp43
 70
     1
102
RTVSPropertyOp44
 70
     1
102
RTVSPropertyOp45
 70
     1
102
RTVSPropertyOp46
 70
     1
102
RTVSPropertyOp47
 70
     1
102
RTVSPropertyOp48
 70
     1
102
RTVSPropertyOp49
 70
     1
102
RTVSPropertyOp50
 70
     1
102
RTVSPropertyOp51
 70
     0
102
RTVSPropertyOp52
 70
     0
102
RTVSPropertyOp53
 70
     1
102
RTVSPropertyOp54
 70
     1
102
RTVSPropertyOp55
 70
     1
102
RTVSPropertyOp56
 70
     1
102
RTVSPropertyOp57
 70
     1
102
RTVSPost2010Prop28
280
     0
102
RTVSPost2010PropOp28
 70
     1
102
RTVSPost2010Prop29
280
     1
102
RTVSPost2010PropOp29
 70
     1
102
RTVSPost2010Prop30
280
     1
102
RTVSPost2010PropOp30
 70
     1
102
RTVSPost2010Prop31
280
     0
102
RTVSPost2010PropOp31
 70
     1
102
RTVSPost2010Prop32
280
     0
102
RTVSPost2010PropOp32
 70
     1
102
RTVSPost2010Prop33
280
     0
102
RTVSPost2010PropOp33
 70
     1
102
RTVSPost2010Prop34
280
     0
102
RTVSPost2010PropOp34
 70
     1
102
RTVSPost2010Prop35
280
     0
102
RTVSPost2010PropOp35
 70
     1
102
RTVSPost2010Prop36
280
     0
102
RTVSPost2010PropOp36
 70
     1
102
RTVSPost2010Prop37
 90
       50
102
RTVSPost2010PropOp37
 70
     1
102
RTVSPost2010Prop38
140
0.0
102
RTVSPost2010PropOp38
 70
     1
102
RTVSPost2010Prop39
140
1.0
102
RTVSPost2010PropOp39
 70
     1
102
RTVSPost2010Prop40
 90
        0
102
RTVSPost2010PropOp40
 70
     1
102
RTVSPost2010Prop41ColorIndex
 90
       18
102
RTVSPost2010Prop41ColorRGB
 90
        0
102
RTVSPost2010PropOp41
 70
     1
102
RTVSPost2010Prop42
 90
       50
102
RTVSPost2010PropOp42
 70
     1
102
RTVSPost2010Prop43
 90
        3
102
RTVSPost2010PropOp43
 70
     1
102
RTVSPost2010Prop44ColorIndex
 90
        5
102
RTVSPost2010Prop44ColorRGB
 90
      255
102
RTVSPost2010PropOp44
 70
     1
102
RTVSPost2010Prop45
280
     0
102
RTVSPost2010PropOp45
 70
     1
102
RTVSPost2010Prop46
 90
       50
102
RTVSPost2010PropOp46
 70
     1
102
RTVSPost2010Prop47
 90
       50
102
RTVSPost2010PropOp47
 70
     1
102
RTVSPost2010Prop48
 90
       50
102
RTVSPost2010PropOp48
 70
     1
102
RTVSPost2010Prop49
280
     0
102
RTVSPost2010PropOp49
 70
     1
102
RTVSPost2010Prop50
 90
       50
102
RTVSPost2010PropOp50
 70
     1
102
RTVSPost2010Prop51ColorIndex
 90
      256
102
RTVSPost2010Prop51ColorRGB
 90
-16777216
102
RTVSPost2010PropOp51
 70
     0
102
RTVSPost2010Prop52
140
1.0
102
RTVSPost2010PropOp52
 70
     0
102
RTVSPost2010Prop53
 90
        2
102
RTVSPost2010PropOp53
 70
     1
102
RTVSPost2010Prop54
  1
strokes_ogs.tif
102
RTVSPost2010PropOp54
 70
     1
102
RTVSPost2010Prop55
280
     0
102
RTVSPost2010PropOp55
 70
     1
102
RTVSPost2010Prop56
140
1.0
102
RTVSPost2010PropOp56
 70
     1
102
RTVSPost2010Prop57
140
1.0
102
RTVSPost2010PropOp57
 70
     1
  0
XRECORD
  5
29B
102
{ACAD_REACTORS
330
29A
102
}
330
29A
100
AcDbXrecord
280
     1
102
RTVSPropertyOp0
 70
     0
102
RTVSPropertyOp1
 70
     0
102
RTVSPropertyOp2
 70
     0
102
RTVSPropertyOp3
 70
     0
102
RTVSPropertyOp4
 70
     0
102
RTVSPropertyOp5
 70
     0
102
RTVSPropertyOp6
 70
     0
102
RTVSPropertyOp7
 70
     0
102
RTVSPropertyOp8
 70
     0
102
RTVSPropertyOp9
 70
     0
102
RTVSPropertyOp10
 70
     0
102
RTVSPropertyOp11
 70
     0
102
RTVSPropertyOp12
 70
     0
102
RTVSPropertyOp13
 70
     0
102
RTVSPropertyOp14
 70
     2
102
RTVSPropertyOp15
 70
     0
102
RTVSPropertyOp16
 70
     0
102
RTVSPropertyOp17
 70
     0
102
RTVSPropertyOp18
 70
     0
102
RTVSPropertyOp19
 70
     0
102
RTVSPropertyOp20
 70
     0
102
RTVSPropertyOp21
 70
     0
102
RTVSPropertyOp22
 70
     0
102
RTVSPropertyOp23
 70
     0
102
RTVSPropertyOp24
 70
     0
102
RTVSPropertyOp25
 70
     0
102
RTVSPropertyOp26
 70
     0
102
RTVSPropertyOp27
 70
     0
102
RTVSPropertyOp28
 70
     0
102
RTVSPropertyOp29
 70
     0
102
RTVSPropertyOp30
 70
     0
102
RTVSPropertyOp31
 70
     0
102
RTVSPropertyOp32
 70
     0
102
RTVSPropertyOp33
 70
     0
102
RTVSPropertyOp34
 70
     0
102
RTVSPropertyOp35
 70
     0
102
RTVSPropertyOp36
 70
     0
102
RTVSPropertyOp37
 70
     0
102
RTVSPropertyOp38
 70
     0
102
RTVSPropertyOp39
 70
     0
102
RTVSPropertyOp40
 70
     0
102
RTVSPropertyOp41
 70
     0
102
RTVSPropertyOp42
 70
     0
102
RTVSPropertyOp43
 70
     0
102
RTVSPropertyOp44
 70
     0
102
RTVSPropertyOp45
 70
     0
102
RTVSPropertyOp46
 70
     0
102
RTVSPropertyOp47
 70
     0
102
RTVSPropertyOp48
 70
     0
102
RTVSPropertyOp49
 70
     0
102
RTVSPropertyOp50
 70
     0
102
RTVSPropertyOp51
 70
     0
102
RTVSPropertyOp52
 70
     0
102
RTVSPropertyOp53
 70
     0
102
RTVSPropertyOp54
 70
     0
102
RTVSPropertyOp55
 70
     0
102
RTVSPropertyOp56
 70
     0
102
RTVSPropertyOp57
 70
     0
102
RTVSPost2010Prop28
280
     0
102
RTVSPost2010PropOp28
 70
     0
102
RTVSPost2010Prop29
280
     1
102
RTVSPost2010PropOp29
 70
     0
102
RTVSPost2010Prop30
280
     1
102
RTVSPost2010PropOp30
 70
     0
102
RTVSPost2010Prop31
280
     0
102
RTVSPost2010PropOp31
 70
     0
102
RTVSPost2010Prop32
280
     0
102
RTVSPost2010PropOp32
 70
     0
102
RTVSPost2010Prop33
280
     0
102
RTVSPost2010PropOp33
 70
     0
102
RTVSPost2010Prop34
280
     0
102
RTVSPost2010PropOp34
 70
     0
102
RTVSPost2010Prop35
280
     0
102
RTVSPost2010PropOp35
 70
     0
102
RTVSPost2010Prop36
280
     0
102
RTVSPost2010PropOp36
 70
     0
102
RTVSPost2010Prop37
 90
       50
102
RTVSPost2010PropOp37
 70
     0
102
RTVSPost2010Prop38
140
0.0
102
RTVSPost2010PropOp38
 70
     0
102
RTVSPost2010Prop39
140
1.0
102
RTVSPost2010PropOp39
 70
     0
102
RTVSPost2010Prop40
 90
        0
102
RTVSPost2010PropOp40
 70
     0
102
RTVSPost2010Prop41ColorIndex
 90
       18
102
RTVSPost2010Prop41ColorRGB
 90
        0
102
RTVSPost2010PropOp41
 70
     0
102
RTVSPost2010Prop42
 90
       50
102
RTVSPost2010PropOp42
 70
     0
102
RTVSPost2010Prop43
 90
        3
102
RTVSPost2010PropOp43
 70
     0
102
RTVSPost2010Prop44ColorIndex
 90
        5
102
RTVSPost2010Prop44ColorRGB
 90
      255
102
RTVSPost2010PropOp44
 70
     0
102
RTVSPost2010Prop45
280
     0
102
RTVSPost2010PropOp45
 70
     0
102
RTVSPost2010Prop46
 90
       50
102
RTVSPost2010PropOp46
 70
     0
102
RTVSPost2010Prop47
 90
       50
102
RTVSPost2010PropOp47
 70
     0
102
RTVSPost2010Prop48
 90
       50
102
RTVSPost2010PropOp48
 70
     0
102
RTVSPost2010Prop49
280
     0
102
RTVSPost2010PropOp49
 70
     0
102
RTVSPost2010Prop50
 90
       50
102
RTVSPost2010PropOp50
 70
     0
102
RTVSPost2010Prop51ColorIndex
 90
      256
102
RTVSPost2010Prop51ColorRGB
 90
-16777216
102
RTVSPost2010PropOp51
 70
     0
102
RTVSPost2010Prop52
140
1.0
102
RTVSPost2010PropOp52
 70
     0
102
RTVSPost2010Prop53
 90
        2
102
RTVSPost2010PropOp53
 70
     0
102
RTVSPost2010Prop54
  1
strokes_ogs.tif
102
RTVSPost2010PropOp54
 70
     0
102
RTVSPost2010Prop55
280
     0
102
RTVSPost2010PropOp55
 70
     0
102
RTVSPost2010Prop56
140
1.0
102
RTVSPost2010PropOp56
 70
     0
102
RTVSPost2010Prop57
140
1.0
102
RTVSPost2010PropOp57
 70
     0
  0
XRECORD
  5
289
102
{ACAD_REACTORS
330
288
102
}
330
288
100
AcDbXrecord
280
     1
102
RTVSPropertyOp0
 70
     1
102
RTVSPropertyOp1
 70
     1
102
RTVSPropertyOp2
 70
     1
102
RTVSPropertyOp3
 70
     1
102
RTVSPropertyOp4
 70
     1
102
RTVSPropertyOp5
 70
     1
102
RTVSPropertyOp6
 70
     1
102
RTVSPropertyOp7
 70
     1
102
RTVSPropertyOp8
 70
     1
102
RTVSPropertyOp9
 70
     1
102
RTVSPropertyOp10
 70
     1
102
RTVSPropertyOp11
 70
     1
102
RTVSPropertyOp12
 70
     1
102
RTVSPropertyOp13
 70
     1
102
RTVSPropertyOp14
 70
     1
102
RTVSPropertyOp15
 70
     1
102
RTVSPropertyOp16
 70
     1
102
RTVSPropertyOp17
 70
     1
102
RTVSPropertyOp18
 70
     1
102
RTVSPropertyOp19
 70
     1
102
RTVSPropertyOp20
 70
     1
102
RTVSPropertyOp21
 70
     1
102
RTVSPropertyOp22
 70
     1
102
RTVSPropertyOp23
 70
     1
102
RTVSPropertyOp24
 70
     1
102
RTVSPropertyOp25
 70
     1
102
RTVSPropertyOp26
 70
     1
102
RTVSPropertyOp27
 70
     1
102
RTVSPropertyOp28
 70
     1
102
RTVSPropertyOp29
 70
     1
102
RTVSPropertyOp30
 70
     1
102
RTVSPropertyOp31
 70
     1
102
RTVSPropertyOp32
 70
     1
102
RTVSPropertyOp33
 70
     1
102
RTVSPropertyOp34
 70
     1
102
RTVSPropertyOp35
 70
     1
102
RTVSPropertyOp36
 70
     1
102
RTVSPropertyOp37
 70
     1
102
RTVSPropertyOp38
 70
     1
102
RTVSPropertyOp39
 70
     1
102
RTVSPropertyOp40
 70
     1
102
RTVSPropertyOp41
 70
     1
102
RTVSPropertyOp42
 70
     1
102
RTVSPropertyOp43
 70
     1
102
RTVSPropertyOp44
 70
     1
102
RTVSPropertyOp45
 70
     1
102
RTVSPropertyOp46
 70
     1
102
RTVSPropertyOp47
 70
     1
102
RTVSPropertyOp48
 70
     1
102
RTVSPropertyOp49
 70
     1
102
RTVSPropertyOp50
 70
     1
102
RTVSPropertyOp51
 70
     0
102
RTVSPropertyOp52
 70
     0
102
RTVSPropertyOp53
 70
     1
102
RTVSPropertyOp54
 70
     1
102
RTVSPropertyOp55
 70
     1
102
RTVSPropertyOp56
 70
     1
102
RTVSPropertyOp57
 70
     1
102
RTVSPost2010Prop28
280
     0
102
RTVSPost2010PropOp28
 70
     1
102
RTVSPost2010Prop29
280
     1
102
RTVSPost2010PropOp29
 70
     1
102
RTVSPost2010Prop30
280
     1
102
RTVSPost2010PropOp30
 70
     1
102
RTVSPost2010Prop31
280
     0
102
RTVSPost2010PropOp31
 70
     1
102
RTVSPost2010Prop32
280
     0
102
RTVSPost2010PropOp32
 70
     1
102
RTVSPost2010Prop33
280
     0
102
RTVSPost2010PropOp33
 70
     1
102
RTVSPost2010Prop34
280
     0
102
RTVSPost2010PropOp34
 70
     1
102
RTVSPost2010Prop35
280
     0
102
RTVSPost2010PropOp35
 70
     1
102
RTVSPost2010Prop36
280
     0
102
RTVSPost2010PropOp36
 70
     1
102
RTVSPost2010Prop37
 90
       50
102
RTVSPost2010PropOp37
 70
     1
102
RTVSPost2010Prop38
140
0.0
102
RTVSPost2010PropOp38
 70
     1
102
RTVSPost2010Prop39
140
1.0
102
RTVSPost2010PropOp39
 70
     1
102
RTVSPost2010Prop40
 90
        0
102
RTVSPost2010PropOp40
 70
     1
102
RTVSPost2010Prop41ColorIndex
 90
       18
102
RTVSPost2010Prop41ColorRGB
 90
        0
102
RTVSPost2010PropOp41
 70
     1
102
RTVSPost2010Prop42
 90
       50
102
RTVSPost2010PropOp42
 70
     1
102
RTVSPost2010Prop43
 90
        3
102
RTVSPost2010PropOp43
 70
     1
102
RTVSPost2010Prop44ColorIndex
 90
        5
102
RTVSPost2010Prop44ColorRGB
 90
      255
102
RTVSPost2010PropOp44
 70
     1
102
RTVSPost2010Prop45
280
     0
102
RTVSPost2010PropOp45
 70
     1
102
RTVSPost2010Prop46
 90
       50
102
RTVSPost2010PropOp46
 70
     1
102
RTVSPost2010Prop47
 90
       50
102
RTVSPost2010PropOp47
 70
     1
102
RTVSPost2010Prop48
 90
       50
102
RTVSPost2010PropOp48
 70
     1
102
RTVSPost2010Prop49
280
     0
102
RTVSPost2010PropOp49
 70
     1
102
RTVSPost2010Prop50
 90
       50
102
RTVSPost2010PropOp50
 70
     1
102
RTVSPost2010Prop51ColorIndex
 90
      256
102
RTVSPost2010Prop51ColorRGB
 90
-16777216
102
RTVSPost2010PropOp51
 70
     0
102
RTVSPost2010Prop52
140
1.0
102
RTVSPost2010PropOp52
 70
     0
102
RTVSPost2010Prop53
 90
        2
102
RTVSPost2010PropOp53
 70
     1
102
RTVSPost2010Prop54
  1
strokes_ogs.tif
102
RTVSPost2010PropOp54
 70
     1
102
RTVSPost2010Prop55
280
     0
102
RTVSPost2010PropOp55
 70
     1
102
RTVSPost2010Prop56
140
1.0
102
RTVSPost2010PropOp56
 70
     1
102
RTVSPost2010Prop57
140
1.0
102
RTVSPost2010PropOp57
 70
     1
  0
XRECORD
  5
2A7
102
{ACAD_REACTORS
330
2A6
102
}
330
2A6
100
AcDbXrecord
280
     1
102
RTVSPropertyOp0
 70
     1
102
RTVSPropertyOp1
 70
     1
102
RTVSPropertyOp2
 70
     1
102
RTVSPropertyOp3
 70
     1
102
RTVSPropertyOp4
 70
     1
102
RTVSPropertyOp5
 70
     1
102
RTVSPropertyOp6
 70
     1
102
RTVSPropertyOp7
 70
     1
102
RTVSPropertyOp8
 70
     1
102
RTVSPropertyOp9
 70
     1
102
RTVSPropertyOp10
 70
     1
102
RTVSPropertyOp11
 70
     1
102
RTVSPropertyOp12
 70
     1
102
RTVSPropertyOp13
 70
     1
102
RTVSPropertyOp14
 70
     1
102
RTVSPropertyOp15
 70
     1
102
RTVSPropertyOp16
 70
     1
102
RTVSPropertyOp17
 70
     1
102
RTVSPropertyOp18
 70
     1
102
RTVSPropertyOp19
 70
     1
102
RTVSPropertyOp20
 70
     1
102
RTVSPropertyOp21
 70
     1
102
RTVSPropertyOp22
 70
     1
102
RTVSPropertyOp23
 70
     1
102
RTVSPropertyOp24
 70
     1
102
RTVSPropertyOp25
 70
     1
102
RTVSPropertyOp26
 70
     1
102
RTVSPropertyOp27
 70
     1
102
RTVSPropertyOp28
 70
     1
102
RTVSPropertyOp29
 70
     1
102
RTVSPropertyOp30
 70
     1
102
RTVSPropertyOp31
 70
     1
102
RTVSPropertyOp32
 70
     1
102
RTVSPropertyOp33
 70
     1
102
RTVSPropertyOp34
 70
     1
102
RTVSPropertyOp35
 70
     1
102
RTVSPropertyOp36
 70
     1
102
RTVSPropertyOp37
 70
     1
102
RTVSPropertyOp38
 70
     1
102
RTVSPropertyOp39
 70
     1
102
RTVSPropertyOp40
 70
     1
102
RTVSPropertyOp41
 70
     1
102
RTVSPropertyOp42
 70
     1
102
RTVSPropertyOp43
 70
     1
102
RTVSPropertyOp44
 70
     1
102
RTVSPropertyOp45
 70
     1
102
RTVSPropertyOp46
 70
     1
102
RTVSPropertyOp47
 70
     1
102
RTVSPropertyOp48
 70
     1
102
RTVSPropertyOp49
 70
     1
102
RTVSPropertyOp50
 70
     1
102
RTVSPropertyOp51
 70
     0
102
RTVSPropertyOp52
 70
     0
102
RTVSPropertyOp53
 70
     1
102
RTVSPropertyOp54
 70
     1
102
RTVSPropertyOp55
 70
     1
102
RTVSPropertyOp56
 70
     1
102
RTVSPropertyOp57
 70
     1
102
RTVSPost2010Prop28
280
     0
102
RTVSPost2010PropOp28
 70
     1
102
RTVSPost2010Prop29
280
     1
102
RTVSPost2010PropOp29
 70
     1
102
RTVSPost2010Prop30
280
     1
102
RTVSPost2010PropOp30
 70
     1
102
RTVSPost2010Prop31
280
     0
102
RTVSPost2010PropOp31
 70
     1
102
RTVSPost2010Prop32
280
     0
102
RTVSPost2010PropOp32
 70
     1
102
RTVSPost2010Prop33
280
     0
102
RTVSPost2010PropOp33
 70
     1
102
RTVSPost2010Prop34
280
     0
102
RTVSPost2010PropOp34
 70
     1
102
RTVSPost2010Prop35
280
     0
102
RTVSPost2010PropOp35
 70
     1
102
RTVSPost2010Prop36
280
     0
102
RTVSPost2010PropOp36
 70
     1
102
RTVSPost2010Prop37
 90
       50
102
RTVSPost2010PropOp37
 70
     1
102
RTVSPost2010Prop38
140
0.0
102
RTVSPost2010PropOp38
 70
     1
102
RTVSPost2010Prop39
140
1.0
102
RTVSPost2010PropOp39
 70
     1
102
RTVSPost2010Prop40
 90
        0
102
RTVSPost2010PropOp40
 70
     1
102
RTVSPost2010Prop41ColorIndex
 90
       18
102
RTVSPost2010Prop41ColorRGB
 90
        0
102
RTVSPost2010PropOp41
 70
     1
102
RTVSPost2010Prop42
 90
       50
102
RTVSPost2010PropOp42
 70
     1
102
RTVSPost2010Prop43
 90
        3
102
RTVSPost2010PropOp43
 70
     1
102
RTVSPost2010Prop44ColorIndex
 90
        5
102
RTVSPost2010Prop44ColorRGB
 90
      255
102
RTVSPost2010PropOp44
 70
     1
102
RTVSPost2010Prop45
280
     0
102
RTVSPost2010PropOp45
 70
     1
102
RTVSPost2010Prop46
 90
       50
102
RTVSPost2010PropOp46
 70
     1
102
RTVSPost2010Prop47
 90
       50
102
RTVSPost2010PropOp47
 70
     1
102
RTVSPost2010Prop48
 90
       50
102
RTVSPost2010PropOp48
 70
     1
102
RTVSPost2010Prop49
280
     0
102
RTVSPost2010PropOp49
 70
     1
102
RTVSPost2010Prop50
 90
       50
102
RTVSPost2010PropOp50
 70
     1
102
RTVSPost2010Prop51ColorIndex
 90
      256
102
RTVSPost2010Prop51ColorRGB
 90
-16777216
102
RTVSPost2010PropOp51
 70
     0
102
RTVSPost2010Prop52
140
1.0
102
RTVSPost2010PropOp52
 70
     0
102
RTVSPost2010Prop53
 90
        2
102
RTVSPost2010PropOp53
 70
     1
102
RTVSPost2010Prop54
  1
strokes_ogs.tif
102
RTVSPost2010PropOp54
 70
     1
102
RTVSPost2010Prop55
280
     0
102
RTVSPost2010PropOp55
 70
     1
102
RTVSPost2010Prop56
140
1.0
102
RTVSPost2010PropOp56
 70
     1
102
RTVSPost2010Prop57
140
1.0
102
RTVSPost2010PropOp57
 70
     1
  0
XRECORD
  5
2A5
102
{ACAD_REACTORS
330
2A4
102
}
330
2A4
100
AcDbXrecord
280
     1
102
RTVSPropertyOp0
 70
     1
102
RTVSPropertyOp1
 70
     1
102
RTVSPropertyOp2
 70
     1
102
RTVSPropertyOp3
 70
     1
102
RTVSPropertyOp4
 70
     1
102
RTVSPropertyOp5
 70
     1
102
RTVSPropertyOp6
 70
     1
102
RTVSPropertyOp7
 70
     1
102
RTVSPropertyOp8
 70
     1
102
RTVSPropertyOp9
 70
     1
102
RTVSPropertyOp10
 70
     1
102
RTVSPropertyOp11
 70
     1
102
RTVSPropertyOp12
 70
     1
102
RTVSPropertyOp13
 70
     1
102
RTVSPropertyOp14
 70
     1
102
RTVSPropertyOp15
 70
     1
102
RTVSPropertyOp16
 70
     1
102
RTVSPropertyOp17
 70
     1
102
RTVSPropertyOp18
 70
     1
102
RTVSPropertyOp19
 70
     1
102
RTVSPropertyOp20
 70
     1
102
RTVSPropertyOp21
 70
     1
102
RTVSPropertyOp22
 70
     1
102
RTVSPropertyOp23
 70
     1
102
RTVSPropertyOp24
 70
     1
102
RTVSPropertyOp25
 70
     1
102
RTVSPropertyOp26
 70
     1
102
RTVSPropertyOp27
 70
     1
102
RTVSPropertyOp28
 70
     1
102
RTVSPropertyOp29
 70
     1
102
RTVSPropertyOp30
 70
     1
102
RTVSPropertyOp31
 70
     1
102
RTVSPropertyOp32
 70
     1
102
RTVSPropertyOp33
 70
     1
102
RTVSPropertyOp34
 70
     1
102
RTVSPropertyOp35
 70
     1
102
RTVSPropertyOp36
 70
     1
102
RTVSPropertyOp37
 70
     1
102
RTVSPropertyOp38
 70
     1
102
RTVSPropertyOp39
 70
     1
102
RTVSPropertyOp40
 70
     1
102
RTVSPropertyOp41
 70
     1
102
RTVSPropertyOp42
 70
     1
102
RTVSPropertyOp43
 70
     1
102
RTVSPropertyOp44
 70
     1
102
RTVSPropertyOp45
 70
     1
102
RTVSPropertyOp46
 70
     1
102
RTVSPropertyOp47
 70
     1
102
RTVSPropertyOp48
 70
     1
102
RTVSPropertyOp49
 70
     1
102
RTVSPropertyOp50
 70
     1
102
RTVSPropertyOp51
 70
     0
102
RTVSPropertyOp52
 70
     0
102
RTVSPropertyOp53
 70
     1
102
RTVSPropertyOp54
 70
     1
102
RTVSPropertyOp55
 70
     1
102
RTVSPropertyOp56
 70
     1
102
RTVSPropertyOp57
 70
     1
102
RTVSPost2010Prop28
280
     0
102
RTVSPost2010PropOp28
 70
     1
102
RTVSPost2010Prop29
280
     1
102
RTVSPost2010PropOp29
 70
     1
102
RTVSPost2010Prop30
280
     1
102
RTVSPost2010PropOp30
 70
     1
102
RTVSPost2010Prop31
280
     0
102
RTVSPost2010PropOp31
 70
     1
102
RTVSPost2010Prop32
280
     0
102
RTVSPost2010PropOp32
 70
     1
102
RTVSPost2010Prop33
280
     0
102
RTVSPost2010PropOp33
 70
     1
102
RTVSPost2010Prop34
280
     0
102
RTVSPost2010PropOp34
 70
     1
102
RTVSPost2010Prop35
280
     0
102
RTVSPost2010PropOp35
 70
     1
102
RTVSPost2010Prop36
280
     0
102
RTVSPost2010PropOp36
 70
     1
102
RTVSPost2010Prop37
 90
       50
102
RTVSPost2010PropOp37
 70
     1
102
RTVSPost2010Prop38
140
0.0
102
RTVSPost2010PropOp38
 70
     1
102
RTVSPost2010Prop39
140
1.0
102
RTVSPost2010PropOp39
 70
     1
102
RTVSPost2010Prop40
 90
        0
102
RTVSPost2010PropOp40
 70
     1
102
RTVSPost2010Prop41ColorIndex
 90
       18
102
RTVSPost2010Prop41ColorRGB
 90
        0
102
RTVSPost2010PropOp41
 70
     1
102
RTVSPost2010Prop42
 90
       50
102
RTVSPost2010PropOp42
 70
     1
102
RTVSPost2010Prop43
 90
        3
102
RTVSPost2010PropOp43
 70
     1
102
RTVSPost2010Prop44ColorIndex
 90
        5
102
RTVSPost2010Prop44ColorRGB
 90
      255
102
RTVSPost2010PropOp44
 70
     1
102
RTVSPost2010Prop45
280
     0
102
RTVSPost2010PropOp45
 70
     1
102
RTVSPost2010Prop46
 90
       50
102
RTVSPost2010PropOp46
 70
     1
102
RTVSPost2010Prop47
 90
       50
102
RTVSPost2010PropOp47
 70
     1
102
RTVSPost2010Prop48
 90
       50
102
RTVSPost2010PropOp48
 70
     1
102
RTVSPost2010Prop49
280
     0
102
RTVSPost2010PropOp49
 70
     1
102
RTVSPost2010Prop50
 90
       50
102
RTVSPost2010PropOp50
 70
     1
102
RTVSPost2010Prop51ColorIndex
 90
      256
102
RTVSPost2010Prop51ColorRGB
 90
-16777216
102
RTVSPost2010PropOp51
 70
     0
102
RTVSPost2010Prop52
140
1.0
102
RTVSPost2010PropOp52
 70
     0
102
RTVSPost2010Prop53
 90
        2
102
RTVSPost2010PropOp53
 70
     1
102
RTVSPost2010Prop54
  1
strokes_ogs.tif
102
RTVSPost2010PropOp54
 70
     1
102
RTVSPost2010Prop55
280
     0
102
RTVSPost2010PropOp55
 70
     1
102
RTVSPost2010Prop56
140
1.0
102
RTVSPost2010PropOp56
 70
     1
102
RTVSPost2010Prop57
140
1.0
102
RTVSPost2010PropOp57
 70
     1
  0
XRECORD
  5
29F
102
{ACAD_REACTORS
330
29E
102
}
330
29E
100
AcDbXrecord
280
     1
102
RTVSPropertyOp0
 70
     1
102
RTVSPropertyOp1
 70
     1
102
RTVSPropertyOp2
 70
     1
102
RTVSPropertyOp3
 70
     1
102
RTVSPropertyOp4
 70
     1
102
RTVSPropertyOp5
 70
     1
102
RTVSPropertyOp6
 70
     1
102
RTVSPropertyOp7
 70
     1
102
RTVSPropertyOp8
 70
     1
102
RTVSPropertyOp9
 70
     1
102
RTVSPropertyOp10
 70
     1
102
RTVSPropertyOp11
 70
     1
102
RTVSPropertyOp12
 70
     1
102
RTVSPropertyOp13
 70
     1
102
RTVSPropertyOp14
 70
     1
102
RTVSPropertyOp15
 70
     1
102
RTVSPropertyOp16
 70
     1
102
RTVSPropertyOp17
 70
     1
102
RTVSPropertyOp18
 70
     1
102
RTVSPropertyOp19
 70
     1
102
RTVSPropertyOp20
 70
     1
102
RTVSPropertyOp21
 70
     1
102
RTVSPropertyOp22
 70
     1
102
RTVSPropertyOp23
 70
     1
102
RTVSPropertyOp24
 70
     1
102
RTVSPropertyOp25
 70
     1
102
RTVSPropertyOp26
 70
     1
102
RTVSPropertyOp27
 70
     1
102
RTVSPropertyOp28
 70
     1
102
RTVSPropertyOp29
 70
     1
102
RTVSPropertyOp30
 70
     1
102
RTVSPropertyOp31
 70
     1
102
RTVSPropertyOp32
 70
     1
102
RTVSPropertyOp33
 70
     1
102
RTVSPropertyOp34
 70
     1
102
RTVSPropertyOp35
 70
     1
102
RTVSPropertyOp36
 70
     1
102
RTVSPropertyOp37
 70
     1
102
RTVSPropertyOp38
 70
     1
102
RTVSPropertyOp39
 70
     1
102
RTVSPropertyOp40
 70
     1
102
RTVSPropertyOp41
 70
     1
102
RTVSPropertyOp42
 70
     1
102
RTVSPropertyOp43
 70
     1
102
RTVSPropertyOp44
 70
     1
102
RTVSPropertyOp45
 70
     1
102
RTVSPropertyOp46
 70
     1
102
RTVSPropertyOp47
 70
     1
102
RTVSPropertyOp48
 70
     1
102
RTVSPropertyOp49
 70
     1
102
RTVSPropertyOp50
 70
     1
102
RTVSPropertyOp51
 70
     0
102
RTVSPropertyOp52
 70
     0
102
RTVSPropertyOp53
 70
     1
102
RTVSPropertyOp54
 70
     1
102
RTVSPropertyOp55
 70
     1
102
RTVSPropertyOp56
 70
     1
102
RTVSPropertyOp57
 70
     1
102
RTVSPost2010Prop28
280
     0
102
RTVSPost2010PropOp28
 70
     1
102
RTVSPost2010Prop29
280
     1
102
RTVSPost2010PropOp29
 70
     1
102
RTVSPost2010Prop30
280
     1
102
RTVSPost2010PropOp30
 70
     1
102
RTVSPost2010Prop31
280
     0
102
RTVSPost2010PropOp31
 70
     1
102
RTVSPost2010Prop32
280
     0
102
RTVSPost2010PropOp32
 70
     1
102
RTVSPost2010Prop33
280
     0
102
RTVSPost2010PropOp33
 70
     1
102
RTVSPost2010Prop34
280
     0
102
RTVSPost2010PropOp34
 70
     1
102
RTVSPost2010Prop35
280
     0
102
RTVSPost2010PropOp35
 70
     1
102
RTVSPost2010Prop36
280
     0
102
RTVSPost2010PropOp36
 70
     1
102
RTVSPost2010Prop37
 90
       50
102
RTVSPost2010PropOp37
 70
     1
102
RTVSPost2010Prop38
140
0.0
102
RTVSPost2010PropOp38
 70
     1
102
RTVSPost2010Prop39
140
1.0
102
RTVSPost2010PropOp39
 70
     1
102
RTVSPost2010Prop40
 90
        0
102
RTVSPost2010PropOp40
 70
     1
102
RTVSPost2010Prop41ColorIndex
 90
       18
102
RTVSPost2010Prop41ColorRGB
 90
        0
102
RTVSPost2010PropOp41
 70
     1
102
RTVSPost2010Prop42
 90
       50
102
RTVSPost2010PropOp42
 70
     1
102
RTVSPost2010Prop43
 90
        3
102
RTVSPost2010PropOp43
 70
     1
102
RTVSPost2010Prop44ColorIndex
 90
        5
102
RTVSPost2010Prop44ColorRGB
 90
      255
102
RTVSPost2010PropOp44
 70
     1
102
RTVSPost2010Prop45
280
     0
102
RTVSPost2010PropOp45
 70
     1
102
RTVSPost2010Prop46
 90
       50
102
RTVSPost2010PropOp46
 70
     1
102
RTVSPost2010Prop47
 90
       50
102
RTVSPost2010PropOp47
 70
     1
102
RTVSPost2010Prop48
 90
       50
102
RTVSPost2010PropOp48
 70
     1
102
RTVSPost2010Prop49
280
     0
102
RTVSPost2010PropOp49
 70
     1
102
RTVSPost2010Prop50
 90
       50
102
RTVSPost2010PropOp50
 70
     1
102
RTVSPost2010Prop51ColorIndex
 90
      256
102
RTVSPost2010Prop51ColorRGB
 90
-16777216
102
RTVSPost2010PropOp51
 70
     0
102
RTVSPost2010Prop52
140
1.0
102
RTVSPost2010PropOp52
 70
     0
102
RTVSPost2010Prop53
 90
        2
102
RTVSPost2010PropOp53
 70
     1
102
RTVSPost2010Prop54
  1
strokes_ogs.tif
102
RTVSPost2010PropOp54
 70
     1
102
RTVSPost2010Prop55
280
     0
102
RTVSPost2010PropOp55
 70
     1
102
RTVSPost2010Prop56
140
1.0
102
RTVSPost2010PropOp56
 70
     1
102
RTVSPost2010Prop57
140
1.0
102
RTVSPost2010PropOp57
 70
     1
  0
XRECORD
  5
2A1
102
{ACAD_REACTORS
330
2A0
102
}
330
2A0
100
AcDbXrecord
280
     1
102
RTVSPropertyOp0
 70
     1
102
RTVSPropertyOp1
 70
     1
102
RTVSPropertyOp2
 70
     1
102
RTVSPropertyOp3
 70
     1
102
RTVSPropertyOp4
 70
     1
102
RTVSPropertyOp5
 70
     1
102
RTVSPropertyOp6
 70
     1
102
RTVSPropertyOp7
 70
     1
102
RTVSPropertyOp8
 70
     1
102
RTVSPropertyOp9
 70
     1
102
RTVSPropertyOp10
 70
     1
102
RTVSPropertyOp11
 70
     1
102
RTVSPropertyOp12
 70
     1
102
RTVSPropertyOp13
 70
     1
102
RTVSPropertyOp14
 70
     1
102
RTVSPropertyOp15
 70
     1
102
RTVSPropertyOp16
 70
     1
102
RTVSPropertyOp17
 70
     1
102
RTVSPropertyOp18
 70
     1
102
RTVSPropertyOp19
 70
     1
102
RTVSPropertyOp20
 70
     1
102
RTVSPropertyOp21
 70
     1
102
RTVSPropertyOp22
 70
     1
102
RTVSPropertyOp23
 70
     1
102
RTVSPropertyOp24
 70
     1
102
RTVSPropertyOp25
 70
     1
102
RTVSPropertyOp26
 70
     1
102
RTVSPropertyOp27
 70
     1
102
RTVSPropertyOp28
 70
     1
102
RTVSPropertyOp29
 70
     1
102
RTVSPropertyOp30
 70
     1
102
RTVSPropertyOp31
 70
     1
102
RTVSPropertyOp32
 70
     1
102
RTVSPropertyOp33
 70
     1
102
RTVSPropertyOp34
 70
     1
102
RTVSPropertyOp35
 70
     1
102
RTVSPropertyOp36
 70
     1
102
RTVSPropertyOp37
 70
     1
102
RTVSPropertyOp38
 70
     1
102
RTVSPropertyOp39
 70
     1
102
RTVSPropertyOp40
 70
     1
102
RTVSPropertyOp41
 70
     1
102
RTVSPropertyOp42
 70
     1
102
RTVSPropertyOp43
 70
     1
102
RTVSPropertyOp44
 70
     1
102
RTVSPropertyOp45
 70
     1
102
RTVSPropertyOp46
 70
     1
102
RTVSPropertyOp47
 70
     1
102
RTVSPropertyOp48
 70
     1
102
RTVSPropertyOp49
 70
     1
102
RTVSPropertyOp50
 70
     1
102
RTVSPropertyOp51
 70
     0
102
RTVSPropertyOp52
 70
     0
102
RTVSPropertyOp53
 70
     1
102
RTVSPropertyOp54
 70
     1
102
RTVSPropertyOp55
 70
     1
102
RTVSPropertyOp56
 70
     1
102
RTVSPropertyOp57
 70
     1
102
RTVSPost2010Prop28
280
     0
102
RTVSPost2010PropOp28
 70
     1
102
RTVSPost2010Prop29
280
     1
102
RTVSPost2010PropOp29
 70
     1
102
RTVSPost2010Prop30
280
     1
102
RTVSPost2010PropOp30
 70
     1
102
RTVSPost2010Prop31
280
     0
102
RTVSPost2010PropOp31
 70
     1
102
RTVSPost2010Prop32
280
     0
102
RTVSPost2010PropOp32
 70
     1
102
RTVSPost2010Prop33
280
     0
102
RTVSPost2010PropOp33
 70
     1
102
RTVSPost2010Prop34
280
     0
102
RTVSPost2010PropOp34
 70
     1
102
RTVSPost2010Prop35
280
     0
102
RTVSPost2010PropOp35
 70
     1
102
RTVSPost2010Prop36
280
     0
102
RTVSPost2010PropOp36
 70
     1
102
RTVSPost2010Prop37
 90
       50
102
RTVSPost2010PropOp37
 70
     1
102
RTVSPost2010Prop38
140
0.0
102
RTVSPost2010PropOp38
 70
     1
102
RTVSPost2010Prop39
140
1.0
102
RTVSPost2010PropOp39
 70
     1
102
RTVSPost2010Prop40
 90
        0
102
RTVSPost2010PropOp40
 70
     1
102
RTVSPost2010Prop41ColorIndex
 90
       18
102
RTVSPost2010Prop41ColorRGB
 90
        0
102
RTVSPost2010PropOp41
 70
     1
102
RTVSPost2010Prop42
 90
       50
102
RTVSPost2010PropOp42
 70
     1
102
RTVSPost2010Prop43
 90
        3
102
RTVSPost2010PropOp43
 70
     1
102
RTVSPost2010Prop44ColorIndex
 90
        5
102
RTVSPost2010Prop44ColorRGB
 90
      255
102
RTVSPost2010PropOp44
 70
     1
102
RTVSPost2010Prop45
280
     0
102
RTVSPost2010PropOp45
 70
     1
102
RTVSPost2010Prop46
 90
       50
102
RTVSPost2010PropOp46
 70
     1
102
RTVSPost2010Prop47
 90
       50
102
RTVSPost2010PropOp47
 70
     1
102
RTVSPost2010Prop48
 90
       50
102
RTVSPost2010PropOp48
 70
     1
102
RTVSPost2010Prop49
280
     0
102
RTVSPost2010PropOp49
 70
     1
102
RTVSPost2010Prop50
 90
       50
102
RTVSPost2010PropOp50
 70
     1
102
RTVSPost2010Prop51ColorIndex
 90
      256
102
RTVSPost2010Prop51ColorRGB
 90
-16777216
102
RTVSPost2010PropOp51
 70
     0
102
RTVSPost2010Prop52
140
1.0
102
RTVSPost2010PropOp52
 70
     0
102
RTVSPost2010Prop53
 90
        2
102
RTVSPost2010PropOp53
 70
     1
102
RTVSPost2010Prop54
  1
strokes_ogs.tif
102
RTVSPost2010PropOp54
 70
     1
102
RTVSPost2010Prop55
280
     0
102
RTVSPost2010PropOp55
 70
     1
102
RTVSPost2010Prop56
140
1.0
102
RTVSPost2010PropOp56
 70
     1
102
RTVSPost2010Prop57
140
1.0
102
RTVSPost2010PropOp57
 70
     1
  0
XRECORD
  5
291
102
{ACAD_REACTORS
330
290
102
}
330
290
100
AcDbXrecord
280
     1
102
RTVSPropertyOp0
 70
     1
102
RTVSPropertyOp1
 70
     1
102
RTVSPropertyOp2
 70
     1
102
RTVSPropertyOp3
 70
     1
102
RTVSPropertyOp4
 70
     1
102
RTVSPropertyOp5
 70
     1
102
RTVSPropertyOp6
 70
     1
102
RTVSPropertyOp7
 70
     1
102
RTVSPropertyOp8
 70
     1
102
RTVSPropertyOp9
 70
     1
102
RTVSPropertyOp10
 70
     1
102
RTVSPropertyOp11
 70
     1
102
RTVSPropertyOp12
 70
     1
102
RTVSPropertyOp13
 70
     1
102
RTVSPropertyOp14
 70
     1
102
RTVSPropertyOp15
 70
     1
102
RTVSPropertyOp16
 70
     1
102
RTVSPropertyOp17
 70
     1
102
RTVSPropertyOp18
 70
     1
102
RTVSPropertyOp19
 70
     1
102
RTVSPropertyOp20
 70
     1
102
RTVSPropertyOp21
 70
     1
102
RTVSPropertyOp22
 70
     1
102
RTVSPropertyOp23
 70
     1
102
RTVSPropertyOp24
 70
     1
102
RTVSPropertyOp25
 70
     1
102
RTVSPropertyOp26
 70
     1
102
RTVSPropertyOp27
 70
     1
102
RTVSPropertyOp28
 70
     1
102
RTVSPropertyOp29
 70
     1
102
RTVSPropertyOp30
 70
     1
102
RTVSPropertyOp31
 70
     1
102
RTVSPropertyOp32
 70
     1
102
RTVSPropertyOp33
 70
     1
102
RTVSPropertyOp34
 70
     1
102
RTVSPropertyOp35
 70
     1
102
RTVSPropertyOp36
 70
     1
102
RTVSPropertyOp37
 70
     1
102
RTVSPropertyOp38
 70
     1
102
RTVSPropertyOp39
 70
     1
102
RTVSPropertyOp40
 70
     1
102
RTVSPropertyOp41
 70
     1
102
RTVSPropertyOp42
 70
     1
102
RTVSPropertyOp43
 70
     1
102
RTVSPropertyOp44
 70
     1
102
RTVSPropertyOp45
 70
     1
102
RTVSPropertyOp46
 70
     1
102
RTVSPropertyOp47
 70
     1
102
RTVSPropertyOp48
 70
     1
102
RTVSPropertyOp49
 70
     1
102
RTVSPropertyOp50
 70
     1
102
RTVSPropertyOp51
 70
     0
102
RTVSPropertyOp52
 70
     0
102
RTVSPropertyOp53
 70
     1
102
RTVSPropertyOp54
 70
     1
102
RTVSPropertyOp55
 70
     1
102
RTVSPropertyOp56
 70
     1
102
RTVSPropertyOp57
 70
     1
102
RTVSPost2010Prop28
280
     0
102
RTVSPost2010PropOp28
 70
     1
102
RTVSPost2010Prop29
280
     1
102
RTVSPost2010PropOp29
 70
     1
102
RTVSPost2010Prop30
280
     1
102
RTVSPost2010PropOp30
 70
     1
102
RTVSPost2010Prop31
280
     0
102
RTVSPost2010PropOp31
 70
     1
102
RTVSPost2010Prop32
280
     0
102
RTVSPost2010PropOp32
 70
     1
102
RTVSPost2010Prop33
280
     0
102
RTVSPost2010PropOp33
 70
     1
102
RTVSPost2010Prop34
280
     0
102
RTVSPost2010PropOp34
 70
     1
102
RTVSPost2010Prop35
280
     0
102
RTVSPost2010PropOp35
 70
     1
102
RTVSPost2010Prop36
280
     0
102
RTVSPost2010PropOp36
 70
     1
102
RTVSPost2010Prop37
 90
       50
102
RTVSPost2010PropOp37
 70
     1
102
RTVSPost2010Prop38
140
0.0
102
RTVSPost2010PropOp38
 70
     1
102
RTVSPost2010Prop39
140
1.0
102
RTVSPost2010PropOp39
 70
     1
102
RTVSPost2010Prop40
 90
        0
102
RTVSPost2010PropOp40
 70
     1
102
RTVSPost2010Prop41ColorIndex
 90
       18
102
RTVSPost2010Prop41ColorRGB
 90
        0
102
RTVSPost2010PropOp41
 70
     1
102
RTVSPost2010Prop42
 90
       50
102
RTVSPost2010PropOp42
 70
     1
102
RTVSPost2010Prop43
 90
        3
102
RTVSPost2010PropOp43
 70
     1
102
RTVSPost2010Prop44ColorIndex
 90
        5
102
RTVSPost2010Prop44ColorRGB
 90
      255
102
RTVSPost2010PropOp44
 70
     1
102
RTVSPost2010Prop45
280
     0
102
RTVSPost2010PropOp45
 70
     1
102
RTVSPost2010Prop46
 90
       50
102
RTVSPost2010PropOp46
 70
     1
102
RTVSPost2010Prop47
 90
       50
102
RTVSPost2010PropOp47
 70
     1
102
RTVSPost2010Prop48
 90
       50
102
RTVSPost2010PropOp48
 70
     1
102
RTVSPost2010Prop49
280
     0
102
RTVSPost2010PropOp49
 70
     1
102
RTVSPost2010Prop50
 90
       50
102
RTVSPost2010PropOp50
 70
     1
102
RTVSPost2010Prop51ColorIndex
 90
      256
102
RTVSPost2010Prop51ColorRGB
 90
-16777216
102
RTVSPost2010PropOp51
 70
     0
102
RTVSPost2010Prop52
140
1.0
102
RTVSPost2010PropOp52
 70
     0
102
RTVSPost2010Prop53
 90
        2
102
RTVSPost2010PropOp53
 70
     1
102
RTVSPost2010Prop54
  1
strokes_ogs.tif
102
RTVSPost2010PropOp54
 70
     1
102
RTVSPost2010Prop55
280
     0
102
RTVSPost2010PropOp55
 70
     1
102
RTVSPost2010Prop56
140
1.0
102
RTVSPost2010PropOp56
 70
     1
102
RTVSPost2010Prop57
140
1.0
102
RTVSPost2010PropOp57
 70
     1
  0
XRECORD
  5
283
102
{ACAD_REACTORS
330
282
102
}
330
282
100
AcDbXrecord
280
     1
102
RTVSPropertyOp0
 70
     1
102
RTVSPropertyOp1
 70
     1
102
RTVSPropertyOp2
 70
     1
102
RTVSPropertyOp3
 70
     1
102
RTVSPropertyOp4
 70
     1
102
RTVSPropertyOp5
 70
     1
102
RTVSPropertyOp6
 70
     1
102
RTVSPropertyOp7
 70
     1
102
RTVSPropertyOp8
 70
     1
102
RTVSPropertyOp9
 70
     1
102
RTVSPropertyOp10
 70
     1
102
RTVSPropertyOp11
 70
     1
102
RTVSPropertyOp12
 70
     1
102
RTVSPropertyOp13
 70
     1
102
RTVSPropertyOp14
 70
     1
102
RTVSPropertyOp15
 70
     1
102
RTVSPropertyOp16
 70
     1
102
RTVSPropertyOp17
 70
     1
102
RTVSPropertyOp18
 70
     1
102
RTVSPropertyOp19
 70
     1
102
RTVSPropertyOp20
 70
     1
102
RTVSPropertyOp21
 70
     1
102
RTVSPropertyOp22
 70
     1
102
RTVSPropertyOp23
 70
     1
102
RTVSPropertyOp24
 70
     1
102
RTVSPropertyOp25
 70
     1
102
RTVSPropertyOp26
 70
     1
102
RTVSPropertyOp27
 70
     1
102
RTVSPropertyOp28
 70
     1
102
RTVSPropertyOp29
 70
     1
102
RTVSPropertyOp30
 70
     1
102
RTVSPropertyOp31
 70
     1
102
RTVSPropertyOp32
 70
     1
102
RTVSPropertyOp33
 70
     1
102
RTVSPropertyOp34
 70
     1
102
RTVSPropertyOp35
 70
     1
102
RTVSPropertyOp36
 70
     1
102
RTVSPropertyOp37
 70
     1
102
RTVSPropertyOp38
 70
     1
102
RTVSPropertyOp39
 70
     1
102
RTVSPropertyOp40
 70
     1
102
RTVSPropertyOp41
 70
     1
102
RTVSPropertyOp42
 70
     1
102
RTVSPropertyOp43
 70
     1
102
RTVSPropertyOp44
 70
     1
102
RTVSPropertyOp45
 70
     1
102
RTVSPropertyOp46
 70
     1
102
RTVSPropertyOp47
 70
     1
102
RTVSPropertyOp48
 70
     1
102
RTVSPropertyOp49
 70
     1
102
RTVSPropertyOp50
 70
     1
102
RTVSPropertyOp51
 70
     0
102
RTVSPropertyOp52
 70
     0
102
RTVSPropertyOp53
 70
     1
102
RTVSPropertyOp54
 70
     1
102
RTVSPropertyOp55
 70
     1
102
RTVSPropertyOp56
 70
     1
102
RTVSPropertyOp57
 70
     1
102
RTVSPost2010Prop28
280
     0
102
RTVSPost2010PropOp28
 70
     1
102
RTVSPost2010Prop29
280
     1
102
RTVSPost2010PropOp29
 70
     1
102
RTVSPost2010Prop30
280
     1
102
RTVSPost2010PropOp30
 70
     1
102
RTVSPost2010Prop31
280
     0
102
RTVSPost2010PropOp31
 70
     1
102
RTVSPost2010Prop32
280
     0
102
RTVSPost2010PropOp32
 70
     1
102
RTVSPost2010Prop33
280
     0
102
RTVSPost2010PropOp33
 70
     1
102
RTVSPost2010Prop34
280
     0
102
RTVSPost2010PropOp34
 70
     1
102
RTVSPost2010Prop35
280
     0
102
RTVSPost2010PropOp35
 70
     1
102
RTVSPost2010Prop36
280
     0
102
RTVSPost2010PropOp36
 70
     1
102
RTVSPost2010Prop37
 90
       50
102
RTVSPost2010PropOp37
 70
     1
102
RTVSPost2010Prop38
140
0.0
102
RTVSPost2010PropOp38
 70
     1
102
RTVSPost2010Prop39
140
1.0
102
RTVSPost2010PropOp39
 70
     1
102
RTVSPost2010Prop40
 90
        0
102
RTVSPost2010PropOp40
 70
     1
102
RTVSPost2010Prop41ColorIndex
 90
       18
102
RTVSPost2010Prop41ColorRGB
 90
        0
102
RTVSPost2010PropOp41
 70
     1
102
RTVSPost2010Prop42
 90
       50
102
RTVSPost2010PropOp42
 70
     1
102
RTVSPost2010Prop43
 90
        3
102
RTVSPost2010PropOp43
 70
     1
102
RTVSPost2010Prop44ColorIndex
 90
        5
102
RTVSPost2010Prop44ColorRGB
 90
      255
102
RTVSPost2010PropOp44
 70
     1
102
RTVSPost2010Prop45
280
     0
102
RTVSPost2010PropOp45
 70
     1
102
RTVSPost2010Prop46
 90
       50
102
RTVSPost2010PropOp46
 70
     1
102
RTVSPost2010Prop47
 90
       50
102
RTVSPost2010PropOp47
 70
     1
102
RTVSPost2010Prop48
 90
       50
102
RTVSPost2010PropOp48
 70
     1
102
RTVSPost2010Prop49
280
     0
102
RTVSPost2010PropOp49
 70
     1
102
RTVSPost2010Prop50
 90
       50
102
RTVSPost2010PropOp50
 70
     1
102
RTVSPost2010Prop51ColorIndex
 90
      256
102
RTVSPost2010Prop51ColorRGB
 90
-16777216
102
RTVSPost2010PropOp51
 70
     0
102
RTVSPost2010Prop52
140
1.0
102
RTVSPost2010PropOp52
 70
     0
102
RTVSPost2010Prop53
 90
        2
102
RTVSPost2010PropOp53
 70
     1
102
RTVSPost2010Prop54
  1
strokes_ogs.tif
102
RTVSPost2010PropOp54
 70
     1
102
RTVSPost2010Prop55
280
     0
102
RTVSPost2010PropOp55
 70
     1
102
RTVSPost2010Prop56
140
1.0
102
RTVSPost2010PropOp56
 70
     1
102
RTVSPost2010Prop57
140
1.0
102
RTVSPost2010PropOp57
 70
     1
  0
XRECORD
  5
2A3
102
{ACAD_REACTORS
330
2A2
102
}
330
2A2
100
AcDbXrecord
280
     1
102
RTVSPropertyOp0
 70
     1
102
RTVSPropertyOp1
 70
     1
102
RTVSPropertyOp2
 70
     1
102
RTVSPropertyOp3
 70
     1
102
RTVSPropertyOp4
 70
     1
102
RTVSPropertyOp5
 70
     1
102
RTVSPropertyOp6
 70
     1
102
RTVSPropertyOp7
 70
     1
102
RTVSPropertyOp8
 70
     1
102
RTVSPropertyOp9
 70
     1
102
RTVSPropertyOp10
 70
     1
102
RTVSPropertyOp11
 70
     1
102
RTVSPropertyOp12
 70
     1
102
RTVSPropertyOp13
 70
     1
102
RTVSPropertyOp14
 70
     1
102
RTVSPropertyOp15
 70
     1
102
RTVSPropertyOp16
 70
     1
102
RTVSPropertyOp17
 70
     1
102
RTVSPropertyOp18
 70
     1
102
RTVSPropertyOp19
 70
     1
102
RTVSPropertyOp20
 70
     1
102
RTVSPropertyOp21
 70
     1
102
RTVSPropertyOp22
 70
     1
102
RTVSPropertyOp23
 70
     1
102
RTVSPropertyOp24
 70
     1
102
RTVSPropertyOp25
 70
     1
102
RTVSPropertyOp26
 70
     1
102
RTVSPropertyOp27
 70
     1
102
RTVSPropertyOp28
 70
     1
102
RTVSPropertyOp29
 70
     1
102
RTVSPropertyOp30
 70
     1
102
RTVSPropertyOp31
 70
     1
102
RTVSPropertyOp32
 70
     1
102
RTVSPropertyOp33
 70
     1
102
RTVSPropertyOp34
 70
     1
102
RTVSPropertyOp35
 70
     1
102
RTVSPropertyOp36
 70
     1
102
RTVSPropertyOp37
 70
     1
102
RTVSPropertyOp38
 70
     1
102
RTVSPropertyOp39
 70
     1
102
RTVSPropertyOp40
 70
     1
102
RTVSPropertyOp41
 70
     1
102
RTVSPropertyOp42
 70
     1
102
RTVSPropertyOp43
 70
     1
102
RTVSPropertyOp44
 70
     1
102
RTVSPropertyOp45
 70
     1
102
RTVSPropertyOp46
 70
     1
102
RTVSPropertyOp47
 70
     1
102
RTVSPropertyOp48
 70
     1
102
RTVSPropertyOp49
 70
     1
102
RTVSPropertyOp50
 70
     1
102
RTVSPropertyOp51
 70
     0
102
RTVSPropertyOp52
 70
     0
102
RTVSPropertyOp53
 70
     1
102
RTVSPropertyOp54
 70
     1
102
RTVSPropertyOp55
 70
     1
102
RTVSPropertyOp56
 70
     1
102
RTVSPropertyOp57
 70
     1
102
RTVSPost2010Prop28
280
     0
102
RTVSPost2010PropOp28
 70
     1
102
RTVSPost2010Prop29
280
     1
102
RTVSPost2010PropOp29
 70
     1
102
RTVSPost2010Prop30
280
     1
102
RTVSPost2010PropOp30
 70
     1
102
RTVSPost2010Prop31
280
     0
102
RTVSPost2010PropOp31
 70
     1
102
RTVSPost2010Prop32
280
     0
102
RTVSPost2010PropOp32
 70
     1
102
RTVSPost2010Prop33
280
     0
102
RTVSPost2010PropOp33
 70
     1
102
RTVSPost2010Prop34
280
     0
102
RTVSPost2010PropOp34
 70
     1
102
RTVSPost2010Prop35
280
     0
102
RTVSPost2010PropOp35
 70
     1
102
RTVSPost2010Prop36
280
     0
102
RTVSPost2010PropOp36
 70
     1
102
RTVSPost2010Prop37
 90
       50
102
RTVSPost2010PropOp37
 70
     1
102
RTVSPost2010Prop38
140
0.0
102
RTVSPost2010PropOp38
 70
     1
102
RTVSPost2010Prop39
140
1.0
102
RTVSPost2010PropOp39
 70
     1
102
RTVSPost2010Prop40
 90
        0
102
RTVSPost2010PropOp40
 70
     1
102
RTVSPost2010Prop41ColorIndex
 90
       18
102
RTVSPost2010Prop41ColorRGB
 90
        0
102
RTVSPost2010PropOp41
 70
     1
102
RTVSPost2010Prop42
 90
       50
102
RTVSPost2010PropOp42
 70
     1
102
RTVSPost2010Prop43
 90
        3
102
RTVSPost2010PropOp43
 70
     1
102
RTVSPost2010Prop44ColorIndex
 90
        5
102
RTVSPost2010Prop44ColorRGB
 90
      255
102
RTVSPost2010PropOp44
 70
     1
102
RTVSPost2010Prop45
280
     0
102
RTVSPost2010PropOp45
 70
     1
102
RTVSPost2010Prop46
 90
       50
102
RTVSPost2010PropOp46
 70
     1
102
RTVSPost2010Prop47
 90
       50
102
RTVSPost2010PropOp47
 70
     1
102
RTVSPost2010Prop48
 90
       50
102
RTVSPost2010PropOp48
 70
     1
102
RTVSPost2010Prop49
280
     0
102
RTVSPost2010PropOp49
 70
     1
102
RTVSPost2010Prop50
 90
       50
102
RTVSPost2010PropOp50
 70
     1
102
RTVSPost2010Prop51ColorIndex
 90
      256
102
RTVSPost2010Prop51ColorRGB
 90
-16777216
102
RTVSPost2010PropOp51
 70
     0
102
RTVSPost2010Prop52
140
1.0
102
RTVSPost2010PropOp52
 70
     0
102
RTVSPost2010Prop53
 90
        2
102
RTVSPost2010PropOp53
 70
     1
102
RTVSPost2010Prop54
  1
strokes_ogs.tif
102
RTVSPost2010PropOp54
 70
     1
102
RTVSPost2010Prop55
280
     0
102
RTVSPost2010PropOp55
 70
     1
102
RTVSPost2010Prop56
140
1.0
102
RTVSPost2010PropOp56
 70
     1
102
RTVSPost2010Prop57
140
1.0
102
RTVSPost2010PropOp57
 70
     1
  0
ENDSEC
  0
EOF
