  0
SECTION
  2
HEADER
  9
$ACADVER
  1
AC1021
  9
$ACADMAINTVER
 70
    25
  9
$DWGCODEPAGE
  3
ANSI_1252
  9
$INSBASE
 10
0.0
 20
0.0
 30
0.0
  9
$EXTMIN
 10
0.0
 20
0.0
 30
0.0
  9
$EXTMAX
 10
550.0
 20
511.0
 30
0.0
  9
$LIMMIN
 10
0.0
 20
0.0
  9
$LIMMAX
 10
550.0
 20
511.0
  9
$ORTHOMODE
 70
     0
  9
$REGENMODE
 70
     1
  9
$FILLMODE
 70
     1
  9
$QTEXTMODE
 70
     0
  9
$MIRRTEXT
 70
     1
  9
$LTSCALE
 40
1.0
  9
$ATTMODE
 70
     1
  9
$TEXTSIZE
 40
2.5
  9
$TRACEWID
 40
1.0
  9
$TEXTSTYLE
  7
Standard
  9
$CLAYER
  8
0
  9
$CELTYPE
  6
ByLayer
  9
$CECOLOR
 62
   256
  9
$CELTSCALE
 40
1.0
  9
$DISPSILH
 70
     0
  9
$DIMSCALE
 40
1.0
  9
$DIMASZ
 40
2.5
  9
$DIMEXO
 40
0.625
  9
$DIMDLI
 40
3.75
  9
$DIMRND
 40
0.0
  9
$DIMDLE
 40
0.0
  9
$DIMEXE
 40
1.25
  9
$DIMTP
 40
0.0
  9
$DIMTM
 40
0.0
  9
$DIMTXT
 40
2.5
  9
$DIMCEN
 40
2.5
  9
$DIMTSZ
 40
0.0
  9
$DIMTOL
 70
     0
  9
$DIMLIM
 70
     0
  9
$DIMTIH
 70
     0
  9
$DIMTOH
 70
     0
  9
$DIMSE1
 70
     0
  9
$DIMSE2
 70
     0
  9
$DIMTAD
 70
     1
  9
$DIMZIN
 70
     8
  9
$DIMBLK
  1

  9
$DIMASO
 70
     1
  9
$DIMSHO
 70
     1
  9
$DIMPOST
  1

  9
$DIMAPOST
  1

  9
$DIMALT
 70
     0
  9
$DIMALTD
 70
     3
  9
$DIMALTF
 40
0.0393700787
  9
$DIMLFAC
 40
1.0
  9
$DIMTOFL
 70
     1
  9
$DIMTVP
 40
0.0
  9
$DIMTIX
 70
     0
  9
$DIMSOXD
 70
     0
  9
$DIMSAH
 70
     0
  9
$DIMBLK1
  1

  9
$DIMBLK2
  1

  9
$DIMSTYLE
  2
ISO-25
  9
$DIMCLRD
 70
     0
  9
$DIMCLRE
 70
     0
  9
$DIMCLRT
 70
     0
  9
$DIMTFAC
 40
1.0
  9
$DIMGAP
 40
0.625
  9
$DIMJUST
 70
     0
  9
$DIMSD1
 70
     0
  9
$DIMSD2
 70
     0
  9
$DIMTOLJ
 70
     0
  9
$DIMTZIN
 70
     8
  9
$DIMALTZ
 70
     0
  9
$DIMALTTZ
 70
     0
  9
$DIMUPT
 70
     0
  9
$DIMDEC
 70
     2
  9
$DIMTDEC
 70
     2
  9
$DIMALTU
 70
     2
  9
$DIMALTTD
 70
     3
  9
$DIMTXSTY
  7
Standard
  9
$DIMAUNIT
 70
     0
  9
$DIMADEC
 70
     0
  9
$DIMALTRND
 40
0.0
  9
$DIMAZIN
 70
     0
  9
$DIMDSEP
 70
    44
  9
$DIMATFIT
 70
     3
  9
$DIMFRAC
 70
     0
  9
$DIMLDRBLK
  1

  9
$DIMLUNIT
 70
     2
  9
$DIMLWD
 70
    -2
  9
$DIMLWE
 70
    -2
  9
$DIMTMOVE
 70
     0
  9
$DIMFXL
 40
1.0
  9
$DIMFXLON
 70
     0
  9
$DIMJOGANG
 40
0.7853981634
  9
$DIMTFILL
 70
     0
  9
$DIMTFILLCLR
 70
     0
  9
$DIMARCSYM
 70
     0
  9
$DIMLTYPE
  6

  9
$DIMLTEX1
  6

  9
$DIMLTEX2
  6

  9
$LUNITS
 70
     2
  9
$LUPREC
 70
     4
  9
$SKETCHINC
 40
1.0
  9
$FILLETRAD
 40
10.0
  9
$AUNITS
 70
     0
  9
$AUPREC
 70
     0
  9
$MENU
  1
.
  9
$ELEVATION
 40
0.0
  9
$PELEVATION
 40
0.0
  9
$THICKNESS
 40
0.0
  9
$LIMCHECK
 70
     0
  9
$CHAMFERA
 40
0.0
  9
$CHAMFERB
 40
0.0
  9
$CHAMFERC
 40
0.0
  9
$CHAMFERD
 40
0.0
  9
$SKPOLY
 70
     0
  9
$TDCREATE
 40
2457255.343390359
  9
$TDUCREATE
 40
2457255.260057026
  9
$TDUPDATE
 40
2457255.343391447
  9
$TDUUPDATE
 40
2457255.260058113
  9
$TDINDWG
 40
0.0000000116
  9
$TDUSRTIMER
 40
0.0000000116
  9
$USRTIMER
 70
     1
  9
$ANGBASE
 50
0.0
  9
$ANGDIR
 70
     0
  9
$PDMODE
 70
     0
  9
$PDSIZE
 40
0.0
  9
$PLINEWID
 40
0.0
  9
$SPLFRAME
 70
     0
  9
$SPLINETYPE
 70
     6
  9
$SPLINESEGS
 70
     8
  9
$HANDSEED
  5
422
  9
$SURFTAB1
 70
     6
  9
$SURFTAB2
 70
     6
  9
$SURFTYPE
 70
     6
  9
$SURFU
 70
     6
  9
$SURFV
 70
     6
  9
$UCSBASE
  2

  9
$UCSNAME
  2

  9
$UCSORG
 10
0.0
 20
0.0
 30
0.0
  9
$UCSXDIR
 10
1.0
 20
0.0
 30
0.0
  9
$UCSYDIR
 10
0.0
 20
1.0
 30
0.0
  9
$UCSORTHOREF
  2

  9
$UCSORTHOVIEW
 70
     0
  9
$UCSORGTOP
 10
0.0
 20
0.0
 30
0.0
  9
$UCSORGBOTTOM
 10
0.0
 20
0.0
 30
0.0
  9
$UCSORGLEFT
 10
0.0
 20
0.0
 30
0.0
  9
$UCSORGRIGHT
 10
0.0
 20
0.0
 30
0.0
  9
$UCSORGFRONT
 10
0.0
 20
0.0
 30
0.0
  9
$UCSORGBACK
 10
0.0
 20
0.0
 30
0.0
  9
$PUCSBASE
  2

  9
$PUCSNAME
  2

  9
$PUCSORG
 10
0.0
 20
0.0
 30
0.0
  9
$PUCSXDIR
 10
1.0
 20
0.0
 30
0.0
  9
$PUCSYDIR
 10
0.0
 20
1.0
 30
0.0
  9
$PUCSORTHOREF
  2

  9
$PUCSORTHOVIEW
 70
     0
  9
$PUCSORGTOP
 10
0.0
 20
0.0
 30
0.0
  9
$PUCSORGBOTTOM
 10
0.0
 20
0.0
 30
0.0
  9
$PUCSORGLEFT
 10
0.0
 20
0.0
 30
0.0
  9
$PUCSORGRIGHT
 10
0.0
 20
0.0
 30
0.0
  9
$PUCSORGFRONT
 10
0.0
 20
0.0
 30
0.0
  9
$PUCSORGBACK
 10
0.0
 20
0.0
 30
0.0
  9
$USERI1
 70
     0
  9
$USERI2
 70
     0
  9
$USERI3
 70
     0
  9
$USERI4
 70
     0
  9
$USERI5
 70
     0
  9
$USERR1
 40
0.0
  9
$USERR2
 40
0.0
  9
$USERR3
 40
0.0
  9
$USERR4
 40
0.0
  9
$USERR5
 40
0.0
  9
$WORLDVIEW
 70
     1
  9
$SHADEDGE
 70
     3
  9
$SHADEDIF
 70
    70
  9
$TILEMODE
 70
     1
  9
$MAXACTVP
 70
    64
  9
$PINSBASE
 10
0.0
 20
0.0
 30
0.0
  9
$PLIMCHECK
 70
     0
  9
$PEXTMIN
 10
0.0
 20
0.0
 30
0.0
  9
$PEXTMAX
 10
550.0
 20
511.0
 30
0.0
  9
$PLIMMIN
 10
0.0
 20
0.0
  9
$PLIMMAX
 10
550.0
 20
511.0
  9
$UNITMODE
 70
     0
  9
$VISRETAIN
 70
     1
  9
$PLINEGEN
 70
     0
  9
$PSLTSCALE
 70
     1
  9
$TREEDEPTH
 70
  3020
  9
$CMLSTYLE
  2
Standard
  9
$CMLJUST
 70
     0
  9
$CMLSCALE
 40
20.0
  9
$PROXYGRAPHICS
 70
     1
  9
$MEASUREMENT
 70
     1
  9
$CELWEIGHT
370
    -1
  9
$ENDCAPS
280
     0
  9
$JOINSTYLE
280
     0
  9
$LWDISPLAY
290
     0
  9
$INSUNITS
 70
     4
  9
$HYPERLINKBASE
  1

  9
$STYLESHEET
  1

  9
$XEDIT
290
     1
  9
$CEPSNTYPE
380
     0
  9
$PSTYLEMODE
290
     1
  9
$FINGERPRINTGUID
  2
{3354FCAC-2BEC-4EF9-9560-99DE77323B25}
  9
$VERSIONGUID
  2
{FAEB1C32-E019-11D5-929B-00C0DF256EC4}
  9
$EXTNAMES
290
     1
  9
$PSVPSCALE
 40
0.0
  9
$OLESTARTUP
290
     0
  9
$SORTENTS
280
   127
  9
$INDEXCTL
280
     0
  9
$HIDETEXT
280
     1
  9
$XCLIPFRAME
290
     0
  9
$HALOGAP
280
     0
  9
$OBSCOLOR
 70
   257
  9
$OBSLTYPE
280
     0
  9
$INTERSECTIONDISPLAY
280
     0
  9
$INTERSECTIONCOLOR
 70
   257
  9
$DIMASSOC
280
     2
  9
$PROJECTNAME
  1

  9
$CAMERADISPLAY
290
     0
  9
$LENSLENGTH
 40
50.0
  9
$CAMERAHEIGHT
 40
0.0
  9
$STEPSPERSEC
 40
2.0
  9
$STEPSIZE
 40
6.0
  9
$3DDWFPREC
 40
2.0
  9
$PSOLWIDTH
 40
5.0
  9
$PSOLHEIGHT
 40
80.0
  9
$LOFTANG1
 40
1.5707963268
  9
$LOFTANG2
 40
1.5707963268
  9
$LOFTMAG1
 40
0.0
  9
$LOFTMAG2
 40
0.0
  9
$LOFTPARAM
 70
     7
  9
$LOFTNORMALS
280
     1
  9
$LATITUDE
 40
37.795
  9
$LONGITUDE
 40
-122.394
  9
$NORTHDIRECTION
 40
0.0
  9
$TIMEZONE
 70
 -8000
  9
$LIGHTGLYPHDISPLAY
280
     1
  9
$TILEMODELIGHTSYNCH
280
     1
  9
$CMATERIAL
347
44
  9
$SOLIDHIST
280
     0
  9
$SHOWHIST
280
     1
  9
$DWFFRAME
280
     2
  9
$DGNFRAME
280
     2
  9
$REALWORLDSCALE
290
     1
  9
$INTERFERECOLOR
 62
   256
  9
$CSHADOW
280
     0
  9
$SHADOWPLANELOCATION
 40
0.0
  0
ENDSEC
  0
SECTION
  2
CLASSES
  0
CLASS
  1
ACDBDICTIONARYWDFLT
  2
AcDbDictionaryWithDefault
  3
ObjectDBX Classes
 90
        0
 91
        4
280
     0
281
     0
  0
CLASS
  1
VISUALSTYLE
  2
AcDbVisualStyle
  3
ObjectDBX Classes
 90
     4095
 91
        4
280
     0
281
     0
  0
CLASS
  1
MATERIAL
  2
AcDbMaterial
  3
ObjectDBX Classes
 90
     1153
 91
        4
280
     0
281
     0
  0
CLASS
  1
SCALE
  2
AcDbScale
  3
ObjectDBX Classes
 90
     1153
 91
        4
280
     0
281
     0
  0
CLASS
  1
TABLESTYLE
  2
AcDbTableStyle
  3
ObjectDBX Classes
 90
     4095
 91
        4
280
     0
281
     0
  0
CLASS
  1
MLEADERSTYLE
  2
AcDbMLeaderStyle
  3
ACDB_MLEADERSTYLE_CLASS
 90
     4095
 91
        4
280
     0
281
     0
  0
CLASS
  1
SUN
  2
AcDbSun
  3
SCENEOE
 90
     1153
 91
        4
280
     0
281
     0
  0
CLASS
  1
DICTIONARYVAR
  2
AcDbDictionaryVar
  3
ObjectDBX Classes
 90
        0
 91
        4
280
     0
281
     0
  0
CLASS
  1
CELLSTYLEMAP
  2
AcDbCellStyleMap
  3
ObjectDBX Classes
 90
     1152
 91
        4
280
     0
281
     0
  0
ENDSEC
  0
SECTION
  2
TABLES
  0
TABLE
  2
VPORT
  5
8
330
0
100
AcDbSymbolTable
 70
     1
  0
VPORT
  5
29
330
8
100
AcDbSymbolTableRecord
100
AcDbViewportTableRecord
  2
*Active
 70
     0
 10
0.0
 20
0.0
 11
1.0
 21
1.0
 12
344.1869158879
 22
148.5
 13
0.0
 23
0.0
 14
10.0
 24
10.0
 15
10.0
 25
10.0
 16
0.0
 26
0.0
 36
1.0
 17
0.0
 27
0.0
 37
0.0
 40
297.0
 41
1.9729729729
 42
50.0
 43
0.0
 44
0.0
 50
0.0
 51
0.0
 71
     0
 72
   100
 73
     1
 74
     3
 75
     0
 76
     0
 77
     0
 78
     0
281
     0
 65
     1
110
0.0
120
0.0
130
0.0
111
1.0
121
0.0
131
0.0
112
0.0
122
1.0
132
0.0
 79
     0
146
0.0
 60
     3
 61
     5
292
     1
282
     1
141
0.0
142
0.0
 63
   250
361
6D
  0
ENDTAB
  0
TABLE
  2
LTYPE
  5
5
330
0
100
AcDbSymbolTable
 70
     1
  0
LTYPE
  5
14
330
5
100
AcDbSymbolTableRecord
100
AcDbLinetypeTableRecord
  2
ByBlock
 70
     0
  3

 72
    65
 73
     0
 40
0.0
  0
LTYPE
  5
15
330
5
100
AcDbSymbolTableRecord
100
AcDbLinetypeTableRecord
  2
ByLayer
 70
     0
  3

 72
    65
 73
     0
 40
0.0
  0
LTYPE
  5
16
330
5
100
AcDbSymbolTableRecord
100
AcDbLinetypeTableRecord
  2
Continuous
 70
     0
  3
Solid line
 72
    65
 73
     0
 40
0.0
  0
ENDTAB
  0
TABLE
  2
LAYER
  5
2
330
0
100
AcDbSymbolTable
 70
     6
  0
LAYER
  5
10
330
2
100
AcDbSymbolTableRecord
100
AcDbLayerTableRecord
  2
0
 70
     0
 62
     7
  6
Continuous
370
    -3
390
F
347
46
  0
LAYER
  5
6E
330
2
100
AcDbSymbolTableRecord
100
AcDbLayerTableRecord
  2
encadrement
 70
     1
 62
    -7
  6
Continuous
370
    -3
390
F
347
46
  0
LAYER
  5
74
330
2
100
AcDbSymbolTableRecord
100
AcDbLayerTableRecord
  2
Cartouche
 70
     0
 62
     7
  6
Continuous
370
    -3
390
F
347
46
  0
LAYER
  5
82
330
2
100
AcDbSymbolTableRecord
100
AcDbLayerTableRecord
  2
H765_SUPPORT
 70
     0
 62
     7
  6
Continuous
370
    -3
390
F
347
46
  0
LAYER
  5
A1
330
2
100
AcDbSymbolTableRecord
100
AcDbLayerTableRecord
  2
H765_BARRE
 70
     0
 62
     7
  6
Continuous
370
    -3
390
F
347
46
  0
LAYER
  5
AA
330
2
100
AcDbSymbolTableRecord
100
AcDbLayerTableRecord
  2
H765_CACHE_MISER
 70
     0
 62
     7
  6
Continuous
370
    -3
390
F
347
46
  0
ENDTAB
  0
TABLE
  2
STYLE
  5
3
330
0
100
AcDbSymbolTable
 70
     4
  0
STYLE
  5
11
330
3
100
AcDbSymbolTableRecord
100
AcDbTextStyleTableRecord
  2
Standard
 70
     0
 40
0.0
 41
1.0
 50
0.0
 71
     0
 42
2.5
  3
txt
  4

  0
STYLE
  5
7A
330
3
100
AcDbSymbolTableRecord
100
AcDbTextStyleTableRecord
  2
SEACAD_Solid_Edge_ISO_GDT_SymbolsB
 70
     0
 40
0.0
 41
1.0
 50
0.0
 71
     0
 42
2.5
  3
SEIGDT.TTF
  4

1001
ACAD
1000
Solid Edge ISO GDT Symbols
1071
 33554432
  0
STYLE
  5
7C
330
3
100
AcDbSymbolTableRecord
100
AcDbTextStyleTableRecord
  2
SEACAD_ArialB
 70
     0
 40
0.0
 41
1.0
 50
0.0
 71
     0
 42
2.5
  3
arialbd.ttf
  4

1001
ACAD
1000
Arial
1071
 33554432
  0
STYLE
  5
3A1
330
3
100
AcDbSymbolTableRecord
100
AcDbTextStyleTableRecord
  2
SEACAD_Arial
 70
     0
 40
0.0
 41
1.0
 50
0.0
 71
     0
 42
2.5
  3

  4

1001
ACAD
1000
Arial
1071
        0
  0
ENDTAB
  0
TABLE
  2
VIEW
  5
6
330
0
100
AcDbSymbolTable
 70
     0
  0
ENDTAB
  0
TABLE
  2
UCS
  5
7
330
0
100
AcDbSymbolTable
 70
     0
  0
ENDTAB
  0
TABLE
  2
APPID
  5
9
330
0
100
AcDbSymbolTable
 70
     2
  0
APPID
  5
12
330
9
100
AcDbSymbolTableRecord
100
AcDbRegAppTableRecord
  2
ACAD
 70
     0
  0
APPID
  5
41A
330
9
100
AcDbSymbolTableRecord
100
AcDbRegAppTableRecord
  2
ACAD_MLEADERVER
 70
     0
  0
ENDTAB
  0
TABLE
  2
DIMSTYLE
  5
A
330
0
100
AcDbSymbolTable
 70
     3
100
AcDbDimStyleTable
  0
DIMSTYLE
105
27
330
A
100
AcDbSymbolTableRecord
100
AcDbDimStyleTableRecord
  2
ISO-25
 70
     0
 41
2.5
 42
0.625
 43
3.75
 44
1.25
 73
     0
 74
     0
 77
     1
 78
     8
140
2.5
141
2.5
143
0.0393700787
147
0.625
171
     3
172
     1
178
     0
271
     2
272
     2
274
     3
278
    44
283
     0
284
     8
340
11
  0
DIMSTYLE
105
38F
330
A
100
AcDbSymbolTableRecord
100
AcDbDimStyleTableRecord
  2
Standard
 70
     0
178
     0
340
11
  0
DIMSTYLE
105
3A2
102
{ACAD_REACTORS
330
3A3
330
3AE
330
3B9
330
3C4
330
3CF
330
3DA
102
}
330
A
100
AcDbSymbolTableRecord
100
AcDbDimStyleTableRecord
  2
ISO
 70
     0
 41
24.0
 42
0.0
 44
8.0
 78
     8
140
16.0
141
0.0
147
8.0
172
     1
173
     1
178
     0
271
     0
272
     0
278
    44
284
     8
340
3A1
343
39C
344
39C
  0
ENDTAB
  0
TABLE
  2
BLOCK_RECORD
  5
1
330
0
100
AcDbSymbolTable
 70
    17
  0
BLOCK_RECORD
  5
1F
330
1
100
AcDbSymbolTableRecord
100
AcDbBlockTableRecord
  2
*Model_Space
340
22
 70
     0
280
     1
281
     0
  0
BLOCK_RECORD
  5
1B
330
1
100
AcDbSymbolTableRecord
100
AcDbBlockTableRecord
  2
*Paper_Space
340
1E
 70
     0
280
     1
281
     0
  0
BLOCK_RECORD
  5
75
330
1
100
AcDbSymbolTableRecord
100
AcDbBlockTableRecord
  2
SEANNOT_GROUP
340
0
102
{BLKREFS
331
76
102
}
 70
     0
280
     1
281
     0
  0
BLOCK_RECORD
  5
80
330
1
100
AcDbSymbolTableRecord
100
AcDbBlockTableRecord
  2
SE
340
0
102
{BLKREFS
331
81
102
}
 70
     0
280
     1
281
     0
  0
BLOCK_RECORD
  5
FF
330
1
100
AcDbSymbolTableRecord
100
AcDbBlockTableRecord
  2
SE1
340
0
102
{BLKREFS
331
100
102
}
 70
     0
280
     1
281
     0
  0
BLOCK_RECORD
  5
153
330
1
100
AcDbSymbolTableRecord
100
AcDbBlockTableRecord
  2
SE2
340
0
102
{BLKREFS
331
154
102
}
 70
     0
280
     1
281
     0
  0
BLOCK_RECORD
  5
1A8
330
1
100
AcDbSymbolTableRecord
100
AcDbBlockTableRecord
  2
SE3
340
0
102
{BLKREFS
331
1A9
102
}
 70
     0
280
     1
281
     0
  0
BLOCK_RECORD
  5
216
330
1
100
AcDbSymbolTableRecord
100
AcDbBlockTableRecord
  2
SE4
340
0
102
{BLKREFS
331
217
102
}
 70
     0
280
     1
281
     0
  0
BLOCK_RECORD
  5
2D2
330
1
100
AcDbSymbolTableRecord
100
AcDbBlockTableRecord
  2
SE5
340
0
102
{BLKREFS
331
2D3
102
}
 70
     0
280
     1
281
     0
  0
BLOCK_RECORD
  5
390
330
1
100
AcDbSymbolTableRecord
100
AcDbBlockTableRecord
  2
_OBLIQUE
340
0
 70
     0
280
     1
281
     0
  0
BLOCK_RECORD
  5
394
330
1
100
AcDbSymbolTableRecord
100
AcDbBlockTableRecord
  2
_DOT
340
0
 70
     0
280
     1
281
     0
  0
BLOCK_RECORD
  5
39C
330
1
100
AcDbSymbolTableRecord
100
AcDbBlockTableRecord
  2
_SE_FILLED
340
0
 70
     0
280
     1
281
     0
  0
BLOCK_RECORD
  5
3A4
330
1
100
AcDbSymbolTableRecord
100
AcDbBlockTableRecord
  2
DMBLK7
340
0
 70
     0
280
     1
281
     0
  0
BLOCK_RECORD
  5
3AF
330
1
100
AcDbSymbolTableRecord
100
AcDbBlockTableRecord
  2
DMBLK8
340
0
 70
     0
280
     1
281
     0
  0
BLOCK_RECORD
  5
3BA
330
1
100
AcDbSymbolTableRecord
100
AcDbBlockTableRecord
  2
DMBLK9
340
0
 70
     0
280
     1
281
     0
  0
BLOCK_RECORD
  5
3C5
330
1
100
AcDbSymbolTableRecord
100
AcDbBlockTableRecord
  2
DMBLK10
340
0
 70
     0
280
     1
281
     0
  0
BLOCK_RECORD
  5
3D0
330
1
100
AcDbSymbolTableRecord
100
AcDbBlockTableRecord
  2
DMBLK11
340
0
 70
     0
280
     1
281
     0
  0
BLOCK_RECORD
  5
3DB
330
1
100
AcDbSymbolTableRecord
100
AcDbBlockTableRecord
  2
DMBLK12
340
0
 70
     0
280
     1
281
     0
  0
ENDTAB
  0
ENDSEC
  0
SECTION
  2
BLOCKS
  0
BLOCK
  5
20
330
1F
100
AcDbEntity
  8
0
100
AcDbBlockBegin
  2
*Model_Space
 70
     0
 10
0.0
 20
0.0
 30
0.0
  3
*Model_Space
  1
*Model_Space
  0
ENDBLK
  5
21
330
1F
100
AcDbEntity
  8
0
100
AcDbBlockEnd
  0
BLOCK
  5
1C
330
1B
100
AcDbEntity
 67
     1
  8
0
100
AcDbBlockBegin
  2
*Paper_Space
 70
     0
 10
0.0
 20
0.0
 30
0.0
  3
*Paper_Space
  1
*Paper_Space
  0
ENDBLK
  5
1D
330
1B
100
AcDbEntity
 67
     1
  8
0
100
AcDbBlockEnd
  0
BLOCK
  5
7E
330
75
100
AcDbEntity
  8
0
100
AcDbBlockBegin
  2
SEANNOT_GROUP
 70
     0
 10
0.0
 20
0.0
 30
0.0
  3
SEANNOT_GROUP
  1
SEANNOT_GROUP
  0
LWPOLYLINE
  5
77
330
75
100
AcDbEntity
  8
Cartouche
  6
Continuous
 62
     7
100
AcDbPolyline
 90
        2
 70
     0
 43
0.0
 10
891.0257518302
 20
453.0828222465
 10
865.2990280367
 20
539.5288022813
  0
HATCH
  5
78
330
75
100
AcDbEntity
  8
Cartouche
  6
Continuous
 62
     7
100
AcDbHatch
 10
0.0
 20
0.0
 30
0.0
210
0.0
220
0.0
230
1.0
  2
SOLID
 70
     1
 71
     0
 91
        1
 92
        1
 93
        3
 72
     1
 10
875.9786331420502
 20
517.6668251271828
 11
865.299028036713
 21
539.5288022812692
 72
     1
 10
865.299028036713
 20
539.5288022812692
 11
868.3109862215174
 21
515.3848979121593
 72
     1
 10
868.3109862215174
 20
515.3848979121592
 11
875.9786331420502
 21
517.6668251271828
 97
        0
 75
     0
 76
     1
 98
        0
  0
LINE
  5
79
330
75
100
AcDbEntity
  8
Cartouche
  6
Continuous
 62
     7
100
AcDbLine
 10
891.0257518302
 20
453.0828222465
 30
0.0
 11
923.0257518302
 21
453.0828222465
 31
0.0
  0
TEXT
  5
7B
330
75
100
AcDbEntity
  8
Cartouche
  6
Continuous
 62
     7
100
AcDbText
 10
928.6257518302
 20
445.0828222465
 30
0.0
 40
16.0
  1
O
  7
SEACAD_Solid_Edge_ISO_GDT_SymbolsB
 11
928.6257518302
 21
461.0828222465
 31
0.0
100
AcDbText
 73
     3
  0
TEXT
  5
7D
330
75
100
AcDbEntity
  8
Cartouche
  6
Continuous
 62
     7
100
AcDbText
 10
946.8713658653
 20
445.0828222465
 30
0.0
 40
16.0
  1
34
  7
SEACAD_ArialB
 11
946.8713658653
 21
461.0828222465
 31
0.0
100
AcDbText
 73
     3
  0
ENDBLK
  5
7F
330
75
100
AcDbEntity
  8
0
100
AcDbBlockEnd
  0
BLOCK
  5
FD
330
80
100
AcDbEntity
  8
0
100
AcDbBlockBegin
  2
SE
 70
     0
 10
0.0
 20
0.0
 30
0.0
  3
SE
  1
SE
  0
LINE
  5
83
330
80
100
AcDbEntity
  8
H765_SUPPORT
  6
Continuous
 62
     7
100
AcDbLine
 10
336.7141868047
 20
-100.4711977187
 30
0.0
 11
336.7141868047
 21
-106.4711977187
 31
0.0
  0
LINE
  5
84
330
80
100
AcDbEntity
  8
H765_SUPPORT
  6
Continuous
 62
     7
100
AcDbLine
 10
331.7141868047
 20
-106.4711977187
 30
0.0
 11
191.7141868047
 21
-106.4711977187
 31
0.0
  0
LINE
  5
85
330
80
100
AcDbEntity
  8
H765_SUPPORT
  6
Continuous
 62
     7
100
AcDbLine
 10
336.7141868047
 20
-106.4711977187
 30
0.0
 11
331.7141868047
 21
-106.4711977187
 31
0.0
  0
LINE
  5
86
330
80
100
AcDbEntity
  8
H765_SUPPORT
  6
Continuous
 62
     7
100
AcDbLine
 10
331.7141868047
 20
-100.4711977187
 30
0.0
 11
191.7141868047
 21
-100.4711977187
 31
0.0
  0
LINE
  5
87
330
80
100
AcDbEntity
  8
H765_SUPPORT
  6
Continuous
 62
     7
100
AcDbLine
 10
331.7141868047
 20
-106.4711977187
 30
0.0
 11
331.7141868047
 21
-100.4711977187
 31
0.0
  0
LINE
  5
88
330
80
100
AcDbEntity
  8
H765_SUPPORT
  6
Continuous
 62
     7
100
AcDbLine
 10
331.7141868047
 20
-100.4711977187
 30
0.0
 11
336.7141868047
 21
-100.4711977187
 31
0.0
  0
LINE
  5
89
330
80
100
AcDbEntity
  8
H765_SUPPORT
  6
Continuous
 62
     7
100
AcDbLine
 10
191.7141868047
 20
-100.4711977187
 30
0.0
 11
191.7141868047
 21
-106.4711977187
 31
0.0
  0
LINE
  5
8A
330
80
100
AcDbEntity
  8
H765_SUPPORT
  6
Continuous
 62
     7
100
AcDbLine
 10
191.7141868047
 20
-106.4711977187
 30
0.0
 11
186.7141868047
 21
-106.4711977187
 31
0.0
  0
LINE
  5
8B
330
80
100
AcDbEntity
  8
H765_SUPPORT
  6
Continuous
 62
     7
100
AcDbLine
 10
186.7141868047
 20
-106.4711977187
 30
0.0
 11
186.7141868047
 21
-100.4711977187
 31
0.0
  0
LINE
  5
8C
330
80
100
AcDbEntity
  8
H765_SUPPORT
  6
Continuous
 62
     7
100
AcDbLine
 10
186.7141868047
 20
-100.4711977187
 30
0.0
 11
191.7141868047
 21
-100.4711977187
 31
0.0
  0
LINE
  5
8D
330
80
100
AcDbEntity
  8
H765_SUPPORT
  6
Continuous
 62
     7
100
AcDbLine
 10
291.7141868047
 20
530.5288022813
 30
0.0
 11
291.7141868047
 21
-98.4711977187
 31
0.0
  0
LINE
  5
8E
330
80
100
AcDbEntity
  8
H765_SUPPORT
  6
Continuous
 62
     7
100
AcDbLine
 10
233.7141868047
 20
736.5288022813
 30
0.0
 11
289.7141868047
 21
736.5288022813
 31
0.0
  0
LINE
  5
8F
330
80
100
AcDbEntity
  8
H765_SUPPORT
  6
Continuous
 62
     7
100
AcDbLine
 10
233.7141868047
 20
530.5288022813
 30
0.0
 11
233.7141868047
 21
-98.4711977187
 31
0.0
  0
LINE
  5
90
330
80
100
AcDbEntity
  8
H765_SUPPORT
  6
Continuous
 62
     7
100
AcDbLine
 10
233.7141868047
 20
-98.4711977187
 30
0.0
 11
289.7141868047
 21
-98.4711977187
 31
0.0
  0
LINE
  5
91
330
80
100
AcDbEntity
  8
H765_SUPPORT
  6
Continuous
 62
     7
100
AcDbLine
 10
289.7141868047
 20
-98.4711977187
 30
0.0
 11
289.7141868047
 21
530.5288022813
 31
0.0
  0
LINE
  5
92
330
80
100
AcDbEntity
  8
H765_SUPPORT
  6
Continuous
 62
     7
100
AcDbLine
 10
231.7141868047
 20
-98.4711977187
 30
0.0
 11
231.7141868047
 21
530.5288022813
 31
0.0
  0
LINE
  5
93
330
80
100
AcDbEntity
  8
H765_SUPPORT
  6
Continuous
 62
     7
100
AcDbLine
 10
233.7141868047
 20
-98.4711977187
 30
0.0
 11
231.7141868047
 21
-98.4711977187
 31
0.0
  0
LINE
  5
94
330
80
100
AcDbEntity
  8
H765_SUPPORT
  6
Continuous
 62
     7
100
AcDbLine
 10
233.7141868047
 20
736.5288022813
 30
0.0
 11
233.7141868047
 21
735.5288022813
 31
0.0
  0
ARC
  5
95
330
80
100
AcDbEntity
  8
H765_SUPPORT
  6
Continuous
 62
     7
100
AcDbCircle
 10
233.7141868047
 20
734.5288022813
 30
0.0
 40
1.999999999999998
100
AcDbArc
 50
90.0
 51
150.0
  0
ARC
  5
96
330
80
100
AcDbEntity
  8
H765_SUPPORT
  6
Continuous
 62
     7
100
AcDbCircle
 10
229.7141868047
 20
-98.4711977187
 30
0.0
 40
2.000000000000007
100
AcDbArc
 50
270.0
 51
0.0
  0
LINE
  5
97
330
80
100
AcDbEntity
  8
H765_SUPPORT
  6
Continuous
 62
     7
100
AcDbLine
 10
233.7141868047
 20
-98.4711977187
 30
0.0
 11
233.7141868047
 21
-100.4711977187
 31
0.0
  0
LINE
  5
98
330
80
100
AcDbEntity
  8
H765_SUPPORT
  6
Continuous
 62
     7
100
AcDbLine
 10
289.7141868047
 20
736.5288022813
 30
0.0
 11
289.7141868047
 21
735.5288022813
 31
0.0
  0
LINE
  5
99
330
80
100
AcDbEntity
  8
H765_SUPPORT
  6
Continuous
 62
     7
100
AcDbLine
 10
289.7141868047
 20
-98.4711977187
 30
0.0
 11
289.7141868047
 21
-100.4711977187
 31
0.0
  0
LINE
  5
9A
330
80
100
AcDbEntity
  8
H765_SUPPORT
  6
Continuous
 62
     7
100
AcDbLine
 10
291.7141868047
 20
-98.4711977187
 30
0.0
 11
289.7141868047
 21
-98.4711977187
 31
0.0
  0
ARC
  5
9B
330
80
100
AcDbEntity
  8
H765_SUPPORT
  6
Continuous
 62
     7
100
AcDbCircle
 10
289.7141868047
 20
734.5288022813
 30
0.0
 40
2.000000000000002
100
AcDbArc
 50
30.0
 51
90.0
  0
ARC
  5
9C
330
80
100
AcDbEntity
  8
H765_SUPPORT
  6
Continuous
 62
     7
100
AcDbCircle
 10
293.7141868047
 20
-98.4711977187
 30
0.0
 40
2.000000000000002
100
AcDbArc
 50
180.0
 51
270.0
  0
LINE
  5
9D
330
80
100
AcDbEntity
  8
H765_SUPPORT
  6
Continuous
 62
     7
100
AcDbLine
 10
242.7141868047
 20
693.5288022813
 30
0.0
 11
244.7141868047
 21
693.5288022813
 31
0.0
  0
LINE
  5
9E
330
80
100
AcDbEntity
  8
H765_SUPPORT
  6
Continuous
 62
     7
100
AcDbLine
 10
244.7141868047
 20
693.5288022813
 30
0.0
 11
244.7141868047
 21
676.5288022813
 31
0.0
  0
LINE
  5
9F
330
80
100
AcDbEntity
  8
H765_SUPPORT
  6
Continuous
 62
     7
100
AcDbLine
 10
278.7141868047
 20
676.5288022813
 30
0.0
 11
278.7141868047
 21
693.5288022813
 31
0.0
  0
LINE
  5
A0
330
80
100
AcDbEntity
  8
H765_SUPPORT
  6
Continuous
 62
     7
100
AcDbLine
 10
278.7141868047
 20
693.5288022813
 30
0.0
 11
280.7141868047
 21
693.5288022813
 31
0.0
  0
ARC
  5
A2
330
80
100
AcDbEntity
  8
H765_BARRE
  6
Continuous
 62
     7
100
AcDbCircle
 10
261.7141868047
 20
676.5288022813
 30
0.0
 40
17.0
100
AcDbArc
 50
0.0
 51
180.0
  0
ARC
  5
A3
330
80
100
AcDbEntity
  8
H765_BARRE
  6
Continuous
 62
     7
100
AcDbCircle
 10
261.7141868047
 20
556.5288022813
 30
0.0
 40
17.0
100
AcDbArc
 50
180.0
 51
0.0
  0
LINE
  5
A4
330
80
100
AcDbEntity
  8
H765_BARRE
  6
Continuous
 62
     7
100
AcDbLine
 10
244.7141868047
 20
693.5288022813
 30
0.0
 11
244.7141868047
 21
676.5288022813
 31
0.0
  0
LINE
  5
A5
330
80
100
AcDbEntity
  8
H765_BARRE
  6
Continuous
 62
     7
100
AcDbLine
 10
278.7141868047
 20
693.5288022813
 30
0.0
 11
278.7141868047
 21
676.5288022813
 31
0.0
  0
LINE
  5
A6
330
80
100
AcDbEntity
  8
H765_BARRE
  6
Continuous
 62
     7
100
AcDbLine
 10
244.7141868047
 20
676.5288022813
 30
0.0
 11
244.7141868047
 21
556.5288022813
 31
0.0
  0
LINE
  5
A7
330
80
100
AcDbEntity
  8
H765_BARRE
  6
Continuous
 62
     7
100
AcDbLine
 10
278.7141868047
 20
556.5288022813
 30
0.0
 11
278.7141868047
 21
676.5288022813
 31
0.0
  0
LINE
  5
A8
330
80
100
AcDbEntity
  8
H765_BARRE
  6
Continuous
 62
     7
100
AcDbLine
 10
261.7141868047
 20
693.5288022813
 30
0.0
 11
244.7141868047
 21
693.5288022813
 31
0.0
  0
LINE
  5
A9
330
80
100
AcDbEntity
  8
H765_BARRE
  6
Continuous
 62
     7
100
AcDbLine
 10
278.7141868047
 20
693.5288022813
 30
0.0
 11
261.7141868047
 21
693.5288022813
 31
0.0
  0
ARC
  5
AB
330
80
100
AcDbEntity
  8
H765_CACHE_MISER
  6
Continuous
 62
     7
100
AcDbCircle
 10
261.7141868047
 20
556.5288022813
 30
0.0
 40
21.0
100
AcDbArc
 50
144.0494323804
 51
0.0
  0
ARC
  5
AC
330
80
100
AcDbEntity
  8
H765_CACHE_MISER
  6
Continuous
 62
     7
100
AcDbCircle
 10
261.7141868047
 20
556.5288022813
 30
0.0
 40
21.0
100
AcDbArc
 50
0.0
 51
35.9505676196
  0
ARC
  5
AD
330
80
100
AcDbEntity
  8
H765_CACHE_MISER
  6
Continuous
 62
     7
100
AcDbCircle
 10
261.7141868047
 20
556.5288022813
 30
0.0
 40
19.0
100
AcDbArc
 50
0.0
 51
26.5253520166
  0
ARC
  5
AE
330
80
100
AcDbEntity
  8
H765_CACHE_MISER
  6
Continuous
 62
     7
100
AcDbCircle
 10
261.7141868047
 20
556.5288022813
 30
0.0
 40
19.0
100
AcDbArc
 50
153.4746479834
 51
0.0
  0
LINE
  5
AF
330
80
100
AcDbEntity
  8
H765_CACHE_MISER
  6
Continuous
 62
     7
100
AcDbLine
 10
309.2141868047
 20
530.5288022813
 30
0.0
 11
214.2141868047
 21
530.5288022813
 31
0.0
  0
LINE
  5
B0
330
80
100
AcDbEntity
  8
H765_CACHE_MISER
  6
Continuous
 62
     7
100
AcDbLine
 10
209.2141868047
 20
696.379170845
 30
0.0
 11
209.2141868047
 21
730.5288022813
 31
0.0
  0
LINE
  5
B1
330
80
100
AcDbEntity
  8
H765_CACHE_MISER
  6
Continuous
 62
     7
100
AcDbLine
 10
209.2141868047
 20
690.4086298418
 30
0.0
 11
209.2141868047
 21
696.379170845
 31
0.0
  0
LINE
  5
B2
330
80
100
AcDbEntity
  8
H765_CACHE_MISER
  6
Continuous
 62
     7
100
AcDbLine
 10
209.2141868047
 20
680.5799079724
 30
0.0
 11
209.2141868047
 21
690.4086298418
 31
0.0
  0
LINE
  5
B3
330
80
100
AcDbEntity
  8
H765_CACHE_MISER
  6
Continuous
 62
     7
100
AcDbLine
 10
209.2141868047
 20
660.4776965901
 30
0.0
 11
209.2141868047
 21
680.5799079724
 31
0.0
  0
LINE
  5
B4
330
80
100
AcDbEntity
  8
H765_CACHE_MISER
  6
Continuous
 62
     7
100
AcDbLine
 10
209.2141868047
 20
650.6489747208
 30
0.0
 11
209.2141868047
 21
660.4776965901
 31
0.0
  0
LINE
  5
B5
330
80
100
AcDbEntity
  8
H765_CACHE_MISER
  6
Continuous
 62
     7
100
AcDbLine
 10
209.2141868047
 20
644.6784337176
 30
0.0
 11
209.2141868047
 21
650.6489747208
 31
0.0
  0
LINE
  5
B6
330
80
100
AcDbEntity
  8
H765_CACHE_MISER
  6
Continuous
 62
     7
100
AcDbLine
 10
209.2141868047
 20
535.5288022813
 30
0.0
 11
209.2141868047
 21
644.6784337176
 31
0.0
  0
LINE
  5
B7
330
80
100
AcDbEntity
  8
H765_CACHE_MISER
  6
Continuous
 62
     7
100
AcDbLine
 10
214.2141868047
 20
640.5288022813
 30
0.0
 11
244.7141868047
 21
640.5288022813
 31
0.0
  0
LINE
  5
B8
330
80
100
AcDbEntity
  8
H765_CACHE_MISER
  6
Continuous
 62
     7
100
AcDbLine
 10
278.7141868047
 20
640.5288022813
 30
0.0
 11
309.2141868047
 21
640.5288022813
 31
0.0
  0
LINE
  5
B9
330
80
100
AcDbEntity
  8
H765_CACHE_MISER
  6
Continuous
 62
     7
100
AcDbLine
 10
309.2141868047
 20
535.5288022813
 30
0.0
 11
309.2141868047
 21
640.5288022813
 31
0.0
  0
LINE
  5
BA
330
80
100
AcDbEntity
  8
H765_CACHE_MISER
  6
Continuous
 62
     7
100
AcDbLine
 10
261.7141868047
 20
535.5288022813
 30
0.0
 11
309.2141868047
 21
535.5288022813
 31
0.0
  0
LINE
  5
BB
330
80
100
AcDbEntity
  8
H765_CACHE_MISER
  6
Continuous
 62
     7
100
AcDbLine
 10
214.2141868047
 20
535.5288022813
 30
0.0
 11
261.7141868047
 21
535.5288022813
 31
0.0
  0
LINE
  5
BC
330
80
100
AcDbEntity
  8
H765_CACHE_MISER
  6
Continuous
 62
     7
100
AcDbLine
 10
214.2141868047
 20
640.5288022813
 30
0.0
 11
214.2141868047
 21
535.5288022813
 31
0.0
  0
LINE
  5
BD
330
80
100
AcDbEntity
  8
H765_CACHE_MISER
  6
Continuous
 62
     7
100
AcDbLine
 10
314.2141868047
 20
730.5288022813
 30
0.0
 11
314.2141868047
 21
696.379170845
 31
0.0
  0
LINE
  5
BE
330
80
100
AcDbEntity
  8
H765_CACHE_MISER
  6
Continuous
 62
     7
100
AcDbLine
 10
314.2141868047
 20
696.379170845
 30
0.0
 11
314.2141868047
 21
690.4086298418
 31
0.0
  0
LINE
  5
BF
330
80
100
AcDbEntity
  8
H765_CACHE_MISER
  6
Continuous
 62
     7
100
AcDbLine
 10
314.2141868047
 20
690.4086298418
 30
0.0
 11
314.2141868047
 21
680.5799079724
 31
0.0
  0
LINE
  5
C0
330
80
100
AcDbEntity
  8
H765_CACHE_MISER
  6
Continuous
 62
     7
100
AcDbLine
 10
314.2141868047
 20
680.5799079724
 30
0.0
 11
314.2141868047
 21
660.4776965901
 31
0.0
  0
LINE
  5
C1
330
80
100
AcDbEntity
  8
H765_CACHE_MISER
  6
Continuous
 62
     7
100
AcDbLine
 10
314.2141868047
 20
660.4776965901
 30
0.0
 11
314.2141868047
 21
650.6489747208
 31
0.0
  0
LINE
  5
C2
330
80
100
AcDbEntity
  8
H765_CACHE_MISER
  6
Continuous
 62
     7
100
AcDbLine
 10
314.2141868047
 20
650.6489747208
 30
0.0
 11
314.2141868047
 21
644.6784337176
 31
0.0
  0
LINE
  5
C3
330
80
100
AcDbEntity
  8
H765_CACHE_MISER
  6
Continuous
 62
     7
100
AcDbLine
 10
314.2141868047
 20
644.6784337176
 30
0.0
 11
314.2141868047
 21
535.5288022813
 31
0.0
  0
LINE
  5
C4
330
80
100
AcDbEntity
  8
H765_CACHE_MISER
  6
Continuous
 62
     7
100
AcDbLine
 10
309.2141868047
 20
645.7346137861
 30
0.0
 11
278.7141868047
 21
645.7346137861
 31
0.0
  0
LINE
  5
C5
330
80
100
AcDbEntity
  8
H765_CACHE_MISER
  6
Continuous
 62
     7
100
AcDbLine
 10
244.7141868047
 20
645.7346137861
 30
0.0
 11
214.2141868047
 21
645.7346137861
 31
0.0
  0
LINE
  5
C6
330
80
100
AcDbEntity
  8
H765_CACHE_MISER
  6
Continuous
 62
     7
100
AcDbLine
 10
309.2141868047
 20
640.5288022813
 30
0.0
 11
309.2141868047
 21
645.7346137861
 31
0.0
  0
LINE
  5
C7
330
80
100
AcDbEntity
  8
H765_CACHE_MISER
  6
Continuous
 62
     7
100
AcDbLine
 10
214.2141868047
 20
645.7346137861
 30
0.0
 11
214.2141868047
 21
640.5288022813
 31
0.0
  0
LINE
  5
C8
330
80
100
AcDbEntity
  8
H765_CACHE_MISER
  6
Continuous
 62
     7
100
AcDbLine
 10
214.2141868047
 20
660.4776965901
 30
0.0
 11
244.7141868047
 21
660.4776965901
 31
0.0
  0
LINE
  5
C9
330
80
100
AcDbEntity
  8
H765_CACHE_MISER
  6
Continuous
 62
     7
100
AcDbLine
 10
309.2141868047
 20
645.7346137861
 30
0.0
 11
309.2141868047
 21
660.4776965901
 31
0.0
  0
LINE
  5
CA
330
80
100
AcDbEntity
  8
H765_CACHE_MISER
  6
Continuous
 62
     7
100
AcDbLine
 10
214.2141868047
 20
660.4776965901
 30
0.0
 11
214.2141868047
 21
645.7346137861
 31
0.0
  0
LINE
  5
CB
330
80
100
AcDbEntity
  8
H765_CACHE_MISER
  6
Continuous
 62
     7
100
AcDbLine
 10
309.2141868047
 20
680.5799079724
 30
0.0
 11
280.7141868047
 21
680.5799079724
 31
0.0
  0
LINE
  5
CC
330
80
100
AcDbEntity
  8
H765_CACHE_MISER
  6
Continuous
 62
     7
100
AcDbLine
 10
309.2141868047
 20
660.4776965901
 30
0.0
 11
309.2141868047
 21
680.5799079724
 31
0.0
  0
LINE
  5
CD
330
80
100
AcDbEntity
  8
H765_CACHE_MISER
  6
Continuous
 62
     7
100
AcDbLine
 10
214.2141868047
 20
680.5799079724
 30
0.0
 11
214.2141868047
 21
660.4776965901
 31
0.0
  0
LINE
  5
CE
330
80
100
AcDbEntity
  8
H765_CACHE_MISER
  6
Continuous
 62
     7
100
AcDbLine
 10
214.2141868047
 20
695.3229907764
 30
0.0
 11
242.7141868047
 21
695.3229907764
 31
0.0
  0
LINE
  5
CF
330
80
100
AcDbEntity
  8
H765_CACHE_MISER
  6
Continuous
 62
     7
100
AcDbLine
 10
309.2141868047
 20
680.5799079724
 30
0.0
 11
309.2141868047
 21
695.3229907764
 31
0.0
  0
LINE
  5
D0
330
80
100
AcDbEntity
  8
H765_CACHE_MISER
  6
Continuous
 62
     7
100
AcDbLine
 10
214.2141868047
 20
695.3229907764
 30
0.0
 11
214.2141868047
 21
680.5799079724
 31
0.0
  0
LINE
  5
D1
330
80
100
AcDbEntity
  8
H765_CACHE_MISER
  6
Continuous
 62
     7
100
AcDbLine
 10
214.2141868047
 20
700.5288022813
 30
0.0
 11
242.7141868047
 21
700.5288022813
 31
0.0
  0
LINE
  5
D2
330
80
100
AcDbEntity
  8
H765_CACHE_MISER
  6
Continuous
 62
     7
100
AcDbLine
 10
309.2141868047
 20
695.3229907764
 30
0.0
 11
309.2141868047
 21
700.5288022813
 31
0.0
  0
LINE
  5
D3
330
80
100
AcDbEntity
  8
H765_CACHE_MISER
  6
Continuous
 62
     7
100
AcDbLine
 10
214.2141868047
 20
700.5288022813
 30
0.0
 11
214.2141868047
 21
695.3229907764
 31
0.0
  0
LINE
  5
D4
330
80
100
AcDbEntity
  8
H765_CACHE_MISER
  6
Continuous
 62
     7
100
AcDbLine
 10
214.2141868047
 20
735.5288022813
 30
0.0
 11
309.2141868047
 21
735.5288022813
 31
0.0
  0
LINE
  5
D5
330
80
100
AcDbEntity
  8
H765_CACHE_MISER
  6
Continuous
 62
     7
100
AcDbLine
 10
309.2141868047
 20
730.5288022813
 30
0.0
 11
214.2141868047
 21
730.5288022813
 31
0.0
  0
LINE
  5
D6
330
80
100
AcDbEntity
  8
H765_CACHE_MISER
  6
Continuous
 62
     7
100
AcDbLine
 10
309.2141868047
 20
700.5288022813
 30
0.0
 11
309.2141868047
 21
730.5288022813
 31
0.0
  0
LINE
  5
D7
330
80
100
AcDbEntity
  8
H765_CACHE_MISER
  6
Continuous
 62
     7
100
AcDbLine
 10
214.2141868047
 20
730.5288022813
 30
0.0
 11
214.2141868047
 21
700.5288022813
 31
0.0
  0
ARC
  5
D8
330
80
100
AcDbEntity
  8
H765_CACHE_MISER
  6
Continuous
 62
     7
100
AcDbCircle
 10
309.2141868047
 20
730.5288022813
 30
0.0
 40
4.999999999999997
100
AcDbArc
 50
0.0
 51
90.0
  0
LINE
  5
D9
330
80
100
AcDbEntity
  8
H765_CACHE_MISER
  6
Continuous
 62
     7
100
AcDbLine
 10
309.2141868047
 20
730.5288022813
 30
0.0
 11
309.2141868047
 21
735.5288022813
 31
0.0
  0
LINE
  5
DA
330
80
100
AcDbEntity
  8
H765_CACHE_MISER
  6
Continuous
 62
     7
100
AcDbLine
 10
314.2141868047
 20
730.5288022813
 30
0.0
 11
309.2141868047
 21
730.5288022813
 31
0.0
  0
ARC
  5
DB
330
80
100
AcDbEntity
  8
H765_CACHE_MISER
  6
Continuous
 62
     7
100
AcDbCircle
 10
214.2141868047
 20
730.5288022813
 30
0.0
 40
5.000000000000004
100
AcDbArc
 50
90.0
 51
180.0
  0
LINE
  5
DC
330
80
100
AcDbEntity
  8
H765_CACHE_MISER
  6
Continuous
 62
     7
100
AcDbLine
 10
214.2141868047
 20
730.5288022813
 30
0.0
 11
214.2141868047
 21
735.5288022813
 31
0.0
  0
ELLIPSE
  5
DD
330
80
100
AcDbEntity
  8
H765_CACHE_MISER
  6
Continuous
 62
     7
100
AcDbEllipse
 10
309.2141868047
 20
696.379170845
 30
0.0
 11
5.000000000000004
 21
0.0
 31
0.0
210
0.0
220
0.0
230
1.0
 40
0.8299262873
 41
0.0
 42
1.570796326794897
  0
LINE
  5
DE
330
80
100
AcDbEntity
  8
H765_CACHE_MISER
  6
Continuous
 62
     7
100
AcDbLine
 10
214.2141868047
 20
730.5288022813
 30
0.0
 11
209.2141868047
 21
730.5288022813
 31
0.0
  0
ELLIPSE
  5
DF
330
80
100
AcDbEntity
  8
H765_CACHE_MISER
  6
Continuous
 62
     7
100
AcDbEllipse
 10
309.2141868047
 20
690.4086298418
 30
0.0
 11
4.999999999999997
 21
-1.110223024625157E-13
 31
0.0
210
0.0
220
0.0
230
1.0
 40
0.9828721869
 41
0.0000000000000226
 42
1.570796326794919
  0
ELLIPSE
  5
E0
330
80
100
AcDbEntity
  8
H765_CACHE_MISER
  6
Continuous
 62
     7
100
AcDbEllipse
 10
214.2141868047
 20
696.379170845
 30
0.0
 11
5.000000000000004
 21
0.0
 31
0.0
210
0.0
220
0.0
230
1.0
 40
0.8299262873
 41
1.570796326794897
 42
3.141592653589793
  0
LINE
  5
E1
330
80
100
AcDbEntity
  8
H765_CACHE_MISER
  6
Continuous
 62
     7
100
AcDbLine
 10
314.2141868047
 20
680.5799079724
 30
0.0
 11
309.2141868047
 21
680.5799079724
 31
0.0
  0
ELLIPSE
  5
E2
330
80
100
AcDbEntity
  8
H765_CACHE_MISER
  6
Continuous
 62
     7
100
AcDbEllipse
 10
214.2141868047
 20
690.4086298418
 30
0.0
 11
5.00000000000006
 21
2.220446049250313E-13
 31
0.0
210
0.0
220
0.0
230
1.0
 40
0.9828721869
 41
1.570796326794847
 42
3.141592653589793
  0
LINE
  5
E3
330
80
100
AcDbEntity
  8
H765_CACHE_MISER
  6
Continuous
 62
     7
100
AcDbLine
 10
314.2141868047
 20
660.4776965901
 30
0.0
 11
309.2141868047
 21
660.4776965901
 31
0.0
  0
LINE
  5
E4
330
80
100
AcDbEntity
  8
H765_CACHE_MISER
  6
Continuous
 62
     7
100
AcDbLine
 10
214.2141868047
 20
680.5799079724
 30
0.0
 11
209.2141868047
 21
680.5799079724
 31
0.0
  0
ELLIPSE
  5
E5
330
80
100
AcDbEntity
  8
H765_CACHE_MISER
  6
Continuous
 62
     7
100
AcDbEllipse
 10
309.2141868047
 20
650.6489747208
 30
0.0
 11
4.999999999999997
 21
1.110223024625157E-13
 31
0.0
210
0.0
220
0.0
230
1.0
 40
0.9828721869
 41
4.712388980384667
 42
6.283185307179564
  0
LINE
  5
E6
330
80
100
AcDbEntity
  8
H765_CACHE_MISER
  6
Continuous
 62
     7
100
AcDbLine
 10
214.2141868047
 20
660.4776965901
 30
0.0
 11
209.2141868047
 21
660.4776965901
 31
0.0
  0
ELLIPSE
  5
E7
330
80
100
AcDbEntity
  8
H765_CACHE_MISER
  6
Continuous
 62
     7
100
AcDbEllipse
 10
309.2141868047
 20
644.6784337176
 30
0.0
 11
5.000000000000004
 21
0.0
 31
0.0
210
0.0
220
0.0
230
1.0
 40
0.8299262873
 41
4.71238898038469
 42
6.283185307179586
  0
ELLIPSE
  5
E8
330
80
100
AcDbEntity
  8
H765_CACHE_MISER
  6
Continuous
 62
     7
100
AcDbEllipse
 10
214.2141868047
 20
650.6489747208
 30
0.0
 11
4.99999999999997
 21
-3.219646771412954E-12
 31
0.0
210
0.0
220
0.0
230
1.0
 40
0.9828721869
 41
3.141592653590425
 42
4.712388980385322
  0
LINE
  5
E9
330
80
100
AcDbEntity
  8
H765_CACHE_MISER
  6
Continuous
 62
     7
100
AcDbLine
 10
314.2141868047
 20
535.5288022813
 30
0.0
 11
309.2141868047
 21
535.5288022813
 31
0.0
  0
ARC
  5
EA
330
80
100
AcDbEntity
  8
H765_CACHE_MISER
  6
Continuous
 62
     7
100
AcDbCircle
 10
309.2141868047
 20
535.5288022813
 30
0.0
 40
5.000000000000004
100
AcDbArc
 50
270.0
 51
0.0
  0
ELLIPSE
  5
EB
330
80
100
AcDbEntity
  8
H765_CACHE_MISER
  6
Continuous
 62
     7
100
AcDbEllipse
 10
214.2141868047
 20
644.6784337176
 30
0.0
 11
5.000000000000004
 21
0.0
 31
0.0
210
0.0
220
0.0
230
1.0
 40
0.8299262873
 41
3.141592653589793
 42
4.712388980384684
  0
LINE
  5
EC
330
80
100
AcDbEntity
  8
H765_CACHE_MISER
  6
Continuous
 62
     7
100
AcDbLine
 10
309.2141868047
 20
530.5288022813
 30
0.0
 11
309.2141868047
 21
535.5288022813
 31
0.0
  0
LINE
  5
ED
330
80
100
AcDbEntity
  8
H765_CACHE_MISER
  6
Continuous
 62
     7
100
AcDbLine
 10
214.2141868047
 20
535.5288022813
 30
0.0
 11
209.2141868047
 21
535.5288022813
 31
0.0
  0
LINE
  5
EE
330
80
100
AcDbEntity
  8
H765_CACHE_MISER
  6
Continuous
 62
     7
100
AcDbLine
 10
214.2141868047
 20
530.5288022813
 30
0.0
 11
214.2141868047
 21
535.5288022813
 31
0.0
  0
ARC
  5
EF
330
80
100
AcDbEntity
  8
H765_CACHE_MISER
  6
Continuous
 62
     7
100
AcDbCircle
 10
214.2141868047
 20
535.5288022813
 30
0.0
 40
5.000000000000004
100
AcDbArc
 50
180.0
 51
270.0
  0
LINE
  5
F0
330
80
100
AcDbEntity
  8
H765_CACHE_MISER
  6
Continuous
 62
     7
100
AcDbLine
 10
278.7141868047
 20
660.4776965901
 30
0.0
 11
309.2141868047
 21
660.4776965901
 31
0.0
  0
ARC
  5
F1
330
80
100
AcDbEntity
  8
H765_CACHE_MISER
  6
Continuous
 62
     7
100
AcDbCircle
 10
261.7141868047
 20
676.5288022813
 30
0.0
 40
18.99999999999996
100
AcDbArc
 50
333.4746479834
 51
0.0
  0
ARC
  5
F2
330
80
100
AcDbEntity
  8
H765_CACHE_MISER
  6
Continuous
 62
     7
100
AcDbCircle
 10
261.7141868047
 20
676.5288022813
 30
0.0
 40
19.0
100
AcDbArc
 50
180.0
 51
206.5253520166
  0
LINE
  5
F3
330
80
100
AcDbEntity
  8
H765_CACHE_MISER
  6
Continuous
 62
     7
100
AcDbLine
 10
242.7141868047
 20
680.5799079724
 30
0.0
 11
214.2141868047
 21
680.5799079724
 31
0.0
  0
LINE
  5
F4
330
80
100
AcDbEntity
  8
H765_CACHE_MISER
  6
Continuous
 62
     7
100
AcDbLine
 10
280.7141868047
 20
695.3229907764
 30
0.0
 11
309.2141868047
 21
695.3229907764
 31
0.0
  0
LINE
  5
F5
330
80
100
AcDbEntity
  8
H765_CACHE_MISER
  6
Continuous
 62
     7
100
AcDbLine
 10
242.7141868047
 20
700.5288022813
 30
0.0
 11
280.7141868047
 21
700.5288022813
 31
0.0
  0
LINE
  5
F6
330
80
100
AcDbEntity
  8
H765_CACHE_MISER
  6
Continuous
 62
     7
100
AcDbLine
 10
280.7141868047
 20
700.5288022813
 30
0.0
 11
309.2141868047
 21
700.5288022813
 31
0.0
  0
LINE
  5
F7
330
80
100
AcDbEntity
  8
H765_CACHE_MISER
  6
Continuous
 62
     7
100
AcDbLine
 10
280.7141868047
 20
676.5288022813
 30
0.0
 11
280.7141868047
 21
680.5799079724
 31
0.0
  0
LINE
  5
F8
330
80
100
AcDbEntity
  8
H765_CACHE_MISER
  6
Continuous
 62
     7
100
AcDbLine
 10
280.7141868047
 20
680.5799079724
 30
0.0
 11
280.7141868047
 21
695.3229907764
 31
0.0
  0
LINE
  5
F9
330
80
100
AcDbEntity
  8
H765_CACHE_MISER
  6
Continuous
 62
     7
100
AcDbLine
 10
280.7141868047
 20
695.3229907764
 30
0.0
 11
280.7141868047
 21
700.5288022813
 31
0.0
  0
LINE
  5
FA
330
80
100
AcDbEntity
  8
H765_CACHE_MISER
  6
Continuous
 62
     7
100
AcDbLine
 10
242.7141868047
 20
700.5288022813
 30
0.0
 11
242.7141868047
 21
695.3229907764
 31
0.0
  0
LINE
  5
FB
330
80
100
AcDbEntity
  8
H765_CACHE_MISER
  6
Continuous
 62
     7
100
AcDbLine
 10
242.7141868047
 20
695.3229907764
 30
0.0
 11
242.7141868047
 21
680.5799079724
 31
0.0
  0
LINE
  5
FC
330
80
100
AcDbEntity
  8
H765_CACHE_MISER
  6
Continuous
 62
     7
100
AcDbLine
 10
242.7141868047
 20
680.5799079724
 30
0.0
 11
242.7141868047
 21
676.5288022813
 31
0.0
  0
ENDBLK
  5
FE
330
80
100
AcDbEntity
  8
0
100
AcDbBlockEnd
  0
BLOCK
  5
151
330
FF
100
AcDbEntity
  8
0
100
AcDbBlockBegin
  2
SE1
 70
     0
 10
0.0
 20
0.0
 30
0.0
  3
SE1
  1
SE1
  0
LINE
  5
101
330
FF
100
AcDbEntity
  8
H765_SUPPORT
  6
Continuous
 62
     7
100
AcDbLine
 10
407.2990280367
 20
-100.4711977187
 30
0.0
 11
407.2990280367
 21
-106.4711977187
 31
0.0
  0
LINE
  5
102
330
FF
100
AcDbEntity
  8
H765_SUPPORT
  6
Continuous
 62
     7
100
AcDbLine
 10
407.2990280367
 20
-106.4711977187
 30
0.0
 11
402.2990280367
 21
-106.4711977187
 31
0.0
  0
LINE
  5
103
330
FF
100
AcDbEntity
  8
H765_SUPPORT
  6
Continuous
 62
     7
100
AcDbLine
 10
402.2990280367
 20
-106.4711977187
 30
0.0
 11
402.2990280367
 21
-100.4711977187
 31
0.0
  0
LINE
  5
104
330
FF
100
AcDbEntity
  8
H765_SUPPORT
  6
Continuous
 62
     7
100
AcDbLine
 10
402.2990280367
 20
-100.4711977187
 30
0.0
 11
407.2990280367
 21
-100.4711977187
 31
0.0
  0
LINE
  5
105
330
FF
100
AcDbEntity
  8
H765_SUPPORT
  6
Continuous
 62
     7
100
AcDbLine
 10
602.2990280367
 20
-100.4711977187
 30
0.0
 11
602.2990280367
 21
-106.4711977187
 31
0.0
  0
LINE
  5
106
330
FF
100
AcDbEntity
  8
H765_SUPPORT
  6
Continuous
 62
     7
100
AcDbLine
 10
597.2990280367
 20
-106.4711977187
 30
0.0
 11
407.2990280367
 21
-106.4711977187
 31
0.0
  0
LINE
  5
107
330
FF
100
AcDbEntity
  8
H765_SUPPORT
  6
Continuous
 62
     7
100
AcDbLine
 10
602.2990280367
 20
-106.4711977187
 30
0.0
 11
597.2990280367
 21
-106.4711977187
 31
0.0
  0
LINE
  5
108
330
FF
100
AcDbEntity
  8
H765_SUPPORT
  6
Continuous
 62
     7
100
AcDbLine
 10
597.2990280367
 20
-100.4711977187
 30
0.0
 11
407.2990280367
 21
-100.4711977187
 31
0.0
  0
LINE
  5
109
330
FF
100
AcDbEntity
  8
H765_SUPPORT
  6
Continuous
 62
     7
100
AcDbLine
 10
597.2990280367
 20
-106.4711977187
 30
0.0
 11
597.2990280367
 21
-100.4711977187
 31
0.0
  0
LINE
  5
10A
330
FF
100
AcDbEntity
  8
H765_SUPPORT
  6
Continuous
 62
     7
100
AcDbLine
 10
597.2990280367
 20
-100.4711977187
 30
0.0
 11
602.2990280367
 21
-100.4711977187
 31
0.0
  0
LINE
  5
10B
330
FF
100
AcDbEntity
  8
H765_SUPPORT
  6
Continuous
 62
     7
100
AcDbLine
 10
442.2990280367
 20
-98.4711977187
 30
0.0
 11
442.2990280367
 21
734.5288022813
 31
0.0
  0
LINE
  5
10C
330
FF
100
AcDbEntity
  8
H765_SUPPORT
  6
Continuous
 62
     7
100
AcDbLine
 10
444.2990280367
 20
736.5288022813
 30
0.0
 11
500.2990280367
 21
736.5288022813
 31
0.0
  0
LINE
  5
10D
330
FF
100
AcDbEntity
  8
H765_SUPPORT
  6
Continuous
 62
     7
100
AcDbLine
 10
502.2990280367
 20
530.5288022813
 30
0.0
 11
502.2990280367
 21
-98.4711977187
 31
0.0
  0
LINE
  5
10E
330
FF
100
AcDbEntity
  8
H765_SUPPORT
  6
Continuous
 62
     7
100
AcDbLine
 10
500.2990280367
 20
-98.4711977187
 30
0.0
 11
500.2990280367
 21
734.5288022813
 31
0.0
  0
LINE
  5
10F
330
FF
100
AcDbEntity
  8
H765_SUPPORT
  6
Continuous
 62
     7
100
AcDbLine
 10
500.2990280367
 20
734.5288022813
 30
0.0
 11
444.2990280367
 21
734.5288022813
 31
0.0
  0
LINE
  5
110
330
FF
100
AcDbEntity
  8
H765_SUPPORT
  6
Continuous
 62
     7
100
AcDbLine
 10
444.2990280367
 20
-98.4711977187
 30
0.0
 11
500.2990280367
 21
-98.4711977187
 31
0.0
  0
LINE
  5
111
330
FF
100
AcDbEntity
  8
H765_SUPPORT
  6
Continuous
 62
     7
100
AcDbLine
 10
444.2990280367
 20
734.5288022813
 30
0.0
 11
444.2990280367
 21
-98.4711977187
 31
0.0
  0
LINE
  5
112
330
FF
100
AcDbEntity
  8
H765_SUPPORT
  6
Continuous
 62
     7
100
AcDbLine
 10
500.2990280367
 20
734.5288022813
 30
0.0
 11
502.2990280367
 21
734.5288022813
 31
0.0
  0
LINE
  5
113
330
FF
100
AcDbEntity
  8
H765_SUPPORT
  6
Continuous
 62
     7
100
AcDbLine
 10
502.2990280367
 20
-98.4711977187
 30
0.0
 11
500.2990280367
 21
-98.4711977187
 31
0.0
  0
ARC
  5
114
330
FF
100
AcDbEntity
  8
H765_SUPPORT
  6
Continuous
 62
     7
100
AcDbCircle
 10
500.2990280367
 20
734.5288022813
 30
0.0
 40
2.000000000000002
100
AcDbArc
 50
0.0
 51
90.0
  0
LINE
  5
115
330
FF
100
AcDbEntity
  8
H765_SUPPORT
  6
Continuous
 62
     7
100
AcDbLine
 10
500.2990280367
 20
734.5288022813
 30
0.0
 11
500.2990280367
 21
736.5288022813
 31
0.0
  0
LINE
  5
116
330
FF
100
AcDbEntity
  8
H765_SUPPORT
  6
Continuous
 62
     7
100
AcDbLine
 10
500.2990280367
 20
-100.4711977187
 30
0.0
 11
500.2990280367
 21
-98.4711977187
 31
0.0
  0
ARC
  5
117
330
FF
100
AcDbEntity
  8
H765_SUPPORT
  6
Continuous
 62
     7
100
AcDbCircle
 10
504.2990280367
 20
-98.4711977187
 30
0.0
 40
2.000000000000002
100
AcDbArc
 50
180.0
 51
270.0
  0
LINE
  5
118
330
FF
100
AcDbEntity
  8
H765_SUPPORT
  6
Continuous
 62
     7
100
AcDbLine
 10
444.2990280367
 20
734.5288022813
 30
0.0
 11
444.2990280367
 21
736.5288022813
 31
0.0
  0
LINE
  5
119
330
FF
100
AcDbEntity
  8
H765_SUPPORT
  6
Continuous
 62
     7
100
AcDbLine
 10
442.2990280367
 20
734.5288022813
 30
0.0
 11
444.2990280367
 21
734.5288022813
 31
0.0
  0
LINE
  5
11A
330
FF
100
AcDbEntity
  8
H765_SUPPORT
  6
Continuous
 62
     7
100
AcDbLine
 10
444.2990280367
 20
-98.4711977187
 30
0.0
 11
442.2990280367
 21
-98.4711977187
 31
0.0
  0
LINE
  5
11B
330
FF
100
AcDbEntity
  8
H765_SUPPORT
  6
Continuous
 62
     7
100
AcDbLine
 10
444.2990280367
 20
-100.4711977187
 30
0.0
 11
444.2990280367
 21
-98.4711977187
 31
0.0
  0
ARC
  5
11C
330
FF
100
AcDbEntity
  8
H765_SUPPORT
  6
Continuous
 62
     7
100
AcDbCircle
 10
444.2990280367
 20
734.5288022813
 30
0.0
 40
2.000000000000002
100
AcDbArc
 50
90.0
 51
180.0
  0
ARC
  5
11D
330
FF
100
AcDbEntity
  8
H765_SUPPORT
  6
Continuous
 62
     7
100
AcDbCircle
 10
440.2990280367
 20
-98.4711977187
 30
0.0
 40
2.000000000000007
100
AcDbArc
 50
270.0
 51
0.0
  0
LINE
  5
11E
330
FF
100
AcDbEntity
  8
H765_BARRE
  6
Continuous
 62
     7
100
AcDbLine
 10
1225.2990280367
 20
659.5288022813
 30
0.0
 11
1225.2990280367
 21
693.5288022813
 31
0.0
  0
LINE
  5
11F
330
FF
100
AcDbEntity
  8
H765_BARRE
  6
Continuous
 62
     7
100
AcDbLine
 10
1225.2990280367
 20
539.5288022813
 30
0.0
 11
1225.2990280367
 21
573.5288022813
 31
0.0
  0
LINE
  5
120
330
FF
100
AcDbEntity
  8
H765_BARRE
  6
Continuous
 62
     7
100
AcDbLine
 10
876.2179580261
 20
556.5288022813
 30
0.0
 11
893.2179580261
 21
573.5288022813
 31
0.0
  0
LINE
  5
121
330
FF
100
AcDbEntity
  8
H765_BARRE
  6
Continuous
 62
     7
100
AcDbLine
 10
876.2179580261
 20
556.5288022813
 30
0.0
 11
859.2179580261
 21
573.5288022813
 31
0.0
  0
LINE
  5
122
330
FF
100
AcDbEntity
  8
H765_BARRE
  6
Continuous
 62
     7
100
AcDbLine
 10
876.2179580261
 20
676.5288022813
 30
0.0
 11
893.2179580261
 21
659.5288022813
 31
0.0
  0
LINE
  5
123
330
FF
100
AcDbEntity
  8
H765_BARRE
  6
Continuous
 62
     7
100
AcDbLine
 10
876.2179580261
 20
676.5288022813
 30
0.0
 11
859.2179580261
 21
659.5288022813
 31
0.0
  0
ARC
  5
124
330
FF
100
AcDbEntity
  8
H765_BARRE
  6
Continuous
 62
     7
100
AcDbCircle
 10
1324.0094196894
 20
616.528759553
 30
0.0
 40
21.78492552718821
100
AcDbArc
 50
175.8140777643
 51
184.1854585508
  0
LINE
  5
125
330
FF
100
AcDbEntity
  8
H765_BARRE
  6
Continuous
 62
     7
100
AcDbLine
 10
1225.2990280367
 20
693.5288022813
 30
0.0
 11
549.8704305606
 21
693.5288022813
 31
0.0
  0
LINE
  5
126
330
FF
100
AcDbEntity
  8
H765_BARRE
  6
Continuous
 62
     7
100
AcDbLine
 10
893.2179580261
 20
659.5288022813
 30
0.0
 11
1225.2990280367
 21
659.5288022813
 31
0.0
  0
LINE
  5
127
330
FF
100
AcDbEntity
  8
H765_BARRE
  6
Continuous
 62
     7
100
AcDbLine
 10
557.2689846028
 20
659.5288022813
 30
0.0
 11
859.2179580261
 21
659.5288022813
 31
0.0
  0
ARC
  5
128
330
FF
100
AcDbEntity
  8
H765_BARRE
  6
Continuous
 62
     7
100
AcDbCircle
 10
1225.2990280367
 20
616.5288022813
 30
0.0
 40
43.00000000000004
100
AcDbArc
 50
270.0
 51
90.0
  0
ARC
  5
129
330
FF
100
AcDbEntity
  8
H765_BARRE
  6
Continuous
 62
     7
100
AcDbCircle
 10
1225.2990280367
 20
616.5288022813
 30
0.0
 40
77.00000000000007
100
AcDbArc
 50
270.0
 51
358.8303052772
  0
ARC
  5
12A
330
FF
100
AcDbEntity
  8
H765_BARRE
  6
Continuous
 62
     7
100
AcDbCircle
 10
1225.2990280367
 20
616.5288022813
 30
0.0
 40
77.00000000000006
100
AcDbArc
 50
1.1770030516
 51
90.0
  0
LINE
  5
12B
330
FF
100
AcDbEntity
  8
H765_BARRE
  6
Continuous
 62
     7
100
AcDbLine
 10
517.2990280367
 20
539.5288022813
 30
0.0
 11
1225.2990280367
 21
539.5288022813
 31
0.0
  0
LINE
  5
12C
330
FF
100
AcDbEntity
  8
H765_BARRE
  6
Continuous
 62
     7
100
AcDbLine
 10
859.2179580261
 20
573.5288022813
 30
0.0
 11
517.2990280367
 21
573.5288022813
 31
0.0
  0
LINE
  5
12D
330
FF
100
AcDbEntity
  8
H765_BARRE
  6
Continuous
 62
     7
100
AcDbLine
 10
1225.2990280367
 20
573.5288022813
 30
0.0
 11
893.2179580261
 21
573.5288022813
 31
0.0
  0
LINE
  5
12E
330
FF
100
AcDbEntity
  8
H765_BARRE
  6
Continuous
 62
     7
100
AcDbLine
 10
893.2179580261
 20
573.5288022813
 30
0.0
 11
893.2179580261
 21
659.5288022813
 31
0.0
  0
LINE
  5
12F
330
FF
100
AcDbEntity
  8
H765_BARRE
  6
Continuous
 62
     7
100
AcDbLine
 10
859.2179580261
 20
659.5288022813
 30
0.0
 11
859.2179580261
 21
573.5288022813
 31
0.0
  0
LINE
  5
130
330
FF
100
AcDbEntity
  8
H765_CACHE_MISER
  6
Continuous
 62
     7
100
AcDbLine
 10
512.2990280367
 20
530.5288022813
 30
0.0
 11
502.2990280367
 21
530.5288022813
 31
0.0
  0
LINE
  5
131
330
FF
100
AcDbEntity
  8
H765_CACHE_MISER
  6
Continuous
 62
     7
100
AcDbLine
 10
502.2990280367
 20
535.5288022813
 30
0.0
 11
502.2990280367
 21
730.5288022813
 31
0.0
  0
LINE
  5
132
330
FF
100
AcDbEntity
  8
H765_CACHE_MISER
  6
Continuous
 62
     7
100
AcDbLine
 10
502.2990280367
 20
730.5288022813
 30
0.0
 11
502.2990280367
 21
735.5288022813
 31
0.0
  0
LINE
  5
133
330
FF
100
AcDbEntity
  8
H765_CACHE_MISER
  6
Continuous
 62
     7
100
AcDbLine
 10
502.2990280367
 20
530.5288022813
 30
0.0
 11
502.2990280367
 21
535.5288022813
 31
0.0
  0
LINE
  5
134
330
FF
100
AcDbEntity
  8
H765_CACHE_MISER
  6
Continuous
 62
     7
100
AcDbLine
 10
512.2990280367
 20
696.379170845
 30
0.0
 11
512.2990280367
 21
730.5288022813
 31
0.0
  0
LINE
  5
135
330
FF
100
AcDbEntity
  8
H765_CACHE_MISER
  6
Continuous
 62
     7
100
AcDbLine
 10
512.2990280367
 20
730.5288022813
 30
0.0
 11
502.2990280367
 21
730.5288022813
 31
0.0
  0
LINE
  5
136
330
FF
100
AcDbEntity
  8
H765_CACHE_MISER
  6
Continuous
 62
     7
100
AcDbLine
 10
544.1419133872
 20
690.4086298418
 30
0.0
 11
512.2990280367
 21
696.379170845
 31
0.0
  0
ARC
  5
137
330
FF
100
AcDbEntity
  8
H765_CACHE_MISER
  6
Continuous
 62
     7
100
AcDbCircle
 10
542.2990280367
 20
680.5799079724
 30
0.0
 40
10.00000000000001
100
AcDbArc
 50
0.0
 51
79.3803447238
  0
LINE
  5
138
330
FF
100
AcDbEntity
  8
H765_CACHE_MISER
  6
Continuous
 62
     7
100
AcDbLine
 10
552.2990280367
 20
660.4776965901
 30
0.0
 11
552.2990280367
 21
680.5799079724
 31
0.0
  0
ARC
  5
139
330
FF
100
AcDbEntity
  8
H765_CACHE_MISER
  6
Continuous
 62
     7
100
AcDbCircle
 10
542.2990280367
 20
660.4776965901
 30
0.0
 40
10.00000000000003
100
AcDbArc
 50
280.6196552762
 51
0.0
  0
LINE
  5
13A
330
FF
100
AcDbEntity
  8
H765_CACHE_MISER
  6
Continuous
 62
     7
100
AcDbLine
 10
512.2990280367
 20
644.6784337176
 30
0.0
 11
544.1419133872
 21
650.6489747208
 31
0.0
  0
LINE
  5
13B
330
FF
100
AcDbEntity
  8
H765_CACHE_MISER
  6
Continuous
 62
     7
100
AcDbLine
 10
512.2990280367
 20
535.5288022813
 30
0.0
 11
512.2990280367
 21
644.6784337176
 31
0.0
  0
LINE
  5
13C
330
FF
100
AcDbEntity
  8
H765_CACHE_MISER
  6
Continuous
 62
     7
100
AcDbLine
 10
502.2990280367
 20
535.5288022813
 30
0.0
 11
512.2990280367
 21
535.5288022813
 31
0.0
  0
LINE
  5
13D
330
FF
100
AcDbEntity
  8
H765_CACHE_MISER
  6
Continuous
 62
     7
100
AcDbLine
 10
517.2990280367
 20
640.5288022813
 30
0.0
 11
517.2990280367
 21
535.5288022813
 31
0.0
  0
LINE
  5
13E
330
FF
100
AcDbEntity
  8
H765_CACHE_MISER
  6
Continuous
 62
     7
100
AcDbLine
 10
545.0633560625
 20
645.7346137861
 30
0.0
 11
517.2990280367
 21
640.5288022813
 31
0.0
  0
ARC
  5
13F
330
FF
100
AcDbEntity
  8
H765_CACHE_MISER
  6
Continuous
 62
     7
100
AcDbCircle
 10
542.2990280367
 20
660.4776965901
 30
0.0
 40
15.0
100
AcDbArc
 50
280.6196552762
 51
0.0
  0
LINE
  5
140
330
FF
100
AcDbEntity
  8
H765_CACHE_MISER
  6
Continuous
 62
     7
100
AcDbLine
 10
557.2990280367
 20
680.5799079724
 30
0.0
 11
557.2990280367
 21
660.4776965901
 31
0.0
  0
ARC
  5
141
330
FF
100
AcDbEntity
  8
H765_CACHE_MISER
  6
Continuous
 62
     7
100
AcDbCircle
 10
542.2990280367
 20
680.5799079724
 30
0.0
 40
14.99999999999999
100
AcDbArc
 50
0.0
 51
79.3803447238
  0
LINE
  5
142
330
FF
100
AcDbEntity
  8
H765_CACHE_MISER
  6
Continuous
 62
     7
100
AcDbLine
 10
517.2990280367
 20
700.5288022813
 30
0.0
 11
545.0633560625
 21
695.3229907764
 31
0.0
  0
LINE
  5
143
330
FF
100
AcDbEntity
  8
H765_CACHE_MISER
  6
Continuous
 62
     7
100
AcDbLine
 10
502.2990280367
 20
735.5288022813
 30
0.0
 11
512.2990280367
 21
735.5288022813
 31
0.0
  0
LINE
  5
144
330
FF
100
AcDbEntity
  8
H765_CACHE_MISER
  6
Continuous
 62
     7
100
AcDbLine
 10
517.2990280367
 20
730.5288022813
 30
0.0
 11
517.2990280367
 21
700.5288022813
 31
0.0
  0
LINE
  5
145
330
FF
100
AcDbEntity
  8
H765_CACHE_MISER
  6
Continuous
 62
     7
100
AcDbLine
 10
512.2990280367
 20
735.5288022813
 30
0.0
 11
512.2990280367
 21
730.5288022813
 31
0.0
  0
ARC
  5
146
330
FF
100
AcDbEntity
  8
H765_CACHE_MISER
  6
Continuous
 62
     7
100
AcDbCircle
 10
512.2990280367
 20
730.5288022813
 30
0.0
 40
5.000000000000004
100
AcDbArc
 50
0.0
 51
90.0
  0
LINE
  5
147
330
FF
100
AcDbEntity
  8
H765_CACHE_MISER
  6
Continuous
 62
     7
100
AcDbLine
 10
517.2990280367
 20
730.5288022813
 30
0.0
 11
512.2990280367
 21
730.5288022813
 31
0.0
  0
LINE
  5
148
330
FF
100
AcDbEntity
  8
H765_CACHE_MISER
  6
Continuous
 62
     7
100
AcDbLine
 10
517.2990280367
 20
700.5288022813
 30
0.0
 11
512.2990280367
 21
696.379170845
 31
0.0
  0
LINE
  5
149
330
FF
100
AcDbEntity
  8
H765_CACHE_MISER
  6
Continuous
 62
     7
100
AcDbLine
 10
545.0633560625
 20
695.3229907764
 30
0.0
 11
544.1419133872
 21
690.4086298418
 31
0.0
  0
LINE
  5
14A
330
FF
100
AcDbEntity
  8
H765_CACHE_MISER
  6
Continuous
 62
     7
100
AcDbLine
 10
557.2990280367
 20
680.5799079724
 30
0.0
 11
552.2990280367
 21
680.5799079724
 31
0.0
  0
LINE
  5
14B
330
FF
100
AcDbEntity
  8
H765_CACHE_MISER
  6
Continuous
 62
     7
100
AcDbLine
 10
557.2990280367
 20
660.4776965901
 30
0.0
 11
552.2990280367
 21
660.4776965901
 31
0.0
  0
LINE
  5
14C
330
FF
100
AcDbEntity
  8
H765_CACHE_MISER
  6
Continuous
 62
     7
100
AcDbLine
 10
545.0633560625
 20
645.7346137861
 30
0.0
 11
544.1419133872
 21
650.6489747208
 31
0.0
  0
LINE
  5
14D
330
FF
100
AcDbEntity
  8
H765_CACHE_MISER
  6
Continuous
 62
     7
100
AcDbLine
 10
517.2990280367
 20
640.5288022813
 30
0.0
 11
512.2990280367
 21
644.6784337176
 31
0.0
  0
LINE
  5
14E
330
FF
100
AcDbEntity
  8
H765_CACHE_MISER
  6
Continuous
 62
     7
100
AcDbLine
 10
517.2990280367
 20
535.5288022813
 30
0.0
 11
512.2990280367
 21
535.5288022813
 31
0.0
  0
ARC
  5
14F
330
FF
100
AcDbEntity
  8
H765_CACHE_MISER
  6
Continuous
 62
     7
100
AcDbCircle
 10
512.2990280367
 20
535.5288022813
 30
0.0
 40
5.000000000000004
100
AcDbArc
 50
270.0
 51
0.0
  0
LINE
  5
150
330
FF
100
AcDbEntity
  8
H765_CACHE_MISER
  6
Continuous
 62
     7
100
AcDbLine
 10
512.2990280367
 20
530.5288022813
 30
0.0
 11
512.2990280367
 21
535.5288022813
 31
0.0
  0
ENDBLK
  5
152
330
FF
100
AcDbEntity
  8
0
100
AcDbBlockEnd
  0
BLOCK
  5
1A6
330
153
100
AcDbEntity
  8
0
100
AcDbBlockBegin
  2
SE2
 70
     0
 10
0.0
 20
0.0
 30
0.0
  3
SE2
  1
SE2
  0
LINE
  5
155
330
153
100
AcDbEntity
  8
H765_SUPPORT
  6
Continuous
 62
     7
100
AcDbLine
 10
-48.6925309501
 20
-100.4711977187
 30
0.0
 11
-48.6925309501
 21
-106.4711977187
 31
0.0
  0
LINE
  5
156
330
153
100
AcDbEntity
  8
H765_SUPPORT
  6
Continuous
 62
     7
100
AcDbLine
 10
-48.6925309501
 20
-106.4711977187
 30
0.0
 11
-53.6925309501
 21
-106.4711977187
 31
0.0
  0
LINE
  5
157
330
153
100
AcDbEntity
  8
H765_SUPPORT
  6
Continuous
 62
     7
100
AcDbLine
 10
-53.6925309501
 20
-106.4711977187
 30
0.0
 11
-53.6925309501
 21
-100.4711977187
 31
0.0
  0
LINE
  5
158
330
153
100
AcDbEntity
  8
H765_SUPPORT
  6
Continuous
 62
     7
100
AcDbLine
 10
-53.6925309501
 20
-100.4711977187
 30
0.0
 11
-48.6925309501
 21
-100.4711977187
 31
0.0
  0
LINE
  5
159
330
153
100
AcDbEntity
  8
H765_SUPPORT
  6
Continuous
 62
     7
100
AcDbLine
 10
146.3074690499
 20
-100.4711977187
 30
0.0
 11
146.3074690499
 21
-106.4711977187
 31
0.0
  0
LINE
  5
15A
330
153
100
AcDbEntity
  8
H765_SUPPORT
  6
Continuous
 62
     7
100
AcDbLine
 10
141.3074690499
 20
-106.4711977187
 30
0.0
 11
-48.6925309501
 21
-106.4711977187
 31
0.0
  0
LINE
  5
15B
330
153
100
AcDbEntity
  8
H765_SUPPORT
  6
Continuous
 62
     7
100
AcDbLine
 10
146.3074690499
 20
-106.4711977187
 30
0.0
 11
141.3074690499
 21
-106.4711977187
 31
0.0
  0
LINE
  5
15C
330
153
100
AcDbEntity
  8
H765_SUPPORT
  6
Continuous
 62
     7
100
AcDbLine
 10
141.3074690499
 20
-100.4711977187
 30
0.0
 11
-48.6925309501
 21
-100.4711977187
 31
0.0
  0
LINE
  5
15D
330
153
100
AcDbEntity
  8
H765_SUPPORT
  6
Continuous
 62
     7
100
AcDbLine
 10
141.3074690499
 20
-106.4711977187
 30
0.0
 11
141.3074690499
 21
-100.4711977187
 31
0.0
  0
LINE
  5
15E
330
153
100
AcDbEntity
  8
H765_SUPPORT
  6
Continuous
 62
     7
100
AcDbLine
 10
141.3074690499
 20
-100.4711977187
 30
0.0
 11
146.3074690499
 21
-100.4711977187
 31
0.0
  0
LINE
  5
15F
330
153
100
AcDbEntity
  8
H765_SUPPORT
  6
Continuous
 62
     7
100
AcDbLine
 10
106.3074690499
 20
734.5288022813
 30
0.0
 11
106.3074690499
 21
-98.4711977187
 31
0.0
  0
LINE
  5
160
330
153
100
AcDbEntity
  8
H765_SUPPORT
  6
Continuous
 62
     7
100
AcDbLine
 10
48.3074690499
 20
734.5288022813
 30
0.0
 11
48.3074690499
 21
-98.4711977187
 31
0.0
  0
LINE
  5
161
330
153
100
AcDbEntity
  8
H765_SUPPORT
  6
Continuous
 62
     7
100
AcDbLine
 10
104.3074690499
 20
734.5288022813
 30
0.0
 11
48.3074690499
 21
734.5288022813
 31
0.0
  0
LINE
  5
162
330
153
100
AcDbEntity
  8
H765_SUPPORT
  6
Continuous
 62
     7
100
AcDbLine
 10
48.3074690499
 20
-98.4711977187
 30
0.0
 11
104.3074690499
 21
-98.4711977187
 31
0.0
  0
LINE
  5
163
330
153
100
AcDbEntity
  8
H765_SUPPORT
  6
Continuous
 62
     7
100
AcDbLine
 10
104.3074690499
 20
-98.4711977187
 30
0.0
 11
104.3074690499
 21
734.5288022813
 31
0.0
  0
LINE
  5
164
330
153
100
AcDbEntity
  8
H765_SUPPORT
  6
Continuous
 62
     7
100
AcDbLine
 10
48.3074690499
 20
736.5288022813
 30
0.0
 11
104.3074690499
 21
736.5288022813
 31
0.0
  0
LINE
  5
165
330
153
100
AcDbEntity
  8
H765_SUPPORT
  6
Continuous
 62
     7
100
AcDbLine
 10
46.3074690499
 20
-98.4711977187
 30
0.0
 11
46.3074690499
 21
530.5288022813
 31
0.0
  0
LINE
  5
166
330
153
100
AcDbEntity
  8
H765_SUPPORT
  6
Continuous
 62
     7
100
AcDbLine
 10
46.3074690499
 20
734.5288022813
 30
0.0
 11
48.3074690499
 21
734.5288022813
 31
0.0
  0
ARC
  5
167
330
153
100
AcDbEntity
  8
H765_SUPPORT
  6
Continuous
 62
     7
100
AcDbCircle
 10
48.3074690499
 20
734.5288022813
 30
0.0
 40
2.000000000000002
100
AcDbArc
 50
90.0
 51
180.0
  0
ARC
  5
168
330
153
100
AcDbEntity
  8
H765_SUPPORT
  6
Continuous
 62
     7
100
AcDbCircle
 10
44.3074690499
 20
-98.4711977187
 30
0.0
 40
2.000000000000002
100
AcDbArc
 50
270.0
 51
0.0
  0
LINE
  5
169
330
153
100
AcDbEntity
  8
H765_SUPPORT
  6
Continuous
 62
     7
100
AcDbLine
 10
48.3074690499
 20
-98.4711977187
 30
0.0
 11
46.3074690499
 21
-98.4711977187
 31
0.0
  0
LINE
  5
16A
330
153
100
AcDbEntity
  8
H765_SUPPORT
  6
Continuous
 62
     7
100
AcDbLine
 10
48.3074690499
 20
736.5288022813
 30
0.0
 11
48.3074690499
 21
734.5288022813
 31
0.0
  0
LINE
  5
16B
330
153
100
AcDbEntity
  8
H765_SUPPORT
  6
Continuous
 62
     7
100
AcDbLine
 10
48.3074690499
 20
-98.4711977187
 30
0.0
 11
48.3074690499
 21
-100.4711977187
 31
0.0
  0
LINE
  5
16C
330
153
100
AcDbEntity
  8
H765_SUPPORT
  6
Continuous
 62
     7
100
AcDbLine
 10
104.3074690499
 20
736.5288022813
 30
0.0
 11
104.3074690499
 21
734.5288022813
 31
0.0
  0
ARC
  5
16D
330
153
100
AcDbEntity
  8
H765_SUPPORT
  6
Continuous
 62
     7
100
AcDbCircle
 10
104.3074690499
 20
734.5288022813
 30
0.0
 40
2.000000000000002
100
AcDbArc
 50
0.0
 51
90.0
  0
ARC
  5
16E
330
153
100
AcDbEntity
  8
H765_SUPPORT
  6
Continuous
 62
     7
100
AcDbCircle
 10
108.3074690499
 20
-98.4711977187
 30
0.0
 40
2.0
100
AcDbArc
 50
180.0
 51
270.0
  0
LINE
  5
16F
330
153
100
AcDbEntity
  8
H765_SUPPORT
  6
Continuous
 62
     7
100
AcDbLine
 10
104.3074690499
 20
-98.4711977187
 30
0.0
 11
104.3074690499
 21
-100.4711977187
 31
0.0
  0
LINE
  5
170
330
153
100
AcDbEntity
  8
H765_SUPPORT
  6
Continuous
 62
     7
100
AcDbLine
 10
106.3074690499
 20
734.5288022813
 30
0.0
 11
104.3074690499
 21
734.5288022813
 31
0.0
  0
LINE
  5
171
330
153
100
AcDbEntity
  8
H765_SUPPORT
  6
Continuous
 62
     7
100
AcDbLine
 10
104.3074690499
 20
-98.4711977187
 30
0.0
 11
106.3074690499
 21
-98.4711977187
 31
0.0
  0
LINE
  5
172
330
153
100
AcDbEntity
  8
H765_BARRE
  6
Continuous
 62
     7
100
AcDbLine
 10
-676.6925309501
 20
659.5288022813
 30
0.0
 11
-676.6925309501
 21
693.5288022813
 31
0.0
  0
LINE
  5
173
330
153
100
AcDbEntity
  8
H765_BARRE
  6
Continuous
 62
     7
100
AcDbLine
 10
-676.6925309501
 20
539.5288022813
 30
0.0
 11
-676.6925309501
 21
573.5288022813
 31
0.0
  0
LINE
  5
174
330
153
100
AcDbEntity
  8
H765_BARRE
  6
Continuous
 62
     7
100
AcDbLine
 10
-327.6114609394
 20
556.5288022813
 30
0.0
 11
-344.6114609394
 21
573.5288022813
 31
0.0
  0
LINE
  5
175
330
153
100
AcDbEntity
  8
H765_BARRE
  6
Continuous
 62
     7
100
AcDbLine
 10
-327.6114609394
 20
556.5288022813
 30
0.0
 11
-310.6114609394
 21
573.5288022813
 31
0.0
  0
LINE
  5
176
330
153
100
AcDbEntity
  8
H765_BARRE
  6
Continuous
 62
     7
100
AcDbLine
 10
-327.6114609394
 20
676.5288022813
 30
0.0
 11
-344.6114609394
 21
659.5288022813
 31
0.0
  0
LINE
  5
177
330
153
100
AcDbEntity
  8
H765_BARRE
  6
Continuous
 62
     7
100
AcDbLine
 10
-327.6114609394
 20
676.5288022813
 30
0.0
 11
-310.6114609394
 21
659.5288022813
 31
0.0
  0
ARC
  5
178
330
153
100
AcDbEntity
  8
H765_BARRE
  6
Continuous
 62
     7
100
AcDbCircle
 10
-775.4029226028
 20
616.528759553
 30
0.0
 40
21.78492552718821
100
AcDbArc
 50
355.8145414492
 51
4.1859222357
  0
LINE
  5
179
330
153
100
AcDbEntity
  8
H765_BARRE
  6
Continuous
 62
     7
100
AcDbLine
 10
-310.6114609394
 20
659.5288022813
 30
0.0
 11
-8.6624875162
 21
659.5288022813
 31
0.0
  0
LINE
  5
17A
330
153
100
AcDbEntity
  8
H765_BARRE
  6
Continuous
 62
     7
100
AcDbLine
 10
-676.6925309501
 20
659.5288022813
 30
0.0
 11
-344.6114609394
 21
659.5288022813
 31
0.0
  0
LINE
  5
17B
330
153
100
AcDbEntity
  8
H765_BARRE
  6
Continuous
 62
     7
100
AcDbLine
 10
-1.263933474
 20
693.5288022813
 30
0.0
 11
-676.6925309501
 21
693.5288022813
 31
0.0
  0
ARC
  5
17C
330
153
100
AcDbEntity
  8
H765_BARRE
  6
Continuous
 62
     7
100
AcDbCircle
 10
-676.6925309501
 20
616.5288022813
 30
0.0
 40
43.00000000000015
100
AcDbArc
 50
180.0
 51
270.0
  0
ARC
  5
17D
330
153
100
AcDbEntity
  8
H765_BARRE
  6
Continuous
 62
     7
100
AcDbCircle
 10
-676.6925309501
 20
616.5288022813
 30
0.0
 40
43.00000000000015
100
AcDbArc
 50
90.0
 51
180.0
  0
ARC
  5
17E
330
153
100
AcDbEntity
  8
H765_BARRE
  6
Continuous
 62
     7
100
AcDbCircle
 10
-676.6925309501
 20
616.5288022813
 30
0.0
 40
77.00000000000014
100
AcDbArc
 50
181.1725396165
 51
270.0
  0
ARC
  5
17F
330
153
100
AcDbEntity
  8
H765_BARRE
  6
Continuous
 62
     7
100
AcDbCircle
 10
-676.6925309501
 20
616.5288022813
 30
0.0
 40
77.00000000000007
100
AcDbArc
 50
90.0
 51
178.8232153287
  0
LINE
  5
180
330
153
100
AcDbEntity
  8
H765_BARRE
  6
Continuous
 62
     7
100
AcDbLine
 10
-344.6114609394
 20
573.5288022813
 30
0.0
 11
-676.6925309501
 21
573.5288022813
 31
0.0
  0
LINE
  5
181
330
153
100
AcDbEntity
  8
H765_BARRE
  6
Continuous
 62
     7
100
AcDbLine
 10
31.3074690499
 20
573.5288022813
 30
0.0
 11
-310.6114609394
 21
573.5288022813
 31
0.0
  0
LINE
  5
182
330
153
100
AcDbEntity
  8
H765_BARRE
  6
Continuous
 62
     7
100
AcDbLine
 10
-676.6925309501
 20
539.5288022813
 30
0.0
 11
31.3074690499
 21
539.5288022813
 31
0.0
  0
LINE
  5
183
330
153
100
AcDbEntity
  8
H765_BARRE
  6
Continuous
 62
     7
100
AcDbLine
 10
-310.6114609394
 20
573.5288022813
 30
0.0
 11
-310.6114609394
 21
659.5288022813
 31
0.0
  0
LINE
  5
184
330
153
100
AcDbEntity
  8
H765_BARRE
  6
Continuous
 62
     7
100
AcDbLine
 10
-344.6114609394
 20
659.5288022813
 30
0.0
 11
-344.6114609394
 21
573.5288022813
 31
0.0
  0
LINE
  5
185
330
153
100
AcDbEntity
  8
H765_CACHE_MISER
  6
Continuous
 62
     7
100
AcDbLine
 10
46.3074690499
 20
530.5288022813
 30
0.0
 11
36.3074690499
 21
530.5288022813
 31
0.0
  0
LINE
  5
186
330
153
100
AcDbEntity
  8
H765_CACHE_MISER
  6
Continuous
 62
     7
100
AcDbLine
 10
46.3074690499
 20
730.5288022813
 30
0.0
 11
46.3074690499
 21
535.5288022813
 31
0.0
  0
LINE
  5
187
330
153
100
AcDbEntity
  8
H765_CACHE_MISER
  6
Continuous
 62
     7
100
AcDbLine
 10
46.3074690499
 20
735.5288022813
 30
0.0
 11
46.3074690499
 21
730.5288022813
 31
0.0
  0
LINE
  5
188
330
153
100
AcDbEntity
  8
H765_CACHE_MISER
  6
Continuous
 62
     7
100
AcDbLine
 10
46.3074690499
 20
535.5288022813
 30
0.0
 11
46.3074690499
 21
530.5288022813
 31
0.0
  0
LINE
  5
189
330
153
100
AcDbEntity
  8
H765_CACHE_MISER
  6
Continuous
 62
     7
100
AcDbLine
 10
31.3074690499
 20
535.5288022813
 30
0.0
 11
31.3074690499
 21
640.5288022813
 31
0.0
  0
LINE
  5
18A
330
153
100
AcDbEntity
  8
H765_CACHE_MISER
  6
Continuous
 62
     7
100
AcDbLine
 10
46.3074690499
 20
730.5288022813
 30
0.0
 11
36.3074690499
 21
730.5288022813
 31
0.0
  0
LINE
  5
18B
330
153
100
AcDbEntity
  8
H765_CACHE_MISER
  6
Continuous
 62
     7
100
AcDbLine
 10
36.3074690499
 20
730.5288022813
 30
0.0
 11
36.3074690499
 21
696.379170845
 31
0.0
  0
LINE
  5
18C
330
153
100
AcDbEntity
  8
H765_CACHE_MISER
  6
Continuous
 62
     7
100
AcDbLine
 10
36.3074690499
 20
696.379170845
 30
0.0
 11
4.4645836994
 21
690.4086298418
 31
0.0
  0
ARC
  5
18D
330
153
100
AcDbEntity
  8
H765_CACHE_MISER
  6
Continuous
 62
     7
100
AcDbCircle
 10
6.3074690499
 20
680.5799079724
 30
0.0
 40
9.99999999999992
100
AcDbArc
 50
100.6196552762
 51
180.0
  0
LINE
  5
18E
330
153
100
AcDbEntity
  8
H765_CACHE_MISER
  6
Continuous
 62
     7
100
AcDbLine
 10
-3.6925309501
 20
680.5799079724
 30
0.0
 11
-3.6925309501
 21
660.4776965901
 31
0.0
  0
ARC
  5
18F
330
153
100
AcDbEntity
  8
H765_CACHE_MISER
  6
Continuous
 62
     7
100
AcDbCircle
 10
6.3074690499
 20
660.4776965901
 30
0.0
 40
9.999999999999995
100
AcDbArc
 50
180.0
 51
259.3803447238
  0
LINE
  5
190
330
153
100
AcDbEntity
  8
H765_CACHE_MISER
  6
Continuous
 62
     7
100
AcDbLine
 10
4.4645836994
 20
650.6489747208
 30
0.0
 11
36.3074690499
 21
644.6784337176
 31
0.0
  0
LINE
  5
191
330
153
100
AcDbEntity
  8
H765_CACHE_MISER
  6
Continuous
 62
     7
100
AcDbLine
 10
36.3074690499
 20
644.6784337176
 30
0.0
 11
36.3074690499
 21
535.5288022813
 31
0.0
  0
LINE
  5
192
330
153
100
AcDbEntity
  8
H765_CACHE_MISER
  6
Continuous
 62
     7
100
AcDbLine
 10
36.3074690499
 20
535.5288022813
 30
0.0
 11
46.3074690499
 21
535.5288022813
 31
0.0
  0
LINE
  5
193
330
153
100
AcDbEntity
  8
H765_CACHE_MISER
  6
Continuous
 62
     7
100
AcDbLine
 10
31.3074690499
 20
640.5288022813
 30
0.0
 11
3.5431410242
 21
645.7346137861
 31
0.0
  0
ARC
  5
194
330
153
100
AcDbEntity
  8
H765_CACHE_MISER
  6
Continuous
 62
     7
100
AcDbCircle
 10
6.3074690499
 20
660.4776965901
 30
0.0
 40
14.99999999999999
100
AcDbArc
 50
180.0
 51
259.3803447238
  0
LINE
  5
195
330
153
100
AcDbEntity
  8
H765_CACHE_MISER
  6
Continuous
 62
     7
100
AcDbLine
 10
-8.6925309501
 20
660.4776965901
 30
0.0
 11
-8.6925309501
 21
680.5799079724
 31
0.0
  0
ARC
  5
196
330
153
100
AcDbEntity
  8
H765_CACHE_MISER
  6
Continuous
 62
     7
100
AcDbCircle
 10
6.3074690499
 20
680.5799079724
 30
0.0
 40
15.0
100
AcDbArc
 50
100.6196552762
 51
180.0
  0
LINE
  5
197
330
153
100
AcDbEntity
  8
H765_CACHE_MISER
  6
Continuous
 62
     7
100
AcDbLine
 10
3.5431410242
 20
695.3229907764
 30
0.0
 11
31.3074690499
 21
700.5288022813
 31
0.0
  0
LINE
  5
198
330
153
100
AcDbEntity
  8
H765_CACHE_MISER
  6
Continuous
 62
     7
100
AcDbLine
 10
36.3074690499
 20
735.5288022813
 30
0.0
 11
46.3074690499
 21
735.5288022813
 31
0.0
  0
LINE
  5
199
330
153
100
AcDbEntity
  8
H765_CACHE_MISER
  6
Continuous
 62
     7
100
AcDbLine
 10
31.3074690499
 20
700.5288022813
 30
0.0
 11
31.3074690499
 21
730.5288022813
 31
0.0
  0
LINE
  5
19A
330
153
100
AcDbEntity
  8
H765_CACHE_MISER
  6
Continuous
 62
     7
100
AcDbLine
 10
36.3074690499
 20
730.5288022813
 30
0.0
 11
36.3074690499
 21
735.5288022813
 31
0.0
  0
ARC
  5
19B
330
153
100
AcDbEntity
  8
H765_CACHE_MISER
  6
Continuous
 62
     7
100
AcDbCircle
 10
36.3074690499
 20
730.5288022813
 30
0.0
 40
4.999999999999997
100
AcDbArc
 50
90.0
 51
180.0
  0
LINE
  5
19C
330
153
100
AcDbEntity
  8
H765_CACHE_MISER
  6
Continuous
 62
     7
100
AcDbLine
 10
36.3074690499
 20
730.5288022813
 30
0.0
 11
31.3074690499
 21
730.5288022813
 31
0.0
  0
LINE
  5
19D
330
153
100
AcDbEntity
  8
H765_CACHE_MISER
  6
Continuous
 62
     7
100
AcDbLine
 10
36.3074690499
 20
696.379170845
 30
0.0
 11
31.3074690499
 21
700.5288022813
 31
0.0
  0
LINE
  5
19E
330
153
100
AcDbEntity
  8
H765_CACHE_MISER
  6
Continuous
 62
     7
100
AcDbLine
 10
4.4645836994
 20
690.4086298418
 30
0.0
 11
3.5431410242
 21
695.3229907764
 31
0.0
  0
LINE
  5
19F
330
153
100
AcDbEntity
  8
H765_CACHE_MISER
  6
Continuous
 62
     7
100
AcDbLine
 10
-3.6925309501
 20
680.5799079724
 30
0.0
 11
-8.6925309501
 21
680.5799079724
 31
0.0
  0
LINE
  5
1A0
330
153
100
AcDbEntity
  8
H765_CACHE_MISER
  6
Continuous
 62
     7
100
AcDbLine
 10
-3.6925309501
 20
660.4776965901
 30
0.0
 11
-8.6925309501
 21
660.4776965901
 31
0.0
  0
LINE
  5
1A1
330
153
100
AcDbEntity
  8
H765_CACHE_MISER
  6
Continuous
 62
     7
100
AcDbLine
 10
4.4645836994
 20
650.6489747208
 30
0.0
 11
3.5431410242
 21
645.7346137861
 31
0.0
  0
LINE
  5
1A2
330
153
100
AcDbEntity
  8
H765_CACHE_MISER
  6
Continuous
 62
     7
100
AcDbLine
 10
36.3074690499
 20
644.6784337176
 30
0.0
 11
31.3074690499
 21
640.5288022813
 31
0.0
  0
LINE
  5
1A3
330
153
100
AcDbEntity
  8
H765_CACHE_MISER
  6
Continuous
 62
     7
100
AcDbLine
 10
36.3074690499
 20
535.5288022813
 30
0.0
 11
31.3074690499
 21
535.5288022813
 31
0.0
  0
LINE
  5
1A4
330
153
100
AcDbEntity
  8
H765_CACHE_MISER
  6
Continuous
 62
     7
100
AcDbLine
 10
36.3074690499
 20
530.5288022813
 30
0.0
 11
36.3074690499
 21
535.5288022813
 31
0.0
  0
ARC
  5
1A5
330
153
100
AcDbEntity
  8
H765_CACHE_MISER
  6
Continuous
 62
     7
100
AcDbCircle
 10
36.3074690499
 20
535.5288022813
 30
0.0
 40
5.000000000000004
100
AcDbArc
 50
180.0
 51
270.0
  0
ENDBLK
  5
1A7
330
153
100
AcDbEntity
  8
0
100
AcDbBlockEnd
  0
BLOCK
  5
214
330
1A8
100
AcDbEntity
  8
0
100
AcDbBlockBegin
  2
SE3
 70
     0
 10
0.0
 20
0.0
 30
0.0
  3
SE3
  1
SE3
  0
LINE
  5
1AA
330
1A8
100
AcDbEntity
  8
H765_SUPPORT
  6
Continuous
 62
     7
100
AcDbLine
 10
191.7141868047
 20
-237.2718903821
 30
0.0
 11
331.7141868047
 21
-237.2718903821
 31
0.0
  0
ARC
  5
1AB
330
1A8
100
AcDbEntity
  8
H765_SUPPORT
  6
Continuous
 62
     7
100
AcDbCircle
 10
191.7141868047
 20
-242.2718903821
 30
0.0
 40
4.99999999999999
100
AcDbArc
 50
90.0
 51
180.0
  0
LINE
  5
1AC
330
1A8
100
AcDbEntity
  8
H765_SUPPORT
  6
Continuous
 62
     7
100
AcDbLine
 10
331.7141868047
 20
-437.2718903821
 30
0.0
 11
278.7141868047
 21
-437.2718903821
 31
0.0
  0
LINE
  5
1AD
330
1A8
100
AcDbEntity
  8
H765_SUPPORT
  6
Continuous
 62
     7
100
AcDbLine
 10
244.7141868047
 20
-437.2718903821
 30
0.0
 11
191.7141868047
 21
-437.2718903821
 31
0.0
  0
ARC
  5
1AE
330
1A8
100
AcDbEntity
  8
H765_SUPPORT
  6
Continuous
 62
     7
100
AcDbCircle
 10
331.7141868047
 20
-432.2718903821
 30
0.0
 40
5.000000000000019
100
AcDbArc
 50
270.0
 51
0.0
  0
LINE
  5
1AF
330
1A8
100
AcDbEntity
  8
H765_SUPPORT
  6
Continuous
 62
     7
100
AcDbLine
 10
186.7141868047
 20
-432.2718903821
 30
0.0
 11
186.7141868047
 21
-242.2718903821
 31
0.0
  0
ARC
  5
1B0
330
1A8
100
AcDbEntity
  8
H765_SUPPORT
  6
Continuous
 62
     7
100
AcDbCircle
 10
191.7141868047
 20
-432.2718903821
 30
0.0
 40
5.000000000000004
100
AcDbArc
 50
180.0
 51
270.0
  0
LINE
  5
1B1
330
1A8
100
AcDbEntity
  8
H765_SUPPORT
  6
Continuous
 62
     7
100
AcDbLine
 10
336.7141868047
 20
-242.2718903821
 30
0.0
 11
336.7141868047
 21
-432.2718903821
 31
0.0
  0
ARC
  5
1B2
330
1A8
100
AcDbEntity
  8
H765_SUPPORT
  6
Continuous
 62
     7
100
AcDbCircle
 10
331.7141868047
 20
-242.2718903821
 30
0.0
 40
5.000000000000004
100
AcDbArc
 50
0.0
 51
90.0
  0
LINE
  5
1B3
330
1A8
100
AcDbEntity
  8
H765_SUPPORT
  6
Continuous
 62
     7
100
AcDbLine
 10
233.7141868047
 20
-277.2718903821
 30
0.0
 11
289.7141868047
 21
-277.2718903821
 31
0.0
  0
LINE
  5
1B4
330
1A8
100
AcDbEntity
  8
H765_SUPPORT
  6
Continuous
 62
     7
100
AcDbLine
 10
291.7141868047
 20
-279.2718903821
 30
0.0
 11
291.7141868047
 21
-335.2718903821
 31
0.0
  0
ARC
  5
1B5
330
1A8
100
AcDbEntity
  8
H765_SUPPORT
  6
Continuous
 62
     7
100
AcDbCircle
 10
233.7141868047
 20
-335.2718903821
 30
0.0
 40
3.999999999999993
100
AcDbArc
 50
180.0
 51
210.0
  0
LINE
  5
1B6
330
1A8
100
AcDbEntity
  8
H765_SUPPORT
  6
Continuous
 62
     7
100
AcDbLine
 10
229.7141868047
 20
-335.2718903821
 30
0.0
 11
229.7141868047
 21
-279.2718903821
 31
0.0
  0
ARC
  5
1B7
330
1A8
100
AcDbEntity
  8
H765_SUPPORT
  6
Continuous
 62
     7
100
AcDbCircle
 10
289.7141868047
 20
-335.2718903821
 30
0.0
 40
4.000000000000004
100
AcDbArc
 50
330.0
 51
0.0
  0
LINE
  5
1B8
330
1A8
100
AcDbEntity
  8
H765_SUPPORT
  6
Continuous
 62
     7
100
AcDbLine
 10
293.7141868047
 20
-279.2718903821
 30
0.0
 11
293.7141868047
 21
-335.2718903821
 31
0.0
  0
ARC
  5
1B9
330
1A8
100
AcDbEntity
  8
H765_SUPPORT
  6
Continuous
 62
     7
100
AcDbCircle
 10
289.7141868047
 20
-279.2718903821
 30
0.0
 40
4.0
100
AcDbArc
 50
0.0
 51
90.0
  0
LINE
  5
1BA
330
1A8
100
AcDbEntity
  8
H765_SUPPORT
  6
Continuous
 62
     7
100
AcDbLine
 10
233.7141868047
 20
-275.2718903821
 30
0.0
 11
289.7141868047
 21
-275.2718903821
 31
0.0
  0
ARC
  5
1BB
330
1A8
100
AcDbEntity
  8
H765_SUPPORT
  6
Continuous
 62
     7
100
AcDbCircle
 10
233.7141868047
 20
-279.2718903821
 30
0.0
 40
4.000000000000004
100
AcDbArc
 50
90.0
 51
180.0
  0
LINE
  5
1BC
330
1A8
100
AcDbEntity
  8
H765_SUPPORT
  6
Continuous
 62
     7
100
AcDbLine
 10
233.7141868047
 20
-279.2718903821
 30
0.0
 11
233.7141868047
 21
-335.2718903821
 31
0.0
  0
LINE
  5
1BD
330
1A8
100
AcDbEntity
  8
H765_SUPPORT
  6
Continuous
 62
     7
100
AcDbLine
 10
233.7141868047
 20
-335.2718903821
 30
0.0
 11
289.7141868047
 21
-335.2718903821
 31
0.0
  0
LINE
  5
1BE
330
1A8
100
AcDbEntity
  8
H765_SUPPORT
  6
Continuous
 62
     7
100
AcDbLine
 10
289.7141868047
 20
-279.2718903821
 30
0.0
 11
233.7141868047
 21
-279.2718903821
 31
0.0
  0
LINE
  5
1BF
330
1A8
100
AcDbEntity
  8
H765_SUPPORT
  6
Continuous
 62
     7
100
AcDbLine
 10
289.7141868047
 20
-335.2718903821
 30
0.0
 11
289.7141868047
 21
-279.2718903821
 31
0.0
  0
LINE
  5
1C0
330
1A8
100
AcDbEntity
  8
H765_SUPPORT
  6
Continuous
 62
     7
100
AcDbLine
 10
231.7141868047
 20
-335.2718903821
 30
0.0
 11
231.7141868047
 21
-279.2718903821
 31
0.0
  0
ARC
  5
1C1
330
1A8
100
AcDbEntity
  8
H765_SUPPORT
  6
Continuous
 62
     7
100
AcDbCircle
 10
233.7141868047
 20
-335.2718903821
 30
0.0
 40
2.000000000000002
100
AcDbArc
 50
180.0
 51
270.0
  0
LINE
  5
1C2
330
1A8
100
AcDbEntity
  8
H765_SUPPORT
  6
Continuous
 62
     7
100
AcDbLine
 10
233.7141868047
 20
-335.2718903821
 30
0.0
 11
233.7141868047
 21
-337.2718903821
 31
0.0
  0
LINE
  5
1C3
330
1A8
100
AcDbEntity
  8
H765_SUPPORT
  6
Continuous
 62
     7
100
AcDbLine
 10
231.7141868047
 20
-335.2718903821
 30
0.0
 11
233.7141868047
 21
-335.2718903821
 31
0.0
  0
LINE
  5
1C4
330
1A8
100
AcDbEntity
  8
H765_SUPPORT
  6
Continuous
 62
     7
100
AcDbLine
 10
229.7141868047
 20
-335.2718903821
 30
0.0
 11
231.7141868047
 21
-335.2718903821
 31
0.0
  0
ARC
  5
1C5
330
1A8
100
AcDbEntity
  8
H765_SUPPORT
  6
Continuous
 62
     7
100
AcDbCircle
 10
289.7141868047
 20
-335.2718903821
 30
0.0
 40
2.000000000000002
100
AcDbArc
 50
270.0
 51
0.0
  0
LINE
  5
1C6
330
1A8
100
AcDbEntity
  8
H765_SUPPORT
  6
Continuous
 62
     7
100
AcDbLine
 10
289.7141868047
 20
-335.2718903821
 30
0.0
 11
289.7141868047
 21
-337.2718903821
 31
0.0
  0
LINE
  5
1C7
330
1A8
100
AcDbEntity
  8
H765_SUPPORT
  6
Continuous
 62
     7
100
AcDbLine
 10
231.7141868047
 20
-279.2718903821
 30
0.0
 11
233.7141868047
 21
-279.2718903821
 31
0.0
  0
ARC
  5
1C8
330
1A8
100
AcDbEntity
  8
H765_SUPPORT
  6
Continuous
 62
     7
100
AcDbCircle
 10
233.7141868047
 20
-279.2718903821
 30
0.0
 40
2.000000000000002
100
AcDbArc
 50
90.0
 51
180.0
  0
LINE
  5
1C9
330
1A8
100
AcDbEntity
  8
H765_SUPPORT
  6
Continuous
 62
     7
100
AcDbLine
 10
229.7141868047
 20
-279.2718903821
 30
0.0
 11
231.7141868047
 21
-279.2718903821
 31
0.0
  0
LINE
  5
1CA
330
1A8
100
AcDbEntity
  8
H765_SUPPORT
  6
Continuous
 62
     7
100
AcDbLine
 10
289.7141868047
 20
-335.2718903821
 30
0.0
 11
291.7141868047
 21
-335.2718903821
 31
0.0
  0
LINE
  5
1CB
330
1A8
100
AcDbEntity
  8
H765_SUPPORT
  6
Continuous
 62
     7
100
AcDbLine
 10
233.7141868047
 20
-277.2718903821
 30
0.0
 11
233.7141868047
 21
-279.2718903821
 31
0.0
  0
LINE
  5
1CC
330
1A8
100
AcDbEntity
  8
H765_SUPPORT
  6
Continuous
 62
     7
100
AcDbLine
 10
233.7141868047
 20
-275.2718903821
 30
0.0
 11
233.7141868047
 21
-277.2718903821
 31
0.0
  0
LINE
  5
1CD
330
1A8
100
AcDbEntity
  8
H765_SUPPORT
  6
Continuous
 62
     7
100
AcDbLine
 10
291.7141868047
 20
-335.2718903821
 30
0.0
 11
293.7141868047
 21
-335.2718903821
 31
0.0
  0
LINE
  5
1CE
330
1A8
100
AcDbEntity
  8
H765_SUPPORT
  6
Continuous
 62
     7
100
AcDbLine
 10
289.7141868047
 20
-279.2718903821
 30
0.0
 11
291.7141868047
 21
-279.2718903821
 31
0.0
  0
LINE
  5
1CF
330
1A8
100
AcDbEntity
  8
H765_SUPPORT
  6
Continuous
 62
     7
100
AcDbLine
 10
289.7141868047
 20
-277.2718903821
 30
0.0
 11
289.7141868047
 21
-279.2718903821
 31
0.0
  0
LINE
  5
1D0
330
1A8
100
AcDbEntity
  8
H765_SUPPORT
  6
Continuous
 62
     7
100
AcDbLine
 10
289.7141868047
 20
-275.2718903821
 30
0.0
 11
289.7141868047
 21
-277.2718903821
 31
0.0
  0
LINE
  5
1D1
330
1A8
100
AcDbEntity
  8
H765_SUPPORT
  6
Continuous
 62
     7
100
AcDbLine
 10
291.7141868047
 20
-279.2718903821
 30
0.0
 11
293.7141868047
 21
-279.2718903821
 31
0.0
  0
ARC
  5
1D2
330
1A8
100
AcDbEntity
  8
H765_SUPPORT
  6
Continuous
 62
     7
100
AcDbCircle
 10
289.7141868047
 20
-279.2718903821
 30
0.0
 40
2.000000000000002
100
AcDbArc
 50
0.0
 51
90.0
  0
LINE
  5
1D3
330
1A8
100
AcDbEntity
  8
H765_SUPPORT
  6
Continuous
 62
     7
100
AcDbLine
 10
244.7141868047
 20
-357.2718903821
 30
0.0
 11
244.7141868047
 21
-352.2718903821
 31
0.0
  0
LINE
  5
1D4
330
1A8
100
AcDbEntity
  8
H765_SUPPORT
  6
Continuous
 62
     7
100
AcDbLine
 10
242.7141868047
 20
-357.2718903821
 30
0.0
 11
244.7141868047
 21
-357.2718903821
 31
0.0
  0
LINE
  5
1D5
330
1A8
100
AcDbEntity
  8
H765_SUPPORT
  6
Continuous
 62
     7
100
AcDbLine
 10
244.7141868047
 20
-357.2718903821
 30
0.0
 11
244.7141868047
 21
-374.2718903821
 31
0.0
  0
LINE
  5
1D6
330
1A8
100
AcDbEntity
  8
H765_SUPPORT
  6
Continuous
 62
     7
100
AcDbLine
 10
278.7141868047
 20
-357.2718903821
 30
0.0
 11
278.7141868047
 21
-374.2718903821
 31
0.0
  0
LINE
  5
1D7
330
1A8
100
AcDbEntity
  8
H765_SUPPORT
  6
Continuous
 62
     7
100
AcDbLine
 10
278.7141868047
 20
-357.2718903821
 30
0.0
 11
278.7141868047
 21
-352.2718903821
 31
0.0
  0
LINE
  5
1D8
330
1A8
100
AcDbEntity
  8
H765_SUPPORT
  6
Continuous
 62
     7
100
AcDbLine
 10
278.7141868047
 20
-357.2718903821
 30
0.0
 11
280.7141868047
 21
-357.2718903821
 31
0.0
  0
CIRCLE
  5
1D9
330
1A8
100
AcDbEntity
  8
H765_SUPPORT
  6
Continuous
 62
     7
100
AcDbCircle
 10
311.7141868047
 20
-256.2718903821
 30
0.0
 40
5.0
  0
CIRCLE
  5
1DA
330
1A8
100
AcDbEntity
  8
H765_SUPPORT
  6
Continuous
 62
     7
100
AcDbCircle
 10
211.7141868047
 20
-256.2718903821
 30
0.0
 40
5.0
  0
ARC
  5
1DB
330
1A8
100
AcDbEntity
  8
H765_SUPPORT
  6
Continuous
 62
     7
100
AcDbCircle
 10
311.7141868047
 20
-367.2718903821
 30
0.0
 40
5.0
100
AcDbArc
 50
0.0
 51
60.0
  0
ARC
  5
1DC
330
1A8
100
AcDbEntity
  8
H765_SUPPORT
  6
Continuous
 62
     7
100
AcDbCircle
 10
311.7141868047
 20
-367.2718903821
 30
0.0
 40
5.0
100
AcDbArc
 50
300.0
 51
0.0
  0
ARC
  5
1DD
330
1A8
100
AcDbEntity
  8
H765_SUPPORT
  6
Continuous
 62
     7
100
AcDbCircle
 10
211.7141868047
 20
-367.2718903821
 30
0.0
 40
5.0
100
AcDbArc
 50
120.0
 51
240.0
  0
CIRCLE
  5
1DE
330
1A8
100
AcDbEntity
  8
H765_SUPPORT
  6
Continuous
 62
     7
100
AcDbCircle
 10
261.7141868047
 20
-256.2718903821
 30
0.0
 40
5.0
  0
LINE
  5
1DF
330
1A8
100
AcDbEntity
  8
H765_SUPPORT
  6
Continuous
 62
     7
100
AcDbLine
 10
242.7141868047
 20
-374.2718903821
 30
0.0
 11
244.7141868047
 21
-374.2718903821
 31
0.0
  0
LINE
  5
1E0
330
1A8
100
AcDbEntity
  8
H765_SUPPORT
  6
Continuous
 62
     7
100
AcDbLine
 10
278.7141868047
 20
-374.2718903821
 30
0.0
 11
280.7141868047
 21
-374.2718903821
 31
0.0
  0
LINE
  5
1E1
330
1A8
100
AcDbEntity
  8
H765_BARRE
  6
Continuous
 62
     7
100
AcDbLine
 10
244.7141868047
 20
-1060.2718903821
 30
0.0
 11
278.7141868047
 21
-1060.2718903821
 31
0.0
  0
LINE
  5
1E2
330
1A8
100
AcDbEntity
  8
H765_BARRE
  6
Continuous
 62
     7
100
AcDbLine
 10
261.7141868047
 20
-357.2718903821
 30
0.0
 11
278.7141868047
 21
-374.2718903821
 31
0.0
  0
LINE
  5
1E3
330
1A8
100
AcDbEntity
  8
H765_BARRE
  6
Continuous
 62
     7
100
AcDbLine
 10
244.7141868047
 20
-374.2718903821
 30
0.0
 11
261.7141868047
 21
-357.2718903821
 31
0.0
  0
LINE
  5
1E4
330
1A8
100
AcDbEntity
  8
H765_BARRE
  6
Continuous
 62
     7
100
AcDbLine
 10
244.7141868047
 20
-374.2718903821
 30
0.0
 11
244.7141868047
 21
-352.2718903821
 31
0.0
  0
LINE
  5
1E5
330
1A8
100
AcDbEntity
  8
H765_BARRE
  6
Continuous
 62
     7
100
AcDbLine
 10
278.7141868047
 20
-374.2718903821
 30
0.0
 11
278.7141868047
 21
-352.2718903821
 31
0.0
  0
ARC
  5
1E6
330
1A8
100
AcDbEntity
  8
H765_BARRE
  6
Continuous
 62
     7
100
AcDbCircle
 10
261.7141658791
 20
-1115.4704568497
 30
0.0
 40
21.78502230550562
100
AcDbArc
 50
265.814633965
 51
274.1855853751
  0
LINE
  5
1E7
330
1A8
100
AcDbEntity
  8
H765_BARRE
  6
Continuous
 62
     7
100
AcDbLine
 10
278.7141868047
 20
-711.1908203715
 30
0.0
 11
278.7141868047
 21
-374.2718903821
 31
0.0
  0
LINE
  5
1E8
330
1A8
100
AcDbEntity
  8
H765_BARRE
  6
Continuous
 62
     7
100
AcDbLine
 10
278.7141868047
 20
-1060.2718903821
 30
0.0
 11
278.7141868047
 21
-711.1908203715
 31
0.0
  0
LINE
  5
1E9
330
1A8
100
AcDbEntity
  8
H765_BARRE
  6
Continuous
 62
     7
100
AcDbLine
 10
244.7141868047
 20
-711.1908203715
 30
0.0
 11
244.7141868047
 21
-1060.2718903821
 31
0.0
  0
LINE
  5
1EA
330
1A8
100
AcDbEntity
  8
H765_BARRE
  6
Continuous
 62
     7
100
AcDbLine
 10
244.7141868047
 20
-374.2718903821
 30
0.0
 11
244.7141868047
 21
-711.1908203715
 31
0.0
  0
ARC
  5
1EB
330
1A8
100
AcDbEntity
  8
H765_BARRE
  6
Continuous
 62
     7
100
AcDbCircle
 10
261.7141868047
 20
-1120.2718903821
 30
0.0
 40
17.00000000000005
100
AcDbArc
 50
275.3067069983
 51
0.0
  0
ARC
  5
1EC
330
1A8
100
AcDbEntity
  8
H765_BARRE
  6
Continuous
 62
     7
100
AcDbCircle
 10
261.7141868047
 20
-1120.2718903821
 30
0.0
 40
17.0
100
AcDbArc
 50
180.0
 51
264.7078499093
  0
LINE
  5
1ED
330
1A8
100
AcDbEntity
  8
H765_BARRE
  6
Continuous
 62
     7
100
AcDbLine
 10
244.7141868047
 20
-1060.2718903821
 30
0.0
 11
244.7141868047
 21
-1120.2718903821
 31
0.0
  0
LINE
  5
1EE
330
1A8
100
AcDbEntity
  8
H765_BARRE
  6
Continuous
 62
     7
100
AcDbLine
 10
278.7141868047
 20
-1120.2718903821
 30
0.0
 11
278.7141868047
 21
-1060.2718903821
 31
0.0
  0
LINE
  5
1EF
330
1A8
100
AcDbEntity
  8
H765_CACHE_MISER
  6
Continuous
 62
     7
100
AcDbLine
 10
214.2141868047
 20
-337.2718903821
 30
0.0
 11
309.2141868047
 21
-337.2718903821
 31
0.0
  0
LINE
  5
1F0
330
1A8
100
AcDbEntity
  8
H765_CACHE_MISER
  6
Continuous
 62
     7
100
AcDbLine
 10
309.2141868047
 20
-337.2718903821
 30
0.0
 11
314.2141868047
 21
-337.2718903821
 31
0.0
  0
LINE
  5
1F1
330
1A8
100
AcDbEntity
  8
H765_CACHE_MISER
  6
Continuous
 62
     7
100
AcDbLine
 10
209.2141868047
 20
-337.2718903821
 30
0.0
 11
214.2141868047
 21
-337.2718903821
 31
0.0
  0
LINE
  5
1F2
330
1A8
100
AcDbEntity
  8
H765_CACHE_MISER
  6
Continuous
 62
     7
100
AcDbLine
 10
209.2141868047
 20
-347.2718903821
 30
0.0
 11
209.2141868047
 21
-337.2718903821
 31
0.0
  0
LINE
  5
1F3
330
1A8
100
AcDbEntity
  8
H765_CACHE_MISER
  6
Continuous
 62
     7
100
AcDbLine
 10
209.2141868047
 20
-379.1147757326
 30
0.0
 11
209.2141868047
 21
-347.2718903821
 31
0.0
  0
LINE
  5
1F4
330
1A8
100
AcDbEntity
  8
H765_CACHE_MISER
  6
Continuous
 62
     7
100
AcDbLine
 10
209.2141868047
 20
-387.2718903821
 30
0.0
 11
209.2141868047
 21
-379.1147757326
 31
0.0
  0
LINE
  5
1F5
330
1A8
100
AcDbEntity
  8
H765_CACHE_MISER
  6
Continuous
 62
     7
100
AcDbLine
 10
314.2141868047
 20
-337.2718903821
 30
0.0
 11
314.2141868047
 21
-347.2718903821
 31
0.0
  0
LINE
  5
1F6
330
1A8
100
AcDbEntity
  8
H765_CACHE_MISER
  6
Continuous
 62
     7
100
AcDbLine
 10
314.2141868047
 20
-347.2718903821
 30
0.0
 11
314.2141868047
 21
-379.1147757326
 31
0.0
  0
LINE
  5
1F7
330
1A8
100
AcDbEntity
  8
H765_CACHE_MISER
  6
Continuous
 62
     7
100
AcDbLine
 10
314.2141868047
 20
-379.1147757326
 30
0.0
 11
314.2141868047
 21
-387.2718903821
 31
0.0
  0
LINE
  5
1F8
330
1A8
100
AcDbEntity
  8
H765_CACHE_MISER
  6
Continuous
 62
     7
100
AcDbLine
 10
309.2141868047
 20
-392.2718903821
 30
0.0
 11
280.7141868047
 21
-392.2718903821
 31
0.0
  0
LINE
  5
1F9
330
1A8
100
AcDbEntity
  8
H765_CACHE_MISER
  6
Continuous
 62
     7
100
AcDbLine
 10
214.2141868047
 20
-380.0362184079
 30
0.0
 11
242.7141868047
 21
-380.0362184079
 31
0.0
  0
LINE
  5
1FA
330
1A8
100
AcDbEntity
  8
H765_CACHE_MISER
  6
Continuous
 62
     7
100
AcDbLine
 10
309.2141868047
 20
-392.2718903821
 30
0.0
 11
309.2141868047
 21
-380.0362184079
 31
0.0
  0
LINE
  5
1FB
330
1A8
100
AcDbEntity
  8
H765_CACHE_MISER
  6
Continuous
 62
     7
100
AcDbLine
 10
214.2141868047
 20
-380.0362184079
 30
0.0
 11
214.2141868047
 21
-392.2718903821
 31
0.0
  0
LINE
  5
1FC
330
1A8
100
AcDbEntity
  8
H765_CACHE_MISER
  6
Continuous
 62
     7
100
AcDbLine
 10
309.2141868047
 20
-380.0362184079
 30
0.0
 11
309.2141868047
 21
-352.2718903821
 31
0.0
  0
LINE
  5
1FD
330
1A8
100
AcDbEntity
  8
H765_CACHE_MISER
  6
Continuous
 62
     7
100
AcDbLine
 10
214.2141868047
 20
-352.2718903821
 30
0.0
 11
214.2141868047
 21
-380.0362184079
 31
0.0
  0
LINE
  5
1FE
330
1A8
100
AcDbEntity
  8
H765_CACHE_MISER
  6
Continuous
 62
     7
100
AcDbLine
 10
309.2141868047
 20
-347.2718903821
 30
0.0
 11
309.2141868047
 21
-337.2718903821
 31
0.0
  0
LINE
  5
1FF
330
1A8
100
AcDbEntity
  8
H765_CACHE_MISER
  6
Continuous
 62
     7
100
AcDbLine
 10
214.2141868047
 20
-347.2718903821
 30
0.0
 11
309.2141868047
 21
-347.2718903821
 31
0.0
  0
LINE
  5
200
330
1A8
100
AcDbEntity
  8
H765_CACHE_MISER
  6
Continuous
 62
     7
100
AcDbLine
 10
214.2141868047
 20
-337.2718903821
 30
0.0
 11
214.2141868047
 21
-347.2718903821
 31
0.0
  0
LINE
  5
201
330
1A8
100
AcDbEntity
  8
H765_CACHE_MISER
  6
Continuous
 62
     7
100
AcDbLine
 10
309.2141868047
 20
-352.2718903821
 30
0.0
 11
214.2141868047
 21
-352.2718903821
 31
0.0
  0
LINE
  5
202
330
1A8
100
AcDbEntity
  8
H765_CACHE_MISER
  6
Continuous
 62
     7
100
AcDbLine
 10
314.2141868047
 20
-347.2718903821
 30
0.0
 11
309.2141868047
 21
-347.2718903821
 31
0.0
  0
LINE
  5
203
330
1A8
100
AcDbEntity
  8
H765_CACHE_MISER
  6
Continuous
 62
     7
100
AcDbLine
 10
309.2141868047
 20
-352.2718903821
 30
0.0
 11
309.2141868047
 21
-347.2718903821
 31
0.0
  0
ARC
  5
204
330
1A8
100
AcDbEntity
  8
H765_CACHE_MISER
  6
Continuous
 62
     7
100
AcDbCircle
 10
309.2141868047
 20
-347.2718903821
 30
0.0
 40
4.999999999999997
100
AcDbArc
 50
270.0
 51
0.0
  0
LINE
  5
205
330
1A8
100
AcDbEntity
  8
H765_CACHE_MISER
  6
Continuous
 62
     7
100
AcDbLine
 10
214.2141868047
 20
-347.2718903821
 30
0.0
 11
209.2141868047
 21
-347.2718903821
 31
0.0
  0
LINE
  5
206
330
1A8
100
AcDbEntity
  8
H765_CACHE_MISER
  6
Continuous
 62
     7
100
AcDbLine
 10
214.2141868047
 20
-352.2718903821
 30
0.0
 11
214.2141868047
 21
-347.2718903821
 31
0.0
  0
ARC
  5
207
330
1A8
100
AcDbEntity
  8
H765_CACHE_MISER
  6
Continuous
 62
     7
100
AcDbCircle
 10
214.2141868047
 20
-347.2718903821
 30
0.0
 40
5.000000000000004
100
AcDbArc
 50
180.0
 51
270.0
  0
ELLIPSE
  5
208
330
1A8
100
AcDbEntity
  8
H765_CACHE_MISER
  6
Continuous
 62
     7
100
AcDbEllipse
 10
309.2141868047
 20
-379.1147757326
 30
0.0
 11
4.999999999999997
 21
0.0
 31
0.0
210
0.0
220
0.0
230
1.0
 40
0.1842885351
 41
4.71238898038469
 42
6.283185307179586
  0
ARC
  5
209
330
1A8
100
AcDbEntity
  8
H765_CACHE_MISER
  6
Continuous
 62
     7
100
AcDbCircle
 10
309.2141868047
 20
-387.2718903821
 30
0.0
 40
4.999999999999997
100
AcDbArc
 50
270.0
 51
0.0
  0
ELLIPSE
  5
20A
330
1A8
100
AcDbEntity
  8
H765_CACHE_MISER
  6
Continuous
 62
     7
100
AcDbEllipse
 10
214.2141868047
 20
-379.1147757326
 30
0.0
 11
5.00000000000006
 21
-3.399077683617228E-30
 31
0.0
210
0.0
220
0.0
230
1.0
 40
0.1842885351
 41
3.141592653589793
 42
4.712388980384695
  0
ARC
  5
20B
330
1A8
100
AcDbEntity
  8
H765_CACHE_MISER
  6
Continuous
 62
     7
100
AcDbCircle
 10
214.2141868047
 20
-387.2718903821
 30
0.0
 40
4.99999999999999
100
AcDbArc
 50
180.0
 51
270.0
  0
LINE
  5
20C
330
1A8
100
AcDbEntity
  8
H765_CACHE_MISER
  6
Continuous
 62
     7
100
AcDbLine
 10
278.7141868047
 20
-392.2718903821
 30
0.0
 11
280.7141868047
 21
-392.2718903821
 31
0.0
  0
LINE
  5
20D
330
1A8
100
AcDbEntity
  8
H765_CACHE_MISER
  6
Continuous
 62
     7
100
AcDbLine
 10
242.7141868047
 20
-392.2718903821
 30
0.0
 11
244.7141868047
 21
-392.2718903821
 31
0.0
  0
LINE
  5
20E
330
1A8
100
AcDbEntity
  8
H765_CACHE_MISER
  6
Continuous
 62
     7
100
AcDbLine
 10
242.7141868047
 20
-392.2718903821
 30
0.0
 11
214.2141868047
 21
-392.2718903821
 31
0.0
  0
LINE
  5
20F
330
1A8
100
AcDbEntity
  8
H765_CACHE_MISER
  6
Continuous
 62
     7
100
AcDbLine
 10
280.7141868047
 20
-380.0362184079
 30
0.0
 11
309.2141868047
 21
-380.0362184079
 31
0.0
  0
LINE
  5
210
330
1A8
100
AcDbEntity
  8
H765_CACHE_MISER
  6
Continuous
 62
     7
100
AcDbLine
 10
280.7141868047
 20
-392.2718903821
 30
0.0
 11
280.7141868047
 21
-380.0362184079
 31
0.0
  0
LINE
  5
211
330
1A8
100
AcDbEntity
  8
H765_CACHE_MISER
  6
Continuous
 62
     7
100
AcDbLine
 10
280.7141868047
 20
-380.0362184079
 30
0.0
 11
280.7141868047
 21
-352.2718903821
 31
0.0
  0
LINE
  5
212
330
1A8
100
AcDbEntity
  8
H765_CACHE_MISER
  6
Continuous
 62
     7
100
AcDbLine
 10
242.7141868047
 20
-352.2718903821
 30
0.0
 11
242.7141868047
 21
-380.0362184079
 31
0.0
  0
LINE
  5
213
330
1A8
100
AcDbEntity
  8
H765_CACHE_MISER
  6
Continuous
 62
     7
100
AcDbLine
 10
242.7141868047
 20
-380.0362184079
 30
0.0
 11
242.7141868047
 21
-392.2718903821
 31
0.0
  0
ENDBLK
  5
215
330
1A8
100
AcDbEntity
  8
0
100
AcDbBlockEnd
  0
BLOCK
  5
2D0
330
216
100
AcDbEntity
  8
0
100
AcDbBlockBegin
  2
SE4
 70
     0
 10
0.0
 20
0.0
 30
0.0
  3
SE4
  1
SE4
  0
LINE
  5
218
330
216
100
AcDbEntity
  8
H765_SUPPORT
  6
Continuous
 62
     7
100
AcDbLine
 10
420.5702302426
 20
-951.8595130292
 30
0.0
 11
420.5702302426
 21
-956.7584925148
 31
0.0
  0
ELLIPSE
  5
219
330
216
100
AcDbEntity
  8
H765_SUPPORT
  6
Continuous
 62
     7
100
AcDbEllipse
 10
424.1057641486
 20
-954.7172510625
 30
0.0
 11
4.999999999999963
 21
-5.681219383824043E-14
 31
0.0
210
0.0
220
0.0
230
1.0
 40
0.5773502692
 41
3.141592653589793
 42
3.926990816987249
  0
LINE
  5
21A
330
216
100
AcDbEntity
  8
H765_SUPPORT
  6
Continuous
 62
     7
100
AcDbLine
 10
420.5702302426
 20
-947.7770301246
 30
0.0
 11
477.9671998623
 21
-914.638874264
 31
0.0
  0
ELLIPSE
  5
21B
330
216
100
AcDbEntity
  8
H765_SUPPORT
  6
Continuous
 62
     7
100
AcDbEllipse
 10
424.1057641486
 20
-949.8182715769
 30
0.0
 11
4.999999999999963
 21
-1.149254302834635E-14
 31
0.0
210
0.0
220
0.0
230
1.0
 40
0.5773502692
 41
2.356194490192362
 42
3.926990816987243
  0
LINE
  5
21C
330
216
100
AcDbEntity
  8
H765_SUPPORT
  6
Continuous
 62
     7
100
AcDbLine
 10
660.9865358461
 20
-977.170907038
 30
0.0
 11
561.9915864799
 21
-1034.3256677029
 31
0.0
  0
ELLIPSE
  5
21D
330
216
100
AcDbEntity
  8
H765_SUPPORT
  6
Continuous
 62
     7
100
AcDbEllipse
 10
657.4510019401
 20
-975.1296655857
 30
0.0
 11
-5.000000000000022
 21
2.287415865254921E-14
 31
0.0
210
0.0
220
0.0
230
1.0
 40
0.5773502692
 41
2.356194490192351
 42
3.141592653589793
  0
LINE
  5
21E
330
216
100
AcDbEntity
  8
H765_SUPPORT
  6
Continuous
 62
     7
100
AcDbLine
 10
660.9865358461
 20
-972.2719275524
 30
0.0
 11
561.9915864799
 21
-1029.4266882173
 31
0.0
  0
LINE
  5
21F
330
216
100
AcDbEntity
  8
H765_SUPPORT
  6
Continuous
 62
     7
100
AcDbLine
 10
660.9865358461
 20
-977.170907038
 30
0.0
 11
660.9865358461
 21
-972.2719275524
 31
0.0
  0
ELLIPSE
  5
220
330
216
100
AcDbEntity
  8
H765_SUPPORT
  6
Continuous
 62
     7
100
AcDbEllipse
 10
657.4510019401
 20
-970.2306861001
 30
0.0
 11
-5.000000000000041
 21
3.426078865054194E-14
 31
0.0
210
0.0
220
0.0
230
1.0
 40
0.5773502692
 41
2.356194490192349
 42
3.926990816987245
  0
LINE
  5
221
330
216
100
AcDbEntity
  8
H765_SUPPORT
  6
Continuous
 62
     7
100
AcDbLine
 10
561.9915864799
 20
-1029.4266882173
 30
0.0
 11
561.9915864799
 21
-1034.3256677029
 31
0.0
  0
LINE
  5
222
330
216
100
AcDbEntity
  8
H765_SUPPORT
  6
Continuous
 62
     7
100
AcDbLine
 10
554.9205186681
 20
-1034.3256677029
 30
0.0
 11
420.5702302426
 21
-956.7584925148
 31
0.0
  0
ELLIPSE
  5
223
330
216
100
AcDbEntity
  8
H765_SUPPORT
  6
Continuous
 62
     7
100
AcDbEllipse
 10
558.456052574
 20
-1032.2844262506
 30
0.0
 11
5.000000000000022
 21
-2.168404344971009E-16
 31
0.0
210
0.0
220
0.0
230
1.0
 40
0.5773502692
 41
3.926990816987239
 42
5.497787143782142
  0
LINE
  5
224
330
216
100
AcDbEntity
  8
H765_SUPPORT
  6
Continuous
 62
     7
100
AcDbLine
 10
554.9205186681
 20
-1029.4266882173
 30
0.0
 11
420.5702302426
 21
-951.8595130292
 31
0.0
  0
LINE
  5
225
330
216
100
AcDbEntity
  8
H765_SUPPORT
  6
Continuous
 62
     7
100
AcDbLine
 10
554.9205186681
 20
-1034.3256677029
 30
0.0
 11
554.9205186681
 21
-1029.4266882173
 31
0.0
  0
ELLIPSE
  5
226
330
216
100
AcDbEntity
  8
H765_SUPPORT
  6
Continuous
 62
     7
100
AcDbEllipse
 10
558.456052574
 20
-1027.385446765
 30
0.0
 11
-5.000000000000022
 21
2.168404344971009E-16
 31
0.0
210
0.0
220
0.0
230
1.0
 40
0.5773502692
 41
0.7853981633974447
 42
2.356194490192348
  0
LINE
  5
227
330
216
100
AcDbEntity
  8
H765_SUPPORT
  6
Continuous
 62
     7
100
AcDbLine
 10
561.1631593552
 20
-910.5563913593
 30
0.0
 11
660.9865358461
 21
-968.1894446478
 31
0.0
  0
ELLIPSE
  5
228
330
216
100
AcDbEntity
  8
H765_SUPPORT
  6
Continuous
 62
     7
100
AcDbEllipse
 10
519.5651796087
 20
-970.6389343905
 30
0.0
 11
-4.000000000000025
 21
6.809291080587955E-14
 31
0.0
210
0.0
220
0.0
230
1.0
 40
0.5773502692
 41
0.7853981633974563
 42
2.356194490192357
  0
LINE
  5
229
330
216
100
AcDbEntity
  8
H765_SUPPORT
  6
Continuous
 62
     7
100
AcDbLine
 10
561.9915864799
 20
-949.4100232864
 30
0.0
 11
522.3936067335
 21
-972.2719275524
 31
0.0
  0
LINE
  5
22A
330
216
100
AcDbEntity
  8
H765_SUPPORT
  6
Continuous
 62
     7
100
AcDbLine
 10
516.736752484
 20
-972.2719275524
 30
0.0
 11
477.1387727376
 21
-949.4100232864
 31
0.0
  0
ELLIPSE
  5
22B
330
216
100
AcDbEntity
  8
H765_SUPPORT
  6
Continuous
 62
     7
100
AcDbEllipse
 10
559.1631593552
 20
-947.7770301246
 30
0.0
 11
-4.000000000000024
 21
-2.233456475320139E-14
 31
0.0
210
0.0
220
0.0
230
1.0
 40
0.5773502692
 41
2.356194490192344
 42
3.926990816987196
  0
LINE
  5
22C
330
216
100
AcDbEntity
  8
H765_SUPPORT
  6
Continuous
 62
     7
100
AcDbLine
 10
561.1631593552
 20
-945.6657443392
 30
0.0
 11
561.9915864799
 21
-946.1440369627
 31
0.0
  0
LINE
  5
22D
330
216
100
AcDbEntity
  8
H765_SUPPORT
  6
Continuous
 62
     7
100
AcDbLine
 10
477.1387727376
 20
-946.1440369627
 30
0.0
 11
477.9671998623
 21
-945.6657443392
 31
0.0
  0
ELLIPSE
  5
22E
330
216
100
AcDbEntity
  8
H765_SUPPORT
  6
Continuous
 62
     7
100
AcDbEllipse
 10
479.9671998623
 20
-947.7770301246
 30
0.0
 11
3.999999999999946
 21
6.787607037138245E-14
 31
0.0
210
0.0
220
0.0
230
1.0
 40
0.5773502692
 41
2.356194490192296
 42
3.92699081698723
  0
LINE
  5
22F
330
216
100
AcDbEntity
  8
H765_SUPPORT
  6
Continuous
 62
     7
100
AcDbLine
 10
479.9671998623
 20
-264.3693918881
 30
0.0
 11
519.5651796087
 21
-287.231296154
 31
0.0
  0
LINE
  5
230
330
216
100
AcDbEntity
  8
H765_SUPPORT
  6
Continuous
 62
     7
100
AcDbLine
 10
519.5651796087
 20
-287.231296154
 30
0.0
 11
559.1631593552
 21
-264.3693918881
 31
0.0
  0
LINE
  5
231
330
216
100
AcDbEntity
  8
H765_SUPPORT
  6
Continuous
 62
     7
100
AcDbLine
 10
519.5651796087
 20
-241.5074876221
 30
0.0
 11
479.9671998623
 21
-264.3693918881
 31
0.0
  0
LINE
  5
232
330
216
100
AcDbEntity
  8
H765_SUPPORT
  6
Continuous
 62
     7
100
AcDbLine
 10
559.1631593552
 20
-264.3693918881
 30
0.0
 11
519.5651796087
 21
-241.5074876221
 31
0.0
  0
LINE
  5
233
330
216
100
AcDbEntity
  8
H765_SUPPORT
  6
Continuous
 62
     7
100
AcDbLine
 10
520.9793931711
 20
-466.1020740026
 30
0.0
 11
520.9793931711
 21
-969.8224378096
 31
0.0
  0
LINE
  5
234
330
216
100
AcDbEntity
  8
H765_SUPPORT
  6
Continuous
 62
     7
100
AcDbLine
 10
520.9793931711
 20
-969.8224378096
 30
0.0
 11
560.5773729176
 21
-946.9605335436
 31
0.0
  0
LINE
  5
235
330
216
100
AcDbEntity
  8
H765_SUPPORT
  6
Continuous
 62
     7
100
AcDbLine
 10
560.5773729176
 20
-946.9605335436
 30
0.0
 11
560.5773729176
 21
-454.6470864544
 31
0.0
  0
LINE
  5
236
330
216
100
AcDbEntity
  8
H765_SUPPORT
  6
Continuous
 62
     7
100
AcDbLine
 10
518.1509660464
 20
-969.8224378096
 30
0.0
 11
518.1509660464
 21
-467.7350671645
 31
0.0
  0
LINE
  5
237
330
216
100
AcDbEntity
  8
H765_SUPPORT
  6
Continuous
 62
     7
100
AcDbLine
 10
518.1509660464
 20
-290.4972824778
 30
0.0
 11
518.1509660464
 21
-289.6807858968
 31
0.0
  0
LINE
  5
238
330
216
100
AcDbEntity
  8
H765_SUPPORT
  6
Continuous
 62
     7
100
AcDbLine
 10
518.1509660464
 20
-289.6807858968
 30
0.0
 11
478.5529862999
 21
-266.8188816308
 31
0.0
  0
LINE
  5
239
330
216
100
AcDbEntity
  8
H765_SUPPORT
  6
Continuous
 62
     7
100
AcDbLine
 10
478.5529862999
 20
-946.9605335436
 30
0.0
 11
518.1509660464
 21
-969.8224378096
 31
0.0
  0
LINE
  5
23A
330
216
100
AcDbEntity
  8
H765_SUPPORT
  6
Continuous
 62
     7
100
AcDbLine
 10
478.5529862999
 20
-266.8188816308
 30
0.0
 11
478.5529862999
 21
-946.9605335436
 31
0.0
  0
ELLIPSE
  5
23B
330
216
100
AcDbEntity
  8
H765_SUPPORT
  6
Continuous
 62
     7
100
AcDbEllipse
 10
519.5651796087
 20
-288.8642893159
 30
0.0
 11
-2.000000000000001
 21
-9.107298248878237E-15
 31
0.0
210
0.0
220
0.0
230
1.0
 40
0.5773502692
 41
0.7853981633975184
 42
1.308996938995665
  0
ELLIPSE
  5
23C
330
216
100
AcDbEntity
  8
H765_SUPPORT
  6
Continuous
 62
     7
100
AcDbEllipse
 10
519.5651796087
 20
-969.0059412287
 30
0.0
 11
1.999999999999993
 21
-4.543308540093250E-14
 31
0.0
210
0.0
220
0.0
230
1.0
 40
0.5773502692
 41
3.926990816987324
 42
5.497787143782324
  0
ELLIPSE
  5
23D
330
216
100
AcDbEntity
  8
H765_SUPPORT
  6
Continuous
 62
     7
100
AcDbEllipse
 10
519.5651796087
 20
-288.8642893159
 30
0.0
 11
-1.000000000000022
 21
1.732050807568825
 31
0.0
210
0.0
220
0.0
230
1.0
 40
0.5773502692
 41
4.35102185647801
 42
5.497787143782099
  0
ELLIPSE
  5
23E
330
216
100
AcDbEntity
  8
H765_SUPPORT
  6
Continuous
 62
     7
100
AcDbEllipse
 10
519.5651796087
 20
-288.8642893159
 30
0.0
 11
-1.000000000000022
 21
-1.732050807568831
 31
0.0
210
0.0
220
0.0
230
1.0
 40
0.5773502692
 41
3.926990816987283
 42
5.49778714378213
  0
ELLIPSE
  5
23F
330
216
100
AcDbEntity
  8
H765_SUPPORT
  6
Continuous
 62
     7
100
AcDbEllipse
 10
516.736752484
 20
-970.6389343905
 30
0.0
 11
-1.000000000000075
 21
-1.732050807568871
 31
0.0
210
0.0
220
0.0
230
1.0
 40
0.5773502692
 41
0.7853981633975327
 42
2.356194490192348
  0
ELLIPSE
  5
240
330
216
100
AcDbEntity
  8
H765_SUPPORT
  6
Continuous
 62
     7
100
AcDbEllipse
 10
522.3936067335
 20
-970.6389343905
 30
0.0
 11
-0.9999999999999963
 21
1.732050807568872
 31
0.0
210
0.0
220
0.0
230
1.0
 40
0.5773502692
 41
0.7853981633973754
 42
2.35619449019234
  0
ELLIPSE
  5
241
330
216
100
AcDbEntity
  8
H765_SUPPORT
  6
Continuous
 62
     7
100
AcDbEllipse
 10
559.1631593552
 20
-266.0023850499
 30
0.0
 11
-0.999999999999951
 21
1.732050807568925
 31
0.0
210
0.0
220
0.0
230
1.0
 40
0.5773502692
 41
4.351021856478127
 42
5.497787143782175
  0
ELLIPSE
  5
242
330
216
100
AcDbEntity
  8
H765_SUPPORT
  6
Continuous
 62
     7
100
AcDbEllipse
 10
479.9671998623
 20
-266.0023850499
 30
0.0
 11
-0.9999999999998567
 21
-1.732050807568955
 31
0.0
210
0.0
220
0.0
230
1.0
 40
0.5773502692
 41
3.92699081698715
 42
5.497787143781919
  0
ELLIPSE
  5
243
330
216
100
AcDbEntity
  8
H765_SUPPORT
  6
Continuous
 62
     7
100
AcDbEllipse
 10
479.9671998623
 20
-266.0023850499
 30
0.0
 11
2.0
 21
-1.517883041479706E-15
 31
0.0
210
0.0
220
0.0
230
1.0
 40
0.5773502692
 41
3.141592653589794
 42
3.926990816987234
  0
ELLIPSE
  5
244
330
216
100
AcDbEntity
  8
H765_SUPPORT
  6
Continuous
 62
     7
100
AcDbEllipse
 10
479.9671998623
 20
-946.1440369627
 30
0.0
 11
1.999999999999954
 21
2.255140518769849E-14
 31
0.0
210
0.0
220
0.0
230
1.0
 40
0.5773502692
 41
3.141592653589793
 42
3.926990816987204
  0
ELLIPSE
  5
245
330
216
100
AcDbEntity
  8
H765_SUPPORT
  6
Continuous
 62
     7
100
AcDbEllipse
 10
477.1387727376
 20
-947.7770301246
 30
0.0
 11
-0.9999999999999966
 21
-1.732050807568871
 31
0.0
210
0.0
220
0.0
230
1.0
 40
0.5773502692
 41
0.7853981633974536
 42
2.356194490192487
  0
ELLIPSE
  5
246
330
216
100
AcDbEntity
  8
H765_SUPPORT
  6
Continuous
 62
     7
100
AcDbEllipse
 10
561.9915864799
 20
-947.7770301246
 30
0.0
 11
-0.9999999999999766
 21
1.732050807568883
 31
0.0
210
0.0
220
0.0
230
1.0
 40
0.5773502692
 41
0.7853981633974918
 42
2.356194490192387
  0
ELLIPSE
  5
247
330
216
100
AcDbEntity
  8
H765_SUPPORT
  6
Continuous
 62
     7
100
AcDbEllipse
 10
559.1631593552
 20
-946.1440369627
 30
0.0
 11
-2.000000000000032
 21
2.276824562219559E-14
 31
0.0
210
0.0
220
0.0
230
1.0
 40
0.5773502692
 41
2.356194490192424
 42
3.141592653589793
  0
ELLIPSE
  5
248
330
216
100
AcDbEntity
  8
H765_SUPPORT
  6
Continuous
 62
     7
100
AcDbEllipse
 10
559.1631593552
 20
-266.0023850499
 30
0.0
 11
-1.0
 21
-1.73205080756901
 31
0.0
210
0.0
220
0.0
230
1.0
 40
0.5773502692
 41
3.141592653589793
 42
3.926990816987254
  0
ELLIPSE
  5
249
330
216
100
AcDbEntity
  8
H765_SUPPORT
  6
Continuous
 62
     7
100
AcDbEllipse
 10
479.9671998623
 20
-266.0023850499
 30
0.0
 11
0.9999999999999987
 21
-1.732050807569018
 31
0.0
210
0.0
220
0.0
230
1.0
 40
0.5773502692
 41
2.356194490192276
 42
3.141592653589793
  0
ELLIPSE
  5
24A
330
216
100
AcDbEntity
  8
H765_SUPPORT
  6
Continuous
 62
     7
100
AcDbEllipse
 10
477.1387727376
 20
-944.5110438009
 30
0.0
 11
-0.9999999999999963
 21
1.732050807568872
 31
0.0
210
0.0
220
0.0
230
1.0
 40
0.5773502692
 41
2.35619449019243
 42
2.961627075482639
  0
ELLIPSE
  5
24B
330
216
100
AcDbEntity
  8
H765_SUPPORT
  6
Continuous
 62
     7
100
AcDbEllipse
 10
561.9915864799
 20
-944.5110438009
 30
0.0
 11
0.9999999999999768
 21
1.73205080756886
 31
0.0
210
0.0
220
0.0
230
1.0
 40
0.5773502692
 41
3.30448643132997
 42
3.926990816987123
  0
ELLIPSE
  5
24C
330
216
100
AcDbEntity
  8
H765_SUPPORT
  6
Continuous
 62
     7
100
AcDbEllipse
 10
519.5651796087
 20
-243.1404807839
 30
0.0
 11
-0.999999999999972
 21
-1.732050807568934
 31
0.0
210
0.0
220
0.0
230
1.0
 40
0.5773502692
 41
3.141592653589768
 42
3.92699081698716
  0
ELLIPSE
  5
24D
330
216
100
AcDbEntity
  8
H765_SUPPORT
  6
Continuous
 62
     7
100
AcDbEllipse
 10
519.5651796087
 20
-243.1404807839
 30
0.0
 11
0.9999999999999813
 21
-1.732050807568931
 31
0.0
210
0.0
220
0.0
230
1.0
 40
0.5773502692
 41
2.356194490192423
 42
3.14159265358981
  0
ELLIPSE
  5
24E
330
216
100
AcDbEntity
  8
H765_SUPPORT
  6
Continuous
 62
     7
100
AcDbEllipse
 10
566.9413339482
 20
-326.831380329
 30
0.0
 11
-8.499999999999972
 21
14.72243186433554
 31
0.0
210
0.0
220
0.0
230
1.0
 40
0.5773502692
 41
4.354069403379707
 42
5.497787143782141
  0
LINE
  5
24F
330
216
100
AcDbEntity
  8
H765_SUPPORT
  6
Continuous
 62
     7
100
AcDbLine
 10
566.9413339482
 20
-312.9509384533
 30
0.0
 11
558.456052574
 21
-308.0519589677
 31
0.0
  0
ELLIPSE
  5
250
330
216
100
AcDbEntity
  8
H765_SUPPORT
  6
Continuous
 62
     7
100
AcDbEllipse
 10
448.1473947089
 20
-952.2677613197
 30
0.0
 11
-5.000000000000022
 21
2.168404344971009E-16
 31
0.0
210
0.0
220
0.0
230
1.0
 40
0.5773502692
 41
4.154790153685154
 42
5.269987807084226
  0
ELLIPSE
  5
251
330
216
100
AcDbEntity
  8
H765_SUPPORT
  6
Continuous
 62
     7
100
AcDbEllipse
 10
448.1473947089
 20
-947.3687818341
 30
0.0
 11
5.000000000000002
 21
1.105886215935215E-14
 31
0.0
210
0.0
220
0.0
230
1.0
 40
0.5773502692
 41
0.0
 42
6.283185307179586
  0
ELLIPSE
  5
252
330
216
100
AcDbEntity
  8
H765_SUPPORT
  6
Continuous
 62
     7
100
AcDbEllipse
 10
597.3469255393
 20
-956.7584925148
 30
0.0
 11
-4.999999999999963
 21
-1.105886215935215E-14
 31
0.0
210
0.0
220
0.0
230
1.0
 40
0.5773502692
 41
4.154790153685145
 42
5.269987807084205
  0
ELLIPSE
  5
253
330
216
100
AcDbEntity
  8
H765_SUPPORT
  6
Continuous
 62
     7
100
AcDbEllipse
 10
597.3469255393
 20
-951.8595130292
 30
0.0
 11
4.999999999999982
 21
-2.276824562219560E-14
 31
0.0
210
0.0
220
0.0
230
1.0
 40
0.5773502692
 41
0.0
 42
6.283185307179586
  0
ELLIPSE
  5
254
330
216
100
AcDbEntity
  8
H765_SUPPORT
  6
Continuous
 62
     7
100
AcDbEllipse
 10
526.6362474206
 20
-997.5833215612
 30
0.0
 11
-4.999999999999982
 21
-2.233456475320139E-14
 31
0.0
210
0.0
220
0.0
230
1.0
 40
0.5773502692
 41
4.154790153685173
 42
5.269987807084228
  0
ELLIPSE
  5
255
330
216
100
AcDbEntity
  8
H765_SUPPORT
  6
Continuous
 62
     7
100
AcDbEllipse
 10
526.6362474206
 20
-992.6843420756
 30
0.0
 11
4.999999999999982
 21
-1.059130303536175E-16
 31
0.0
210
0.0
220
0.0
230
1.0
 40
0.5773502692
 41
0.0
 42
6.283185307179586
  0
LINE
  5
256
330
216
100
AcDbEntity
  8
H765_SUPPORT
  6
Continuous
 62
     7
100
AcDbLine
 10
419.1057641486
 20
-949.8182715769
 30
0.0
 11
419.1057641486
 21
-954.7172510625
 31
0.0
  0
LINE
  5
257
330
216
100
AcDbEntity
  8
H765_SUPPORT
  6
Continuous
 62
     7
100
AcDbLine
 10
662.4510019401
 20
-975.1296655857
 30
0.0
 11
662.4510019401
 21
-970.2306861001
 31
0.0
  0
LINE
  5
258
330
216
100
AcDbEntity
  8
H765_SUPPORT
  6
Continuous
 62
     7
100
AcDbLine
 10
477.9671998623
 20
-266.0023850499
 30
0.0
 11
477.9671998623
 21
-946.1440369627
 31
0.0
  0
LINE
  5
259
330
216
100
AcDbEntity
  8
H765_SUPPORT
  6
Continuous
 62
     7
100
AcDbLine
 10
561.1631593552
 20
-946.1440369627
 30
0.0
 11
561.1631593552
 21
-454.9852904119
 31
0.0
  0
ARC
  5
25A
330
216
100
AcDbEntity
  8
H765_SUPPORT
  6
Continuous
 62
     7
100
AcDbCircle
 10
559.1631593552
 20
-266.0023850499
 30
0.0
 40
2.000000000000003
100
AcDbArc
 50
9.2951889454
 51
60.0
  0
ARC
  5
25B
330
216
100
AcDbEntity
  8
H765_SUPPORT
  6
Continuous
 62
     7
100
AcDbCircle
 10
479.9671998623
 20
-266.0023850499
 30
0.0
 40
2.000000000000037
100
AcDbArc
 50
120.0
 51
180.0
  0
SPLINE
  5
25C
330
216
100
AcDbEntity
  8
H765_SUPPORT
  6
Continuous
 62
     7
100
AcDbSpline
210
0.0
220
0.0
230
1.0
 70
     8
 71
     3
 72
     9
 73
     5
 74
     0
 42
0.000000001
 43
0.0000000001
 40
0.0
 40
0.0
 40
0.0
 40
0.0
 40
0.3850912092014896
 40
0.5427594017429538
 40
0.5427594017429538
 40
0.5427594017429538
 40
0.5427594017429538
 10
477.9458832529051
 20
-946.1346596758776
 30
0.0
 10
477.9297837028034
 20
-946.2554945211496
 30
0.0
 10
477.9263342167525
 20
-946.3929068379576
 30
0.0
 10
477.9005809092914
 20
-946.4232362934353
 30
0.0
 10
477.8989275701809
 20
-946.423741952159
 30
0.0
  0
SPLINE
  5
25D
330
216
100
AcDbEntity
  8
H765_SUPPORT
  6
Continuous
 62
     7
100
AcDbSpline
210
0.0
220
0.0
230
1.0
 70
     8
 71
     3
 72
    10
 73
     6
 74
     0
 42
0.000000001
 43
0.0000000001
 40
0.4504172486162796
 40
0.4504172486162796
 40
0.4504172486162796
 40
0.4504172486162796
 40
0.5176492107774268
 40
0.8554005844711696
 40
1.0
 40
1.0
 40
1.0
 40
1.0
 10
561.2349483812998
 20
-946.426681923609
 30
0.0
 10
561.2345517372652
 20
-946.4265891102394
 30
0.0
 10
561.2238279227066
 20
-946.414722015684
 30
0.0
 10
561.1562431225623
 20
-946.2935818080083
 30
0.0
 10
561.1779529836209
 20
-946.1914299588935
 30
0.0
 10
561.184475964595
 20
-946.1534142495559
 30
0.0
  0
LINE
  5
25E
330
216
100
AcDbEntity
  8
H765_SUPPORT
  6
Continuous
 62
     7
100
AcDbLine
 10
560.1631593552
 20
-264.2703342424
 30
0.0
 11
520.5651796087
 21
-241.4084299764
 31
0.0
  0
LINE
  5
25F
330
216
100
AcDbEntity
  8
H765_SUPPORT
  6
Continuous
 62
     7
100
AcDbLine
 10
518.5651796087
 20
-241.4084299764
 30
0.0
 11
478.9671998623
 21
-264.2703342424
 31
0.0
  0
ARC
  5
260
330
216
100
AcDbEntity
  8
H765_SUPPORT
  6
Continuous
 62
     7
100
AcDbCircle
 10
519.5651796087
 20
-243.1404807839
 30
0.0
 40
2.000000000000032
100
AcDbArc
 50
60.0
 51
120.0
  0
ELLIPSE
  5
261
330
216
100
AcDbEntity
  8
H765_BARRE
  6
Continuous
 62
     7
100
AcDbEllipse
 10
1052.0165858422
 20
-620.770149463
 30
0.0
 11
-8.500000000000009
 21
-14.72243186433545
 31
0.0
210
0.0
220
0.0
230
1.0
 40
0.5773502692
 41
3.139635573338515
 42
6.280670911505985
  0
ELLIPSE
  5
262
330
216
100
AcDbEntity
  8
H765_BARRE
  6
Continuous
 62
     7
100
AcDbEllipse
 10
1052.0165858422
 20
-718.7497391743
 30
0.0
 11
8.500000000000009
 21
14.72243186433545
 31
0.0
210
0.0
220
0.0
230
1.0
 40
0.5773502692
 41
0.0034207218991478
 42
3.141483712941893
  0
ELLIPSE
  5
263
330
216
100
AcDbEntity
  8
H765_BARRE
  6
Continuous
 62
     7
100
AcDbEllipse
 10
554.9205186681
 20
-333.7716012669
 30
0.0
 11
-24.04163056034261
 21
-8.544515993943747E-14
 31
0.0
210
0.0
220
0.0
230
1.0
 40
0.5773502692
 41
3.926990816987239
 42
4.712388980384688
  0
LINE
  5
264
330
216
100
AcDbEntity
  8
H765_BARRE
  6
Continuous
 62
     7
100
AcDbLine
 10
554.9205186681
 20
-333.3633529765
 30
0.0
 11
554.9205186681
 21
-319.8911593912
 31
0.0
  0
ELLIPSE
  5
265
330
216
100
AcDbEntity
  8
H765_BARRE
  6
Continuous
 62
     7
100
AcDbEllipse
 10
566.9413339482
 20
-326.831380329
 30
0.0
 11
8.499999999999986
 21
-14.72243186433547
 31
0.0
210
0.0
220
0.0
230
1.0
 40
0.5773502692
 41
1.212476749789912
 42
3.141592653589793
  0
LINE
  5
266
330
216
100
AcDbEntity
  8
H765_BARRE
  6
Continuous
 62
     7
100
AcDbLine
 10
793.1581787737
 20
-583.1782100471
 30
0.0
 11
822.1789940538
 21
-566.423034533
 31
0.0
  0
ELLIPSE
  5
267
330
216
100
AcDbEntity
  8
H765_BARRE
  6
Continuous
 62
     7
100
AcDbEllipse
 10
805.1789940538
 20
-576.2379891092
 30
0.0
 11
12.02081528017131
 21
-20.82066281365704
 31
0.0
210
0.0
220
0.0
230
1.0
 40
0.5773502692
 41
3.926990816987244
 42
4.712388980384683
  0
ELLIPSE
  5
268
330
216
100
AcDbEntity
  8
H765_BARRE
  6
Continuous
 62
     7
100
AcDbEllipse
 10
805.1789940538
 20
-478.2583993979
 30
0.0
 11
-12.02081528017126
 21
20.82066281365707
 31
0.0
210
0.0
220
0.0
230
1.0
 40
0.5773502692
 41
1.570796326794909
 42
2.356194490192343
  0
LINE
  5
269
330
216
100
AcDbEntity
  8
H765_BARRE
  6
Continuous
 62
     7
100
AcDbLine
 10
788.1789940538
 20
-488.0733539741
 30
0.0
 11
793.1581787737
 21
-485.1986203358
 31
0.0
  0
LINE
  5
26A
330
216
100
AcDbEntity
  8
H765_BARRE
  6
Continuous
 62
     7
100
AcDbLine
 10
1060.5165858422
 20
-606.0477175987
 30
0.0
 11
571.9205186681
 21
-323.9566466907
 31
0.0
  0
LINE
  5
26B
330
216
100
AcDbEntity
  8
H765_BARRE
  6
Continuous
 62
     7
100
AcDbLine
 10
805.1789940538
 20
-497.8883085503
 30
0.0
 11
1043.5165858422
 21
-635.4925813274
 31
0.0
  0
LINE
  5
26C
330
216
100
AcDbEntity
  8
H765_BARRE
  6
Continuous
 62
     7
100
AcDbLine
 10
566.9266153225
 20
-360.3332335547
 30
0.0
 11
788.1789940538
 21
-488.0733539741
 31
0.0
  0
SPLINE
  5
26D
330
216
100
AcDbEntity
  8
H765_BARRE
  6
Continuous
 62
     7
100
AcDbSpline
210
0.0
220
0.0
230
1.0
 70
     8
 71
     3
 72
    38
 73
    34
 74
     0
 42
0.000000001
 43
0.0000000001
 40
0.0
 40
0.0
 40
0.0
 40
0.0
 40
0.0166715058053269
 40
0.0485191593702093
 40
0.0806677782872095
 40
0.1131663139504372
 40
0.1459826763113774
 40
0.1790634489096979
 40
0.2123445150957397
 40
0.2457569784202825
 40
0.2792301651838169
 40
0.3126861319174996
 40
0.3460371175659722
 40
0.3792131733100049
 40
0.4121469564378764
 40
0.4447771796344925
 40
0.4770552773601768
 40
0.5089570820949114
 40
0.5405020565515651
 40
0.5717837879380159
 40
0.603017960374216
 40
0.6344732030477617
 40
0.6667587471480425
 40
0.7010096846993098
 40
0.7395841394750512
 40
0.7892670037825424
 40
0.8252280979482101
 40
0.8581909443779061
 40
0.8890974448572541
 40
0.9217778685065642
 40
0.9534762621882225
 40
0.984943884024067
 40
1.0
 40
1.0
 40
1.0
 40
1.0
 10
1043.51658584222
 20
-635.4925813273533
 30
0.0
 10
1044.095316843619
 20
-635.8352224975454
 30
0.0
 10
1045.529478227571
 20
-636.6932669749904
 30
0.0
 10
1048.250432632551
 20
-638.5876878928282
 30
0.0
 10
1051.458759805557
 20
-641.2031017124262
 30
0.0
 10
1054.720873408439
 20
-644.2654976572296
 30
0.0
 10
1057.938501754055
 20
-647.7173801318128
 30
0.0
 10
1061.060552638066
 20
-651.5228203850937
 30
0.0
 10
1064.027240623765
 20
-655.6276690037743
 30
0.0
 10
1066.787152507423
 20
-659.9726804640491
 30
0.0
 10
1069.293646407252
 20
-664.4914611430067
 30
0.0
 10
1071.506710950251
 20
-669.1120566438655
 30
0.0
 10
1073.394094198823
 20
-673.7586634710566
 30
0.0
 10
1074.932415073474
 20
-678.353338737407
 30
0.0
 10
1076.108112086142
 20
-682.8177555451228
 30
0.0
 10
1076.918243704566
 20
-687.0738912719324
 30
0.0
 10
1077.371803006793
 20
-691.0458820440036
 30
0.0
 10
1077.491089126715
 20
-694.6624716084866
 30
0.0
 10
1077.312912889597
 20
-697.8602466980165
 30
0.0
 10
1076.88923908664
 20
-700.5878408988851
 30
0.0
 10
1076.287542993339
 20
-702.8077147252709
 30
0.0
 10
1075.588717338965
 20
-704.5072057070366
 30
0.0
 10
1074.87856904388
 20
-705.7088685159738
 30
0.0
 10
1074.227422855072
 20
-706.4820514032044
 30
0.0
 10
1073.642454556101
 20
-706.9522667500107
 30
0.0
 10
1073.089490990294
 20
-707.236807558751
 30
0.0
 10
1072.173658256375
 20
-707.4756211427072
 30
0.0
 10
1070.951735806188
 20
-707.5668385502377
 30
0.0
 10
1069.298986813749
 20
-707.4413366800035
 30
0.0
 10
1067.20567560377
 20
-706.996229369692
 30
0.0
 10
1064.726900563635
 20
-706.1512698360683
 30
0.0
 10
1062.380676421243
 20
-705.0709665378757
 30
0.0
 10
1061.031704438565
 20
-704.3172297770896
 30
0.0
 10
1060.51658584222
 20
-704.0273073100096
 30
0.0
  0
SPLINE
  5
26E
330
216
100
AcDbEntity
  8
H765_BARRE
  6
Continuous
 62
     7
100
AcDbSpline
210
0.0
220
0.0
230
1.0
 70
     8
 71
     3
 72
    43
 73
    39
 74
     0
 42
0.000000001
 43
0.0000000001
 40
0.0
 40
0.0
 40
0.0
 40
0.0
 40
0.016540577908746
 40
0.0468381356721027
 40
0.0770977616157806
 40
0.1069909632421792
 40
0.136271712262599
 40
0.1647645123505348
 40
0.192416055696037
 40
0.2192936663348412
 40
0.2455489689087672
 40
0.2713792348759149
 40
0.297001476847131
 40
0.3225741245432534
 40
0.3483146267970652
 40
0.3744315225248701
 40
0.4011030280108825
 40
0.4284544300268578
 40
0.4565315511743048
 40
0.4852827253365001
 40
0.514566881494509
 40
0.5441941598570812
 40
0.573980620858405
 40
0.6037586882142991
 40
0.6334600890781164
 40
0.6630622585171313
 40
0.6925699472186988
 40
0.7220037412620972
 40
0.751392786140683
 40
0.7807706883972778
 40
0.8101710565420219
 40
0.839621100573901
 40
0.8691582305812716
 40
0.8988188438637824
 40
0.9286356317903514
 40
0.9586323425697587
 40
0.988814296516369
 40
1.0
 40
1.0
 40
1.0
 40
1.0
 10
1043.51658584222
 20
-733.4721710386805
 30
0.0
 10
1044.588657647539
 20
-734.0750679241453
 30
0.0
 10
1047.17049733004
 20
-735.5117983625701
 30
0.0
 10
1051.919470104239
 20
-737.6975561610434
 30
0.0
 10
1057.407798701923
 20
-739.6119361962709
 30
0.0
 10
1062.94626065647
 20
-740.9169833348194
 30
0.0
 10
1068.396416696246
 20
-741.5632100757027
 30
0.0
 10
1073.698983463443
 20
-741.5549628585577
 30
0.0
 10
1078.783796295279
 20
-740.9084716926372
 30
0.0
 10
1083.59863010655
 20
-739.6560176787857
 30
0.0
 10
1088.102686143642
 20
-737.8362123708753
 30
0.0
 10
1092.2657064222
 20
-735.4891066303067
 30
0.0
 10
1096.061883644739
 20
-732.654576327229
 30
0.0
 10
1099.472411293719
 20
-729.3691176553277
 30
0.0
 10
1102.484029525026
 20
-725.6632044132053
 30
0.0
 10
1105.087960102289
 20
-721.5566256740979
 30
0.0
 10
1107.273780990435
 20
-717.0627128091344
 30
0.0
 10
1109.027212232156
 20
-712.1933703716654
 30
0.0
 10
1110.330226567812
 20
-706.9659759409388
 30
0.0
 10
1111.163957661135
 20
-701.410143147076
 30
0.0
 10
1111.513652708315
 20
-695.5709593788732
 30
0.0
 10
1111.373264090748
 20
-689.5065500808606
 30
0.0
 10
1110.747437119214
 20
-683.2832439717137
 30
0.0
 10
1109.650315104049
 20
-676.9654006350263
 30
0.0
 10
1108.101891478202
 20
-670.6109452498215
 30
0.0
 10
1106.123935836338
 20
-664.2687971983933
 30
0.0
 10
1103.738820006879
 20
-657.9835479578742
 30
0.0
 10
1100.969059724633
 20
-651.797300475624
 30
0.0
 10
1097.837220318213
 20
-645.7507389128798
 30
0.0
 10
1094.36606166296
 20
-639.8838753996724
 30
0.0
 10
1090.578745051807
 20
-634.2366450522704
 30
0.0
 10
1086.498917955953
 20
-628.8485560646708
 30
0.0
 10
1082.148485055543
 20
-623.7572978794977
 30
0.0
 10
1077.553920557224
 20
-619.0034815488746
 30
0.0
 10
1072.720516705788
 20
-614.6136103827598
 30
0.0
 10
1067.731414186259
 20
-610.6693731757024
 30
0.0
 10
1063.510777433526
 20
-607.8167687069699
 30
0.0
 10
1061.237881265586
 20
-606.4716867325188
 30
0.0
 10
1060.51658584222
 20
-606.0477175986823
 30
0.0
  0
LINE
  5
26F
330
216
100
AcDbEntity
  8
H765_BARRE
  6
Continuous
 62
     7
100
AcDbLine
 10
537.7153549019
 20
-441.4476941988
 30
0.0
 11
1043.5165858422
 21
-733.4721710387
 31
0.0
  0
LINE
  5
270
330
216
100
AcDbEntity
  8
H765_BARRE
  6
Continuous
 62
     7
100
AcDbLine
 10
788.1789940538
 20
-546.7931253805
 30
0.0
 11
554.7023038278
 21
-411.995295429
 31
0.0
  0
LINE
  5
271
330
216
100
AcDbEntity
  8
H765_BARRE
  6
Continuous
 62
     7
100
AcDbLine
 10
1060.5165858422
 20
-704.02730731
 30
0.0
 11
822.1789940538
 21
-566.423034533
 31
0.0
  0
LINE
  5
272
330
216
100
AcDbEntity
  8
H765_BARRE
  6
Continuous
 62
     7
100
AcDbLine
 10
558.4413339482
 20
-312.1089484647
 30
0.0
 11
540.9024583654
 21
-322.2350230037
 31
0.0
  0
LINE
  5
273
330
216
100
AcDbEntity
  8
H765_BARRE
  6
Continuous
 62
     7
100
AcDbLine
 10
822.1789940538
 20
-566.423034533
 30
0.0
 11
822.1789940538
 21
-507.7032631265
 31
0.0
  0
LINE
  5
274
330
216
100
AcDbEntity
  8
H765_BARRE
  6
Continuous
 62
     7
100
AcDbLine
 10
788.1789940538
 20
-488.0733539741
 30
0.0
 11
788.1789940538
 21
-566.423034533
 31
0.0
  0
ELLIPSE
  5
275
330
216
100
AcDbEntity
  8
H765_CACHE_MISER
  6
Continuous
 62
     7
100
AcDbEllipse
 10
551.3849847621
 20
-429.7099495259
 30
0.0
 11
-10.5
 21
-18.18653347947319
 31
0.0
210
0.0
220
0.0
230
1.0
 40
0.5773502692
 41
2.514136880666622
 42
6.283185307179586
  0
ELLIPSE
  5
276
330
216
100
AcDbEntity
  8
H765_CACHE_MISER
  6
Continuous
 62
     7
100
AcDbEllipse
 10
551.3849847621
 20
-429.7099495259
 30
0.0
 11
-10.5
 21
-18.18653347947319
 31
0.0
210
0.0
220
0.0
230
1.0
 40
0.5773502692
 41
0.0
 42
0.6274557729232072
  0
ELLIPSE
  5
277
330
216
100
AcDbEntity
  8
H765_CACHE_MISER
  6
Continuous
 62
     7
100
AcDbEllipse
 10
549.9707711998
 20
-428.893452945
 30
0.0
 11
9.499999999999968
 21
16.45448267190438
 31
0.0
210
0.0
220
0.0
230
1.0
 40
0.5773502692
 41
3.119709584739065
 42
3.141592653589793
  0
ELLIPSE
  5
278
330
216
100
AcDbEntity
  8
H765_CACHE_MISER
  6
Continuous
 62
     7
100
AcDbEllipse
 10
549.9707711998
 20
-428.893452945
 30
0.0
 11
9.499999999999968
 21
16.45448267190438
 31
0.0
210
0.0
220
0.0
230
1.0
 40
0.5773502692
 41
3.141592653589793
 42
3.604547381530161
  0
ELLIPSE
  5
279
330
216
100
AcDbEntity
  8
H765_CACHE_MISER
  6
Continuous
 62
     7
100
AcDbEllipse
 10
549.9707711998
 20
-428.893452945
 30
0.0
 11
9.499999999999968
 21
16.45448267190438
 31
0.0
210
0.0
220
0.0
230
1.0
 40
0.5773502692
 41
5.820230579239247
 42
6.237347754590129
  0
ELLIPSE
  5
27A
330
216
100
AcDbEntity
  8
H765_CACHE_MISER
  6
Continuous
 62
     7
100
AcDbEllipse
 10
549.9707711998
 20
-428.893452945
 30
0.0
 11
9.499999999999968
 21
16.45448267190438
 31
0.0
210
0.0
220
0.0
230
1.0
 40
0.5773502692
 41
6.237347754590129
 42
6.283185307179584
  0
LINE
  5
27B
330
216
100
AcDbEntity
  8
H765_CACHE_MISER
  6
Continuous
 62
     7
100
AcDbLine
 10
503.6552770321
 20
-462.1656886178
 30
0.0
 11
503.6552770321
 21
-302.9488553369
 31
0.0
  0
LINE
  5
27C
330
216
100
AcDbEntity
  8
H765_CACHE_MISER
  6
Continuous
 62
     7
100
AcDbLine
 10
507.190810938
 20
-296.8251309799
 30
0.0
 11
574.3659551507
 21
-258.0415433859
 31
0.0
  0
ELLIPSE
  5
27D
330
216
100
AcDbEntity
  8
H765_CACHE_MISER
  6
Continuous
 62
     7
100
AcDbEllipse
 10
574.3659551507
 20
-262.1240262905
 30
0.0
 11
-2.500000000000063
 21
-4.330127018922012
 31
0.0
210
0.0
220
0.0
230
1.0
 40
0.5773502692
 41
3.141592653589793
 42
3.92699081698724
  0
ELLIPSE
  5
27E
330
216
100
AcDbEntity
  8
H765_CACHE_MISER
  6
Continuous
 62
     7
100
AcDbEllipse
 10
507.190810938
 20
-300.9076138846
 30
0.0
 11
-2.500000000000109
 21
-4.330127018922093
 31
0.0
210
0.0
220
0.0
230
1.0
 40
0.5773502692
 41
3.926990816987288
 42
5.497787143782187
  0
ELLIPSE
  5
27F
330
216
100
AcDbEntity
  8
H765_CACHE_MISER
  6
Continuous
 62
     7
100
AcDbEllipse
 10
507.190810938
 20
-460.1244471655
 30
0.0
 11
2.50000000000003
 21
4.33012701892219
 31
0.0
210
0.0
220
0.0
230
1.0
 40
0.5773502692
 41
2.356194490192346
 42
3.141592653589833
  0
LINE
  5
280
330
216
100
AcDbEntity
  8
H765_CACHE_MISER
  6
Continuous
 62
     7
100
AcDbLine
 10
510.7263448439
 20
-334.9143955492
 30
0.0
 11
510.7263448439
 21
-307.0313382415
 31
0.0
  0
LINE
  5
281
330
216
100
AcDbEntity
  8
H765_CACHE_MISER
  6
Continuous
 62
     7
100
AcDbLine
 10
510.7263448439
 20
-307.0313382415
 30
0.0
 11
503.6552770321
 21
-302.9488553369
 31
0.0
  0
LINE
  5
282
330
216
100
AcDbEntity
  8
H765_CACHE_MISER
  6
Continuous
 62
     7
100
AcDbLine
 10
533.2426650078
 20
-352.7891253724
 30
0.0
 11
510.7263448439
 21
-334.9143955492
 31
0.0
  0
ELLIPSE
  5
283
330
216
100
AcDbEntity
  8
H765_CACHE_MISER
  6
Continuous
 62
     7
100
AcDbEllipse
 10
531.9395482795
 20
-360.0618883797
 30
0.0
 11
4.999999999999988
 21
-8.660254037844419
 31
0.0
210
0.0
220
0.0
230
1.0
 40
0.5773502692
 41
0.7853981633974456
 42
2.170846540196657
  0
LINE
  5
284
330
216
100
AcDbEntity
  8
H765_CACHE_MISER
  6
Continuous
 62
     7
100
AcDbLine
 10
539.0106160914
 20
-380.5577581471
 30
0.0
 11
539.0106160914
 21
-364.1443712844
 31
0.0
  0
ELLIPSE
  5
285
330
216
100
AcDbEntity
  8
H765_CACHE_MISER
  6
Continuous
 62
     7
100
AcDbEllipse
 10
531.9395482795
 20
-376.4752752425
 30
0.0
 11
-4.999999999999996
 21
8.660254037844451
 31
0.0
210
0.0
220
0.0
230
1.0
 40
0.5773502692
 41
2.54154244018803
 42
3.926990816987263
  0
LINE
  5
286
330
216
100
AcDbEntity
  8
H765_CACHE_MISER
  6
Continuous
 62
     7
100
AcDbLine
 10
510.7263448439
 20
-377.1278706452
 30
0.0
 11
533.2426650078
 21
-385.2527478376
 31
0.0
  0
LINE
  5
287
330
216
100
AcDbEntity
  8
H765_CACHE_MISER
  6
Continuous
 62
     7
100
AcDbLine
 10
510.7263448439
 20
-466.2481715224
 30
0.0
 11
510.7263448439
 21
-377.1278706452
 31
0.0
  0
LINE
  5
288
330
216
100
AcDbEntity
  8
H765_CACHE_MISER
  6
Continuous
 62
     7
100
AcDbLine
 10
503.6552770321
 20
-462.1656886178
 30
0.0
 11
510.7263448439
 21
-466.2481715224
 31
0.0
  0
LINE
  5
289
330
216
100
AcDbEntity
  8
H765_CACHE_MISER
  6
Continuous
 62
     7
100
AcDbLine
 10
584.9725568685
 20
-427.4645839284
 30
0.0
 11
584.9725568685
 21
-370.7520627641
 31
0.0
  0
LINE
  5
28A
330
216
100
AcDbEntity
  8
H765_CACHE_MISER
  6
Continuous
 62
     7
100
AcDbLine
 10
583.2342271671
 20
-428.4682090494
 30
0.0
 11
584.9725568685
 21
-427.4645839284
 31
0.0
  0
LINE
  5
28B
330
216
100
AcDbEntity
  8
H765_CACHE_MISER
  6
Continuous
 62
     7
100
AcDbLine
 10
517.7974126558
 20
-466.2481715224
 30
0.0
 11
549.2342271671
 21
-448.0981182019
 31
0.0
  0
LINE
  5
28C
330
216
100
AcDbEntity
  8
H765_CACHE_MISER
  6
Continuous
 62
     7
100
AcDbLine
 10
517.7974126558
 20
-381.6779679432
 30
0.0
 11
517.7974126558
 21
-466.2481715224
 31
0.0
  0
LINE
  5
28D
330
216
100
AcDbEntity
  8
H765_CACHE_MISER
  6
Continuous
 62
     7
100
AcDbLine
 10
546.0816839032
 20
-380.5577581471
 30
0.0
 11
572.480305944
 21
-365.3165066057
 31
0.0
  0
ELLIPSE
  5
28E
330
216
100
AcDbEntity
  8
H765_CACHE_MISER
  6
Continuous
 62
     7
100
AcDbEllipse
 10
602.6502263982
 20
-335.6504461961
 30
0.0
 11
-7.499999999999968
 21
12.9903810567665
 31
0.0
210
0.0
220
0.0
230
1.0
 40
0.5773502692
 41
3.410516290001851
 42
3.926990816987251
  0
ELLIPSE
  5
28F
330
216
100
AcDbEntity
  8
H765_CACHE_MISER
  6
Continuous
 62
     7
100
AcDbEllipse
 10
535.4750821854
 20
-374.4340337902
 30
0.0
 11
-7.49999999999998
 21
12.9903810567666
 31
0.0
210
0.0
220
0.0
230
1.0
 40
0.5773502692
 41
3.138805270316966
 42
3.926990816987239
  0
LINE
  5
290
330
216
100
AcDbEntity
  8
H765_CACHE_MISER
  6
Continuous
 62
     7
100
AcDbLine
 10
613.256828116
 20
-325.3607836903
 30
0.0
 11
593.8046917041
 21
-336.591479884
 31
0.0
  0
LINE
  5
291
330
216
100
AcDbEntity
  8
H765_CACHE_MISER
  6
Continuous
 62
     7
100
AcDbLine
 10
613.256828116
 20
-341.7741705531
 30
0.0
 11
613.256828116
 21
-325.3607836903
 31
0.0
  0
LINE
  5
292
330
216
100
AcDbEntity
  8
H765_CACHE_MISER
  6
Continuous
 62
     7
100
AcDbLine
 10
546.0816839032
 20
-364.1443712844
 30
0.0
 11
546.0816839032
 21
-380.5577581471
 31
0.0
  0
LINE
  5
293
330
216
100
AcDbEntity
  8
H765_CACHE_MISER
  6
Continuous
 62
     7
100
AcDbLine
 10
537.4297572779
 20
-347.1115024164
 30
0.0
 11
557.5823005417
 21
-335.4764261382
 31
0.0
  0
ELLIPSE
  5
294
330
216
100
AcDbEntity
  8
H765_CACHE_MISER
  6
Continuous
 62
     7
100
AcDbEllipse
 10
602.6502263982
 20
-319.2370593334
 30
0.0
 11
7.499999999999998
 21
-12.99038105676651
 31
0.0
210
0.0
220
0.0
230
1.0
 40
0.5773502692
 41
0.7853981633974492
 42
2.170846540196646
  0
ELLIPSE
  5
295
330
216
100
AcDbEntity
  8
H765_CACHE_MISER
  6
Continuous
 62
     7
100
AcDbEllipse
 10
535.4750821854
 20
-358.0206469274
 30
0.0
 11
-7.499999999999962
 21
12.99038105676663
 31
0.0
210
0.0
220
0.0
230
1.0
 40
0.5773502692
 41
3.926990816987232
 42
5.312439193786447
  0
LINE
  5
296
330
216
100
AcDbEntity
  8
H765_CACHE_MISER
  6
Continuous
 62
     7
100
AcDbLine
 10
517.7974126558
 20
-331.5262356694
 30
0.0
 11
537.9499559196
 21
-319.8911593912
 31
0.0
  0
LINE
  5
297
330
216
100
AcDbEntity
  8
H765_CACHE_MISER
  6
Continuous
 62
     7
100
AcDbLine
 10
604.6049014906
 20
-308.3279148223
 30
0.0
 11
584.9725568685
 21
-292.7426480753
 31
0.0
  0
LINE
  5
298
330
216
100
AcDbEntity
  8
H765_CACHE_MISER
  6
Continuous
 62
     7
100
AcDbLine
 10
517.7974126558
 20
-331.5262356694
 30
0.0
 11
537.4297572779
 21
-347.1115024164
 31
0.0
  0
LINE
  5
299
330
216
100
AcDbEntity
  8
H765_CACHE_MISER
  6
Continuous
 62
     7
100
AcDbLine
 10
581.4370229626
 20
-262.1240262905
 30
0.0
 11
574.3659551507
 21
-258.0415433859
 31
0.0
  0
LINE
  5
29A
330
216
100
AcDbEntity
  8
H765_CACHE_MISER
  6
Continuous
 62
     7
100
AcDbLine
 10
514.2618787499
 20
-300.9076138846
 30
0.0
 11
581.4370229626
 21
-262.1240262905
 31
0.0
  0
LINE
  5
29B
330
216
100
AcDbEntity
  8
H765_CACHE_MISER
  6
Continuous
 62
     7
100
AcDbLine
 10
507.190810938
 20
-296.8251309799
 30
0.0
 11
514.2618787499
 21
-300.9076138846
 31
0.0
  0
LINE
  5
29C
330
216
100
AcDbEntity
  8
H765_CACHE_MISER
  6
Continuous
 62
     7
100
AcDbLine
 10
584.9725568685
 20
-268.2477506475
 30
0.0
 11
517.7974126558
 21
-307.0313382415
 31
0.0
  0
LINE
  5
29D
330
216
100
AcDbEntity
  8
H765_CACHE_MISER
  6
Continuous
 62
     7
100
AcDbLine
 10
584.9725568685
 20
-292.7426480753
 30
0.0
 11
584.9725568685
 21
-268.2477506475
 31
0.0
  0
LINE
  5
29E
330
216
100
AcDbEntity
  8
H765_CACHE_MISER
  6
Continuous
 62
     7
100
AcDbLine
 10
517.7974126558
 20
-307.0313382415
 30
0.0
 11
517.7974126558
 21
-331.5262356694
 31
0.0
  0
ELLIPSE
  5
29F
330
216
100
AcDbEntity
  8
H765_CACHE_MISER
  6
Continuous
 62
     7
100
AcDbEllipse
 10
581.4370229626
 20
-266.2065091952
 30
0.0
 11
-2.499999999999998
 21
-4.330127018922106
 31
0.0
210
0.0
220
0.0
230
1.0
 40
0.5773502692
 41
3.141592653589793
 42
3.926990816987223
  0
ELLIPSE
  5
2A0
330
216
100
AcDbEntity
  8
H765_CACHE_MISER
  6
Continuous
 62
     7
100
AcDbEllipse
 10
581.4370229626
 20
-266.2065091952
 30
0.0
 11
2.500000000000116
 21
-4.330127018922092
 31
0.0
210
0.0
220
0.0
230
1.0
 40
0.5773502692
 41
0.7853981633973834
 42
2.356194490192267
  0
ELLIPSE
  5
2A1
330
216
100
AcDbEntity
  8
H765_CACHE_MISER
  6
Continuous
 62
     7
100
AcDbEllipse
 10
581.4370229626
 20
-266.2065091952
 30
0.0
 11
-4.999999999999996
 21
-2.914636302068428E-13
 31
0.0
210
0.0
220
0.0
230
1.0
 40
0.5773502692
 41
2.35619449019232
 42
3.141592653589771
  0
ELLIPSE
  5
2A2
330
216
100
AcDbEntity
  8
H765_CACHE_MISER
  6
Continuous
 62
     7
100
AcDbEllipse
 10
514.2618787499
 20
-304.9900967892
 30
0.0
 11
2.499999999999978
 21
4.330127018922301
 31
0.0
210
0.0
220
0.0
230
1.0
 40
0.5773502692
 41
0.785398163397435
 42
2.356194490192355
  0
ELLIPSE
  5
2A3
330
216
100
AcDbEntity
  8
H765_CACHE_MISER
  6
Continuous
 62
     7
100
AcDbEllipse
 10
514.2618787499
 20
-304.9900967892
 30
0.0
 11
2.499999999999972
 21
-4.330127018922306
 31
0.0
210
0.0
220
0.0
230
1.0
 40
0.5773502692
 41
0.785398163397474
 42
2.356194490192327
  0
ELLIPSE
  5
2A4
330
216
100
AcDbEntity
  8
H765_CACHE_MISER
  6
Continuous
 62
     7
100
AcDbEllipse
 10
581.4370229626
 20
-294.0895665028
 30
0.0
 11
-4.996296652387477
 21
-2.412909008994244
 31
0.0
210
0.0
220
0.0
230
1.0
 40
0.0797399323
 41
2.317703946614579
 42
3.103102110012356
  0
ELLIPSE
  5
2A5
330
216
100
AcDbEntity
  8
H765_CACHE_MISER
  6
Continuous
 62
     7
100
AcDbEllipse
 10
514.2618787499
 20
-304.9900967892
 30
0.0
 11
5.000000000000004
 21
-1.951563910473908E-15
 31
0.0
210
0.0
220
0.0
230
1.0
 40
0.5773502692
 41
3.926990816987203
 42
5.497787143782113
  0
ELLIPSE
  5
2A6
330
216
100
AcDbEntity
  8
H765_CACHE_MISER
  6
Continuous
 62
     7
100
AcDbEllipse
 10
603.9533431265
 20
-311.964296326
 30
0.0
 11
-3.108783804193223
 21
-3.916051998989164
 31
0.0
210
0.0
220
0.0
230
1.0
 40
0.4610624864
 41
3.142069546971049
 42
4.003971904142901
  0
ELLIPSE
  5
2A7
330
216
100
AcDbEntity
  8
H765_CACHE_MISER
  6
Continuous
 62
     7
100
AcDbEllipse
 10
514.2618787499
 20
-332.8731540969
 30
0.0
 11
4.996296652387477
 21
2.412909008994159
 31
0.0
210
0.0
220
0.0
230
1.0
 40
0.0797399323
 41
3.888500273409649
 42
5.459296600204161
  0
ELLIPSE
  5
2A8
330
216
100
AcDbEntity
  8
H765_CACHE_MISER
  6
Continuous
 62
     7
100
AcDbEllipse
 10
609.72129421
 20
-323.319542238
 30
0.0
 11
-4.999999999999987
 21
-8.197571298748386E-14
 31
0.0
210
0.0
220
0.0
230
1.0
 40
0.5773502692
 41
2.356194490192282
 42
3.141410607692522
  0
ELLIPSE
  5
2A9
330
216
100
AcDbEntity
  8
H765_CACHE_MISER
  6
Continuous
 62
     7
100
AcDbEllipse
 10
536.7781989137
 20
-350.7478839201
 30
0.0
 11
3.108783804193288
 21
3.91605199898911
 31
0.0
210
0.0
220
0.0
230
1.0
 40
0.4610624864
 41
0.8623792505531584
 42
2.433175577348077
  0
ELLIPSE
  5
2AA
330
216
100
AcDbEntity
  8
H765_CACHE_MISER
  6
Continuous
 62
     7
100
AcDbEllipse
 10
609.72129421
 20
-339.7329291007
 30
0.0
 11
-5.000000000000002
 21
-1.017081925267201E-13
 31
0.0
210
0.0
220
0.0
230
1.0
 40
0.5773502692
 41
2.356194490192276
 42
3.141592653589793
  0
ELLIPSE
  5
2AB
330
216
100
AcDbEntity
  8
H765_CACHE_MISER
  6
Continuous
 62
     7
100
AcDbEllipse
 10
542.5461499973
 20
-362.1031298321
 30
0.0
 11
4.999999999999992
 21
-2.168404344971009E-16
 31
0.0
210
0.0
220
0.0
230
1.0
 40
0.5773502692
 41
3.926990816987232
 42
5.497787143782148
  0
ELLIPSE
  5
2AC
330
216
100
AcDbEntity
  8
H765_CACHE_MISER
  6
Continuous
 62
     7
100
AcDbEllipse
 10
542.5461499973
 20
-378.5165166948
 30
0.0
 11
5.000000000000002
 21
1.105886215935215E-14
 31
0.0
210
0.0
220
0.0
230
1.0
 40
0.5773502692
 41
3.926990816987232
 42
5.497787143782176
  0
ELLIPSE
  5
2AD
330
216
100
AcDbEntity
  8
H765_CACHE_MISER
  6
Continuous
 62
     7
100
AcDbEllipse
 10
536.7781989137
 20
-383.2115063852
 30
0.0
 11
1.697110583255274
 21
4.703170810017697
 31
0.0
210
0.0
220
0.0
230
1.0
 40
0.673860557
 41
2.244673045239983
 42
3.141368442504488
  0
ELLIPSE
  5
2AE
330
216
100
AcDbEntity
  8
H765_CACHE_MISER
  6
Continuous
 62
     7
100
AcDbEllipse
 10
581.4370229626
 20
-425.4233424761
 30
0.0
 11
-4.999999999999981
 21
-1.040834085586084E-14
 31
0.0
210
0.0
220
0.0
230
1.0
 40
0.5773502692
 41
2.356194490192355
 42
3.14159265358979
  0
ELLIPSE
  5
2AF
330
216
100
AcDbEntity
  8
H765_CACHE_MISER
  6
Continuous
 62
     7
100
AcDbEllipse
 10
514.2618787499
 20
-375.0866291929
 30
0.0
 11
3.727080665019143
 21
-5.307200689623964
 31
0.0
210
0.0
220
0.0
230
1.0
 40
0.6280141457
 41
4.656628257908491
 42
5.553547866258254
  0
ELLIPSE
  5
2B0
330
216
100
AcDbEntity
  8
H765_CACHE_MISER
  6
Continuous
 62
     7
100
AcDbEllipse
 10
581.4370229626
 20
-425.4233424761
 30
0.0
 11
-2.500000000000004
 21
4.330127018922115
 31
0.0
210
0.0
220
0.0
230
1.0
 40
0.5773502692
 41
3.412979817978506
 42
3.926990816987223
  0
ELLIPSE
  5
2B1
330
216
100
AcDbEntity
  8
H765_CACHE_MISER
  6
Continuous
 62
     7
100
AcDbEllipse
 10
514.2618787499
 20
-464.2069300701
 30
0.0
 11
5.000000000000002
 21
1.105886215935215E-14
 31
0.0
210
0.0
220
0.0
230
1.0
 40
0.5773502692
 41
3.926990816987217
 42
5.497787143782144
  0
ELLIPSE
  5
2B2
330
216
100
AcDbEntity
  8
H765_CACHE_MISER
  6
Continuous
 62
     7
100
AcDbEllipse
 10
514.2618787499
 20
-464.2069300701
 30
0.0
 11
-2.499999999999991
 21
4.330127018922122
 31
0.0
210
0.0
220
0.0
230
1.0
 40
0.5773502692
 41
3.141592653589793
 42
3.926990816987253
  0
ELLIPSE
  5
2B3
330
216
100
AcDbEntity
  8
H765_CACHE_MISER
  6
Continuous
 62
     7
100
AcDbEllipse
 10
514.2618787499
 20
-464.2069300701
 30
0.0
 11
2.499999999999992
 21
4.33012701892211
 31
0.0
210
0.0
220
0.0
230
1.0
 40
0.5773502692
 41
2.356194490192344
 42
3.141592653589793
  0
LINE
  5
2B4
330
216
100
AcDbEntity
  8
H765_CACHE_MISER
  6
Continuous
 62
     7
100
AcDbLine
 10
608.0191016894
 20
-344.7981733154
 30
0.0
 11
613.256828116
 21
-341.7741705531
 31
0.0
  0
SPLINE
  5
2B5
330
216
100
AcDbEntity
  8
H765_CACHE_MISER
  6
Continuous
 62
     7
100
AcDbSpline
210
0.0
220
0.0
230
1.0
 70
     8
 71
     3
 72
    10
 73
     6
 74
     0
 42
0.000000001
 43
0.0000000001
 40
0.0
 40
0.0
 40
0.0
 40
0.0
 40
0.1249999999999999
 40
0.1249999999999999
 40
0.1909786952571494
 40
0.1909786952571494
 40
0.1909786952571494
 40
0.1909786952571494
 10
572.4803059440085
 20
-365.3165066056599
 30
0.0
 10
573.0194097848872
 20
-365.399546258056
 30
0.0
 10
573.5596257109573
 20
-365.4141109355476
 30
0.0
 10
574.401805514023
 20
-365.3448679018634
 30
0.0
 10
574.695802364544
 20
-365.3042414942943
 30
0.0
 10
574.994043938007
 20
-365.2474036048828
 30
0.0
  0
ELLIPSE
  5
2B6
330
216
100
AcDbEntity
  8
H765_CACHE_MISER
  6
Continuous
 62
     7
100
AcDbEllipse
 10
579.6692560096
 20
-348.0602914332
 30
0.0
 11
9.499999999999931
 21
16.45448267190427
 31
0.0
210
0.0
220
0.0
230
1.0
 40
0.5773502692
 41
2.356194490192345
 42
3.362376496244149
  0
LINE
  5
2B7
330
216
100
AcDbEntity
  8
H765_CACHE_MISER
  6
Continuous
 62
     7
100
AcDbLine
 10
566.2342271671
 20
-352.5092950062
 30
0.0
 11
546.0816839032
 21
-364.1443712844
 31
0.0
  0
LINE
  5
2B8
330
216
100
AcDbEntity
  8
H765_CACHE_MISER
  6
Continuous
 62
     7
100
AcDbLine
 10
584.4523582268
 20
-319.9629911006
 30
0.0
 11
604.6049014906
 21
-308.3279148223
 31
0.0
  0
LINE
  5
2B9
330
216
100
AcDbEntity
  8
H765_CACHE_MISER
  6
Continuous
 62
     7
100
AcDbLine
 10
537.9499559196
 20
-319.8911593912
 30
0.0
 11
564.8200136047
 21
-304.3777243535
 31
0.0
  0
LINE
  5
2BA
330
216
100
AcDbEntity
  8
H765_CACHE_MISER
  6
Continuous
 62
     7
100
AcDbLine
 10
564.8200136047
 20
-304.3777243535
 30
0.0
 11
584.9725568685
 21
-292.7426480753
 31
0.0
  0
ELLIPSE
  5
2BB
330
216
100
AcDbEntity
  8
H765_CACHE_MISER
  6
Continuous
 62
     7
100
AcDbEllipse
 10
582.4976831344
 20
-330.8721356116
 30
0.0
 11
7.50000000000011
 21
-12.9903810567665
 31
0.0
210
0.0
220
0.0
230
1.0
 40
0.5773502692
 41
0.8514812413472672
 42
2.170846540196637
  0
LINE
  5
2BC
330
216
100
AcDbEntity
  8
H765_CACHE_MISER
  6
Continuous
 62
     7
100
AcDbLine
 10
584.4523582268
 20
-319.9629911006
 30
0.0
 11
564.8200136047
 21
-304.3777243535
 31
0.0
  0
LINE
  5
2BD
330
216
100
AcDbEntity
  8
H765_CACHE_MISER
  6
Continuous
 62
     7
100
AcDbLine
 10
537.9499559196
 20
-319.8911593912
 30
0.0
 11
557.5823005417
 21
-335.4764261382
 31
0.0
  0
ELLIPSE
  5
2BE
330
216
100
AcDbEntity
  8
H765_CACHE_MISER
  6
Continuous
 62
     7
100
AcDbEllipse
 10
555.6276254493
 20
-346.3855706492
 30
0.0
 11
-7.499999999999943
 21
12.99038105676654
 31
0.0
210
0.0
220
0.0
230
1.0
 40
0.5773502692
 41
3.926990816987264
 42
5.312439193786446
  0
LINE
  5
2BF
330
216
100
AcDbEntity
  8
H765_CACHE_MISER
  6
Continuous
 62
     7
100
AcDbLine
 10
566.2342271671
 20
-352.5092950062
 30
0.0
 11
566.2342271671
 21
-355.817008952
 31
0.0
  0
LINE
  5
2C0
330
216
100
AcDbEntity
  8
H765_CACHE_MISER
  6
Continuous
 62
     7
100
AcDbLine
 10
542.9750821854
 20
-387.4244148469
 30
0.0
 11
578.4124999716
 21
-366.9646121487
 31
0.0
  0
SPLINE
  5
2C1
330
216
100
AcDbEntity
  8
H765_CACHE_MISER
  6
Continuous
 62
     7
100
AcDbSpline
210
0.0
220
0.0
230
1.0
 70
     8
 71
     3
 72
    26
 73
    22
 74
     0
 42
0.000000001
 43
0.0000000001
 40
0.0
 40
0.0
 40
0.0
 40
0.0
 40
0.0544860790919851
 40
0.107733034567345
 40
0.1644748386040217
 40
0.219292710912685
 40
0.2735852921615104
 40
0.3278643280161485
 40
0.3823225218370829
 40
0.4369774225920612
 40
0.4917663855183466
 40
0.5466019922009631
 40
0.6013727373662957
 40
0.6559679402904229
 40
0.710296678638445
 40
0.7642981464266072
 40
0.8180125221192909
 40
0.8716807738788096
 40
0.9259153287923934
 40
0.9822421879488421
 40
1.0
 40
1.0
 40
1.0
 40
1.0
 10
540.3194270400085
 20
-445.2256144976706
 30
0.0
 10
539.862103360213
 20
-444.9049968463837
 30
0.0
 10
539.1071491347932
 20
-444.3451610281824
 30
0.0
 10
538.120941052399
 20
-442.8265882435466
 30
0.0
 10
537.4238227781653
 20
-440.8739454119439
 30
0.0
 10
537.0818385821599
 20
-438.4585338428378
 30
0.0
 10
537.1360790789033
 20
-435.7554239874988
 30
0.0
 10
537.5902427027086
 20
-432.8323937636289
 30
0.0
 10
538.4392031012486
 20
-429.7795811964373
 30
0.0
 10
539.6630945853155
 20
-426.69430593738
 30
0.0
 10
541.2267548196905
 20
-423.6783360002547
 30
0.0
 10
543.080405398844
 20
-420.8322216720123
 30
0.0
 10
545.1613551445382
 20
-418.2506484384143
 30
0.0
 10
547.3961650560958
 20
-416.0179184749363
 30
0.0
 10
549.7028356934243
 20
-414.2039543274013
 30
0.0
 10
551.9948300183993
 20
-412.8590576791137
 30
0.0
 10
554.1809074780277
 20
-412.0127517387693
 30
0.0
 10
556.1879035246485
 20
-411.6567089141009
 30
0.0
 10
557.9247168934269
 20
-411.7917104063894
 30
0.0
 10
559.1320400679576
 20
-412.1546867682585
 30
0.0
 10
559.638391800698
 20
-412.5832831761547
 30
0.0
 10
559.779186734206
 20
-412.7045304756903
 30
0.0
  0
LINE
  5
2C2
330
216
100
AcDbEntity
  8
H765_CACHE_MISER
  6
Continuous
 62
     7
100
AcDbLine
 10
583.9370229626
 20
-261.8763821762
 30
0.0
 11
576.8659551507
 21
-257.7938992716
 31
0.0
  0
ARC
  5
2C3
330
216
100
AcDbEntity
  8
H765_CACHE_MISER
  6
Continuous
 62
     7
100
AcDbCircle
 10
581.4370229626
 20
-266.2065091952
 30
0.0
 40
4.999999999999996
100
AcDbArc
 50
0.0
 51
60.0
  0
LINE
  5
2C4
330
216
100
AcDbEntity
  8
H765_CACHE_MISER
  6
Continuous
 62
     7
100
AcDbLine
 10
586.4370229626
 20
-291.693775676
 30
0.0
 11
586.4370229626
 21
-266.2065091952
 31
0.0
  0
LINE
  5
2C5
330
216
100
AcDbEntity
  8
H765_CACHE_MISER
  6
Continuous
 62
     7
100
AcDbLine
 10
607.0621269307
 20
-308.048244327
 30
0.0
 11
586.4370229626
 21
-291.674869001
 31
0.0
  0
ARC
  5
2C6
330
216
100
AcDbEntity
  8
H765_CACHE_MISER
  6
Continuous
 62
     7
100
AcDbCircle
 10
593.9690800774
 20
-324.1712699619
 30
0.0
 40
20.76968539781318
100
AcDbArc
 50
2.3502566853
 51
50.9209386352
  0
LINE
  5
2C7
330
216
100
AcDbEntity
  8
H765_CACHE_MISER
  6
Continuous
 62
     7
100
AcDbLine
 10
614.72129421
 20
-339.7329291007
 30
0.0
 11
614.72129421
 21
-323.319542238
 31
0.0
  0
ARC
  5
2C8
330
216
100
AcDbEntity
  8
H765_CACHE_MISER
  6
Continuous
 62
     7
100
AcDbCircle
 10
604.9559839067
 20
-340.3195896518
 30
0.0
 40
9.782916534617486
100
AcDbArc
 50
316.1826249663
 51
3.4379678531
  0
ARC
  5
2C9
330
216
100
AcDbEntity
  8
H765_CACHE_MISER
  6
Continuous
 62
     7
100
AcDbCircle
 10
538.5018125515
 20
-379.3519677433
 30
0.0
 40
9.220702107461014
100
AcDbArc
 50
248.2237425002
 51
298.7485222931
  0
LINE
  5
2CA
330
216
100
AcDbEntity
  8
H765_CACHE_MISER
  6
Continuous
 62
     7
100
AcDbLine
 10
586.4370229626
 20
-425.4233424761
 30
0.0
 11
586.4370229626
 21
-371.5975726577
 31
0.0
  0
LINE
  5
2CB
330
216
100
AcDbEntity
  8
H765_CACHE_MISER
  6
Continuous
 62
     7
100
AcDbLine
 10
514.8183308633
 20
-380.6029843964
 30
0.0
 11
535.0810883305
 21
-387.9146771953
 31
0.0
  0
ARC
  5
2CC
330
216
100
AcDbEntity
  8
H765_CACHE_MISER
  6
Continuous
 62
     7
100
AcDbCircle
 10
581.4370229626
 20
-425.4233424761
 30
0.0
 40
5.000000000000007
100
AcDbArc
 50
309.6553801184
 51
0.0
  0
LINE
  5
2CD
330
216
100
AcDbEntity
  8
H765_CACHE_MISER
  6
Continuous
 62
     7
100
AcDbLine
 10
516.7618787499
 20
-468.537057089
 30
0.0
 11
550.6986932611
 21
-448.9436280955
 31
0.0
  0
ARC
  5
2CE
330
216
100
AcDbEntity
  8
H765_CACHE_MISER
  6
Continuous
 62
     7
100
AcDbCircle
 10
514.2618787499
 20
-464.2069300701
 30
0.0
 40
5.000000000000012
100
AcDbArc
 50
240.0
 51
300.0
  0
LINE
  5
2CF
330
216
100
AcDbEntity
  8
H765_CACHE_MISER
  6
Continuous
 62
     7
100
AcDbLine
 10
504.690810938
 20
-464.4545741844
 30
0.0
 11
511.7618787499
 21
-468.537057089
 31
0.0
  0
ENDBLK
  5
2D1
330
216
100
AcDbEntity
  8
0
100
AcDbBlockEnd
  0
BLOCK
  5
38D
330
2D2
100
AcDbEntity
  8
0
100
AcDbBlockBegin
  2
SE5
 70
     0
 10
0.0
 20
0.0
 30
0.0
  3
SE5
  1
SE5
  0
LINE
  5
2D4
330
2D2
100
AcDbEntity
  8
H765_SUPPORT
  6
Continuous
 62
     7
100
AcDbLine
 10
42.0887046216
 20
-918.0113433895
 30
0.0
 11
99.4856742413
 21
-951.1494992501
 31
0.0
  0
LINE
  5
2D5
330
2D2
100
AcDbEntity
  8
H765_SUPPORT
  6
Continuous
 62
     7
100
AcDbLine
 10
-34.8646141841
 20
-1032.7991573429
 30
0.0
 11
-34.8646141841
 21
-1037.6981368285
 31
0.0
  0
LINE
  5
2D6
330
2D2
100
AcDbEntity
  8
H765_SUPPORT
  6
Continuous
 62
     7
100
AcDbLine
 10
-41.935681996
 20
-1037.6981368285
 30
0.0
 11
-140.9306313621
 21
-980.5433761635
 31
0.0
  0
ELLIPSE
  5
2D7
330
2D2
100
AcDbEntity
  8
H765_SUPPORT
  6
Continuous
 62
     7
100
AcDbEllipse
 10
-38.4001480901
 20
-1035.6568953761
 30
0.0
 11
5.000000000000022
 21
2.168404344971009E-16
 31
0.0
210
0.0
220
0.0
230
1.0
 40
0.5773502692
 41
3.926990816987233
 42
5.497787143782137
  0
LINE
  5
2D8
330
2D2
100
AcDbEntity
  8
H765_SUPPORT
  6
Continuous
 62
     7
100
AcDbLine
 10
-41.935681996
 20
-1032.7991573429
 30
0.0
 11
-140.9306313621
 21
-975.6443966779
 31
0.0
  0
LINE
  5
2D9
330
2D2
100
AcDbEntity
  8
H765_SUPPORT
  6
Continuous
 62
     7
100
AcDbLine
 10
-41.935681996
 20
-1037.6981368285
 30
0.0
 11
-41.935681996
 21
-1032.7991573429
 31
0.0
  0
ELLIPSE
  5
2DA
330
2D2
100
AcDbEntity
  8
H765_SUPPORT
  6
Continuous
 62
     7
100
AcDbEllipse
 10
-38.4001480901
 20
-1030.7579158906
 30
0.0
 11
-5.000000000000022
 21
-2.168404344971009E-16
 31
0.0
210
0.0
220
0.0
230
1.0
 40
0.5773502692
 41
0.7853981633974874
 42
2.356194490192312
  0
LINE
  5
2DB
330
2D2
100
AcDbEntity
  8
H765_SUPPORT
  6
Continuous
 62
     7
100
AcDbLine
 10
-140.9306313621
 20
-975.6443966779
 30
0.0
 11
-140.9306313621
 21
-980.5433761635
 31
0.0
  0
ELLIPSE
  5
2DC
330
2D2
100
AcDbEntity
  8
H765_SUPPORT
  6
Continuous
 62
     7
100
AcDbEllipse
 10
-137.3950974562
 20
-978.5021347112
 30
0.0
 11
5.000000000000022
 21
2.287415865254921E-14
 31
0.0
210
0.0
220
0.0
230
1.0
 40
0.5773502692
 41
3.141592653589825
 42
3.926990816987235
  0
LINE
  5
2DD
330
2D2
100
AcDbEntity
  8
H765_SUPPORT
  6
Continuous
 62
     7
100
AcDbLine
 10
-140.9306313621
 20
-971.5619137733
 30
0.0
 11
-41.1072548713
 21
-913.9288604849
 31
0.0
  0
ELLIPSE
  5
2DE
330
2D2
100
AcDbEntity
  8
H765_SUPPORT
  6
Continuous
 62
     7
100
AcDbEllipse
 10
-137.3950974562
 20
-973.6031552256
 30
0.0
 11
5.000000000000002
 21
5.681219383824043E-14
 31
0.0
210
0.0
220
0.0
230
1.0
 40
0.5773502692
 41
2.356194490192322
 42
3.926990816987235
  0
LINE
  5
2DF
330
2D2
100
AcDbEntity
  8
H765_SUPPORT
  6
Continuous
 62
     7
100
AcDbLine
 10
99.4856742413
 20
-960.1309616403
 30
0.0
 11
-34.8646141841
 21
-1037.6981368285
 31
0.0
  0
ELLIPSE
  5
2E0
330
2D2
100
AcDbEntity
  8
H765_SUPPORT
  6
Continuous
 62
     7
100
AcDbEllipse
 10
95.9501403354
 20
-958.089720188
 30
0.0
 11
-4.999999999999943
 21
-4.553649124439119E-14
 31
0.0
210
0.0
220
0.0
230
1.0
 40
0.5773502692
 41
2.356194490192339
 42
3.141592653589778
  0
LINE
  5
2E1
330
2D2
100
AcDbEntity
  8
H765_SUPPORT
  6
Continuous
 62
     7
100
AcDbLine
 10
99.4856742413
 20
-955.2319821548
 30
0.0
 11
-34.8646141841
 21
-1032.7991573429
 31
0.0
  0
LINE
  5
2E2
330
2D2
100
AcDbEntity
  8
H765_SUPPORT
  6
Continuous
 62
     7
100
AcDbLine
 10
99.4856742413
 20
-960.1309616403
 30
0.0
 11
99.4856742413
 21
-955.2319821548
 31
0.0
  0
ELLIPSE
  5
2E3
330
2D2
100
AcDbEntity
  8
H765_SUPPORT
  6
Continuous
 62
     7
100
AcDbEllipse
 10
95.9501403354
 20
-953.1907407024
 30
0.0
 11
-4.999999999999904
 21
-2.298508605669269E-14
 31
0.0
210
0.0
220
0.0
230
1.0
 40
0.5773502692
 41
2.35619449019235
 42
3.926990816987232
  0
LINE
  5
2E4
330
2D2
100
AcDbEntity
  8
H765_SUPPORT
  6
Continuous
 62
     7
100
AcDbLine
 10
1.9049384376
 20
-293.0532550224
 30
0.0
 11
1.9049384376
 21
-293.8697516033
 31
0.0
  0
LINE
  5
2E5
330
2D2
100
AcDbEntity
  8
H765_SUPPORT
  6
Continuous
 62
     7
100
AcDbLine
 10
1.9049384376
 20
-471.10753629
 30
0.0
 11
1.9049384376
 21
-973.1949069352
 31
0.0
  0
LINE
  5
2E6
330
2D2
100
AcDbEntity
  8
H765_SUPPORT
  6
Continuous
 62
     7
100
AcDbLine
 10
41.502918184
 20
-270.1913507564
 30
0.0
 11
1.9049384376
 21
-293.0532550224
 31
0.0
  0
LINE
  5
2E7
330
2D2
100
AcDbEntity
  8
H765_SUPPORT
  6
Continuous
 62
     7
100
AcDbLine
 10
1.9049384376
 20
-973.1949069352
 30
0.0
 11
41.502918184
 21
-950.3330026692
 31
0.0
  0
LINE
  5
2E8
330
2D2
100
AcDbEntity
  8
H765_SUPPORT
  6
Continuous
 62
     7
100
AcDbLine
 10
41.502918184
 20
-950.3330026692
 30
0.0
 11
41.502918184
 21
-270.1913507564
 31
0.0
  0
ELLIPSE
  5
2E9
330
2D2
100
AcDbEntity
  8
H765_SUPPORT
  6
Continuous
 62
     7
100
AcDbEllipse
 10
-39.1072548713
 20
-951.1494992501
 30
0.0
 11
3.999999999999966
 21
1.148752865455648E-14
 31
0.0
210
0.0
220
0.0
230
1.0
 40
0.5773502692
 41
2.356194490192357
 42
3.926990816987216
  0
LINE
  5
2EA
330
2D2
100
AcDbEntity
  8
H765_SUPPORT
  6
Continuous
 62
     7
100
AcDbLine
 10
-2.3377022496
 20
-975.6443966779
 30
0.0
 11
-41.935681996
 21
-952.782492412
 31
0.0
  0
LINE
  5
2EB
330
2D2
100
AcDbEntity
  8
H765_SUPPORT
  6
Continuous
 62
     7
100
AcDbLine
 10
-41.935681996
 20
-949.5165060883
 30
0.0
 11
-41.1072548713
 21
-949.0382134648
 31
0.0
  0
ELLIPSE
  5
2EC
330
2D2
100
AcDbEntity
  8
H765_SUPPORT
  6
Continuous
 62
     7
100
AcDbEllipse
 10
0.4907248752
 20
-974.0114035161
 30
0.0
 11
-4.000000000000025
 21
-6.809291080587955E-14
 31
0.0
210
0.0
220
0.0
230
1.0
 40
0.5773502692
 41
0.7853981633974287
 42
2.356194490192345
  0
LINE
  5
2ED
330
2D2
100
AcDbEntity
  8
H765_SUPPORT
  6
Continuous
 62
     7
100
AcDbLine
 10
42.9171317464
 20
-952.782492412
 30
0.0
 11
3.3191519999
 21
-975.6443966779
 31
0.0
  0
ELLIPSE
  5
2EE
330
2D2
100
AcDbEntity
  8
H765_SUPPORT
  6
Continuous
 62
     7
100
AcDbEllipse
 10
40.0887046216
 20
-951.1494992501
 30
0.0
 11
-3.999999999999986
 21
-2.118260607072350E-16
 31
0.0
210
0.0
220
0.0
230
1.0
 40
0.5773502692
 41
2.356194490192326
 42
3.92699081698724
  0
LINE
  5
2EF
330
2D2
100
AcDbEntity
  8
H765_SUPPORT
  6
Continuous
 62
     7
100
AcDbLine
 10
42.0887046216
 20
-949.0382134648
 30
0.0
 11
42.9171317464
 21
-949.5165060883
 31
0.0
  0
LINE
  5
2F0
330
2D2
100
AcDbEntity
  8
H765_SUPPORT
  6
Continuous
 62
     7
100
AcDbLine
 10
0.4907248752
 20
-244.8799567476
 30
0.0
 11
-39.1072548713
 21
-267.7418610136
 31
0.0
  0
LINE
  5
2F1
330
2D2
100
AcDbEntity
  8
H765_SUPPORT
  6
Continuous
 62
     7
100
AcDbLine
 10
-39.1072548713
 20
-267.7418610136
 30
0.0
 11
0.4907248752
 21
-290.6037652796
 31
0.0
  0
LINE
  5
2F2
330
2D2
100
AcDbEntity
  8
H765_SUPPORT
  6
Continuous
 62
     7
100
AcDbLine
 10
40.0887046216
 20
-267.7418610136
 30
0.0
 11
0.4907248752
 21
-244.8799567476
 31
0.0
  0
LINE
  5
2F3
330
2D2
100
AcDbEntity
  8
H765_SUPPORT
  6
Continuous
 62
     7
100
AcDbLine
 10
0.4907248752
 20
-290.6037652796
 30
0.0
 11
40.0887046216
 21
-267.7418610136
 31
0.0
  0
LINE
  5
2F4
330
2D2
100
AcDbEntity
  8
H765_SUPPORT
  6
Continuous
 62
     7
100
AcDbLine
 10
-40.5214684336
 20
-458.01955558
 30
0.0
 11
-40.5214684336
 21
-950.3330026692
 31
0.0
  0
LINE
  5
2F5
330
2D2
100
AcDbEntity
  8
H765_SUPPORT
  6
Continuous
 62
     7
100
AcDbLine
 10
-40.5214684336
 20
-950.3330026692
 30
0.0
 11
-0.9234886872
 21
-973.1949069352
 31
0.0
  0
LINE
  5
2F6
330
2D2
100
AcDbEntity
  8
H765_SUPPORT
  6
Continuous
 62
     7
100
AcDbLine
 10
-0.9234886872
 20
-973.1949069352
 30
0.0
 11
-0.9234886872
 21
-469.4745431282
 31
0.0
  0
ELLIPSE
  5
2F7
330
2D2
100
AcDbEntity
  8
H765_SUPPORT
  6
Continuous
 62
     7
100
AcDbEllipse
 10
-39.1072548713
 20
-949.5165060883
 30
0.0
 11
1.999999999999973
 21
1.149755740213621E-14
 31
0.0
210
0.0
220
0.0
230
1.0
 40
0.5773502692
 41
3.141592653589793
 42
3.926990816987227
  0
ELLIPSE
  5
2F8
330
2D2
100
AcDbEntity
  8
H765_SUPPORT
  6
Continuous
 62
     7
100
AcDbEllipse
 10
-39.1072548713
 20
-269.3748541755
 30
0.0
 11
1.000000000000024
 21
1.732050807568825
 31
0.0
210
0.0
220
0.0
230
1.0
 40
0.5773502692
 41
0.7853981633974882
 42
1.932163450701605
  0
ELLIPSE
  5
2F9
330
2D2
100
AcDbEntity
  8
H765_SUPPORT
  6
Continuous
 62
     7
100
AcDbEllipse
 10
-39.1072548713
 20
-269.3748541755
 30
0.0
 11
1.000000000000024
 21
-1.732050807568652
 31
0.0
210
0.0
220
0.0
230
1.0
 40
0.5773502692
 41
2.356194490192333
 42
3.141592653589679
  0
ELLIPSE
  5
2FA
330
2D2
100
AcDbEntity
  8
H765_SUPPORT
  6
Continuous
 62
     7
100
AcDbEllipse
 10
-41.935681996
 20
-947.8835129264
 30
0.0
 11
-0.9999999999998983
 21
1.732050807568951
 31
0.0
210
0.0
220
0.0
230
1.0
 40
0.5773502692
 41
2.356194490192351
 42
2.961627075482589
  0
ELLIPSE
  5
2FB
330
2D2
100
AcDbEntity
  8
H765_SUPPORT
  6
Continuous
 62
     7
100
AcDbEllipse
 10
-41.935681996
 20
-951.1494992501
 30
0.0
 11
1.000000000000016
 21
1.73205080756886
 31
0.0
210
0.0
220
0.0
230
1.0
 40
0.5773502692
 41
3.926990816987285
 42
5.49778714378215
  0
ELLIPSE
  5
2FC
330
2D2
100
AcDbEntity
  8
H765_SUPPORT
  6
Continuous
 62
     7
100
AcDbEllipse
 10
0.4907248752
 20
-292.2367584414
 30
0.0
 11
-2.000000000000002
 21
0.0
 31
0.0
210
0.0
220
0.0
230
1.0
 40
0.5773502692
 41
1.832595714594138
 42
2.35619449019234
  0
ELLIPSE
  5
2FD
330
2D2
100
AcDbEntity
  8
H765_SUPPORT
  6
Continuous
 62
     7
100
AcDbEllipse
 10
0.4907248752
 20
-292.2367584414
 30
0.0
 11
1.000000000000016
 21
1.732050807568827
 31
0.0
210
0.0
220
0.0
230
1.0
 40
0.5773502692
 41
0.7853981633974847
 42
1.932163450701566
  0
ELLIPSE
  5
2FE
330
2D2
100
AcDbEntity
  8
H765_SUPPORT
  6
Continuous
 62
     7
100
AcDbEllipse
 10
0.4907248752
 20
-246.5129499095
 30
0.0
 11
0.9999999999999623
 21
-1.732050807568934
 31
0.0
210
0.0
220
0.0
230
1.0
 40
0.5773502692
 41
2.356194490192378
 42
3.141592653589793
  0
ELLIPSE
  5
2FF
330
2D2
100
AcDbEntity
  8
H765_SUPPORT
  6
Continuous
 62
     7
100
AcDbEllipse
 10
-2.3377022496
 20
-974.0114035161
 30
0.0
 11
0.999999999999957
 21
1.732050807568894
 31
0.0
210
0.0
220
0.0
230
1.0
 40
0.5773502692
 41
3.926990816987287
 42
5.497787143782164
  0
ELLIPSE
  5
300
330
2D2
100
AcDbEntity
  8
H765_SUPPORT
  6
Continuous
 62
     7
100
AcDbEllipse
 10
0.4907248752
 20
-972.3784103542
 30
0.0
 11
1.999999999999993
 21
4.543308540093250E-14
 31
0.0
210
0.0
220
0.0
230
1.0
 40
0.5773502692
 41
3.92699081698715
 42
5.497787143782125
  0
ELLIPSE
  5
301
330
2D2
100
AcDbEntity
  8
H765_SUPPORT
  6
Continuous
 62
     7
100
AcDbEllipse
 10
0.4907248752
 20
-292.2367584414
 30
0.0
 11
-1.000000000000024
 21
1.732050807568827
 31
0.0
210
0.0
220
0.0
230
1.0
 40
0.5773502692
 41
3.926990816987221
 42
5.497787143782097
  0
ELLIPSE
  5
302
330
2D2
100
AcDbEntity
  8
H765_SUPPORT
  6
Continuous
 62
     7
100
AcDbEllipse
 10
0.4907248752
 20
-246.5129499095
 30
0.0
 11
-0.9999999999999766
 21
-1.732050807568933
 31
0.0
210
0.0
220
0.0
230
1.0
 40
0.5773502692
 41
3.141592653589793
 42
3.926990816987205
  0
ELLIPSE
  5
303
330
2D2
100
AcDbEntity
  8
H765_SUPPORT
  6
Continuous
 62
     7
100
AcDbEllipse
 10
3.3191519999
 20
-974.0114035161
 30
0.0
 11
-1.000000000000036
 21
1.732050807568849
 31
0.0
210
0.0
220
0.0
230
1.0
 40
0.5773502692
 41
0.7853981633973417
 42
2.35619449019233
  0
ELLIPSE
  5
304
330
2D2
100
AcDbEntity
  8
H765_SUPPORT
  6
Continuous
 62
     7
100
AcDbEllipse
 10
40.0887046216
 20
-269.3748541755
 30
0.0
 11
-0.9999999999999413
 21
1.73205080756893
 31
0.0
210
0.0
220
0.0
230
1.0
 40
0.5773502692
 41
3.926990816987312
 42
5.497787143782161
  0
ELLIPSE
  5
305
330
2D2
100
AcDbEntity
  8
H765_SUPPORT
  6
Continuous
 62
     7
100
AcDbEllipse
 10
40.0887046216
 20
-269.3748541755
 30
0.0
 11
-0.9999999999999989
 21
-1.732050807569012
 31
0.0
210
0.0
220
0.0
230
1.0
 40
0.5773502692
 41
3.141592653589793
 42
3.926990816987303
  0
ELLIPSE
  5
306
330
2D2
100
AcDbEntity
  8
H765_SUPPORT
  6
Continuous
 62
     7
100
AcDbEllipse
 10
42.9171317464
 20
-947.8835129264
 30
0.0
 11
0.9999999999999768
 21
1.73205080756886
 31
0.0
210
0.0
220
0.0
230
1.0
 40
0.5773502692
 41
3.302607710049841
 42
3.926990816987213
  0
ELLIPSE
  5
307
330
2D2
100
AcDbEntity
  8
H765_SUPPORT
  6
Continuous
 62
     7
100
AcDbEllipse
 10
42.9171317464
 20
-951.1494992501
 30
0.0
 11
-0.9999999999999376
 21
1.73205080756886
 31
0.0
210
0.0
220
0.0
230
1.0
 40
0.5773502692
 41
0.7853981633975184
 42
2.356194490192443
  0
ELLIPSE
  5
308
330
2D2
100
AcDbEntity
  8
H765_SUPPORT
  6
Continuous
 62
     7
100
AcDbEllipse
 10
40.0887046216
 20
-269.3748541755
 30
0.0
 11
-1.999999999999998
 21
2.537033083616080E-14
 31
0.0
210
0.0
220
0.0
230
1.0
 40
0.5773502692
 41
2.356194490192316
 42
3.141592653589815
  0
ELLIPSE
  5
309
330
2D2
100
AcDbEntity
  8
H765_SUPPORT
  6
Continuous
 62
     7
100
AcDbEllipse
 10
40.0887046216
 20
-949.5165060883
 30
0.0
 11
-1.999999999999954
 21
2.255140518769849E-14
 31
0.0
210
0.0
220
0.0
230
1.0
 40
0.5773502692
 41
2.356194490192332
 42
3.141592653589813
  0
LINE
  5
30A
330
2D2
100
AcDbEntity
  8
H765_SUPPORT
  6
Continuous
 62
     7
100
AcDbLine
 10
-46.8854294643
 20
-316.3234075788
 30
0.0
 11
-38.4001480901
 21
-311.4244280932
 31
0.0
  0
ELLIPSE
  5
30B
330
2D2
100
AcDbEntity
  8
H765_SUPPORT
  6
Continuous
 62
     7
100
AcDbEllipse
 10
-46.8854294643
 20
-330.2038494546
 30
0.0
 11
8.499999999999988
 21
14.72243186433554
 31
0.0
210
0.0
220
0.0
230
1.0
 40
0.5773502692
 41
0.7853981633974518
 42
1.929115903799874
  0
ELLIPSE
  5
30C
330
2D2
100
AcDbEntity
  8
H765_SUPPORT
  6
Continuous
 62
     7
100
AcDbEllipse
 10
71.908509775
 20
-955.6402304452
 30
0.0
 11
-5.000000000000002
 21
1.105886215935215E-14
 31
0.0
210
0.0
220
0.0
230
1.0
 40
0.5773502692
 41
4.154790153685155
 42
5.269987807084229
  0
ELLIPSE
  5
30D
330
2D2
100
AcDbEntity
  8
H765_SUPPORT
  6
Continuous
 62
     7
100
AcDbEllipse
 10
71.908509775
 20
-950.7412509597
 30
0.0
 11
5.000000000000022
 21
2.168404344971009E-16
 31
0.0
210
0.0
220
0.0
230
1.0
 40
0.5773502692
 41
0.0
 42
6.283185307179586
  0
ELLIPSE
  5
30E
330
2D2
100
AcDbEntity
  8
H765_SUPPORT
  6
Continuous
 62
     7
100
AcDbEllipse
 10
-6.5803429367
 20
-1000.9557906867
 30
0.0
 11
-5.000000000000022
 21
-2.168404344971009E-16
 31
0.0
210
0.0
220
0.0
230
1.0
 40
0.5773502692
 41
4.154790153685168
 42
5.269987807084211
  0
ELLIPSE
  5
30F
330
2D2
100
AcDbEntity
  8
H765_SUPPORT
  6
Continuous
 62
     7
100
AcDbEllipse
 10
-6.5803429367
 20
-996.0568112011
 30
0.0
 11
5.000000000000022
 21
2.168404344971009E-16
 31
0.0
210
0.0
220
0.0
230
1.0
 40
0.5773502692
 41
0.0
 42
6.283185307179586
  0
ELLIPSE
  5
310
330
2D2
100
AcDbEntity
  8
H765_SUPPORT
  6
Continuous
 62
     7
100
AcDbEllipse
 10
-77.2910210553
 20
-960.1309616403
 30
0.0
 11
-5.000000000000002
 21
-1.149254302834635E-14
 31
0.0
210
0.0
220
0.0
230
1.0
 40
0.5773502692
 41
4.154790153685177
 42
5.269987807084197
  0
ELLIPSE
  5
311
330
2D2
100
AcDbEntity
  8
H765_SUPPORT
  6
Continuous
 62
     7
100
AcDbEllipse
 10
-77.2910210553
 20
-955.2319821548
 30
0.0
 11
5.000000000000022
 21
2.168404344971009E-16
 31
0.0
210
0.0
220
0.0
230
1.0
 40
0.5773502692
 41
0.0
 42
6.283185307179586
  0
LINE
  5
312
330
2D2
100
AcDbEntity
  8
H765_SUPPORT
  6
Continuous
 62
     7
100
AcDbLine
 10
-142.3950974562
 20
-973.6031552256
 30
0.0
 11
-142.3950974562
 21
-978.5021347112
 31
0.0
  0
LINE
  5
313
330
2D2
100
AcDbEntity
  8
H765_SUPPORT
  6
Continuous
 62
     7
100
AcDbLine
 10
100.9501403354
 20
-958.089720188
 30
0.0
 11
100.9501403354
 21
-953.1907407024
 31
0.0
  0
LINE
  5
314
330
2D2
100
AcDbEntity
  8
H765_SUPPORT
  6
Continuous
 62
     7
100
AcDbLine
 10
-41.1072548713
 20
-458.3577595374
 30
0.0
 11
-41.1072548713
 21
-949.5165060883
 31
0.0
  0
ARC
  5
315
330
2D2
100
AcDbEntity
  8
H765_SUPPORT
  6
Continuous
 62
     7
100
AcDbCircle
 10
-39.1072548713
 20
-269.3748541755
 30
0.0
 40
2.000000000000035
100
AcDbArc
 50
120.0
 51
170.7048110546
  0
SPLINE
  5
316
330
2D2
100
AcDbEntity
  8
H765_SUPPORT
  6
Continuous
 62
     7
100
AcDbSpline
210
0.0
220
0.0
230
1.0
 70
     8
 71
     3
 72
     9
 73
     5
 74
     0
 42
0.000000001
 43
0.0000000001
 40
0.0
 40
0.0
 40
0.0
 40
0.0
 40
0.3850912092014915
 40
0.5427594017429528
 40
0.5427594017429528
 40
0.5427594017429528
 40
0.5427594017429528
 10
-41.12857148065196
 20
-949.5071288014219
 30
0.0
 10
-41.1446710307537
 20
-949.6279636466938
 30
0.0
 10
-41.14812051680452
 20
-949.7653759635018
 30
0.0
 10
-41.17387382426568
 20
-949.7957054189797
 30
0.0
 10
-41.17552716337619
 20
-949.7962110777034
 30
0.0
  0
LINE
  5
317
330
2D2
100
AcDbEntity
  8
H765_SUPPORT
  6
Continuous
 62
     7
100
AcDbLine
 10
-0.5092751248
 20
-244.7808991019
 30
0.0
 11
-40.1072548713
 21
-267.6428033679
 31
0.0
  0
ARC
  5
318
330
2D2
100
AcDbEntity
  8
H765_SUPPORT
  6
Continuous
 62
     7
100
AcDbCircle
 10
0.4907248752
 20
-246.5129499095
 30
0.0
 40
2.000000000000037
100
AcDbArc
 50
60.0
 51
120.0
  0
LINE
  5
319
330
2D2
100
AcDbEntity
  8
H765_SUPPORT
  6
Continuous
 62
     7
100
AcDbLine
 10
41.0887046216
 20
-267.6428033679
 30
0.0
 11
1.4907248752
 21
-244.7808991019
 31
0.0
  0
ARC
  5
31A
330
2D2
100
AcDbEntity
  8
H765_SUPPORT
  6
Continuous
 62
     7
100
AcDbCircle
 10
40.0887046216
 20
-269.3748541755
 30
0.0
 40
2.000000000000003
100
AcDbArc
 50
0.0
 51
60.0
  0
SPLINE
  5
31B
330
2D2
100
AcDbEntity
  8
H765_SUPPORT
  6
Continuous
 62
     7
100
AcDbSpline
210
0.0
220
0.0
230
1.0
 70
     8
 71
     3
 72
    10
 73
     6
 74
     0
 42
0.000000001
 43
0.0000000001
 40
0.452286415721879
 40
0.452286415721879
 40
0.452286415721879
 40
0.452286415721879
 40
0.5197932906627629
 40
0.8589436154444334
 40
1.0
 40
1.0
 40
1.0
 40
1.0
 10
42.16051304839485
 20
-949.7991495413144
 30
0.0
 10
42.16011321632068
 20
-949.7990567699024
 30
0.0
 10
42.14935272661747
 20
-949.787191896338
 30
0.0
 10
42.08201608774264
 20
-949.6669815925892
 30
0.0
 10
42.10337440604756
 20
-949.5656279827451
 30
0.0
 10
42.1096715678746
 20
-949.5287256291209
 30
0.0
  0
LINE
  5
31C
330
2D2
100
AcDbEntity
  8
H765_SUPPORT
  6
Continuous
 62
     7
100
AcDbLine
 10
42.0887046216
 20
-949.5165060883
 30
0.0
 11
42.0887046216
 21
-269.3748541755
 31
0.0
  0
ELLIPSE
  5
31D
330
2D2
100
AcDbEntity
  8
H765_BARRE
  6
Continuous
 62
     7
100
AcDbEllipse
 10
-531.9606813583
 20
-624.1426185886
 30
0.0
 11
-8.499999999999972
 21
14.72243186433543
 31
0.0
210
0.0
220
0.0
230
1.0
 40
0.5773502692
 41
0.0
 42
0.0001184858709434
  0
ELLIPSE
  5
31E
330
2D2
100
AcDbEntity
  8
H765_BARRE
  6
Continuous
 62
     7
100
AcDbEllipse
 10
-531.9606813583
 20
-624.1426185886
 30
0.0
 11
-8.499999999999972
 21
14.72243186433543
 31
0.0
210
0.0
220
0.0
230
1.0
 40
0.5773502692
 41
3.142000508142615
 42
6.283185307179586
  0
ELLIPSE
  5
31F
330
2D2
100
AcDbEntity
  8
H765_BARRE
  6
Continuous
 62
     7
100
AcDbEllipse
 10
-531.9606813583
 20
-722.1222082999
 30
0.0
 11
8.499999999999989
 21
-14.72243186433549
 31
0.0
210
0.0
220
0.0
230
1.0
 40
0.5773502692
 41
6.282679976845352
 42
6.283185307179586
  0
ELLIPSE
  5
320
330
2D2
100
AcDbEntity
  8
H765_BARRE
  6
Continuous
 62
     7
100
AcDbEllipse
 10
-531.9606813583
 20
-722.1222082999
 30
0.0
 11
8.499999999999989
 21
-14.72243186433549
 31
0.0
210
0.0
220
0.0
230
1.0
 40
0.5773502692
 41
0.0000000000000013
 42
3.141289765846086
  0
LINE
  5
321
330
2D2
100
AcDbEntity
  8
H765_BARRE
  6
Continuous
 62
     7
100
AcDbLine
 10
-34.8646141841
 20
-323.2636285167
 30
0.0
 11
-34.8646141841
 21
-336.735822102
 31
0.0
  0
ELLIPSE
  5
322
330
2D2
100
AcDbEntity
  8
H765_BARRE
  6
Continuous
 62
     7
100
AcDbEllipse
 10
-34.8646141841
 20
-337.1440703925
 30
0.0
 11
-24.04163056034262
 21
-1.214306433183765E-14
 31
0.0
210
0.0
220
0.0
230
1.0
 40
0.5773502692
 41
4.71238898038469
 42
5.497787143782139
  0
ELLIPSE
  5
323
330
2D2
100
AcDbEntity
  8
H765_BARRE
  6
Continuous
 62
     7
100
AcDbEllipse
 10
-46.8854294643
 20
-330.2038494546
 30
0.0
 11
-8.499999999999982
 21
-14.72243186433546
 31
0.0
210
0.0
220
0.0
230
1.0
 40
0.5773502692
 41
3.141592653589794
 42
5.070708557389672
  0
LINE
  5
324
330
2D2
100
AcDbEntity
  8
H765_BARRE
  6
Continuous
 62
     7
100
AcDbLine
 10
-302.1230895699
 20
-569.7955036585
 30
0.0
 11
-273.1022742897
 21
-586.5506791726
 31
0.0
  0
ELLIPSE
  5
325
330
2D2
100
AcDbEntity
  8
H765_BARRE
  6
Continuous
 62
     7
100
AcDbEllipse
 10
-285.1230895699
 20
-579.6104582347
 30
0.0
 11
-12.0208152801713
 21
-20.82066281365705
 31
0.0
210
0.0
220
0.0
230
1.0
 40
0.5773502692
 41
1.570796326794896
 42
2.35619449019234
  0
ELLIPSE
  5
326
330
2D2
100
AcDbEntity
  8
H765_BARRE
  6
Continuous
 62
     7
100
AcDbEllipse
 10
-285.1230895699
 20
-481.6308685234
 30
0.0
 11
12.02081528017126
 21
20.82066281365707
 31
0.0
210
0.0
220
0.0
230
1.0
 40
0.5773502692
 41
3.926990816987248
 42
4.712388980384695
  0
LINE
  5
327
330
2D2
100
AcDbEntity
  8
H765_BARRE
  6
Continuous
 62
     7
100
AcDbLine
 10
-273.1022742897
 20
-488.5710894613
 30
0.0
 11
-268.1230895699
 21
-491.4458230996
 31
0.0
  0
LINE
  5
328
330
2D2
100
AcDbEntity
  8
H765_BARRE
  6
Continuous
 62
     7
100
AcDbLine
 10
-268.1230895699
 20
-491.4458230996
 30
0.0
 11
-46.8707108385
 21
-363.7057026803
 31
0.0
  0
LINE
  5
329
330
2D2
100
AcDbEntity
  8
H765_BARRE
  6
Continuous
 62
     7
100
AcDbLine
 10
-523.4606813583
 20
-638.8650504529
 30
0.0
 11
-285.1230895699
 21
-501.2607776759
 31
0.0
  0
LINE
  5
32A
330
2D2
100
AcDbEntity
  8
H765_BARRE
  6
Continuous
 62
     7
100
AcDbLine
 10
-51.8646141841
 20
-327.3291158162
 30
0.0
 11
-540.4606813583
 21
-609.4201867242
 31
0.0
  0
SPLINE
  5
32B
330
2D2
100
AcDbEntity
  8
H765_BARRE
  6
Continuous
 62
     7
100
AcDbSpline
210
0.0
220
0.0
230
1.0
 70
     8
 71
     3
 72
    43
 73
    39
 74
     0
 42
0.000000001
 43
0.0000000001
 40
0.0
 40
0.0
 40
0.0
 40
0.0
 40
0.016445178636568
 40
0.0462863963096398
 40
0.0760743538872592
 40
0.1057961207429196
 40
0.1354208380932041
 40
0.1649483018776865
 40
0.1943963273032658
 40
0.2237925939166319
 40
0.2531699492259227
 40
0.2825639151018428
 40
0.311999625485346
 40
0.3415140838501266
 40
0.3711440860631292
 40
0.400923492263761
 40
0.4308786930804702
 40
0.4610202356620924
 40
0.4913288583279133
 40
0.5217229358863923
 40
0.5520137855887258
 40
0.581971156034527
 40
0.6113466027362544
 40
0.6399511640910829
 40
0.6677140663052413
 40
0.694688163678009
 40
0.7210162129937834
 40
0.7468911785647471
 40
0.77252845064349
 40
0.7980954222384506
 40
0.8238008097337859
 40
0.8498559327858479
 40
0.8764442335699311
 40
0.9036996509816093
 40
0.9316800983697092
 40
0.9603472695099744
 40
0.9895703794596121
 40
1.0
 40
1.0
 40
1.0
 40
1.0
 10
-540.4606813582774
 20
-609.4201867242266
 30
0.0
 10
-541.5199859175996
 20
-610.0480398066886
 30
0.0
 10
-544.0494598143079
 20
-611.5606212717752
 30
0.0
 10
-548.5139581910125
 20
-614.6671062003093
 30
0.0
 10
-553.4453700479093
 20
-618.656356055099
 30
0.0
 10
-558.2295540535843
 20
-623.0936716083221
 30
0.0
 10
-562.7835228990974
 20
-627.8977813330702
 30
0.0
 10
-567.0935665276387
 20
-633.0375373893768
 30
0.0
 10
-571.130240594958
 20
-638.4692902919238
 30
0.0
 10
-574.8703958507416
 20
-644.1538070255074
 30
0.0
 10
-578.2904292423682
 20
-650.0512819808466
 30
0.0
 10
-581.3672624762152
 20
-656.121631927966
 30
0.0
 10
-584.0783770688471
 20
-662.324902959702
 30
0.0
 10
-586.4018350133614
 20
-668.6215930160272
 30
0.0
 10
-588.3161691714779
 20
-674.9735934451544
 30
0.0
 10
-589.7995662320545
 20
-681.343225685384
 30
0.0
 10
-590.829345329945
 20
-687.6925092172029
 30
0.0
 10
-591.3815830820287
 20
-693.9816273179089
 30
0.0
 10
-591.4313601729285
 20
-700.1654170098623
 30
0.0
 10
-590.9551020949998
 20
-706.1874788648491
 30
0.0
 10
-589.9360662330594
 20
-711.9798060001621
 30
0.0
 10
-588.3709648981788
 20
-717.46550071216
 30
0.0
 10
-586.2743605272797
 20
-722.5681442894037
 30
0.0
 10
-583.6795155714328
 20
-727.2202335720107
 30
0.0
 10
-580.6336913910328
 20
-731.3708891676442
 30
0.0
 10
-577.1907494138794
 20
-734.9876331804512
 30
0.0
 10
-573.4048016303999
 20
-738.0530754082147
 30
0.0
 10
-569.3263462367852
 20
-740.5599543507267
 30
0.0
 10
-565.003167873761
 20
-742.5055138591625
 30
0.0
 10
-560.4772775264985
 20
-743.8912642321727
 30
0.0
 10
-555.7827050445773
 20
-744.7208521008135
 30
0.0
 10
-550.9427134113308
 20
-744.9970835493672
 30
0.0
 10
-545.9733362456606
 20
-744.7177525593227
 30
0.0
 10
-540.8956539917647
 20
-743.8787827388707
 30
0.0
 10
-535.7167525648202
 20
-742.4655147954695
 30
0.0
 10
-530.5311355134805
 20
-740.5043300965636
 30
0.0
 10
-526.3279717426263
 20
-738.4638996658779
 30
0.0
 10
-524.1359737328268
 20
-737.2281246957461
 30
0.0
 10
-523.4606813582774
 20
-736.8446401642248
 30
0.0
  0
SPLINE
  5
32C
330
2D2
100
AcDbEntity
  8
H765_BARRE
  6
Continuous
 62
     7
100
AcDbSpline
210
0.0
220
0.0
230
1.0
 70
     8
 71
     3
 72
    38
 73
    34
 74
     0
 42
0.000000001
 43
0.0000000001
 40
0.0
 40
0.0
 40
0.0
 40
0.0
 40
0.0166184517370576
 40
0.0480146971494445
 40
0.0792408189149661
 40
0.1105183732804853
 40
0.142224800589114
 40
0.1751520024747737
 40
0.2108068135538463
 40
0.2526586812570645
 40
0.2967233661882178
 40
0.3316931487242315
 40
0.3637525759517425
 40
0.394227682095721
 40
0.4264496919497824
 40
0.4580120565048301
 40
0.4894961713208978
 40
0.521111032746908
 40
0.5530221604514896
 40
0.5852833593088236
 40
0.6178874610560882
 40
0.6507941282454432
 40
0.6839456624367414
 40
0.7172759584656053
 40
0.7507153307930298
 40
0.7841928739410604
 40
0.8176231344718011
 40
0.8509260593050302
 40
0.8840322899817646
 40
0.9168759073581604
 40
0.9493987425585956
 40
0.9815584067151694
 40
1.0
 40
1.0
 40
1.0
 40
1.0
 10
-540.4606813582774
 20
-707.3997764355538
 30
0.0
 10
-541.0288622137579
 20
-707.7186935883082
 30
0.0
 10
-542.4182216317032
 20
-708.4925314544078
 30
0.0
 10
-544.7823131451331
 20
-709.5668758854908
 30
0.0
 10
-547.1975176308403
 20
-710.3789122191151
 30
0.0
 10
-549.2618072004992
 20
-710.8160107105612
 30
0.0
 10
-550.9036977487167
 20
-710.940039991392
 30
0.0
 10
-552.1251640206336
 20
-710.846200377159
 30
0.0
 10
-552.976279652475
 20
-710.6247946127567
 30
0.0
 10
-553.5508196871116
 20
-710.3442710243448
 30
0.0
 10
-554.1041842744105
 20
-709.9250271394639
 30
0.0
 10
-554.7845394944881
 20
-709.1355759697775
 30
0.0
 10
-555.4875828700839
 20
-707.9662722557738
 30
0.0
 10
-556.1866380485982
 20
-706.3099982211721
 30
0.0
 10
-556.8006659665293
 20
-704.1213302325702
 30
0.0
 10
-557.2412186236005
 20
-701.3838411115509
 30
0.0
 10
-557.4324376625225
 20
-698.2084832739175
 30
0.0
 10
-557.3306238494699
 20
-694.6375260075122
 30
0.0
 10
-556.9030110902924
 20
-690.7250238663948
 30
0.0
 10
-556.1274043985879
 20
-686.530479217238
 30
0.0
 10
-554.9926130414666
 20
-682.1212097818997
 30
0.0
 10
-553.4983379663557
 20
-677.5695276399504
 30
0.0
 10
-551.6546139815864
 20
-672.9503622052313
 30
0.0
 10
-549.4810490885113
 20
-668.3392780057223
 30
0.0
 10
-547.0060567606423
 20
-663.810842938569
 30
0.0
 10
-544.2664290854516
 20
-659.4377795119333
 30
0.0
 10
-541.3070338276618
 20
-655.2895327911313
 30
0.0
 10
-538.1788183602695
 20
-651.4295296009282
 30
0.0
 10
-534.9419055265448
 20
-647.9163820712429
 30
0.0
 10
-531.6492814708781
 20
-644.7910195426001
 30
0.0
 10
-528.4043600415388
 20
-642.1181782243916
 30
0.0
 10
-525.5971070982705
 20
-640.143315646759
 30
0.0
 10
-524.101389606361
 20
-639.2453831998172
 30
0.0
 10
-523.4606813582774
 20
-638.8650504528977
 30
0.0
  0
LINE
  5
32D
330
2D2
100
AcDbEntity
  8
H765_BARRE
  6
Continuous
 62
     7
100
AcDbLine
 10
-302.1230895699
 20
-569.7955036585
 30
0.0
 11
-540.4606813583
 21
-707.3997764356
 31
0.0
  0
LINE
  5
32E
330
2D2
100
AcDbEntity
  8
H765_BARRE
  6
Continuous
 62
     7
100
AcDbLine
 10
-34.6241983376
 20
-415.3549467976
 30
0.0
 11
-268.1230895699
 21
-550.1655945061
 31
0.0
  0
LINE
  5
32F
330
2D2
100
AcDbEntity
  8
H765_BARRE
  6
Continuous
 62
     7
100
AcDbLine
 10
-523.4606813583
 20
-736.8446401642
 30
0.0
 11
-17.6604096255
 21
-444.8207171231
 31
0.0
  0
LINE
  5
330
330
2D2
100
AcDbEntity
  8
H765_BARRE
  6
Continuous
 62
     7
100
AcDbLine
 10
-20.8465538815
 20
-325.6074921293
 30
0.0
 11
-38.3854294643
 21
-315.4814175902
 31
0.0
  0
LINE
  5
331
330
2D2
100
AcDbEntity
  8
H765_BARRE
  6
Continuous
 62
     7
100
AcDbLine
 10
-268.1230895699
 20
-569.7955036585
 30
0.0
 11
-268.1230895699
 21
-491.4458230996
 31
0.0
  0
LINE
  5
332
330
2D2
100
AcDbEntity
  8
H765_BARRE
  6
Continuous
 62
     7
100
AcDbLine
 10
-302.1230895699
 20
-511.0757322521
 30
0.0
 11
-302.1230895699
 21
-569.7955036585
 31
0.0
  0
ELLIPSE
  5
333
330
2D2
100
AcDbEntity
  8
H765_CACHE_MISER
  6
Continuous
 62
     7
100
AcDbEllipse
 10
-31.3290802782
 20
-433.0824186515
 30
0.0
 11
10.50000000000001
 21
-18.18653347947318
 31
0.0
210
0.0
220
0.0
230
1.0
 40
0.5773502692
 41
5.655729534256377
 42
6.283185307179586
  0
ELLIPSE
  5
334
330
2D2
100
AcDbEntity
  8
H765_CACHE_MISER
  6
Continuous
 62
     7
100
AcDbEllipse
 10
-31.3290802782
 20
-433.0824186515
 30
0.0
 11
10.50000000000001
 21
-18.18653347947318
 31
0.0
210
0.0
220
0.0
230
1.0
 40
0.5773502692
 41
0.0
 42
3.769048426512966
  0
ELLIPSE
  5
335
330
2D2
100
AcDbEntity
  8
H765_CACHE_MISER
  6
Continuous
 62
     7
100
AcDbEllipse
 10
-29.9148667158
 20
-432.2659220705
 30
0.0
 11
-9.500000000000018
 21
16.45448267190437
 31
0.0
210
0.0
220
0.0
230
1.0
 40
0.5773502692
 41
0.0
 42
0.462954727940352
  0
ELLIPSE
  5
336
330
2D2
100
AcDbEntity
  8
H765_CACHE_MISER
  6
Continuous
 62
     7
100
AcDbEllipse
 10
-29.9148667158
 20
-432.2659220705
 30
0.0
 11
-9.500000000000018
 21
16.45448267190437
 31
0.0
210
0.0
220
0.0
230
1.0
 40
0.5773502692
 41
2.678637925649416
 42
3.131310219539548
  0
ELLIPSE
  5
337
330
2D2
100
AcDbEntity
  8
H765_CACHE_MISER
  6
Continuous
 62
     7
100
AcDbEllipse
 10
-29.9148667158
 20
-432.2659220705
 30
0.0
 11
-9.500000000000018
 21
16.45448267190437
 31
0.0
210
0.0
220
0.0
230
1.0
 40
0.5773502692
 41
6.242841498946131
 42
6.283185307179585
  0
LINE
  5
338
330
2D2
100
AcDbEntity
  8
H765_CACHE_MISER
  6
Continuous
 62
     7
100
AcDbLine
 10
-54.3100506668
 20
-261.4140125114
 30
0.0
 11
12.865093546
 21
-300.1976001055
 31
0.0
  0
LINE
  5
339
330
2D2
100
AcDbEntity
  8
H765_CACHE_MISER
  6
Continuous
 62
     7
100
AcDbLine
 10
16.4006274519
 20
-306.3213244624
 30
0.0
 11
16.4006274519
 21
-465.5381577434
 31
0.0
  0
ELLIPSE
  5
33A
330
2D2
100
AcDbEntity
  8
H765_CACHE_MISER
  6
Continuous
 62
     7
100
AcDbEllipse
 10
12.865093546
 20
-304.2800830101
 30
0.0
 11
-2.500000000000031
 21
4.330127018922194
 31
0.0
210
0.0
220
0.0
230
1.0
 40
0.5773502692
 41
3.926990816987232
 42
5.497787143782118
  0
ELLIPSE
  5
33B
330
2D2
100
AcDbEntity
  8
H765_CACHE_MISER
  6
Continuous
 62
     7
100
AcDbEllipse
 10
-54.3100506668
 20
-265.4964954161
 30
0.0
 11
2.499999999999998
 21
-4.330127018922299
 31
0.0
210
0.0
220
0.0
230
1.0
 40
0.5773502692
 41
2.356194490192332
 42
3.141592653589787
  0
ELLIPSE
  5
33C
330
2D2
100
AcDbEntity
  8
H765_CACHE_MISER
  6
Continuous
 62
     7
100
AcDbEllipse
 10
12.865093546
 20
-463.496916291
 30
0.0
 11
-2.499999999999992
 21
4.33012701892211
 31
0.0
210
0.0
220
0.0
230
1.0
 40
0.5773502692
 41
3.141592653589793
 42
3.926990816987242
  0
LINE
  5
33D
330
2D2
100
AcDbEntity
  8
H765_CACHE_MISER
  6
Continuous
 62
     7
100
AcDbLine
 10
2.2584918282
 20
-469.620640648
 30
0.0
 11
2.2584918282
 21
-385.0504370687
 31
0.0
  0
LINE
  5
33E
330
2D2
100
AcDbEntity
  8
H765_CACHE_MISER
  6
Continuous
 62
     7
100
AcDbLine
 10
-29.1783226831
 20
-451.4705873274
 30
0.0
 11
2.2584918282
 21
-469.620640648
 31
0.0
  0
LINE
  5
33F
330
2D2
100
AcDbEntity
  8
H765_CACHE_MISER
  6
Continuous
 62
     7
100
AcDbLine
 10
-64.9166523846
 20
-430.8370530539
 30
0.0
 11
-63.1783226831
 21
-431.840678175
 31
0.0
  0
LINE
  5
340
330
2D2
100
AcDbEntity
  8
H765_CACHE_MISER
  6
Continuous
 62
     7
100
AcDbLine
 10
-64.9166523846
 20
-374.1245318896
 30
0.0
 11
-64.9166523846
 21
-430.8370530539
 31
0.0
  0
LINE
  5
341
330
2D2
100
AcDbEntity
  8
H765_CACHE_MISER
  6
Continuous
 62
     7
100
AcDbLine
 10
16.4006274519
 20
-306.3213244624
 30
0.0
 11
9.32955964
 21
-310.4038073671
 31
0.0
  0
LINE
  5
342
330
2D2
100
AcDbEntity
  8
H765_CACHE_MISER
  6
Continuous
 62
     7
100
AcDbLine
 10
9.32955964
 20
-310.4038073671
 30
0.0
 11
9.32955964
 21
-338.2868646747
 31
0.0
  0
LINE
  5
343
330
2D2
100
AcDbEntity
  8
H765_CACHE_MISER
  6
Continuous
 62
     7
100
AcDbLine
 10
9.32955964
 20
-338.2868646747
 30
0.0
 11
-13.1867605239
 21
-356.1615944979
 31
0.0
  0
ELLIPSE
  5
344
330
2D2
100
AcDbEntity
  8
H765_CACHE_MISER
  6
Continuous
 62
     7
100
AcDbEllipse
 10
-11.8836437956
 20
-363.4343575053
 30
0.0
 11
5.000000000000006
 21
8.660254037844295
 31
0.0
210
0.0
220
0.0
230
1.0
 40
0.5773502692
 41
0.9707461133931528
 42
2.356194490192361
  0
LINE
  5
345
330
2D2
100
AcDbEntity
  8
H765_CACHE_MISER
  6
Continuous
 62
     7
100
AcDbLine
 10
-18.9547116074
 20
-367.5168404099
 30
0.0
 11
-18.9547116074
 21
-383.9302272727
 31
0.0
  0
ELLIPSE
  5
346
330
2D2
100
AcDbEntity
  8
H765_CACHE_MISER
  6
Continuous
 62
     7
100
AcDbEllipse
 10
-11.8836437956
 20
-379.847744368
 30
0.0
 11
4.999999999999974
 21
8.660254037844632
 31
0.0
210
0.0
220
0.0
230
1.0
 40
0.5773502692
 41
2.35619449019232
 42
3.741642866991533
  0
LINE
  5
347
330
2D2
100
AcDbEntity
  8
H765_CACHE_MISER
  6
Continuous
 62
     7
100
AcDbLine
 10
-13.1867605239
 20
-388.6252169631
 30
0.0
 11
9.32955964
 21
-380.5003397707
 31
0.0
  0
LINE
  5
348
330
2D2
100
AcDbEntity
  8
H765_CACHE_MISER
  6
Continuous
 62
     7
100
AcDbLine
 10
9.32955964
 20
-380.5003397707
 30
0.0
 11
9.32955964
 21
-469.620640648
 31
0.0
  0
LINE
  5
349
330
2D2
100
AcDbEntity
  8
H765_CACHE_MISER
  6
Continuous
 62
     7
100
AcDbLine
 10
9.32955964
 20
-469.620640648
 30
0.0
 11
16.4006274519
 21
-465.5381577434
 31
0.0
  0
LINE
  5
34A
330
2D2
100
AcDbEntity
  8
H765_CACHE_MISER
  6
Continuous
 62
     7
100
AcDbLine
 10
-93.200923632
 20
-345.1466396786
 30
0.0
 11
-87.9631972054
 21
-348.1706424409
 31
0.0
  0
ELLIPSE
  5
34B
330
2D2
100
AcDbEntity
  8
H765_CACHE_MISER
  6
Continuous
 62
     7
100
AcDbEllipse
 10
-15.4191777015
 20
-377.8065029157
 30
0.0
 11
7.500000000000014
 21
12.99038105676642
 31
0.0
210
0.0
220
0.0
230
1.0
 40
0.5773502692
 41
2.356194490192348
 42
3.133840818084489
  0
ELLIPSE
  5
34C
330
2D2
100
AcDbEntity
  8
H765_CACHE_MISER
  6
Continuous
 62
     7
100
AcDbEllipse
 10
-82.5943219142
 20
-339.0229153216
 30
0.0
 11
7.50000000000009
 21
12.99038105676623
 31
0.0
210
0.0
220
0.0
230
1.0
 40
0.5773502692
 41
2.356194490192355
 42
2.872669017177746
  0
LINE
  5
34D
330
2D2
100
AcDbEntity
  8
H765_CACHE_MISER
  6
Continuous
 62
     7
100
AcDbLine
 10
-26.0257794193
 20
-367.5168404099
 30
0.0
 11
-46.1783226831
 21
-355.8817641317
 31
0.0
  0
LINE
  5
34E
330
2D2
100
AcDbEntity
  8
H765_CACHE_MISER
  6
Continuous
 62
     7
100
AcDbLine
 10
-26.0257794193
 20
-383.9302272727
 30
0.0
 11
-26.0257794193
 21
-367.5168404099
 31
0.0
  0
LINE
  5
34F
330
2D2
100
AcDbEntity
  8
H765_CACHE_MISER
  6
Continuous
 62
     7
100
AcDbLine
 10
-93.200923632
 20
-328.7332528159
 30
0.0
 11
-93.200923632
 21
-345.1466396786
 31
0.0
  0
LINE
  5
350
330
2D2
100
AcDbEntity
  8
H765_CACHE_MISER
  6
Continuous
 62
     7
100
AcDbLine
 10
-84.5489970067
 20
-311.7003839479
 30
0.0
 11
-64.3964537428
 21
-323.3354602261
 31
0.0
  0
ELLIPSE
  5
351
330
2D2
100
AcDbEntity
  8
H765_CACHE_MISER
  6
Continuous
 62
     7
100
AcDbEllipse
 10
-15.4191777015
 20
-361.393116053
 30
0.0
 11
-7.500000000000006
 21
-12.99038105676651
 31
0.0
210
0.0
220
0.0
230
1.0
 40
0.5773502692
 41
4.112338766982941
 42
5.497787143782138
  0
ELLIPSE
  5
352
330
2D2
100
AcDbEntity
  8
H765_CACHE_MISER
  6
Continuous
 62
     7
100
AcDbEllipse
 10
-82.5943219142
 20
-322.6095284589
 30
0.0
 11
7.500000000000077
 21
12.9903810567666
 31
0.0
210
0.0
220
0.0
230
1.0
 40
0.5773502692
 41
0.9707461133931599
 42
2.356194490192359
  0
LINE
  5
353
330
2D2
100
AcDbEntity
  8
H765_CACHE_MISER
  6
Continuous
 62
     7
100
AcDbLine
 10
-64.9166523846
 20
-296.1151172008
 30
0.0
 11
-44.7641091207
 21
-307.7501934791
 31
0.0
  0
LINE
  5
354
330
2D2
100
AcDbEntity
  8
H765_CACHE_MISER
  6
Continuous
 62
     7
100
AcDbLine
 10
-17.3738527939
 20
-350.483971542
 30
0.0
 11
2.2584918282
 21
-334.8987047949
 31
0.0
  0
LINE
  5
355
330
2D2
100
AcDbEntity
  8
H765_CACHE_MISER
  6
Continuous
 62
     7
100
AcDbLine
 10
-64.9166523846
 20
-296.1151172008
 30
0.0
 11
-84.5489970067
 21
-311.7003839479
 31
0.0
  0
LINE
  5
356
330
2D2
100
AcDbEntity
  8
H765_CACHE_MISER
  6
Continuous
 62
     7
100
AcDbLine
 10
5.7940257341
 20
-304.2800830101
 30
0.0
 11
12.865093546
 21
-300.1976001055
 31
0.0
  0
LINE
  5
357
330
2D2
100
AcDbEntity
  8
H765_CACHE_MISER
  6
Continuous
 62
     7
100
AcDbLine
 10
-61.3811184786
 20
-265.4964954161
 30
0.0
 11
5.7940257341
 21
-304.2800830101
 31
0.0
  0
LINE
  5
358
330
2D2
100
AcDbEntity
  8
H765_CACHE_MISER
  6
Continuous
 62
     7
100
AcDbLine
 10
-54.3100506668
 20
-261.4140125114
 30
0.0
 11
-61.3811184786
 21
-265.4964954161
 31
0.0
  0
LINE
  5
359
330
2D2
100
AcDbEntity
  8
H765_CACHE_MISER
  6
Continuous
 62
     7
100
AcDbLine
 10
2.2584918282
 20
-310.4038073671
 30
0.0
 11
-64.9166523846
 21
-271.620219773
 31
0.0
  0
LINE
  5
35A
330
2D2
100
AcDbEntity
  8
H765_CACHE_MISER
  6
Continuous
 62
     7
100
AcDbLine
 10
2.2584918282
 20
-334.8987047949
 30
0.0
 11
2.2584918282
 21
-310.4038073671
 31
0.0
  0
LINE
  5
35B
330
2D2
100
AcDbEntity
  8
H765_CACHE_MISER
  6
Continuous
 62
     7
100
AcDbLine
 10
-64.9166523846
 20
-271.620219773
 30
0.0
 11
-64.9166523846
 21
-296.1151172008
 31
0.0
  0
ELLIPSE
  5
35C
330
2D2
100
AcDbEntity
  8
H765_CACHE_MISER
  6
Continuous
 62
     7
100
AcDbEllipse
 10
5.7940257341
 20
-308.3625659148
 30
0.0
 11
2.499999999999975
 21
-4.330127018922294
 31
0.0
210
0.0
220
0.0
230
1.0
 40
0.5773502692
 41
0.7853981633974598
 42
2.356194490192342
  0
ELLIPSE
  5
35D
330
2D2
100
AcDbEntity
  8
H765_CACHE_MISER
  6
Continuous
 62
     7
100
AcDbEllipse
 10
5.7940257341
 20
-308.3625659148
 30
0.0
 11
-2.50000000000003
 21
-4.330127018922199
 31
0.0
210
0.0
220
0.0
230
1.0
 40
0.5773502692
 41
3.92699081698726
 42
5.497787143782134
  0
ELLIPSE
  5
35E
330
2D2
100
AcDbEntity
  8
H765_CACHE_MISER
  6
Continuous
 62
     7
100
AcDbEllipse
 10
5.7940257341
 20
-308.3625659148
 30
0.0
 11
4.999999999999997
 21
-9.281773471233892E-14
 31
0.0
210
0.0
220
0.0
230
1.0
 40
0.5773502692
 41
3.926990816987232
 42
5.497787143782153
  0
ELLIPSE
  5
35F
330
2D2
100
AcDbEntity
  8
H765_CACHE_MISER
  6
Continuous
 62
     7
100
AcDbEllipse
 10
-61.3811184786
 20
-269.5789783207
 30
0.0
 11
2.499999999999967
 21
-4.3301270189223
 31
0.0
210
0.0
220
0.0
230
1.0
 40
0.5773502692
 41
2.356194490192378
 42
3.141592653589786
  0
ELLIPSE
  5
360
330
2D2
100
AcDbEntity
  8
H765_CACHE_MISER
  6
Continuous
 62
     7
100
AcDbEllipse
 10
-61.3811184786
 20
-269.5789783207
 30
0.0
 11
-2.500000000000035
 21
-4.330127018922198
 31
0.0
210
0.0
220
0.0
230
1.0
 40
0.5773502692
 41
3.926990816987242
 42
5.497787143782134
  0
ELLIPSE
  5
361
330
2D2
100
AcDbEntity
  8
H765_CACHE_MISER
  6
Continuous
 62
     7
100
AcDbEllipse
 10
5.7940257341
 20
-336.2456232224
 30
0.0
 11
4.996296652387477
 21
-2.412909008994244
 31
0.0
210
0.0
220
0.0
230
1.0
 40
0.0797399323
 41
3.965481360565001
 42
5.536277687360021
  0
ELLIPSE
  5
362
330
2D2
100
AcDbEntity
  8
H765_CACHE_MISER
  6
Continuous
 62
     7
100
AcDbEllipse
 10
-61.3811184786
 20
-269.5789783207
 30
0.0
 11
5.000000000000007
 21
-7.633786169055925E-14
 31
0.0
210
0.0
220
0.0
230
1.0
 40
0.5773502692
 41
3.141592653589793
 42
3.92699081698724
  0
ELLIPSE
  5
363
330
2D2
100
AcDbEntity
  8
H765_CACHE_MISER
  6
Continuous
 62
     7
100
AcDbEllipse
 10
-16.7222944298
 20
-354.1203530456
 30
0.0
 11
3.10878380419328
 21
-3.916051998988975
 31
0.0
210
0.0
220
0.0
230
1.0
 40
0.4610624864
 41
0.7084170762417505
 42
2.279213403036649
  0
ELLIPSE
  5
364
330
2D2
100
AcDbEntity
  8
H765_CACHE_MISER
  6
Continuous
 62
     7
100
AcDbEllipse
 10
-61.3811184786
 20
-297.4620356284
 30
0.0
 11
4.996296652387477
 21
-2.412909008994256
 31
0.0
210
0.0
220
0.0
230
1.0
 40
0.0797399323
 41
3.180083197167738
 42
3.965481360565011
  0
ELLIPSE
  5
365
330
2D2
100
AcDbEntity
  8
H765_CACHE_MISER
  6
Continuous
 62
     7
100
AcDbEllipse
 10
-22.4902455134
 20
-365.4755989576
 30
0.0
 11
4.999999999999999
 21
-9.757819552369540E-15
 31
0.0
210
0.0
220
0.0
230
1.0
 40
0.5773502692
 41
3.926990816987246
 42
5.497787143782143
  0
ELLIPSE
  5
366
330
2D2
100
AcDbEntity
  8
H765_CACHE_MISER
  6
Continuous
 62
     7
100
AcDbEllipse
 10
-83.8974386425
 20
-315.3367654516
 30
0.0
 11
3.108783804193272
 21
-3.916051998989045
 31
0.0
210
0.0
220
0.0
230
1.0
 40
0.4610624864
 41
2.27921340303665
 42
3.141145762884115
  0
ELLIPSE
  5
367
330
2D2
100
AcDbEntity
  8
H765_CACHE_MISER
  6
Continuous
 62
     7
100
AcDbEllipse
 10
-22.4902455134
 20
-381.8889858204
 30
0.0
 11
4.999999999999999
 21
-9.757819552369540E-15
 31
0.0
210
0.0
220
0.0
230
1.0
 40
0.5773502692
 41
3.926990816987246
 42
5.497787143782143
  0
ELLIPSE
  5
368
330
2D2
100
AcDbEntity
  8
H765_CACHE_MISER
  6
Continuous
 62
     7
100
AcDbEllipse
 10
-89.6653897261
 20
-326.6920113635
 30
0.0
 11
4.999999999999992
 21
-5.421010862427522E-15
 31
0.0
210
0.0
220
0.0
230
1.0
 40
0.5773502692
 41
3.14136102603803
 42
3.926990816987233
  0
ELLIPSE
  5
369
330
2D2
100
AcDbEntity
  8
H765_CACHE_MISER
  6
Continuous
 62
     7
100
AcDbEllipse
 10
-16.7222944298
 20
-386.5839755108
 30
0.0
 11
-1.697110583255349
 21
4.703170810017604
 31
0.0
210
0.0
220
0.0
230
1.0
 40
0.673860557
 41
3.142026074094932
 42
4.038512261939559
  0
ELLIPSE
  5
36A
330
2D2
100
AcDbEntity
  8
H765_CACHE_MISER
  6
Continuous
 62
     7
100
AcDbEllipse
 10
-89.6653897261
 20
-343.1053982263
 30
0.0
 11
4.999999999999992
 21
-2.207636198132082E-13
 31
0.0
210
0.0
220
0.0
230
1.0
 40
0.5773502692
 41
3.141592653589909
 42
3.926990816987281
  0
ELLIPSE
  5
36B
330
2D2
100
AcDbEntity
  8
H765_CACHE_MISER
  6
Continuous
 62
     7
100
AcDbEllipse
 10
5.7940257341
 20
-378.4590983184
 30
0.0
 11
3.727080665019157
 21
5.30720068962386
 31
0.0
210
0.0
220
0.0
230
1.0
 40
0.6280141457
 41
3.871230094511107
 42
4.768149702860883
  0
ELLIPSE
  5
36C
330
2D2
100
AcDbEntity
  8
H765_CACHE_MISER
  6
Continuous
 62
     7
100
AcDbEllipse
 10
5.7940257341
 20
-467.5793991957
 30
0.0
 11
5.000000000000002
 21
2.168404344971009E-16
 31
0.0
210
0.0
220
0.0
230
1.0
 40
0.5773502692
 41
3.926990816987237
 42
5.497787143782142
  0
ELLIPSE
  5
36D
330
2D2
100
AcDbEntity
  8
H765_CACHE_MISER
  6
Continuous
 62
     7
100
AcDbEllipse
 10
5.7940257341
 20
-467.5793991957
 30
0.0
 11
-2.499999999999962
 21
4.330127018922298
 31
0.0
210
0.0
220
0.0
230
1.0
 40
0.5773502692
 41
3.141592653589781
 42
3.926990816987268
  0
ELLIPSE
  5
36E
330
2D2
100
AcDbEntity
  8
H765_CACHE_MISER
  6
Continuous
 62
     7
100
AcDbEllipse
 10
5.7940257341
 20
-467.5793991957
 30
0.0
 11
2.499999999999992
 21
4.330127018922292
 31
0.0
210
0.0
220
0.0
230
1.0
 40
0.5773502692
 41
2.356194490192321
 42
3.141592653589793
  0
ELLIPSE
  5
36F
330
2D2
100
AcDbEntity
  8
H765_CACHE_MISER
  6
Continuous
 62
     7
100
AcDbEllipse
 10
-61.3811184786
 20
-428.7958116016
 30
0.0
 11
5.000000000000015
 21
-6.938893903907228E-15
 31
0.0
210
0.0
220
0.0
230
1.0
 40
0.5773502692
 41
3.141592653589795
 42
3.926990816987239
  0
ELLIPSE
  5
370
330
2D2
100
AcDbEntity
  8
H765_CACHE_MISER
  6
Continuous
 62
     7
100
AcDbEllipse
 10
-61.3811184786
 20
-428.7958116016
 30
0.0
 11
2.500000000000035
 21
4.330127018922187
 31
0.0
210
0.0
220
0.0
230
1.0
 40
0.5773502692
 41
2.356194490192345
 42
2.870205489200957
  0
LINE
  5
371
330
2D2
100
AcDbEntity
  8
H765_CACHE_MISER
  6
Continuous
 62
     7
100
AcDbLine
 10
-52.4244014601
 20
-368.6889757312
 30
0.0
 11
-26.0257794193
 21
-383.9302272727
 31
0.0
  0
SPLINE
  5
372
330
2D2
100
AcDbEntity
  8
H765_CACHE_MISER
  6
Continuous
 62
     7
100
AcDbSpline
210
0.0
220
0.0
230
1.0
 70
     8
 71
     3
 72
    12
 73
     8
 74
     0
 42
0.000000001
 43
0.0000000001
 40
0.8069491229667805
 40
0.8069491229667805
 40
0.8069491229667805
 40
0.8069491229667805
 40
0.8750000000000001
 40
0.8750000000000001
 40
0.9375000000000001
 40
0.9375000000000001
 40
1.0
 40
1.0
 40
1.0
 40
1.0
 10
-54.98441276920832
 20
-368.6109433551431
 30
0.0
 10
-54.67584826985878
 20
-368.6713904510216
 30
0.0
 10
-54.37039224916151
 20
-368.7148444765687
 30
0.0
 10
-53.78800010220824
 20
-368.7636292147316
 30
0.0
 10
-53.51131654283684
 20
-368.7715532739953
 30
0.0
 10
-52.96458303508314
 20
-368.7549415066212
 30
0.0
 10
-52.69384352929388
 20
-368.7304786367171
 30
0.0
 10
-52.42440146006552
 20
-368.6889757312043
 30
0.0
  0
ELLIPSE
  5
373
330
2D2
100
AcDbEntity
  8
H765_CACHE_MISER
  6
Continuous
 62
     7
100
AcDbEllipse
 10
-59.6133515257
 20
-351.4327605587
 30
0.0
 11
-9.49999999999984
 21
16.45448267190385
 31
0.0
210
0.0
220
0.0
230
1.0
 40
0.5773502692
 41
2.92080881093541
 42
3.926990816987244
  0
LINE
  5
374
330
2D2
100
AcDbEntity
  8
H765_CACHE_MISER
  6
Continuous
 62
     7
100
AcDbLine
 10
-73.7487872201
 20
-339.9639490096
 30
0.0
 11
-93.200923632
 21
-328.7332528159
 31
0.0
  0
LINE
  5
375
330
2D2
100
AcDbEntity
  8
H765_CACHE_MISER
  6
Continuous
 62
     7
100
AcDbLine
 10
-37.5263960578
 20
-338.8488952637
 30
0.0
 11
-17.3738527939
 21
-350.483971542
 31
0.0
  0
LINE
  5
376
330
2D2
100
AcDbEntity
  8
H765_CACHE_MISER
  6
Continuous
 62
     7
100
AcDbLine
 10
-44.7641091207
 20
-307.7501934791
 30
0.0
 11
-17.8940514357
 21
-323.2636285167
 31
0.0
  0
LINE
  5
377
330
2D2
100
AcDbEntity
  8
H765_CACHE_MISER
  6
Continuous
 62
     7
100
AcDbLine
 10
-17.8940514357
 20
-323.2636285167
 30
0.0
 11
2.2584918282
 21
-334.8987047949
 31
0.0
  0
LINE
  5
378
330
2D2
100
AcDbEntity
  8
H765_CACHE_MISER
  6
Continuous
 62
     7
100
AcDbLine
 10
-46.1783226831
 20
-359.1894780775
 30
0.0
 11
-46.1783226831
 21
-355.8817641317
 31
0.0
  0
ELLIPSE
  5
379
330
2D2
100
AcDbEntity
  8
H765_CACHE_MISER
  6
Continuous
 62
     7
100
AcDbEllipse
 10
-35.5717209653
 20
-349.7580397748
 30
0.0
 11
-7.500000000000006
 21
-12.99038105676651
 31
0.0
210
0.0
220
0.0
230
1.0
 40
0.5773502692
 41
4.112338766982941
 42
5.497787143782134
  0
LINE
  5
37A
330
2D2
100
AcDbEntity
  8
H765_CACHE_MISER
  6
Continuous
 62
     7
100
AcDbLine
 10
-37.5263960578
 20
-338.8488952637
 30
0.0
 11
-17.8940514357
 21
-323.2636285167
 31
0.0
  0
LINE
  5
37B
330
2D2
100
AcDbEntity
  8
H765_CACHE_MISER
  6
Continuous
 62
     7
100
AcDbLine
 10
-44.7641091207
 20
-307.7501934791
 30
0.0
 11
-64.3964537428
 21
-323.3354602261
 31
0.0
  0
ELLIPSE
  5
37C
330
2D2
100
AcDbEntity
  8
H765_CACHE_MISER
  6
Continuous
 62
     7
100
AcDbEllipse
 10
-62.4417786504
 20
-334.2446047371
 30
0.0
 11
7.499999999999968
 21
12.99038105676662
 31
0.0
210
0.0
220
0.0
230
1.0
 40
0.5773502692
 41
0.9707461133931403
 42
2.2901114122425
  0
LINE
  5
37D
330
2D2
100
AcDbEntity
  8
H765_CACHE_MISER
  6
Continuous
 62
     7
100
AcDbLine
 10
-58.3565954876
 20
-370.3370812743
 30
0.0
 11
-22.9191777015
 21
-390.7968839725
 31
0.0
  0
SPLINE
  5
37E
330
2D2
100
AcDbEntity
  8
H765_CACHE_MISER
  6
Continuous
 62
     7
100
AcDbSpline
210
0.0
220
0.0
230
1.0
 70
     8
 71
     3
 72
    26
 73
    22
 74
     0
 42
0.000000001
 43
0.0000000001
 40
0.0
 40
0.0
 40
0.0
 40
0.0
 40
0.0372661529766959
 40
0.0920416056580173
 40
0.1504395725162576
 40
0.206431436539942
 40
0.261674409785965
 40
0.3168496972052611
 40
0.3721838438342894
 40
0.4277238283917918
 40
0.4834155734536388
 40
0.5391729776745262
 40
0.594889730521833
 40
0.6504470723025002
 40
0.7057503470446936
 40
0.7607281206464306
 40
0.8153917125956752
 40
0.8699520953746038
 40
0.9248974120534311
 40
0.9815886866935174
 40
1.0
 40
1.0
 40
1.0
 40
1.0
 10
-39.07150430390044
 20
-415.7045303158057
 30
0.0
 10
-38.74026719711743
 20
-415.530505366082
 30
0.0
 10
-38.03576959013777
 20
-415.1774845357857
 30
0.0
 10
-36.45143316407401
 20
-415.0239935507389
 30
0.0
 10
-34.44961885320652
 20
-415.2893912894899
 30
0.0
 10
-32.20192926654231
 20
-416.1041908417092
 30
0.0
 10
-29.89433379784634
 20
-417.4090313917225
 30
0.0
 10
-27.58225795530725
 20
-419.1779786440405
 30
0.0
 10
-25.34042002149051
 20
-421.3646767747854
 30
0.0
 10
-23.24350642814083
 20
-423.9065111629441
 30
0.0
 10
-21.36326506292793
 20
-426.7248916162187
 30
0.0
 10
-19.76374595031039
 20
-429.7285475306983
 30
0.0
 10
-18.49812181371349
 20
-432.8171089856976
 30
0.0
 10
-17.60568104460586
 20
-435.8853421433507
 30
0.0
 10
-17.10944606139775
 20
-438.8268716599366
 30
0.0
 10
-17.01363069646306
 20
-441.5402719424966
 30
0.0
 10
-17.30235079263104
 20
-443.929377166557
 30
0.0
 10
-17.93599732312467
 20
-445.9298223716268
 30
0.0
 10
-18.86877302599688
 20
-447.4535903641693
 30
0.0
 10
-19.75469549795539
 20
-448.3830416594818
 30
0.0
 10
-20.35330974483493
 20
-448.6425539883014
 30
0.0
 10
-20.52543553901012
 20
-448.7153126750227
 30
0.0
  0
LINE
  5
37F
330
2D2
100
AcDbEntity
  8
H765_CACHE_MISER
  6
Continuous
 62
     7
100
AcDbLine
 10
-56.8100506668
 20
-261.1663683971
 30
0.0
 11
-63.8811184786
 21
-265.2488513018
 31
0.0
  0
ARC
  5
380
330
2D2
100
AcDbEntity
  8
H765_CACHE_MISER
  6
Continuous
 62
     7
100
AcDbCircle
 10
-61.3811184786
 20
-269.5789783207
 30
0.0
 40
5.000000000000012
100
AcDbArc
 50
120.0
 51
180.0
  0
LINE
  5
381
330
2D2
100
AcDbEntity
  8
H765_CACHE_MISER
  6
Continuous
 62
     7
100
AcDbLine
 10
-66.3811184786
 20
-269.5789783207
 30
0.0
 11
-66.3811184786
 21
-295.0662448016
 31
0.0
  0
LINE
  5
382
330
2D2
100
AcDbEntity
  8
H765_CACHE_MISER
  6
Continuous
 62
     7
100
AcDbLine
 10
-66.3811184786
 20
-295.0473381265
 30
0.0
 11
-87.0062224467
 21
-311.4207134526
 31
0.0
  0
ARC
  5
383
330
2D2
100
AcDbEntity
  8
H765_CACHE_MISER
  6
Continuous
 62
     7
100
AcDbCircle
 10
-73.9045273597
 20
-327.5480765229
 30
0.0
 40
20.77850460823334
100
AcDbArc
 50
129.0900336571
 51
177.6387710223
  0
ARC
  5
384
330
2D2
100
AcDbEntity
  8
H765_CACHE_MISER
  6
Continuous
 62
     7
100
AcDbCircle
 10
-18.4072262242
 20
-382.8904060014
 30
0.0
 40
9.052262625198255
100
AcDbArc
 50
239.5982194798
 51
291.938609463
  0
LINE
  5
385
330
2D2
100
AcDbEntity
  8
H765_CACHE_MISER
  6
Continuous
 62
     7
100
AcDbLine
 10
-94.6653897261
 20
-326.6920113635
 30
0.0
 11
-94.6653897261
 21
-343.1053982263
 31
0.0
  0
LINE
  5
386
330
2D2
100
AcDbEntity
  8
H765_CACHE_MISER
  6
Continuous
 62
     7
100
AcDbLine
 10
-15.0251838465
 20
-391.2871463208
 30
0.0
 11
5.2375736207
 21
-383.9754535219
 31
0.0
  0
ARC
  5
387
330
2D2
100
AcDbEntity
  8
H765_CACHE_MISER
  6
Continuous
 62
     7
100
AcDbCircle
 10
-85.0187269611
 20
-343.7386429631
 30
0.0
 40
9.667424755211082
100
AcDbArc
 50
176.244269016
 51
224.1390993329
  0
LINE
  5
388
330
2D2
100
AcDbEntity
  8
H765_CACHE_MISER
  6
Continuous
 62
     7
100
AcDbLine
 10
8.2940257341
 20
-471.9095262146
 30
0.0
 11
15.365093546
 21
-467.82704331
 31
0.0
  0
ARC
  5
389
330
2D2
100
AcDbEntity
  8
H765_CACHE_MISER
  6
Continuous
 62
     7
100
AcDbCircle
 10
5.7940257341
 20
-467.5793991957
 30
0.0
 40
5.000000000000007
100
AcDbArc
 50
240.0
 51
300.0
  0
LINE
  5
38A
330
2D2
100
AcDbEntity
  8
H765_CACHE_MISER
  6
Continuous
 62
     7
100
AcDbLine
 10
-66.3811184786
 20
-374.9700417833
 30
0.0
 11
-66.3811184786
 21
-428.7958116016
 31
0.0
  0
LINE
  5
38B
330
2D2
100
AcDbEntity
  8
H765_CACHE_MISER
  6
Continuous
 62
     7
100
AcDbLine
 10
-30.6427887772
 20
-452.3160972211
 30
0.0
 11
3.2940257341
 21
-471.9095262146
 31
0.0
  0
ARC
  5
38C
330
2D2
100
AcDbEntity
  8
H765_CACHE_MISER
  6
Continuous
 62
     7
100
AcDbCircle
 10
-61.3811184786
 20
-428.7958116016
 30
0.0
 40
5.000000000000002
100
AcDbArc
 50
180.0
 51
230.3446198816
  0
ENDBLK
  5
38E
330
2D2
100
AcDbEntity
  8
0
100
AcDbBlockEnd
  0
BLOCK
  5
391
330
390
100
AcDbEntity
  8
0
100
AcDbBlockBegin
  2
_OBLIQUE
 70
     0
 10
0.0
 20
0.0
 30
0.0
  3
_OBLIQUE
  1
_OBLIQUE
  0
LINE
  5
393
330
390
100
AcDbEntity
  8
0
  6
ByBlock
 62
     0
370
    -2
100
AcDbLine
 10
-0.5
 20
-0.5
 30
0.0
 11
0.5
 21
0.5
 31
0.0
  0
ENDBLK
  5
392
330
390
100
AcDbEntity
  8
0
100
AcDbBlockEnd
  0
BLOCK
  5
395
330
394
100
AcDbEntity
  8
0
100
AcDbBlockBegin
  2
_DOT
 70
     0
 10
0.0
 20
0.0
 30
0.0
  3
_DOT
  1
_DOT
  0
POLYLINE
  5
397
330
394
100
AcDbEntity
  8
0
  6
ByBlock
 62
     0
100
AcDb2dPolyline
 66
     1
 10
0.0
 20
0.0
 30
0.0
 70
     1
 40
0.5
 41
0.5
  0
VERTEX
  5
399
330
397
100
AcDbEntity
  8
0
  6
ByBlock
 62
     0
100
AcDbVertex
100
AcDb2dVertex
 10
-0.25
 20
0.0
 30
0.0
 42
1.0
  0
VERTEX
  5
39A
330
397
100
AcDbEntity
  8
0
  6
ByBlock
 62
     0
100
AcDbVertex
100
AcDb2dVertex
 10
0.25
 20
0.0
 30
0.0
 42
1.0
  0
SEQEND
  5
39B
330
397
100
AcDbEntity
  8
0
  6
ByBlock
 62
     0
  0
LINE
  5
398
330
394
100
AcDbEntity
  8
0
  6
ByBlock
 62
     0
370
    -2
100
AcDbLine
 10
-0.5
 20
0.0
 30
0.0
 11
-1.0
 21
0.0
 31
0.0
  0
ENDBLK
  5
396
330
394
100
AcDbEntity
  8
0
100
AcDbBlockEnd
  0
BLOCK
  5
39F
330
39C
100
AcDbEntity
  8
0
100
AcDbBlockBegin
  2
_SE_FILLED
 70
     0
 10
0.0
 20
0.0
 30
0.0
  3
_SE_FILLED
  1
_SE_FILLED
  0
SOLID
  5
39D
330
39C
100
AcDbEntity
  8
0
 62
     0
100
AcDbTrace
 10
0.0
 20
0.0
 30
0.0
 11
-1.0
 21
-0.1665
 31
0.0
 12
-1.0
 22
0.1665
 32
0.0
 13
0.0
 23
0.0
 33
0.0
  0
LINE
  5
39E
330
39C
100
AcDbEntity
  8
0
 62
     0
100
AcDbLine
 10
0.0
 20
0.0
 30
0.0
 11
-1.0
 21
0.0
 31
0.0
  0
ENDBLK
  5
3A0
330
39C
100
AcDbEntity
  8
0
100
AcDbBlockEnd
  0
BLOCK
  5
3AC
330
3A4
100
AcDbEntity
  8
0
100
AcDbBlockBegin
  2
DMBLK7
 70
     0
 10
0.0
 20
0.0
 30
0.0
  3
DMBLK7
  1
DMBLK7
  0
HATCH
  5
3A5
330
3A4
100
AcDbEntity
  8
Cartouche
  6
Continuous
 62
     7
100
AcDbHatch
 10
0.0
 20
0.0
 30
0.0
210
0.0
220
0.0
230
1.0
  2
SOLID
 70
     1
 71
     0
 91
        1
 92
        1
 93
        3
 72
     1
 10
372.1668123679552
 20
-82.47119751011456
 11
376.1668124027245
 21
-106.4711977187308
 72
     1
 10
376.1668124027245
 20
-106.4711977187308
 11
380.1668124374939
 21
-82.47119751011456
 72
     1
 10
380.1668124374939
 20
-82.47119751011456
 11
372.1668123679552
 21
-82.47119751011456
 97
        0
 75
     0
 76
     1
 98
        0
  0
HATCH
  5
3A6
330
3A4
100
AcDbEntity
  8
Cartouche
  6
Continuous
 62
     7
100
AcDbHatch
 10
0.0
 20
0.0
 30
0.0
210
0.0
220
0.0
230
1.0
  2
SOLID
 70
     1
 71
     0
 91
        1
 92
        1
 93
        3
 72
     1
 10
372.1668123679552
 20
712.5288020726529
 11
380.1668124374939
 21
712.5288020726529
 72
     1
 10
380.1668124374939
 20
712.5288020726529
 11
376.1668124027245
 21
736.5288022812691
 72
     1
 10
376.1668124027245
 20
736.5288022812691
 11
372.1668123679552
 21
712.5288020726529
 97
        0
 75
     0
 76
     1
 98
        0
  0
LINE
  5
3A7
330
3A4
100
AcDbEntity
  8
Cartouche
  6
Continuous
 62
     7
100
AcDbLine
 10
407.2990280367
 20
-106.4711977187
 30
0.0
 11
368.1668120227
 21
-106.4711977187
 31
0.0
  0
LINE
  5
3A8
330
3A4
100
AcDbEntity
  8
Cartouche
  6
Continuous
 62
     7
100
AcDbLine
 10
444.2990280367
 20
736.5288022813
 30
0.0
 11
368.1668120227
 21
736.5288022813
 31
0.0
  0
LINE
  5
3A9
330
3A4
100
AcDbEntity
  8
Cartouche
  6
Continuous
 62
     7
100
AcDbLine
 10
376.1668124027
 20
-106.4711977187
 30
0.0
 11
376.1668124027
 21
301.4288078603
 31
0.0
  0
LINE
  5
3AA
330
3A4
100
AcDbEntity
  8
Cartouche
  6
Continuous
 62
     7
100
AcDbLine
 10
376.1668124027
 20
328.6287967023
 30
0.0
 11
376.1668124027
 21
736.5288022813
 31
0.0
  0
TEXT
  5
3AB
330
3A4
100
AcDbEntity
  8
Cartouche
  6
Continuous
 62
     7
100
AcDbText
 10
358.0334790694
 20
307.0287996587
 30
0.0
 40
16.0
  1
843
  7
SEACAD_ArialB
 11
358.0334790694
 21
323.0287996587
 31
0.0
100
AcDbText
 73
     3
  0
ENDBLK
  5
3AD
330
3A4
100
AcDbEntity
  8
0
100
AcDbBlockEnd
  0
BLOCK
  5
3B7
330
3AF
100
AcDbEntity
  8
0
100
AcDbBlockBegin
  2
DMBLK8
 70
     0
 10
0.0
 20
0.0
 30
0.0
  3
DMBLK8
  1
DMBLK8
  0
HATCH
  5
3B0
330
3AF
100
AcDbEntity
  8
Cartouche
  6
Continuous
 62
     7
100
AcDbHatch
 10
0.0
 20
0.0
 30
0.0
210
0.0
220
0.0
230
1.0
  2
SOLID
 70
     1
 71
     0
 91
        1
 92
        1
 93
        3
 72
     1
 10
210.71418701336
 20
-195.6322622946644
 11
186.7141868047437
 21
-199.6322623294338
 72
     1
 10
186.7141868047437
 20
-199.6322623294338
 11
210.71418701336
 21
-203.6322623642031
 72
     1
 10
210.71418701336
 20
-203.6322623642031
 11
210.71418701336
 21
-195.6322622946644
 97
        0
 75
     0
 76
     1
 98
        0
  0
HATCH
  5
3B1
330
3AF
100
AcDbEntity
  8
Cartouche
  6
Continuous
 62
     7
100
AcDbHatch
 10
0.0
 20
0.0
 30
0.0
210
0.0
220
0.0
230
1.0
  2
SOLID
 70
     1
 71
     0
 91
        1
 92
        1
 93
        3
 72
     1
 10
312.7141865961274
 20
-195.6322622946644
 11
312.7141865961274
 21
-203.6322623642031
 72
     1
 10
312.7141865961274
 20
-203.6322623642031
 11
336.7141868047436
 21
-199.6322623294338
 72
     1
 10
336.7141868047436
 20
-199.6322623294338
 11
312.7141865961274
 21
-195.6322622946644
 97
        0
 75
     0
 76
     1
 98
        0
  0
LINE
  5
3B2
330
3AF
100
AcDbEntity
  8
Cartouche
  6
Continuous
 62
     7
100
AcDbLine
 10
186.7141868047
 20
-242.2718903821
 30
0.0
 11
186.7141868047
 21
-191.6322619495
 31
0.0
  0
LINE
  5
3B3
330
3AF
100
AcDbEntity
  8
Cartouche
  6
Continuous
 62
     7
100
AcDbLine
 10
336.7141868047
 20
-242.2718903821
 30
0.0
 11
336.7141868047
 21
-191.6322619495
 31
0.0
  0
LINE
  5
3B4
330
3AF
100
AcDbEntity
  8
Cartouche
  6
Continuous
 62
     7
100
AcDbLine
 10
186.7141868047
 20
-199.6322623294
 30
0.0
 11
237.9808570318
 21
-199.6322623294
 31
0.0
  0
LINE
  5
3B5
330
3AF
100
AcDbEntity
  8
Cartouche
  6
Continuous
 62
     7
100
AcDbLine
 10
285.4475240283
 20
-199.6322623294
 30
0.0
 11
336.7141868047
 21
-199.6322623294
 31
0.0
  0
TEXT
  5
3B6
330
3AF
100
AcDbEntity
  8
Cartouche
  6
Continuous
 62
     7
100
AcDbText
 10
243.5808564516
 20
-207.6322623294
 30
0.0
 40
16.0
  1
150
  7
SEACAD_ArialB
 11
243.5808564516
 21
-191.6322623294
 31
0.0
100
AcDbText
 73
     3
  0
ENDBLK
  5
3B8
330
3AF
100
AcDbEntity
  8
0
100
AcDbBlockEnd
  0
BLOCK
  5
3C2
330
3BA
100
AcDbEntity
  8
0
100
AcDbBlockBegin
  2
DMBLK9
 70
     0
 10
0.0
 20
0.0
 30
0.0
  3
DMBLK9
  1
DMBLK9
  0
HATCH
  5
3BB
330
3BA
100
AcDbEntity
  8
Cartouche
  6
Continuous
 62
     7
100
AcDbHatch
 10
0.0
 20
0.0
 30
0.0
210
0.0
220
0.0
230
1.0
  2
SOLID
 70
     1
 71
     0
 91
        1
 92
        1
 93
        3
 72
     1
 10
401.6249434274952
 20
-261.2718905907615
 11
397.6249433927258
 21
-237.2718903821453
 72
     1
 10
397.6249433927258
 20
-237.2718903821452
 11
393.6249433579565
 21
-261.2718905907615
 72
     1
 10
393.6249433579565
 20
-261.2718905907615
 11
401.6249434274952
 21
-261.2718905907615
 97
        0
 75
     0
 76
     1
 98
        0
  0
HATCH
  5
3BC
330
3BA
100
AcDbEntity
  8
Cartouche
  6
Continuous
 62
     7
100
AcDbHatch
 10
0.0
 20
0.0
 30
0.0
210
0.0
220
0.0
230
1.0
  2
SOLID
 70
     1
 71
     0
 91
        1
 92
        1
 93
        3
 72
     1
 10
401.6249434274952
 20
-413.271890173529
 11
393.6249433579565
 21
-413.271890173529
 72
     1
 10
393.6249433579565
 20
-413.271890173529
 11
397.6249433927258
 21
-437.2718903821453
 72
     1
 10
397.6249433927258
 20
-437.2718903821453
 11
401.6249434274952
 21
-413.271890173529
 97
        0
 75
     0
 76
     1
 98
        0
  0
LINE
  5
3BD
330
3BA
100
AcDbEntity
  8
Cartouche
  6
Continuous
 62
     7
100
AcDbLine
 10
331.7141868047
 20
-237.2718903821
 30
0.0
 11
405.6249437727
 21
-237.2718903821
 31
0.0
  0
LINE
  5
3BE
330
3BA
100
AcDbEntity
  8
Cartouche
  6
Continuous
 62
     7
100
AcDbLine
 10
331.7141868047
 20
-437.2718903821
 30
0.0
 11
405.6249437727
 21
-437.2718903821
 31
0.0
  0
LINE
  5
3BF
330
3BA
100
AcDbEntity
  8
Cartouche
  6
Continuous
 62
     7
100
AcDbLine
 10
397.6249433927
 20
-237.2718903821
 30
0.0
 11
397.6249433927
 21
-323.6718926233
 31
0.0
  0
LINE
  5
3C0
330
3BA
100
AcDbEntity
  8
Cartouche
  6
Continuous
 62
     7
100
AcDbLine
 10
397.6249433927
 20
-350.8718955916
 30
0.0
 11
397.6249433927
 21
-437.2718903821
 31
0.0
  0
TEXT
  5
3C1
330
3BA
100
AcDbEntity
  8
Cartouche
  6
Continuous
 62
     7
100
AcDbText
 10
379.4916100594
 20
-345.2718918723
 30
0.0
 40
16.0
  1
200
  7
SEACAD_ArialB
 11
379.4916100594
 21
-329.2718918723
 31
0.0
100
AcDbText
 73
     3
  0
ENDBLK
  5
3C3
330
3BA
100
AcDbEntity
  8
0
100
AcDbBlockEnd
  0
BLOCK
  5
3CD
330
3C5
100
AcDbEntity
  8
0
100
AcDbBlockBegin
  2
DMBLK10
 70
     0
 10
0.0
 20
0.0
 30
0.0
  3
DMBLK10
  1
DMBLK10
  0
HATCH
  5
3C6
330
3C5
100
AcDbEntity
  8
Cartouche
  6
Continuous
 62
     7
100
AcDbHatch
 10
0.0
 20
0.0
 30
0.0
210
0.0
220
0.0
230
1.0
  2
SOLID
 70
     1
 71
     0
 91
        1
 92
        1
 93
        3
 72
     1
 10
526.2990282453292
 20
786.3087312088894
 11
502.2990280367129
 21
782.30873117412
 72
     1
 10
502.2990280367129
 20
782.30873117412
 11
526.2990282453292
 21
778.3087311393506
 72
     1
 10
526.2990282453292
 20
778.3087311393506
 11
526.2990282453292
 21
786.3087312088894
 97
        0
 75
     0
 76
     1
 98
        0
  0
HATCH
  5
3C7
330
3C5
100
AcDbEntity
  8
Cartouche
  6
Continuous
 62
     7
100
AcDbHatch
 10
0.0
 20
0.0
 30
0.0
210
0.0
220
0.0
230
1.0
  2
SOLID
 70
     1
 71
     0
 91
        1
 92
        1
 93
        3
 72
     1
 10
1278.282781494386
 20
786.3087312088894
 11
1278.282781494386
 21
778.3087311393506
 72
     1
 10
1278.282781494386
 20
778.3087311393506
 11
1302.282781703002
 21
782.30873117412
 72
     1
 10
1302.282781703002
 20
782.30873117412
 11
1278.282781494386
 21
786.3087312088894
 97
        0
 75
     0
 76
     1
 98
        0
  0
LINE
  5
3C8
330
3C5
100
AcDbEntity
  8
Cartouche
  6
Continuous
 62
     7
100
AcDbLine
 10
502.2990280367
 20
734.5288022813
 30
0.0
 11
502.2990280367
 21
790.3087315541
 31
0.0
  0
LINE
  5
3C9
330
3C5
100
AcDbEntity
  8
Cartouche
  6
Continuous
 62
     7
100
AcDbLine
 10
1302.282781703
 20
618.1104695813
 30
0.0
 11
1302.282781703
 21
790.3087315541
 31
0.0
  0
LINE
  5
3CA
330
3C5
100
AcDbEntity
  8
Cartouche
  6
Continuous
 62
     7
100
AcDbLine
 10
502.2990280367
 20
782.3087311741
 30
0.0
 11
878.5575503088
 21
782.3087311741
 31
0.0
  0
LINE
  5
3CB
330
3C5
100
AcDbEntity
  8
Cartouche
  6
Continuous
 62
     7
100
AcDbLine
 10
926.0242296286
 20
782.3087311741
 30
0.0
 11
1302.282781703
 21
782.3087311741
 31
0.0
  0
TEXT
  5
3CC
330
3C5
100
AcDbEntity
  8
Cartouche
  6
Continuous
 62
     7
100
AcDbText
 10
884.1575646298
 20
774.3087311741
 30
0.0
 40
16.0
  1
800
  7
SEACAD_ArialB
 11
884.1575646298
 21
790.3087311741
 31
0.0
100
AcDbText
 73
     3
  0
ENDBLK
  5
3CE
330
3C5
100
AcDbEntity
  8
0
100
AcDbBlockEnd
  0
BLOCK
  5
3D8
330
3D0
100
AcDbEntity
  8
0
100
AcDbBlockBegin
  2
DMBLK11
 70
     0
 10
0.0
 20
0.0
 30
0.0
  3
DMBLK11
  1
DMBLK11
  0
HATCH
  5
3D1
330
3D0
100
AcDbEntity
  8
Cartouche
  6
Continuous
 62
     7
100
AcDbHatch
 10
0.0
 20
0.0
 30
0.0
210
0.0
220
0.0
230
1.0
  2
SOLID
 70
     1
 71
     0
 91
        1
 92
        1
 93
        3
 72
     1
 10
1349.139553162177
 20
669.528802072653
 11
1345.139553127407
 21
693.5288022812692
 72
     1
 10
1345.139553127407
 20
693.5288022812692
 11
1341.139553092638
 21
669.528802072653
 72
     1
 10
1341.139553092638
 20
669.528802072653
 11
1349.139553162177
 21
669.528802072653
 97
        0
 75
     0
 76
     1
 98
        0
  0
HATCH
  5
3D2
330
3D0
100
AcDbEntity
  8
Cartouche
  6
Continuous
 62
     7
100
AcDbHatch
 10
0.0
 20
0.0
 30
0.0
210
0.0
220
0.0
230
1.0
  2
SOLID
 70
     1
 71
     0
 91
        1
 92
        1
 93
        3
 72
     1
 10
1349.139553162177
 20
563.5288024898855
 11
1341.139553092638
 21
563.5288024898855
 72
     1
 10
1341.139553092638
 20
563.5288024898855
 11
1345.139553127407
 21
539.5288022812692
 72
     1
 10
1345.139553127407
 20
539.5288022812692
 11
1349.139553162177
 21
563.5288024898855
 97
        0
 75
     0
 76
     1
 98
        0
  0
LINE
  5
3D3
330
3D0
100
AcDbEntity
  8
Cartouche
  6
Continuous
 62
     7
100
AcDbLine
 10
1225.2990280367
 20
693.5288022813
 30
0.0
 11
1353.1395535074
 21
693.5288022813
 31
0.0
  0
LINE
  5
3D4
330
3D0
100
AcDbEntity
  8
Cartouche
  6
Continuous
 62
     7
100
AcDbLine
 10
1225.2990280367
 20
539.5288022813
 30
0.0
 11
1353.1395535074
 21
539.5288022813
 31
0.0
  0
LINE
  5
3D5
330
3D0
100
AcDbEntity
  8
Cartouche
  6
Continuous
 62
     7
100
AcDbLine
 10
1345.1395531274
 20
693.5288022813
 30
0.0
 11
1345.1395531274
 21
630.1288019475
 31
0.0
  0
LINE
  5
3D6
330
3D0
100
AcDbEntity
  8
Cartouche
  6
Continuous
 62
     7
100
AcDbLine
 10
1345.1395531274
 20
602.9288026151
 30
0.0
 11
1345.1395531274
 21
539.5288022813
 31
0.0
  0
TEXT
  5
3D7
330
3D0
100
AcDbEntity
  8
Cartouche
  6
Continuous
 62
     7
100
AcDbText
 10
1327.0062197941
 20
608.5288026985
 30
0.0
 40
16.0
  1
154
  7
SEACAD_ArialB
 11
1327.0062197941
 21
624.5288026985
 31
0.0
100
AcDbText
 73
     3
  0
ENDBLK
  5
3D9
330
3D0
100
AcDbEntity
  8
0
100
AcDbBlockEnd
  0
BLOCK
  5
3E3
330
3DB
100
AcDbEntity
  8
0
100
AcDbBlockBegin
  2
DMBLK12
 70
     0
 10
0.0
 20
0.0
 30
0.0
  3
DMBLK12
  1
DMBLK12
  0
HATCH
  5
3DC
330
3DB
100
AcDbEntity
  8
Cartouche
  6
Continuous
 62
     7
100
AcDbHatch
 10
0.0
 20
0.0
 30
0.0
210
0.0
220
0.0
230
1.0
  2
SOLID
 70
     1
 71
     0
 91
        1
 92
        1
 93
        3
 72
     1
 10
152.3821251216055
 20
-261.2718905907615
 11
160.3821251911442
 21
-261.2718905907615
 72
     1
 10
160.3821251911442
 20
-261.2718905907615
 11
156.3821251563748
 21
-237.2718903821453
 72
     1
 10
156.3821251563749
 20
-237.2718903821452
 11
152.3821251216055
 21
-261.2718905907615
 97
        0
 75
     0
 76
     1
 98
        0
  0
HATCH
  5
3DD
330
3DB
100
AcDbEntity
  8
Cartouche
  6
Continuous
 62
     7
100
AcDbHatch
 10
0.0
 20
0.0
 30
0.0
210
0.0
220
0.0
230
1.0
  2
SOLID
 70
     1
 71
     0
 91
        1
 92
        1
 93
        3
 72
     1
 10
152.3821251216055
 20
-1113.199425025515
 11
156.3821251563749
 21
-1137.199425234131
 72
     1
 10
156.3821251563749
 20
-1137.199425234131
 11
160.3821251911442
 21
-1113.199425025515
 72
     1
 10
160.3821251911442
 20
-1113.199425025515
 11
152.3821251216054
 21
-1113.199425025515
 97
        0
 75
     0
 76
     1
 98
        0
  0
LINE
  5
3DE
330
3DB
100
AcDbEntity
  8
Cartouche
  6
Continuous
 62
     7
100
AcDbLine
 10
261.7141868047
 20
-237.2718903821
 30
0.0
 11
148.3821247764
 21
-237.2718903821
 31
0.0
  0
LINE
  5
3DF
330
3DB
100
AcDbEntity
  8
Cartouche
  6
Continuous
 62
     7
100
AcDbLine
 10
260.1462059902
 20
-1137.1994252341
 30
0.0
 11
148.3821247764
 21
-1137.1994252341
 31
0.0
  0
LINE
  5
3E0
330
3DB
100
AcDbEntity
  8
Cartouche
  6
Continuous
 62
     7
100
AcDbLine
 10
156.3821251564
 20
-237.2718903821
 30
0.0
 11
156.3821251564
 21
-673.6356768411
 31
0.0
  0
LINE
  5
3E1
330
3DB
100
AcDbEntity
  8
Cartouche
  6
Continuous
 62
     7
100
AcDbLine
 10
156.3821251564
 20
-700.8356685775
 30
0.0
 11
156.3821251564
 21
-1137.1994252341
 31
0.0
  0
TEXT
  5
3E2
330
3DB
100
AcDbEntity
  8
Cartouche
  6
Continuous
 62
     7
100
AcDbText
 10
138.248791823
 20
-695.2356686395
 30
0.0
 40
16.0
  1
900
  7
SEACAD_ArialB
 11
138.248791823
 21
-679.2356686395
 31
0.0
100
AcDbText
 73
     3
  0
ENDBLK
  5
3E4
330
3DB
100
AcDbEntity
  8
0
100
AcDbBlockEnd
  0
ENDSEC
  0
SECTION
  2
ENTITIES
  0
LINE
  5
6F
330
1F
100
AcDbEntity
  8
encadrement
  6
Continuous
 62
     7
100
AcDbLine
 10
10.0
 20
80.035459542
 30
0.0
 11
200.0
 21
80.035459542
 31
0.0
  0
LINE
  5
70
330
1F
100
AcDbEntity
  8
encadrement
  6
Continuous
 62
     7
100
AcDbLine
 10
10.0
 20
65.035459542
 30
0.0
 11
200.0
 21
65.035459542
 31
0.0
  0
LINE
  5
71
330
1F
100
AcDbEntity
  8
encadrement
  6
Continuous
 62
     7
100
AcDbLine
 10
10.0
 20
55.035459542
 30
0.0
 11
200.0
 21
55.035459542
 31
0.0
  0
LINE
  5
72
330
1F
100
AcDbEntity
  8
encadrement
  6
Continuous
 62
     7
100
AcDbLine
 10
10.0
 20
45.035459542
 30
0.0
 11
200.0
 21
45.035459542
 31
0.0
  0
LINE
  5
73
330
1F
100
AcDbEntity
  8
encadrement
  6
Continuous
 62
     7
100
AcDbLine
 10
10.0
 20
35.035459542
 30
0.0
 11
200.0
 21
35.035459542
 31
0.0
  0
INSERT
  5
76
330
1F
100
AcDbEntity
  8
Cartouche
100
AcDbBlockReference
  2
SEANNOT_GROUP
 10
0.0
 20
0.0
 30
0.0
  0
INSERT
  5
81
330
1F
100
AcDbEntity
  8
Cartouche
100
AcDbBlockReference
  2
SE
 10
0.0
 20
0.0
 30
0.0
  0
INSERT
  5
100
330
1F
100
AcDbEntity
  8
Cartouche
100
AcDbBlockReference
  2
SE1
 10
0.0
 20
0.0
 30
0.0
  0
INSERT
  5
154
330
1F
100
AcDbEntity
  8
Cartouche
100
AcDbBlockReference
  2
SE2
 10
0.0
 20
0.0
 30
0.0
  0
INSERT
  5
1A9
330
1F
100
AcDbEntity
  8
Cartouche
100
AcDbBlockReference
  2
SE3
 10
0.0
 20
0.0
 30
0.0
  0
INSERT
  5
217
330
1F
100
AcDbEntity
  8
Cartouche
100
AcDbBlockReference
  2
SE4
 10
0.0
 20
0.0
 30
0.0
  0
INSERT
  5
2D3
330
1F
100
AcDbEntity
  8
Cartouche
100
AcDbBlockReference
  2
SE5
 10
0.0
 20
0.0
 30
0.0
  0
DIMENSION
  5
3A3
330
1F
100
AcDbEntity
  8
Cartouche
  6
Continuous
 62
     7
100
AcDbDimension
  2
DMBLK7
 10
376.1668124027
 20
736.5288022813
 30
0.0
 11
376.1668124027
 21
315.0287996587
 31
0.0
 70
   160
  1
\A1;<>
 71
     5
 42
-1.0
 73
     0
 74
     0
 75
     0
  3
ISO
100
AcDbAlignedDimension
 13
407.2990280367
 23
-106.4711977187
 33
0.0
 14
444.2990280367
 24
736.5288022813
 34
0.0
 50
90.0
100
AcDbRotatedDimension
  0
DIMENSION
  5
3AE
330
1F
100
AcDbEntity
  8
Cartouche
  6
Continuous
 62
     7
100
AcDbDimension
  2
DMBLK8
 10
186.7141868047
 20
-199.6322623294
 30
0.0
 11
261.714189785
 21
-199.6322623294
 31
0.0
 70
   161
  1
\A1;<>
 71
     5
 42
-1.0
 73
     0
 74
     0
 75
     0
  3
ISO
100
AcDbAlignedDimension
 13
186.7141868047
 23
-242.2718903821
 33
0.0
 14
336.7141868047
 24
-242.2718903821
 34
0.0
  0
DIMENSION
  5
3B9
330
1F
100
AcDbEntity
  8
Cartouche
  6
Continuous
 62
     7
100
AcDbDimension
  2
DMBLK9
 10
397.6249433927
 20
-237.2718903821
 30
0.0
 11
397.6249433927
 21
-337.2718918723
 31
0.0
 70
   161
  1
\A1;<>
 71
     5
 42
-1.0
 73
     0
 74
     0
 75
     0
  3
ISO
100
AcDbAlignedDimension
 13
331.7141868047
 23
-237.2718903821
 33
0.0
 14
331.7141868047
 24
-437.2718903821
 34
0.0
  0
DIMENSION
  5
3C4
330
1F
100
AcDbEntity
  8
Cartouche
  6
Continuous
 62
     7
100
AcDbDimension
  2
DMBLK10
 10
1302.282781703
 20
782.3087311741
 30
0.0
 11
902.2908979632
 21
782.3087311741
 31
0.0
 70
   160
  1
\A1;<>
 71
     5
 42
-1.0
 73
     0
 74
     0
 75
     0
  3
ISO
100
AcDbAlignedDimension
 13
502.2990280367
 23
734.5288022813
 33
0.0
 14
1302.282781703
 24
618.1104695813
 34
0.0
100
AcDbRotatedDimension
  0
DIMENSION
  5
3CF
330
1F
100
AcDbEntity
  8
Cartouche
  6
Continuous
 62
     7
100
AcDbDimension
  2
DMBLK11
 10
1345.1395531274
 20
693.5288022813
 30
0.0
 11
1345.1395531274
 21
616.5288026985
 31
0.0
 70
   161
  1
\A1;<>
 71
     5
 42
-1.0
 73
     0
 74
     0
 75
     0
  3
ISO
100
AcDbAlignedDimension
 13
1225.2990280367
 23
693.5288022813
 33
0.0
 14
1225.2990280367
 24
539.5288022813
 34
0.0
  0
DIMENSION
  5
3DA
330
1F
100
AcDbEntity
  8
Cartouche
  6
Continuous
 62
     7
100
AcDbDimension
  2
DMBLK12
 10
156.3821251564
 20
-237.2718903821
 30
0.0
 11
156.3821251564
 21
-687.2356686395
 31
0.0
 70
   161
  1
\A1;<>
 71
     5
 42
-1.0
 73
     0
 74
     0
 75
     0
  3
ISO
100
AcDbAlignedDimension
 13
261.7141868047
 23
-237.2718903821
 33
0.0
 14
260.1462059902
 24
-1137.1994252341
 34
0.0
  0
ENDSEC
  0
SECTION
  2
OBJECTS
  0
DICTIONARY
  5
C
330
0
100
AcDbDictionary
281
     1
  3
ACAD_DETAILVIEWSTYLE
350
420
  3
ACAD_GROUP
350
D
  3
ACAD_LAYOUT
350
1A
  3
ACAD_MATERIAL
350
43
  3
ACAD_MLEADERSTYLE
350
6B
  3
ACAD_MLINESTYLE
350
17
  3
ACAD_PLOTSETTINGS
350
19
  3
ACAD_PLOTSTYLENAME
350
E
  3
ACAD_SCALELIST
350
47
  3
ACAD_SECTIONVIEWSTYLE
350
421
  3
ACAD_TABLESTYLE
350
69
  3
ACAD_VISUALSTYLE
350
2A
  3
ACDB_RECOMPOSE_DATA
350
41D
  3
AcDbVariableDictionary
350
3E5
  0
SUN
  5
6D
330
29
100
AcDbSun
 90
        1
290
     0
 63
     7
421
 16777215
 40
1.0
291
     1
 91
  2455826
 92
 54000000
292
     0
 70
     2
 71
   256
280
     1
  0
DICTIONARY
  5
420
102
{ACAD_REACTORS
330
C
102
}
330
C
100
AcDbDictionary
281
     1
  0
DICTIONARY
  5
D
102
{ACAD_REACTORS
330
C
102
}
330
C
100
AcDbDictionary
281
     1
  0
DICTIONARY
  5
1A
102
{ACAD_REACTORS
330
C
102
}
330
C
100
AcDbDictionary
281
     1
  3
Layout1
350
1E
  3
Model
350
22
  0
DICTIONARY
  5
43
102
{ACAD_REACTORS
330
C
102
}
330
C
100
AcDbDictionary
281
     1
  3
ByBlock
350
45
  3
ByLayer
350
44
  3
Global
350
46
  0
DICTIONARY
  5
6B
102
{ACAD_REACTORS
330
C
102
}
330
C
100
AcDbDictionary
281
     1
  3
Standard
350
6C
  0
DICTIONARY
  5
17
102
{ACAD_REACTORS
330
C
102
}
330
C
100
AcDbDictionary
281
     1
  3
Standard
350
18
  0
DICTIONARY
  5
19
102
{ACAD_REACTORS
330
C
102
}
330
C
100
AcDbDictionary
281
     1
  0
ACDBDICTIONARYWDFLT
  5
E
102
{ACAD_REACTORS
330
C
102
}
330
C
100
AcDbDictionary
281
     1
  3
Normal
350
F
100
AcDbDictionaryWithDefault
340
F
  0
DICTIONARY
  5
47
102
{ACAD_REACTORS
330
C
102
}
330
C
100
AcDbDictionary
281
     1
  3
A0
350
48
  3
A1
350
49
  3
A2
350
4A
  3
A3
350
4B
  3
A4
350
4C
  3
A5
350
4D
  3
A6
350
4E
  3
A7
350
4F
  3
A8
350
50
  3
A9
350
51
  3
B0
350
52
  3
B1
350
53
  3
B2
350
54
  3
B3
350
55
  3
B4
350
56
  3
B5
350
57
  3
B6
350
58
  3
B7
350
59
  3
B8
350
5A
  3
B9
350
5B
  3
C0
350
5C
  3
C1
350
5D
  3
C2
350
5E
  3
C3
350
5F
  3
C4
350
60
  3
C5
350
61
  3
C6
350
62
  3
C7
350
63
  3
C8
350
64
  3
C9
350
65
  3
D0
350
66
  3
D1
350
67
  3
D2
350
68
  0
DICTIONARY
  5
421
102
{ACAD_REACTORS
330
C
102
}
330
C
100
AcDbDictionary
281
     1
  0
DICTIONARY
  5
69
102
{ACAD_REACTORS
330
C
102
}
330
C
100
AcDbDictionary
281
     1
  3
Standard
350
6A
  0
DICTIONARY
  5
2A
102
{ACAD_REACTORS
330
C
102
}
330
C
100
AcDbDictionary
281
     1
  3
2dWireframe
350
2F
  3
Basic
350
32
  3
Brighten
350
36
  3
ColorChange
350
3A
  3
Conceptual
350
34
  3
Dim
350
35
  3
EdgeColorOff
350
3D
  3
Facepattern
350
39
  3
Flat
350
2B
  3
FlatWithEdges
350
2C
  3
Gouraud
350
2D
  3
GouraudWithEdges
350
2E
  3
Hidden
350
31
  3
JitterOff
350
3B
  3
Linepattern
350
38
  3
OverhangOff
350
3C
  3
Realistic
350
33
  3
Shaded
350
42
  3
Shaded with edges
350
41
  3
Shades of Gray
350
3E
  3
Sketchy
350
3F
  3
Thicken
350
37
  3
Wireframe
350
30
  3
X-Ray
350
40
  0
XRECORD
  5
41D
102
{ACAD_REACTORS
330
C
102
}
330
C
100
AcDbXrecord
280
     1
 90
        1
330
6A
  0
DICTIONARY
  5
3E5
102
{ACAD_REACTORS
330
C
102
}
330
C
100
AcDbDictionary
281
     1
  3
CANNOSCALE
350
3E6
  3
CMLEADERSTYLE
350
41F
  3
CTABLESTYLE
350
41E
  3
XCLIPFRAME
350
3E7
  0
LAYOUT
  5
1E
102
{ACAD_REACTORS
330
1A
102
}
330
1A
100
AcDbPlotSettings
  1

  2
none_device
  4

  6

 40
0.0
 41
0.0
 42
0.0
 43
0.0
 44
0.0
 45
0.0
 46
0.0
 47
0.0
 48
0.0
 49
0.0
140
0.0
141
0.0
142
1.0
143
1.0
 70
   688
 72
     1
 73
     0
 74
     5
  7

 75
    16
 76
     0
 77
     2
 78
   300
147
1.0
148
0.0
149
0.0
100
AcDbLayout
  1
Layout1
 70
     1
 71
     1
 10
0.0
 20
0.0
 11
550.0
 21
511.0
 12
0.0
 22
0.0
 32
0.0
 14
0.0
 24
0.0
 34
0.0
 15
550.0
 25
511.0
 35
0.0
146
0.0
 13
0.0
 23
0.0
 33
0.0
 16
1.0
 26
0.0
 36
0.0
 17
0.0
 27
1.0
 37
0.0
 76
     0
330
1B
  0
LAYOUT
  5
22
102
{ACAD_REACTORS
330
1A
102
}
330
1A
100
AcDbPlotSettings
  1

  2
none_device
  4
Letter_(8.50_x_11.00_Inches)
  6

 40
6.35
 41
6.35
 42
6.35000508
 43
6.35000508
 44
215.9
 45
279.4
 46
0.0
 47
0.0
 48
0.0
 49
0.0
140
0.0
141
0.0
142
1.0
143
1.0
 70
  1712
 72
     1
 73
     0
 74
     0
  7

 75
     0
 76
     0
 77
     2
 78
   300
147
1.0
148
0.0
149
0.0
100
AcDbLayout
  1
Model
 70
     1
 71
     0
 10
0.0
 20
0.0
 11
550.0
 21
511.0
 12
0.0
 22
0.0
 32
0.0
 14
0.0
 24
0.0
 34
0.0
 15
550.0
 25
511.0
 35
0.0
146
0.0
 13
0.0
 23
0.0
 33
0.0
 16
1.0
 26
0.0
 36
0.0
 17
0.0
 27
1.0
 37
0.0
 76
     0
330
1F
331
29
  0
MATERIAL
  5
45
102
{ACAD_REACTORS
330
43
102
}
330
43
100
AcDbMaterial
  1
ByBlock
 72
     1
 94
      127
  0
MATERIAL
  5
44
102
{ACAD_REACTORS
330
43
102
}
330
43
100
AcDbMaterial
  1
ByLayer
 72
     1
 94
      127
  0
MATERIAL
  5
46
102
{ACAD_REACTORS
330
43
102
}
330
43
100
AcDbMaterial
  1
Global
 72
     1
 94
      127
  0
MLEADERSTYLE
  5
6C
102
{ACAD_REACTORS
330
6B
102
}
102
{ACAD_XDICTIONARY
360
41B
102
}
330
6B
100
AcDbMLeaderStyle
170
     2
171
     1
172
     0
 90
        2
 40
0.0
 41
0.0
173
     1
 91
-1056964608
340
14
 92
       -2
290
     1
 42
2.0
291
     1
 43
8.0
  3
Standard
341
0
 44
4.0
300

342
11
174
     1
178
     6
175
     1
176
     0
 93
-1056964608
 45
4.0
292
     0
297
     0
 46
4.0
343
0
 94
-1056964608
 47
1.0
 49
1.0
140
1.0
293
     1
141
0.0
294
     1
177
     0
142
1.0
295
     0
296
     0
143
3.75
1001
ACAD_MLEADERVER
1070
     2
  0
MLINESTYLE
  5
18
102
{ACAD_REACTORS
330
17
102
}
330
17
100
AcDbMlineStyle
  2
Standard
 70
     0
  3

 62
   256
 51
90.0
 52
90.0
 71
     2
 49
0.5
 62
   256
  6
BYLAYER
 49
-0.5
 62
   256
  6
BYLAYER
  0
ACDBPLACEHOLDER
  5
F
102
{ACAD_REACTORS
330
E
102
}
330
E
  0
SCALE
  5
48
102
{ACAD_REACTORS
330
47
102
}
330
47
100
AcDbScale
 70
     0
300
1:1
140
1.0
141
1.0
290
     1
  0
SCALE
  5
49
102
{ACAD_REACTORS
330
47
102
}
330
47
100
AcDbScale
 70
     0
300
1:2
140
1.0
141
2.0
290
     0
  0
SCALE
  5
4A
102
{ACAD_REACTORS
330
47
102
}
330
47
100
AcDbScale
 70
     0
300
1:4
140
1.0
141
4.0
290
     0
  0
SCALE
  5
4B
102
{ACAD_REACTORS
330
47
102
}
330
47
100
AcDbScale
 70
     0
300
1:5
140
1.0
141
5.0
290
     0
  0
SCALE
  5
4C
102
{ACAD_REACTORS
330
47
102
}
330
47
100
AcDbScale
 70
     0
300
1:8
140
1.0
141
8.0
290
     0
  0
SCALE
  5
4D
102
{ACAD_REACTORS
330
47
102
}
330
47
100
AcDbScale
 70
     0
300
1:10
140
1.0
141
10.0
290
     0
  0
SCALE
  5
4E
102
{ACAD_REACTORS
330
47
102
}
330
47
100
AcDbScale
 70
     0
300
1:16
140
1.0
141
16.0
290
     0
  0
SCALE
  5
4F
102
{ACAD_REACTORS
330
47
102
}
330
47
100
AcDbScale
 70
     0
300
1:20
140
1.0
141
20.0
290
     0
  0
SCALE
  5
50
102
{ACAD_REACTORS
330
47
102
}
330
47
100
AcDbScale
 70
     0
300
1:30
140
1.0
141
30.0
290
     0
  0
SCALE
  5
51
102
{ACAD_REACTORS
330
47
102
}
330
47
100
AcDbScale
 70
     0
300
1:40
140
1.0
141
40.0
290
     0
  0
SCALE
  5
52
102
{ACAD_REACTORS
330
47
102
}
330
47
100
AcDbScale
 70
     0
300
1:50
140
1.0
141
50.0
290
     0
  0
SCALE
  5
53
102
{ACAD_REACTORS
330
47
102
}
330
47
100
AcDbScale
 70
     0
300
1:100
140
1.0
141
100.0
290
     0
  0
SCALE
  5
54
102
{ACAD_REACTORS
330
47
102
}
330
47
100
AcDbScale
 70
     0
300
2:1
140
2.0
141
1.0
290
     0
  0
SCALE
  5
55
102
{ACAD_REACTORS
330
47
102
}
330
47
100
AcDbScale
 70
     0
300
4:1
140
4.0
141
1.0
290
     0
  0
SCALE
  5
56
102
{ACAD_REACTORS
330
47
102
}
330
47
100
AcDbScale
 70
     0
300
8:1
140
8.0
141
1.0
290
     0
  0
SCALE
  5
57
102
{ACAD_REACTORS
330
47
102
}
330
47
100
AcDbScale
 70
     0
300
10:1
140
10.0
141
1.0
290
     0
  0
SCALE
  5
58
102
{ACAD_REACTORS
330
47
102
}
330
47
100
AcDbScale
 70
     0
300
100:1
140
100.0
141
1.0
290
     0
  0
SCALE
  5
59
102
{ACAD_REACTORS
330
47
102
}
330
47
100
AcDbScale
 70
     0
300
1/128" = 1'-0"
140
0.0078125
141
12.0
290
     0
  0
SCALE
  5
5A
102
{ACAD_REACTORS
330
47
102
}
330
47
100
AcDbScale
 70
     0
300
1/64" = 1'-0"
140
0.015625
141
12.0
290
     0
  0
SCALE
  5
5B
102
{ACAD_REACTORS
330
47
102
}
330
47
100
AcDbScale
 70
     0
300
1/32" = 1'-0"
140
0.03125
141
12.0
290
     0
  0
SCALE
  5
5C
102
{ACAD_REACTORS
330
47
102
}
330
47
100
AcDbScale
 70
     0
300
1/16" = 1'-0"
140
0.0625
141
12.0
290
     0
  0
SCALE
  5
5D
102
{ACAD_REACTORS
330
47
102
}
330
47
100
AcDbScale
 70
     0
300
3/32" = 1'-0"
140
0.09375
141
12.0
290
     0
  0
SCALE
  5
5E
102
{ACAD_REACTORS
330
47
102
}
330
47
100
AcDbScale
 70
     0
300
1/8" = 1'-0"
140
0.125
141
12.0
290
     0
  0
SCALE
  5
5F
102
{ACAD_REACTORS
330
47
102
}
330
47
100
AcDbScale
 70
     0
300
3/16" = 1'-0"
140
0.1875
141
12.0
290
     0
  0
SCALE
  5
60
102
{ACAD_REACTORS
330
47
102
}
330
47
100
AcDbScale
 70
     0
300
1/4" = 1'-0"
140
0.25
141
12.0
290
     0
  0
SCALE
  5
61
102
{ACAD_REACTORS
330
47
102
}
330
47
100
AcDbScale
 70
     0
300
3/8" = 1'-0"
140
0.375
141
12.0
290
     0
  0
SCALE
  5
62
102
{ACAD_REACTORS
330
47
102
}
330
47
100
AcDbScale
 70
     0
300
1/2" = 1'-0"
140
0.5
141
12.0
290
     0
  0
SCALE
  5
63
102
{ACAD_REACTORS
330
47
102
}
330
47
100
AcDbScale
 70
     0
300
3/4" = 1'-0"
140
0.75
141
12.0
290
     0
  0
SCALE
  5
64
102
{ACAD_REACTORS
330
47
102
}
330
47
100
AcDbScale
 70
     0
300
1" = 1'-0"
140
1.0
141
12.0
290
     0
  0
SCALE
  5
65
102
{ACAD_REACTORS
330
47
102
}
330
47
100
AcDbScale
 70
     0
300
1-1/2" = 1'-0"
140
1.5
141
12.0
290
     0
  0
SCALE
  5
66
102
{ACAD_REACTORS
330
47
102
}
330
47
100
AcDbScale
 70
     0
300
3" = 1'-0"
140
3.0
141
12.0
290
     0
  0
SCALE
  5
67
102
{ACAD_REACTORS
330
47
102
}
330
47
100
AcDbScale
 70
     0
300
6" = 1'-0"
140
6.0
141
12.0
290
     0
  0
SCALE
  5
68
102
{ACAD_REACTORS
330
47
102
}
330
47
100
AcDbScale
 70
     0
300
1'-0" = 1'-0"
140
12.0
141
12.0
290
     0
  0
TABLESTYLE
  5
6A
102
{ACAD_REACTORS
330
69
102
}
102
{ACAD_XDICTIONARY
360
418
102
}
330
69
100
AcDbTableStyle
  3
Standard
 70
     0
 71
     0
 40
0.06
 41
0.06
280
     0
281
     0
  7
Standard
140
4.5
170
     2
 62
     0
 63
   257
283
     0
 90
        4
 91
        0
  1

274
    -2
284
     1
 64
     0
275
    -2
285
     1
 65
     0
276
    -2
286
     1
 66
     0
277
    -2
287
     1
 67
     0
278
    -2
288
     1
 68
     0
279
    -2
289
     1
 69
     0
  7
Standard
140
6.0
170
     5
 62
     0
 63
   257
283
     0
 90
        4
 91
        0
  1

274
    -2
284
     1
 64
     0
275
    -2
285
     1
 65
     0
276
    -2
286
     1
 66
     0
277
    -2
287
     1
 67
     0
278
    -2
288
     1
 68
     0
279
    -2
289
     1
 69
     0
  7
Standard
140
4.5
170
     5
 62
     0
 63
   257
283
     0
 90
        4
 91
        0
  1

274
    -2
284
     1
 64
     0
275
    -2
285
     1
 65
     0
276
    -2
286
     1
 66
     0
277
    -2
287
     1
 67
     0
278
    -2
288
     1
 68
     0
279
    -2
289
     1
 69
     0
  0
VISUALSTYLE
  5
2F
102
{ACAD_REACTORS
330
2A
102
}
102
{ACAD_XDICTIONARY
360
3F0
102
}
330
2A
100
AcDbVisualStyle
  2
2dWireframe
 70
     4
 71
     0
 72
     2
 73
     0
 90
        0
 40
0.6
 41
30.0
 62
     5
 63
     7
421
 16777215
 74
     1
 91
        4
 64
     7
 65
   257
 75
     1
175
     1
 42
1.0
 92
        0
 66
   257
 43
1.0
 76
     1
 77
     6
 78
     2
 67
     7
 79
     5
170
     0
171
     0
290
     0
174
     0
 93
        1
 44
0.0
173
     0
291
     0
 45
0.0
  0
VISUALSTYLE
  5
32
102
{ACAD_REACTORS
330
2A
102
}
102
{ACAD_XDICTIONARY
360
3F6
102
}
330
2A
100
AcDbVisualStyle
  2
Basic
 70
     7
 71
     1
 72
     0
 73
     1
 90
        0
 40
0.6
 41
30.0
 62
     5
 63
     7
421
 16777215
 74
     0
 91
        4
 64
     7
 65
   257
 75
     1
175
     1
 42
1.0
 92
        8
 66
     7
 43
1.0
 76
     1
 77
     6
 78
     2
 67
     7
 79
     5
170
     0
171
     0
290
     0
174
     0
 93
        1
 44
0.0
173
     0
291
     1
 45
0.0
  0
VISUALSTYLE
  5
36
102
{ACAD_REACTORS
330
2A
102
}
102
{ACAD_XDICTIONARY
360
3FE
102
}
330
2A
100
AcDbVisualStyle
  2
Brighten
 70
    12
 71
     2
 72
     2
 73
     0
 90
        0
 40
0.6
 41
30.0
 62
     5
 63
     7
421
 16777215
 74
     1
 91
        4
 64
     7
 65
   257
 75
     1
175
     1
 42
1.0
 92
        8
 66
     7
 43
1.0
 76
     1
 77
     6
 78
     2
 67
     7
 79
     5
170
     0
171
     0
290
     0
174
     0
 93
        1
 44
50.0
173
     0
291
     1
 45
0.0
  0
VISUALSTYLE
  5
3A
102
{ACAD_REACTORS
330
2A
102
}
102
{ACAD_XDICTIONARY
360
406
102
}
330
2A
100
AcDbVisualStyle
  2
ColorChange
 70
    16
 71
     2
 72
     2
 73
     3
 90
        0
 40
0.6
 41
30.0
 62
     5
 63
     8
421
  8421504
 74
     1
 91
        4
 64
     7
 65
   257
 75
     1
175
     1
 42
1.0
 92
        8
 66
     8
424
  8421504
 43
1.0
 76
     1
 77
     6
 78
     2
 67
     7
 79
     5
170
     0
171
     0
290
     0
174
     0
 93
        1
 44
0.0
173
     0
291
     1
 45
0.0
  0
VISUALSTYLE
  5
34
102
{ACAD_REACTORS
330
2A
102
}
102
{ACAD_XDICTIONARY
360
3FA
102
}
330
2A
100
AcDbVisualStyle
  2
Conceptual
 70
     9
 71
     3
 72
     2
 73
     0
 90
        0
 40
0.6
 41
30.0
 62
     5
 63
     7
421
 16777215
 74
     2
 91
        2
 64
     7
 65
   257
 75
     1
175
     1
 42
179.0
 92
        8
 66
     7
 43
1.0
 76
     1
 77
     6
 78
     2
 67
     7
 79
     3
170
     0
171
     0
290
     0
174
     0
 93
        1
 44
0.0
173
     0
291
     0
 45
0.0
  0
VISUALSTYLE
  5
35
102
{ACAD_REACTORS
330
2A
102
}
102
{ACAD_XDICTIONARY
360
3FC
102
}
330
2A
100
AcDbVisualStyle
  2
Dim
 70
    11
 71
     2
 72
     2
 73
     0
 90
        0
 40
0.6
 41
30.0
 62
     5
 63
     7
421
 16777215
 74
     1
 91
        4
 64
     7
 65
   257
 75
     1
175
     1
 42
1.0
 92
        8
 66
     7
 43
1.0
 76
     1
 77
     6
 78
     2
 67
     7
 79
     5
170
     0
171
     0
290
     0
174
     0
 93
        1
 44
-50.0
173
     0
291
     1
 45
0.0
  0
VISUALSTYLE
  5
3D
102
{ACAD_REACTORS
330
2A
102
}
102
{ACAD_XDICTIONARY
360
40C
102
}
330
2A
100
AcDbVisualStyle
  2
EdgeColorOff
 70
    22
 71
     2
 72
     2
 73
     0
 90
        0
 40
0.6
 41
30.0
 62
     5
 63
     7
421
 16777215
 74
     1
 91
        4
 64
     7
 65
   257
 75
     1
175
     1
 42
1.0
 92
        8
 66
     7
 43
1.0
 76
     1
 77
     6
 78
     2
 67
     7
 79
     5
170
     0
171
     0
290
     0
174
     0
 93
        1
 44
0.0
173
     0
291
     1
 45
0.0
  0
VISUALSTYLE
  5
39
102
{ACAD_REACTORS
330
2A
102
}
102
{ACAD_XDICTIONARY
360
404
102
}
330
2A
100
AcDbVisualStyle
  2
Facepattern
 70
    15
 71
     2
 72
     2
 73
     0
 90
        0
 40
0.6
 41
30.0
 62
     5
 63
     7
421
 16777215
 74
     1
 91
        4
 64
     7
 65
   257
 75
     1
175
     1
 42
1.0
 92
        8
 66
     7
 43
1.0
 76
     1
 77
     6
 78
     2
 67
     7
 79
     5
170
     0
171
     0
290
     0
174
     0
 93
        1
 44
0.0
173
     0
291
     1
 45
0.0
  0
VISUALSTYLE
  5
2B
102
{ACAD_REACTORS
330
2A
102
}
102
{ACAD_XDICTIONARY
360
3E8
102
}
330
2A
100
AcDbVisualStyle
  2
Flat
 70
     0
 71
     2
 72
     1
 73
     1
 90
        2
 40
0.6
 41
30.0
 62
     5
 63
     7
421
 16777215
 74
     0
 91
        0
 64
     7
 65
   257
 75
     1
175
     1
 42
1.0
 92
        8
 66
     7
 43
1.0
 76
     1
 77
     6
 78
     2
 67
     7
 79
     5
170
     0
171
     0
290
     0
174
     0
 93
       13
 44
0.0
173
     0
291
     1
 45
0.0
  0
VISUALSTYLE
  5
2C
102
{ACAD_REACTORS
330
2A
102
}
102
{ACAD_XDICTIONARY
360
3EA
102
}
330
2A
100
AcDbVisualStyle
  2
FlatWithEdges
 70
     1
 71
     2
 72
     1
 73
     1
 90
        2
 40
0.6
 41
30.0
 62
     5
 63
     7
421
 16777215
 74
     1
 91
        0
 64
     7
 65
   257
 75
     1
175
     1
 42
1.0
 92
        0
 66
   257
 43
1.0
 76
     1
 77
     6
 78
     2
 67
     7
 79
     5
170
     0
171
     0
290
     0
174
     0
 93
       13
 44
0.0
173
     0
291
     1
 45
0.0
  0
VISUALSTYLE
  5
2D
102
{ACAD_REACTORS
330
2A
102
}
102
{ACAD_XDICTIONARY
360
3EC
102
}
330
2A
100
AcDbVisualStyle
  2
Gouraud
 70
     2
 71
     2
 72
     2
 73
     1
 90
        2
 40
0.6
 41
30.0
 62
     5
 63
     7
421
 16777215
 74
     0
 91
        0
 64
     7
 65
   257
 75
     1
175
     1
 42
1.0
 92
        0
 66
     7
 43
1.0
 76
     1
 77
     6
 78
     2
 67
     7
 79
     5
170
     0
171
     0
290
     0
174
     0
 93
       13
 44
0.0
173
     0
291
     1
 45
0.0
  0
VISUALSTYLE
  5
2E
102
{ACAD_REACTORS
330
2A
102
}
102
{ACAD_XDICTIONARY
360
3EE
102
}
330
2A
100
AcDbVisualStyle
  2
GouraudWithEdges
 70
     3
 71
     2
 72
     2
 73
     1
 90
        2
 40
0.6
 41
30.0
 62
     5
 63
     7
421
 16777215
 74
     1
 91
        0
 64
     7
 65
   257
 75
     1
175
     1
 42
1.0
 92
        0
 66
   257
 43
1.0
 76
     1
 77
     6
 78
     2
 67
     7
 79
     5
170
     0
171
     0
290
     0
174
     0
 93
       13
 44
0.0
173
     0
291
     1
 45
0.0
  0
VISUALSTYLE
  5
31
102
{ACAD_REACTORS
330
2A
102
}
102
{ACAD_XDICTIONARY
360
3F4
102
}
330
2A
100
AcDbVisualStyle
  2
Hidden
 70
     6
 71
     1
 72
     2
 73
     2
 90
        0
 40
0.6
 41
30.0
 62
     5
 63
     7
421
 16777215
 74
     2
 91
        2
 64
     7
 65
   257
 75
     2
175
     1
 42
40.0
 92
        0
 66
   257
 43
1.0
 76
     1
 77
     6
 78
     2
 67
     7
 79
     3
170
     0
171
     0
290
     0
174
     0
 93
        1
 44
0.0
173
     0
291
     0
 45
0.0
  0
VISUALSTYLE
  5
3B
102
{ACAD_REACTORS
330
2A
102
}
102
{ACAD_XDICTIONARY
360
408
102
}
330
2A
100
AcDbVisualStyle
  2
JitterOff
 70
    20
 71
     2
 72
     2
 73
     0
 90
        0
 40
0.6
 41
30.0
 62
     5
 63
     7
421
 16777215
 74
     1
 91
        4
 64
     7
 65
   257
 75
     1
175
     1
 42
1.0
 92
       10
 66
     7
 43
1.0
 76
     1
 77
     6
 78
     2
 67
     7
 79
     5
170
     0
171
     0
290
     0
174
     0
 93
        1
 44
0.0
173
     0
291
     1
 45
0.0
  0
VISUALSTYLE
  5
38
102
{ACAD_REACTORS
330
2A
102
}
102
{ACAD_XDICTIONARY
360
402
102
}
330
2A
100
AcDbVisualStyle
  2
Linepattern
 70
    14
 71
     2
 72
     2
 73
     0
 90
        0
 40
0.6
 41
30.0
 62
     5
 63
     7
421
 16777215
 74
     1
 91
        4
 64
     7
 65
   257
 75
     7
175
     7
 42
1.0
 92
        8
 66
     7
 43
1.0
 76
     1
 77
     6
 78
     2
 67
     7
 79
     5
170
     0
171
     0
290
     0
174
     0
 93
        1
 44
0.0
173
     0
291
     1
 45
0.0
  0
VISUALSTYLE
  5
3C
102
{ACAD_REACTORS
330
2A
102
}
102
{ACAD_XDICTIONARY
360
40A
102
}
330
2A
100
AcDbVisualStyle
  2
OverhangOff
 70
    21
 71
     2
 72
     2
 73
     0
 90
        0
 40
0.6
 41
30.0
 62
     5
 63
     7
421
 16777215
 74
     1
 91
        4
 64
     7
 65
   257
 75
     1
175
     1
 42
1.0
 92
        9
 66
     7
 43
1.0
 76
     1
 77
     6
 78
     2
 67
     7
 79
     5
170
     0
171
     0
290
     0
174
     0
 93
        1
 44
0.0
173
     0
291
     1
 45
0.0
  0
VISUALSTYLE
  5
33
102
{ACAD_REACTORS
330
2A
102
}
102
{ACAD_XDICTIONARY
360
3F8
102
}
330
2A
100
AcDbVisualStyle
  2
Realistic
 70
     8
 71
     2
 72
     3
 73
     0
 90
        2
 40
0.6
 41
30.0
 62
     5
 63
     7
421
 16777215
 74
     0
 91
        0
 64
     7
 65
   257
 75
     1
175
     1
 42
1.0
 92
        8
 66
   257
 43
1.0
 76
     1
 77
     6
 78
     2
 67
     7
 79
     3
170
     0
171
     0
290
     0
174
     0
 93
       13
 44
0.0
173
     0
291
     0
 45
0.0
  0
VISUALSTYLE
  5
42
102
{ACAD_REACTORS
330
2A
102
}
102
{ACAD_XDICTIONARY
360
416
102
}
330
2A
100
AcDbVisualStyle
  2
Shaded
 70
    27
 71
     2
 72
     2
 73
     1
 90
        2
 40
0.6
 41
30.0
 62
     5
 63
     7
421
 16777215
 74
     0
 91
        4
 64
     7
 65
   257
 75
     1
175
     1
 42
1.0
 92
        8
 66
   257
 43
1.0
 76
     1
 77
     6
 78
     2
 67
     8
425
  7895160
 79
     3
170
     0
171
     0
290
     0
174
     0
 93
        5
 44
0.0
173
     0
291
     0
 45
0.0
  0
VISUALSTYLE
  5
41
102
{ACAD_REACTORS
330
2A
102
}
102
{ACAD_XDICTIONARY
360
414
102
}
330
2A
100
AcDbVisualStyle
  2
Shaded with edges
 70
    26
 71
     2
 72
     2
 73
     1
 90
        2
 40
0.6
 41
30.0
 62
     5
 63
     7
421
 16777215
 74
     1
 91
       10
 64
     7
 65
   257
 75
     2
175
     1
 42
1.0
 92
        8
 66
   257
 43
1.0
 76
     1
 77
     6
 78
     2
 67
     7
 79
     3
170
     0
171
     0
290
     0
174
     0
 93
        5
 44
0.0
173
     0
291
     0
 45
0.0
  0
VISUALSTYLE
  5
3E
102
{ACAD_REACTORS
330
2A
102
}
102
{ACAD_XDICTIONARY
360
40E
102
}
330
2A
100
AcDbVisualStyle
  2
Shades of Gray
 70
    23
 71
     2
 72
     2
 73
     3
 90
        0
 40
0.6
 41
30.0
 62
     5
 63
     7
421
 16777215
 74
     2
 91
        2
 64
     7
 65
     7
 75
     1
175
     1
 42
40.0
 92
        8
 66
     7
 43
1.0
 76
     1
 77
     6
 78
     2
 67
     7
 79
     3
170
     0
171
     0
290
     0
174
     0
 93
        1
 44
0.0
173
     0
291
     0
 45
0.0
  0
VISUALSTYLE
  5
3F
102
{ACAD_REACTORS
330
2A
102
}
102
{ACAD_XDICTIONARY
360
410
102
}
330
2A
100
AcDbVisualStyle
  2
Sketchy
 70
    24
 71
     1
 72
     2
 73
     2
 90
        0
 40
0.6
 41
30.0
 62
     5
 63
     7
421
 16777215
 74
     2
 91
        2
 64
     7
 65
     7
 75
     1
175
     1
 42
40.0
 92
       11
 66
     7
 43
1.0
 76
     1
 77
     6
 78
     2
 67
     7
 79
     6
170
     0
171
     0
290
     0
174
     0
 93
        1
 44
0.0
173
     0
291
     0
 45
0.0
  0
VISUALSTYLE
  5
37
102
{ACAD_REACTORS
330
2A
102
}
102
{ACAD_XDICTIONARY
360
400
102
}
330
2A
100
AcDbVisualStyle
  2
Thicken
 70
    13
 71
     2
 72
     2
 73
     0
 90
        0
 40
0.6
 41
30.0
 62
     5
 63
     7
421
 16777215
 74
     1
 91
        4
 64
     7
 65
   257
 75
     1
175
     1
 42
1.0
 92
       12
 66
     7
 43
1.0
 76
     1
 77
     6
 78
     2
 67
     7
 79
     5
170
     0
171
     0
290
     0
174
     0
 93
        1
 44
0.0
173
     0
291
     1
 45
0.0
  0
VISUALSTYLE
  5
30
102
{ACAD_REACTORS
330
2A
102
}
102
{ACAD_XDICTIONARY
360
3F2
102
}
330
2A
100
AcDbVisualStyle
  2
Wireframe
 70
     5
 71
     0
 72
     2
 73
     0
 90
        0
 40
0.6
 41
30.0
 62
     5
 63
     7
421
 16777215
 74
     1
 91
        4
 64
     7
 65
   257
 75
     1
175
     1
 42
1.0
 92
        0
 66
   257
 43
1.0
 76
     1
 77
     6
 78
     2
 67
     7
 79
     3
170
     0
171
     0
290
     0
174
     0
 93
        1
 44
0.0
173
     0
291
     0
 45
0.0
  0
VISUALSTYLE
  5
40
102
{ACAD_REACTORS
330
2A
102
}
102
{ACAD_XDICTIONARY
360
412
102
}
330
2A
100
AcDbVisualStyle
  2
X-Ray
 70
    25
 71
     2
 72
     2
 73
     1
 90
        1
 40
0.5
 41
30.0
 62
     5
 63
     7
421
 16777215
 74
     1
 91
        0
 64
     7
 65
   257
 75
     1
175
     1
 42
1.0
 92
        8
 66
     7
 43
1.0
 76
     1
 77
     6
 78
     2
 67
     7
 79
     3
170
     0
171
     0
290
     0
174
     0
 93
       13
 44
0.0
173
     0
291
     0
 45
0.0
  0
DICTIONARYVAR
  5
3E6
102
{ACAD_REACTORS
330
3E5
102
}
330
3E5
100
DictionaryVariables
280
     0
  1
1:1
  0
DICTIONARYVAR
  5
41F
102
{ACAD_REACTORS
330
3E5
102
}
330
3E5
100
DictionaryVariables
280
     0
  1
Standard
  0
DICTIONARYVAR
  5
41E
102
{ACAD_REACTORS
330
3E5
102
}
330
3E5
100
DictionaryVariables
280
     0
  1
Standard
  0
DICTIONARYVAR
  5
3E7
102
{ACAD_REACTORS
330
3E5
102
}
330
3E5
100
DictionaryVariables
280
     0
  1
2
  0
DICTIONARY
  5
41B
330
6C
100
AcDbDictionary
280
     1
281
     1
  3
ACAD_XREC_ROUNDTRIP
360
41C
  0
DICTIONARY
  5
418
330
6A
100
AcDbDictionary
280
     1
281
     1
  3
ACAD_ROUNDTRIP_2008_TABLESTYLE_CELLSTYLEMAP
360
419
  0
DICTIONARY
  5
3F0
330
2F
100
AcDbDictionary
280
     1
281
     1
  3
ACAD_XREC_ROUNDTRIP
360
3F1
  0
DICTIONARY
  5
3F6
330
32
100
AcDbDictionary
280
     1
281
     1
  3
ACAD_XREC_ROUNDTRIP
360
3F7
  0
DICTIONARY
  5
3FE
330
36
100
AcDbDictionary
280
     1
281
     1
  3
ACAD_XREC_ROUNDTRIP
360
3FF
  0
DICTIONARY
  5
406
330
3A
100
AcDbDictionary
280
     1
281
     1
  3
ACAD_XREC_ROUNDTRIP
360
407
  0
DICTIONARY
  5
3FA
330
34
100
AcDbDictionary
280
     1
281
     1
  3
ACAD_XREC_ROUNDTRIP
360
3FB
  0
DICTIONARY
  5
3FC
330
35
100
AcDbDictionary
280
     1
281
     1
  3
ACAD_XREC_ROUNDTRIP
360
3FD
  0
DICTIONARY
  5
40C
330
3D
100
AcDbDictionary
280
     1
281
     1
  3
ACAD_XREC_ROUNDTRIP
360
40D
  0
DICTIONARY
  5
404
330
39
100
AcDbDictionary
280
     1
281
     1
  3
ACAD_XREC_ROUNDTRIP
360
405
  0
DICTIONARY
  5
3E8
330
2B
100
AcDbDictionary
280
     1
281
     1
  3
ACAD_XREC_ROUNDTRIP
360
3E9
  0
DICTIONARY
  5
3EA
330
2C
100
AcDbDictionary
280
     1
281
     1
  3
ACAD_XREC_ROUNDTRIP
360
3EB
  0
DICTIONARY
  5
3EC
330
2D
100
AcDbDictionary
280
     1
281
     1
  3
ACAD_XREC_ROUNDTRIP
360
3ED
  0
DICTIONARY
  5
3EE
330
2E
100
AcDbDictionary
280
     1
281
     1
  3
ACAD_XREC_ROUNDTRIP
360
3EF
  0
DICTIONARY
  5
3F4
330
31
100
AcDbDictionary
280
     1
281
     1
  3
ACAD_XREC_ROUNDTRIP
360
3F5
  0
DICTIONARY
  5
408
330
3B
100
AcDbDictionary
280
     1
281
     1
  3
ACAD_XREC_ROUNDTRIP
360
409
  0
DICTIONARY
  5
402
330
38
100
AcDbDictionary
280
     1
281
     1
  3
ACAD_XREC_ROUNDTRIP
360
403
  0
DICTIONARY
  5
40A
330
3C
100
AcDbDictionary
280
     1
281
     1
  3
ACAD_XREC_ROUNDTRIP
360
40B
  0
DICTIONARY
  5
3F8
330
33
100
AcDbDictionary
280
     1
281
     1
  3
ACAD_XREC_ROUNDTRIP
360
3F9
  0
DICTIONARY
  5
416
330
42
100
AcDbDictionary
280
     1
281
     1
  3
ACAD_XREC_ROUNDTRIP
360
417
  0
DICTIONARY
  5
414
330
41
100
AcDbDictionary
280
     1
281
     1
  3
ACAD_XREC_ROUNDTRIP
360
415
  0
DICTIONARY
  5
40E
330
3E
100
AcDbDictionary
280
     1
281
     1
  3
ACAD_XREC_ROUNDTRIP
360
40F
  0
DICTIONARY
  5
410
330
3F
100
AcDbDictionary
280
     1
281
     1
  3
ACAD_XREC_ROUNDTRIP
360
411
  0
DICTIONARY
  5
400
330
37
100
AcDbDictionary
280
     1
281
     1
  3
ACAD_XREC_ROUNDTRIP
360
401
  0
DICTIONARY
  5
3F2
330
30
100
AcDbDictionary
280
     1
281
     1
  3
ACAD_XREC_ROUNDTRIP
360
3F3
  0
DICTIONARY
  5
412
330
40
100
AcDbDictionary
280
     1
281
     1
  3
ACAD_XREC_ROUNDTRIP
360
413
  0
XRECORD
  5
41C
102
{ACAD_REACTORS
330
41B
102
}
330
41B
100
AcDbXrecord
280
     1
102
ACAD_ROUNDTRIP_2010_MLEADER_STYLE
  0
CELLSTYLEMAP
  5
419
102
{ACAD_REACTORS
330
418
102
}
330
418
100
AcDbCellStyleMap
 90
        3
300
CELLSTYLE
  1
TABLEFORMAT_BEGIN
 90
        5
170
     1
 91
        0
 92
    32768
 62
   257
 93
        1
300
CONTENTFORMAT
  1
CONTENTFORMAT_BEGIN
 90
        0
 91
        0
 92
        4
 93
        0
300

 40
0.0
140
1.0
 94
        5
 62
     0
340
11
144
6.0
309
CONTENTFORMAT_END
171
     1
301
MARGIN
  1
CELLMARGIN_BEGIN
 40
1.5
 40
1.5
 40
1.5
 40
1.5
 40
1.5
 40
1.5
309
CELLMARGIN_END
 94
        6
 95
        1
302
GRIDFORMAT
  1
GRIDFORMAT_BEGIN
 90
        0
 91
        1
 62
     0
 92
       -2
340
14
 93
        0
 40
0.045
309
GRIDFORMAT_END
 95
        2
302
GRIDFORMAT
  1
GRIDFORMAT_BEGIN
 90
        0
 91
        1
 62
     0
 92
       -2
340
14
 93
        0
 40
0.045
309
GRIDFORMAT_END
 95
        4
302
GRIDFORMAT
  1
GRIDFORMAT_BEGIN
 90
        0
 91
        1
 62
     0
 92
       -2
340
14
 93
        0
 40
0.045
309
GRIDFORMAT_END
 95
        8
302
GRIDFORMAT
  1
GRIDFORMAT_BEGIN
 90
        0
 91
        1
 62
     0
 92
       -2
340
14
 93
        0
 40
0.045
309
GRIDFORMAT_END
 95
       16
302
GRIDFORMAT
  1
GRIDFORMAT_BEGIN
 90
        0
 91
        1
 62
     0
 92
       -2
340
14
 93
        0
 40
0.045
309
GRIDFORMAT_END
 95
       32
302
GRIDFORMAT
  1
GRIDFORMAT_BEGIN
 90
        0
 91
        1
 62
     0
 92
       -2
340
14
 93
        0
 40
0.045
309
GRIDFORMAT_END
309
TABLEFORMAT_END
  1
CELLSTYLE_BEGIN
 90
        1
 91
        1
300
_TITLE
309
CELLSTYLE_END
300
CELLSTYLE
  1
TABLEFORMAT_BEGIN
 90
        5
170
     1
 91
        0
 92
        0
 62
   257
 93
        1
300
CONTENTFORMAT
  1
CONTENTFORMAT_BEGIN
 90
        0
 91
        0
 92
        4
 93
        0
300

 40
0.0
140
1.0
 94
        5
 62
     0
340
11
144
4.5
309
CONTENTFORMAT_END
171
     1
301
MARGIN
  1
CELLMARGIN_BEGIN
 40
1.5
 40
1.5
 40
1.5
 40
1.5
 40
1.5
 40
1.5
309
CELLMARGIN_END
 94
        6
 95
        1
302
GRIDFORMAT
  1
GRIDFORMAT_BEGIN
 90
        0
 91
        1
 62
     0
 92
       -2
340
14
 93
        0
 40
0.045
309
GRIDFORMAT_END
 95
        2
302
GRIDFORMAT
  1
GRIDFORMAT_BEGIN
 90
        0
 91
        1
 62
     0
 92
       -2
340
14
 93
        0
 40
0.045
309
GRIDFORMAT_END
 95
        4
302
GRIDFORMAT
  1
GRIDFORMAT_BEGIN
 90
        0
 91
        1
 62
     0
 92
       -2
340
14
 93
        0
 40
0.045
309
GRIDFORMAT_END
 95
        8
302
GRIDFORMAT
  1
GRIDFORMAT_BEGIN
 90
        0
 91
        1
 62
     0
 92
       -2
340
14
 93
        0
 40
0.045
309
GRIDFORMAT_END
 95
       16
302
GRIDFORMAT
  1
GRIDFORMAT_BEGIN
 90
        0
 91
        1
 62
     0
 92
       -2
340
14
 93
        0
 40
0.045
309
GRIDFORMAT_END
 95
       32
302
GRIDFORMAT
  1
GRIDFORMAT_BEGIN
 90
        0
 91
        1
 62
     0
 92
       -2
340
14
 93
        0
 40
0.045
309
GRIDFORMAT_END
309
TABLEFORMAT_END
  1
CELLSTYLE_BEGIN
 90
        2
 91
        1
300
_HEADER
309
CELLSTYLE_END
300
CELLSTYLE
  1
TABLEFORMAT_BEGIN
 90
        5
170
     1
 91
        0
 92
        0
 62
   257
 93
        1
300
CONTENTFORMAT
  1
CONTENTFORMAT_BEGIN
 90
        0
 91
        0
 92
        4
 93
        0
300

 40
0.0
140
1.0
 94
        2
 62
     0
340
11
144
4.5
309
CONTENTFORMAT_END
171
     1
301
MARGIN
  1
CELLMARGIN_BEGIN
 40
1.5
 40
1.5
 40
1.5
 40
1.5
 40
1.5
 40
1.5
309
CELLMARGIN_END
 94
        6
 95
        1
302
GRIDFORMAT
  1
GRIDFORMAT_BEGIN
 90
        0
 91
        1
 62
     0
 92
       -2
340
14
 93
        0
 40
0.045
309
GRIDFORMAT_END
 95
        2
302
GRIDFORMAT
  1
GRIDFORMAT_BEGIN
 90
        0
 91
        1
 62
     0
 92
       -2
340
14
 93
        0
 40
0.045
309
GRIDFORMAT_END
 95
        4
302
GRIDFORMAT
  1
GRIDFORMAT_BEGIN
 90
        0
 91
        1
 62
     0
 92
       -2
340
14
 93
        0
 40
0.045
309
GRIDFORMAT_END
 95
        8
302
GRIDFORMAT
  1
GRIDFORMAT_BEGIN
 90
        0
 91
        1
 62
     0
 92
       -2
340
14
 93
        0
 40
0.045
309
GRIDFORMAT_END
 95
       16
302
GRIDFORMAT
  1
GRIDFORMAT_BEGIN
 90
        0
 91
        1
 62
     0
 92
       -2
340
14
 93
        0
 40
0.045
309
GRIDFORMAT_END
 95
       32
302
GRIDFORMAT
  1
GRIDFORMAT_BEGIN
 90
        0
 91
        1
 62
     0
 92
       -2
340
14
 93
        0
 40
0.045
309
GRIDFORMAT_END
309
TABLEFORMAT_END
  1
CELLSTYLE_BEGIN
 90
        3
 91
        2
300
_DATA
309
CELLSTYLE_END
  0
XRECORD
  5
3F1
102
{ACAD_REACTORS
330
3F0
102
}
330
3F0
100
AcDbXrecord
280
     1
102
RTVSPropertyOp0
 70
     1
102
RTVSPropertyOp1
 70
     1
102
RTVSPropertyOp2
 70
     1
102
RTVSPropertyOp3
 70
     1
102
RTVSPropertyOp4
 70
     1
102
RTVSPropertyOp5
 70
     1
102
RTVSPropertyOp6
 70
     1
102
RTVSPropertyOp7
 70
     1
102
RTVSPropertyOp8
 70
     1
102
RTVSPropertyOp9
 70
     1
102
RTVSPropertyOp10
 70
     1
102
RTVSPropertyOp11
 70
     1
102
RTVSPropertyOp12
 70
     1
102
RTVSPropertyOp13
 70
     1
102
RTVSPropertyOp14
 70
     1
102
RTVSPropertyOp15
 70
     1
102
RTVSPropertyOp16
 70
     1
102
RTVSPropertyOp17
 70
     1
102
RTVSPropertyOp18
 70
     1
102
RTVSPropertyOp19
 70
     1
102
RTVSPropertyOp20
 70
     1
102
RTVSPropertyOp21
 70
     1
102
RTVSPropertyOp22
 70
     1
102
RTVSPropertyOp23
 70
     1
102
RTVSPropertyOp24
 70
     1
102
RTVSPropertyOp25
 70
     1
102
RTVSPropertyOp26
 70
     1
102
RTVSPropertyOp27
 70
     1
102
RTVSPropertyOp28
 70
     1
102
RTVSPropertyOp29
 70
     1
102
RTVSPropertyOp30
 70
     1
102
RTVSPropertyOp31
 70
     1
102
RTVSPropertyOp32
 70
     1
102
RTVSPropertyOp33
 70
     1
102
RTVSPropertyOp34
 70
     1
102
RTVSPropertyOp35
 70
     1
102
RTVSPropertyOp36
 70
     1
102
RTVSPropertyOp37
 70
     1
102
RTVSPropertyOp38
 70
     1
102
RTVSPropertyOp39
 70
     1
102
RTVSPropertyOp40
 70
     1
102
RTVSPropertyOp41
 70
     1
102
RTVSPropertyOp42
 70
     1
102
RTVSPropertyOp43
 70
     1
102
RTVSPropertyOp44
 70
     1
102
RTVSPropertyOp45
 70
     1
102
RTVSPropertyOp46
 70
     1
102
RTVSPropertyOp47
 70
     1
102
RTVSPropertyOp48
 70
     1
102
RTVSPropertyOp49
 70
     1
102
RTVSPropertyOp50
 70
     1
102
RTVSPropertyOp51
 70
     0
102
RTVSPropertyOp52
 70
     0
102
RTVSPropertyOp53
 70
     1
102
RTVSPropertyOp54
 70
     1
102
RTVSPropertyOp55
 70
     1
102
RTVSPropertyOp56
 70
     1
102
RTVSPropertyOp57
 70
     1
102
RTVSPost2010Prop28
280
     1
102
RTVSPost2010PropOp28
 70
     1
102
RTVSPost2010Prop29
280
     1
102
RTVSPost2010PropOp29
 70
     1
102
RTVSPost2010Prop30
280
     0
102
RTVSPost2010PropOp30
 70
     1
102
RTVSPost2010Prop31
280
     0
102
RTVSPost2010PropOp31
 70
     1
102
RTVSPost2010Prop32
280
     0
102
RTVSPost2010PropOp32
 70
     1
102
RTVSPost2010Prop33
280
     0
102
RTVSPost2010PropOp33
 70
     1
102
RTVSPost2010Prop34
280
     0
102
RTVSPost2010PropOp34
 70
     1
102
RTVSPost2010Prop35
280
     0
102
RTVSPost2010PropOp35
 70
     1
102
RTVSPost2010Prop36
280
     0
102
RTVSPost2010PropOp36
 70
     1
102
RTVSPost2010Prop37
 90
       50
102
RTVSPost2010PropOp37
 70
     1
102
RTVSPost2010Prop38
140
0.0
102
RTVSPost2010PropOp38
 70
     1
102
RTVSPost2010Prop39
140
1.0
102
RTVSPost2010PropOp39
 70
     1
102
RTVSPost2010Prop40
 90
        0
102
RTVSPost2010PropOp40
 70
     1
102
RTVSPost2010Prop41ColorIndex
 90
       18
102
RTVSPost2010Prop41ColorRGB
 90
        0
102
RTVSPost2010PropOp41
 70
     1
102
RTVSPost2010Prop42
 90
       50
102
RTVSPost2010PropOp42
 70
     1
102
RTVSPost2010Prop43
 90
        3
102
RTVSPost2010PropOp43
 70
     1
102
RTVSPost2010Prop44ColorIndex
 90
        5
102
RTVSPost2010Prop44ColorRGB
 90
      255
102
RTVSPost2010PropOp44
 70
     1
102
RTVSPost2010Prop45
280
     0
102
RTVSPost2010PropOp45
 70
     1
102
RTVSPost2010Prop46
 90
       50
102
RTVSPost2010PropOp46
 70
     1
102
RTVSPost2010Prop47
 90
       50
102
RTVSPost2010PropOp47
 70
     1
102
RTVSPost2010Prop48
 90
       50
102
RTVSPost2010PropOp48
 70
     1
102
RTVSPost2010Prop49
280
     0
102
RTVSPost2010PropOp49
 70
     1
102
RTVSPost2010Prop50
 90
       50
102
RTVSPost2010PropOp50
 70
     1
102
RTVSPost2010Prop51ColorIndex
 90
      256
102
RTVSPost2010Prop51ColorRGB
 90
-16777216
102
RTVSPost2010PropOp51
 70
     0
102
RTVSPost2010Prop52
140
1.0
102
RTVSPost2010PropOp52
 70
     0
102
RTVSPost2010Prop53
 90
        2
102
RTVSPost2010PropOp53
 70
     1
102
RTVSPost2010Prop54
  1
strokes_ogs.tif
102
RTVSPost2010PropOp54
 70
     1
102
RTVSPost2010Prop55
280
     0
102
RTVSPost2010PropOp55
 70
     1
102
RTVSPost2010Prop56
140
1.0
102
RTVSPost2010PropOp56
 70
     1
102
RTVSPost2010Prop57
140
1.0
102
RTVSPost2010PropOp57
 70
     1
  0
XRECORD
  5
3F7
102
{ACAD_REACTORS
330
3F6
102
}
330
3F6
100
AcDbXrecord
280
     1
102
RTVSPropertyOp0
 70
     1
102
RTVSPropertyOp1
 70
     1
102
RTVSPropertyOp2
 70
     1
102
RTVSPropertyOp3
 70
     1
102
RTVSPropertyOp4
 70
     1
102
RTVSPropertyOp5
 70
     1
102
RTVSPropertyOp6
 70
     1
102
RTVSPropertyOp7
 70
     1
102
RTVSPropertyOp8
 70
     1
102
RTVSPropertyOp9
 70
     1
102
RTVSPropertyOp10
 70
     1
102
RTVSPropertyOp11
 70
     1
102
RTVSPropertyOp12
 70
     1
102
RTVSPropertyOp13
 70
     1
102
RTVSPropertyOp14
 70
     1
102
RTVSPropertyOp15
 70
     1
102
RTVSPropertyOp16
 70
     1
102
RTVSPropertyOp17
 70
     1
102
RTVSPropertyOp18
 70
     1
102
RTVSPropertyOp19
 70
     1
102
RTVSPropertyOp20
 70
     1
102
RTVSPropertyOp21
 70
     1
102
RTVSPropertyOp22
 70
     1
102
RTVSPropertyOp23
 70
     1
102
RTVSPropertyOp24
 70
     1
102
RTVSPropertyOp25
 70
     1
102
RTVSPropertyOp26
 70
     1
102
RTVSPropertyOp27
 70
     1
102
RTVSPropertyOp28
 70
     1
102
RTVSPropertyOp29
 70
     1
102
RTVSPropertyOp30
 70
     1
102
RTVSPropertyOp31
 70
     1
102
RTVSPropertyOp32
 70
     1
102
RTVSPropertyOp33
 70
     1
102
RTVSPropertyOp34
 70
     1
102
RTVSPropertyOp35
 70
     1
102
RTVSPropertyOp36
 70
     1
102
RTVSPropertyOp37
 70
     1
102
RTVSPropertyOp38
 70
     1
102
RTVSPropertyOp39
 70
     1
102
RTVSPropertyOp40
 70
     1
102
RTVSPropertyOp41
 70
     1
102
RTVSPropertyOp42
 70
     1
102
RTVSPropertyOp43
 70
     1
102
RTVSPropertyOp44
 70
     1
102
RTVSPropertyOp45
 70
     1
102
RTVSPropertyOp46
 70
     1
102
RTVSPropertyOp47
 70
     1
102
RTVSPropertyOp48
 70
     1
102
RTVSPropertyOp49
 70
     1
102
RTVSPropertyOp50
 70
     1
102
RTVSPropertyOp51
 70
     0
102
RTVSPropertyOp52
 70
     0
102
RTVSPropertyOp53
 70
     1
102
RTVSPropertyOp54
 70
     1
102
RTVSPropertyOp55
 70
     1
102
RTVSPropertyOp56
 70
     1
102
RTVSPropertyOp57
 70
     1
102
RTVSPost2010Prop28
280
     0
102
RTVSPost2010PropOp28
 70
     1
102
RTVSPost2010Prop29
280
     1
102
RTVSPost2010PropOp29
 70
     1
102
RTVSPost2010Prop30
280
     1
102
RTVSPost2010PropOp30
 70
     1
102
RTVSPost2010Prop31
280
     0
102
RTVSPost2010PropOp31
 70
     1
102
RTVSPost2010Prop32
280
     0
102
RTVSPost2010PropOp32
 70
     1
102
RTVSPost2010Prop33
280
     0
102
RTVSPost2010PropOp33
 70
     1
102
RTVSPost2010Prop34
280
     0
102
RTVSPost2010PropOp34
 70
     1
102
RTVSPost2010Prop35
280
     0
102
RTVSPost2010PropOp35
 70
     1
102
RTVSPost2010Prop36
280
     0
102
RTVSPost2010PropOp36
 70
     1
102
RTVSPost2010Prop37
 90
       50
102
RTVSPost2010PropOp37
 70
     1
102
RTVSPost2010Prop38
140
0.0
102
RTVSPost2010PropOp38
 70
     1
102
RTVSPost2010Prop39
140
1.0
102
RTVSPost2010PropOp39
 70
     1
102
RTVSPost2010Prop40
 90
        0
102
RTVSPost2010PropOp40
 70
     1
102
RTVSPost2010Prop41ColorIndex
 90
       18
102
RTVSPost2010Prop41ColorRGB
 90
        0
102
RTVSPost2010PropOp41
 70
     1
102
RTVSPost2010Prop42
 90
       50
102
RTVSPost2010PropOp42
 70
     1
102
RTVSPost2010Prop43
 90
        3
102
RTVSPost2010PropOp43
 70
     1
102
RTVSPost2010Prop44ColorIndex
 90
        5
102
RTVSPost2010Prop44ColorRGB
 90
      255
102
RTVSPost2010PropOp44
 70
     1
102
RTVSPost2010Prop45
280
     0
102
RTVSPost2010PropOp45
 70
     1
102
RTVSPost2010Prop46
 90
       50
102
RTVSPost2010PropOp46
 70
     1
102
RTVSPost2010Prop47
 90
       50
102
RTVSPost2010PropOp47
 70
     1
102
RTVSPost2010Prop48
 90
       50
102
RTVSPost2010PropOp48
 70
     1
102
RTVSPost2010Prop49
280
     0
102
RTVSPost2010PropOp49
 70
     1
102
RTVSPost2010Prop50
 90
       50
102
RTVSPost2010PropOp50
 70
     1
102
RTVSPost2010Prop51ColorIndex
 90
      256
102
RTVSPost2010Prop51ColorRGB
 90
-16777216
102
RTVSPost2010PropOp51
 70
     0
102
RTVSPost2010Prop52
140
1.0
102
RTVSPost2010PropOp52
 70
     0
102
RTVSPost2010Prop53
 90
        2
102
RTVSPost2010PropOp53
 70
     1
102
RTVSPost2010Prop54
  1
strokes_ogs.tif
102
RTVSPost2010PropOp54
 70
     1
102
RTVSPost2010Prop55
280
     0
102
RTVSPost2010PropOp55
 70
     1
102
RTVSPost2010Prop56
140
1.0
102
RTVSPost2010PropOp56
 70
     1
102
RTVSPost2010Prop57
140
1.0
102
RTVSPost2010PropOp57
 70
     1
  0
XRECORD
  5
3FF
102
{ACAD_REACTORS
330
3FE
102
}
330
3FE
100
AcDbXrecord
280
     1
102
RTVSPropertyOp0
 70
     1
102
RTVSPropertyOp1
 70
     1
102
RTVSPropertyOp2
 70
     1
102
RTVSPropertyOp3
 70
     1
102
RTVSPropertyOp4
 70
     1
102
RTVSPropertyOp5
 70
     1
102
RTVSPropertyOp6
 70
     1
102
RTVSPropertyOp7
 70
     1
102
RTVSPropertyOp8
 70
     1
102
RTVSPropertyOp9
 70
     1
102
RTVSPropertyOp10
 70
     1
102
RTVSPropertyOp11
 70
     1
102
RTVSPropertyOp12
 70
     1
102
RTVSPropertyOp13
 70
     1
102
RTVSPropertyOp14
 70
     1
102
RTVSPropertyOp15
 70
     1
102
RTVSPropertyOp16
 70
     1
102
RTVSPropertyOp17
 70
     1
102
RTVSPropertyOp18
 70
     1
102
RTVSPropertyOp19
 70
     1
102
RTVSPropertyOp20
 70
     1
102
RTVSPropertyOp21
 70
     1
102
RTVSPropertyOp22
 70
     1
102
RTVSPropertyOp23
 70
     1
102
RTVSPropertyOp24
 70
     1
102
RTVSPropertyOp25
 70
     1
102
RTVSPropertyOp26
 70
     1
102
RTVSPropertyOp27
 70
     1
102
RTVSPropertyOp28
 70
     1
102
RTVSPropertyOp29
 70
     1
102
RTVSPropertyOp30
 70
     1
102
RTVSPropertyOp31
 70
     1
102
RTVSPropertyOp32
 70
     1
102
RTVSPropertyOp33
 70
     1
102
RTVSPropertyOp34
 70
     1
102
RTVSPropertyOp35
 70
     1
102
RTVSPropertyOp36
 70
     1
102
RTVSPropertyOp37
 70
     1
102
RTVSPropertyOp38
 70
     1
102
RTVSPropertyOp39
 70
     1
102
RTVSPropertyOp40
 70
     1
102
RTVSPropertyOp41
 70
     1
102
RTVSPropertyOp42
 70
     1
102
RTVSPropertyOp43
 70
     1
102
RTVSPropertyOp44
 70
     1
102
RTVSPropertyOp45
 70
     1
102
RTVSPropertyOp46
 70
     1
102
RTVSPropertyOp47
 70
     1
102
RTVSPropertyOp48
 70
     1
102
RTVSPropertyOp49
 70
     1
102
RTVSPropertyOp50
 70
     1
102
RTVSPropertyOp51
 70
     0
102
RTVSPropertyOp52
 70
     0
102
RTVSPropertyOp53
 70
     1
102
RTVSPropertyOp54
 70
     1
102
RTVSPropertyOp55
 70
     1
102
RTVSPropertyOp56
 70
     1
102
RTVSPropertyOp57
 70
     1
102
RTVSPost2010Prop28
280
     0
102
RTVSPost2010PropOp28
 70
     1
102
RTVSPost2010Prop29
280
     1
102
RTVSPost2010PropOp29
 70
     1
102
RTVSPost2010Prop30
280
     1
102
RTVSPost2010PropOp30
 70
     1
102
RTVSPost2010Prop31
280
     0
102
RTVSPost2010PropOp31
 70
     1
102
RTVSPost2010Prop32
280
     0
102
RTVSPost2010PropOp32
 70
     1
102
RTVSPost2010Prop33
280
     0
102
RTVSPost2010PropOp33
 70
     1
102
RTVSPost2010Prop34
280
     0
102
RTVSPost2010PropOp34
 70
     1
102
RTVSPost2010Prop35
280
     0
102
RTVSPost2010PropOp35
 70
     1
102
RTVSPost2010Prop36
280
     0
102
RTVSPost2010PropOp36
 70
     1
102
RTVSPost2010Prop37
 90
       50
102
RTVSPost2010PropOp37
 70
     1
102
RTVSPost2010Prop38
140
0.0
102
RTVSPost2010PropOp38
 70
     1
102
RTVSPost2010Prop39
140
1.0
102
RTVSPost2010PropOp39
 70
     1
102
RTVSPost2010Prop40
 90
        0
102
RTVSPost2010PropOp40
 70
     1
102
RTVSPost2010Prop41ColorIndex
 90
       18
102
RTVSPost2010Prop41ColorRGB
 90
        0
102
RTVSPost2010PropOp41
 70
     1
102
RTVSPost2010Prop42
 90
       50
102
RTVSPost2010PropOp42
 70
     1
102
RTVSPost2010Prop43
 90
        3
102
RTVSPost2010PropOp43
 70
     1
102
RTVSPost2010Prop44ColorIndex
 90
        5
102
RTVSPost2010Prop44ColorRGB
 90
      255
102
RTVSPost2010PropOp44
 70
     1
102
RTVSPost2010Prop45
280
     0
102
RTVSPost2010PropOp45
 70
     1
102
RTVSPost2010Prop46
 90
       50
102
RTVSPost2010PropOp46
 70
     1
102
RTVSPost2010Prop47
 90
       50
102
RTVSPost2010PropOp47
 70
     1
102
RTVSPost2010Prop48
 90
       50
102
RTVSPost2010PropOp48
 70
     1
102
RTVSPost2010Prop49
280
     0
102
RTVSPost2010PropOp49
 70
     1
102
RTVSPost2010Prop50
 90
       50
102
RTVSPost2010PropOp50
 70
     1
102
RTVSPost2010Prop51ColorIndex
 90
      256
102
RTVSPost2010Prop51ColorRGB
 90
-16777216
102
RTVSPost2010PropOp51
 70
     0
102
RTVSPost2010Prop52
140
1.0
102
RTVSPost2010PropOp52
 70
     0
102
RTVSPost2010Prop53
 90
        2
102
RTVSPost2010PropOp53
 70
     1
102
RTVSPost2010Prop54
  1
strokes_ogs.tif
102
RTVSPost2010PropOp54
 70
     1
102
RTVSPost2010Prop55
280
     0
102
RTVSPost2010PropOp55
 70
     1
102
RTVSPost2010Prop56
140
1.0
102
RTVSPost2010PropOp56
 70
     1
102
RTVSPost2010Prop57
140
1.0
102
RTVSPost2010PropOp57
 70
     1
  0
XRECORD
  5
407
102
{ACAD_REACTORS
330
406
102
}
330
406
100
AcDbXrecord
280
     1
102
RTVSPropertyOp0
 70
     1
102
RTVSPropertyOp1
 70
     1
102
RTVSPropertyOp2
 70
     1
102
RTVSPropertyOp3
 70
     1
102
RTVSPropertyOp4
 70
     1
102
RTVSPropertyOp5
 70
     1
102
RTVSPropertyOp6
 70
     1
102
RTVSPropertyOp7
 70
     1
102
RTVSPropertyOp8
 70
     1
102
RTVSPropertyOp9
 70
     1
102
RTVSPropertyOp10
 70
     1
102
RTVSPropertyOp11
 70
     1
102
RTVSPropertyOp12
 70
     1
102
RTVSPropertyOp13
 70
     1
102
RTVSPropertyOp14
 70
     1
102
RTVSPropertyOp15
 70
     1
102
RTVSPropertyOp16
 70
     1
102
RTVSPropertyOp17
 70
     1
102
RTVSPropertyOp18
 70
     1
102
RTVSPropertyOp19
 70
     1
102
RTVSPropertyOp20
 70
     1
102
RTVSPropertyOp21
 70
     1
102
RTVSPropertyOp22
 70
     1
102
RTVSPropertyOp23
 70
     1
102
RTVSPropertyOp24
 70
     1
102
RTVSPropertyOp25
 70
     1
102
RTVSPropertyOp26
 70
     1
102
RTVSPropertyOp27
 70
     1
102
RTVSPropertyOp28
 70
     1
102
RTVSPropertyOp29
 70
     1
102
RTVSPropertyOp30
 70
     1
102
RTVSPropertyOp31
 70
     1
102
RTVSPropertyOp32
 70
     1
102
RTVSPropertyOp33
 70
     1
102
RTVSPropertyOp34
 70
     1
102
RTVSPropertyOp35
 70
     1
102
RTVSPropertyOp36
 70
     1
102
RTVSPropertyOp37
 70
     1
102
RTVSPropertyOp38
 70
     1
102
RTVSPropertyOp39
 70
     1
102
RTVSPropertyOp40
 70
     1
102
RTVSPropertyOp41
 70
     1
102
RTVSPropertyOp42
 70
     1
102
RTVSPropertyOp43
 70
     1
102
RTVSPropertyOp44
 70
     1
102
RTVSPropertyOp45
 70
     1
102
RTVSPropertyOp46
 70
     1
102
RTVSPropertyOp47
 70
     1
102
RTVSPropertyOp48
 70
     1
102
RTVSPropertyOp49
 70
     1
102
RTVSPropertyOp50
 70
     1
102
RTVSPropertyOp51
 70
     0
102
RTVSPropertyOp52
 70
     0
102
RTVSPropertyOp53
 70
     1
102
RTVSPropertyOp54
 70
     1
102
RTVSPropertyOp55
 70
     1
102
RTVSPropertyOp56
 70
     1
102
RTVSPropertyOp57
 70
     1
102
RTVSPost2010Prop28
280
     0
102
RTVSPost2010PropOp28
 70
     1
102
RTVSPost2010Prop29
280
     1
102
RTVSPost2010PropOp29
 70
     1
102
RTVSPost2010Prop30
280
     1
102
RTVSPost2010PropOp30
 70
     1
102
RTVSPost2010Prop31
280
     0
102
RTVSPost2010PropOp31
 70
     1
102
RTVSPost2010Prop32
280
     0
102
RTVSPost2010PropOp32
 70
     1
102
RTVSPost2010Prop33
280
     0
102
RTVSPost2010PropOp33
 70
     1
102
RTVSPost2010Prop34
280
     0
102
RTVSPost2010PropOp34
 70
     1
102
RTVSPost2010Prop35
280
     0
102
RTVSPost2010PropOp35
 70
     1
102
RTVSPost2010Prop36
280
     0
102
RTVSPost2010PropOp36
 70
     1
102
RTVSPost2010Prop37
 90
       50
102
RTVSPost2010PropOp37
 70
     1
102
RTVSPost2010Prop38
140
0.0
102
RTVSPost2010PropOp38
 70
     1
102
RTVSPost2010Prop39
140
1.0
102
RTVSPost2010PropOp39
 70
     1
102
RTVSPost2010Prop40
 90
        0
102
RTVSPost2010PropOp40
 70
     1
102
RTVSPost2010Prop41ColorIndex
 90
       18
102
RTVSPost2010Prop41ColorRGB
 90
        0
102
RTVSPost2010PropOp41
 70
     1
102
RTVSPost2010Prop42
 90
       50
102
RTVSPost2010PropOp42
 70
     1
102
RTVSPost2010Prop43
 90
        3
102
RTVSPost2010PropOp43
 70
     1
102
RTVSPost2010Prop44ColorIndex
 90
        5
102
RTVSPost2010Prop44ColorRGB
 90
      255
102
RTVSPost2010PropOp44
 70
     1
102
RTVSPost2010Prop45
280
     0
102
RTVSPost2010PropOp45
 70
     1
102
RTVSPost2010Prop46
 90
       50
102
RTVSPost2010PropOp46
 70
     1
102
RTVSPost2010Prop47
 90
       50
102
RTVSPost2010PropOp47
 70
     1
102
RTVSPost2010Prop48
 90
       50
102
RTVSPost2010PropOp48
 70
     1
102
RTVSPost2010Prop49
280
     0
102
RTVSPost2010PropOp49
 70
     1
102
RTVSPost2010Prop50
 90
       50
102
RTVSPost2010PropOp50
 70
     1
102
RTVSPost2010Prop51ColorIndex
 90
      256
102
RTVSPost2010Prop51ColorRGB
 90
-16777216
102
RTVSPost2010PropOp51
 70
     0
102
RTVSPost2010Prop52
140
1.0
102
RTVSPost2010PropOp52
 70
     0
102
RTVSPost2010Prop53
 90
        2
102
RTVSPost2010PropOp53
 70
     1
102
RTVSPost2010Prop54
  1
strokes_ogs.tif
102
RTVSPost2010PropOp54
 70
     1
102
RTVSPost2010Prop55
280
     0
102
RTVSPost2010PropOp55
 70
     1
102
RTVSPost2010Prop56
140
1.0
102
RTVSPost2010PropOp56
 70
     1
102
RTVSPost2010Prop57
140
1.0
102
RTVSPost2010PropOp57
 70
     1
  0
XRECORD
  5
3FB
102
{ACAD_REACTORS
330
3FA
102
}
330
3FA
100
AcDbXrecord
280
     1
102
RTVSPropertyOp0
 70
     1
102
RTVSPropertyOp1
 70
     1
102
RTVSPropertyOp2
 70
     1
102
RTVSPropertyOp3
 70
     1
102
RTVSPropertyOp4
 70
     1
102
RTVSPropertyOp5
 70
     1
102
RTVSPropertyOp6
 70
     1
102
RTVSPropertyOp7
 70
     1
102
RTVSPropertyOp8
 70
     1
102
RTVSPropertyOp9
 70
     1
102
RTVSPropertyOp10
 70
     1
102
RTVSPropertyOp11
 70
     1
102
RTVSPropertyOp12
 70
     1
102
RTVSPropertyOp13
 70
     1
102
RTVSPropertyOp14
 70
     1
102
RTVSPropertyOp15
 70
     1
102
RTVSPropertyOp16
 70
     1
102
RTVSPropertyOp17
 70
     1
102
RTVSPropertyOp18
 70
     1
102
RTVSPropertyOp19
 70
     1
102
RTVSPropertyOp20
 70
     1
102
RTVSPropertyOp21
 70
     1
102
RTVSPropertyOp22
 70
     1
102
RTVSPropertyOp23
 70
     1
102
RTVSPropertyOp24
 70
     1
102
RTVSPropertyOp25
 70
     1
102
RTVSPropertyOp26
 70
     1
102
RTVSPropertyOp27
 70
     1
102
RTVSPropertyOp28
 70
     1
102
RTVSPropertyOp29
 70
     1
102
RTVSPropertyOp30
 70
     1
102
RTVSPropertyOp31
 70
     1
102
RTVSPropertyOp32
 70
     1
102
RTVSPropertyOp33
 70
     1
102
RTVSPropertyOp34
 70
     1
102
RTVSPropertyOp35
 70
     1
102
RTVSPropertyOp36
 70
     1
102
RTVSPropertyOp37
 70
     1
102
RTVSPropertyOp38
 70
     1
102
RTVSPropertyOp39
 70
     1
102
RTVSPropertyOp40
 70
     1
102
RTVSPropertyOp41
 70
     1
102
RTVSPropertyOp42
 70
     1
102
RTVSPropertyOp43
 70
     1
102
RTVSPropertyOp44
 70
     1
102
RTVSPropertyOp45
 70
     1
102
RTVSPropertyOp46
 70
     1
102
RTVSPropertyOp47
 70
     1
102
RTVSPropertyOp48
 70
     1
102
RTVSPropertyOp49
 70
     1
102
RTVSPropertyOp50
 70
     1
102
RTVSPropertyOp51
 70
     0
102
RTVSPropertyOp52
 70
     0
102
RTVSPropertyOp53
 70
     1
102
RTVSPropertyOp54
 70
     1
102
RTVSPropertyOp55
 70
     1
102
RTVSPropertyOp56
 70
     1
102
RTVSPropertyOp57
 70
     1
102
RTVSPost2010Prop28
280
     0
102
RTVSPost2010PropOp28
 70
     1
102
RTVSPost2010Prop29
280
     1
102
RTVSPost2010PropOp29
 70
     1
102
RTVSPost2010Prop30
280
     1
102
RTVSPost2010PropOp30
 70
     1
102
RTVSPost2010Prop31
280
     0
102
RTVSPost2010PropOp31
 70
     1
102
RTVSPost2010Prop32
280
     0
102
RTVSPost2010PropOp32
 70
     1
102
RTVSPost2010Prop33
280
     0
102
RTVSPost2010PropOp33
 70
     1
102
RTVSPost2010Prop34
280
     0
102
RTVSPost2010PropOp34
 70
     1
102
RTVSPost2010Prop35
280
     0
102
RTVSPost2010PropOp35
 70
     1
102
RTVSPost2010Prop36
280
     0
102
RTVSPost2010PropOp36
 70
     1
102
RTVSPost2010Prop37
 90
       50
102
RTVSPost2010PropOp37
 70
     1
102
RTVSPost2010Prop38
140
0.0
102
RTVSPost2010PropOp38
 70
     1
102
RTVSPost2010Prop39
140
1.0
102
RTVSPost2010PropOp39
 70
     1
102
RTVSPost2010Prop40
 90
        0
102
RTVSPost2010PropOp40
 70
     1
102
RTVSPost2010Prop41ColorIndex
 90
       18
102
RTVSPost2010Prop41ColorRGB
 90
        0
102
RTVSPost2010PropOp41
 70
     1
102
RTVSPost2010Prop42
 90
       50
102
RTVSPost2010PropOp42
 70
     1
102
RTVSPost2010Prop43
 90
        3
102
RTVSPost2010PropOp43
 70
     1
102
RTVSPost2010Prop44ColorIndex
 90
        5
102
RTVSPost2010Prop44ColorRGB
 90
      255
102
RTVSPost2010PropOp44
 70
     1
102
RTVSPost2010Prop45
280
     0
102
RTVSPost2010PropOp45
 70
     1
102
RTVSPost2010Prop46
 90
       50
102
RTVSPost2010PropOp46
 70
     1
102
RTVSPost2010Prop47
 90
       50
102
RTVSPost2010PropOp47
 70
     1
102
RTVSPost2010Prop48
 90
       50
102
RTVSPost2010PropOp48
 70
     1
102
RTVSPost2010Prop49
280
     0
102
RTVSPost2010PropOp49
 70
     1
102
RTVSPost2010Prop50
 90
       50
102
RTVSPost2010PropOp50
 70
     1
102
RTVSPost2010Prop51ColorIndex
 90
      256
102
RTVSPost2010Prop51ColorRGB
 90
-16777216
102
RTVSPost2010PropOp51
 70
     0
102
RTVSPost2010Prop52
140
1.0
102
RTVSPost2010PropOp52
 70
     0
102
RTVSPost2010Prop53
 90
        2
102
RTVSPost2010PropOp53
 70
     1
102
RTVSPost2010Prop54
  1
strokes_ogs.tif
102
RTVSPost2010PropOp54
 70
     1
102
RTVSPost2010Prop55
280
     0
102
RTVSPost2010PropOp55
 70
     1
102
RTVSPost2010Prop56
140
1.0
102
RTVSPost2010PropOp56
 70
     1
102
RTVSPost2010Prop57
140
1.0
102
RTVSPost2010PropOp57
 70
     1
  0
XRECORD
  5
3FD
102
{ACAD_REACTORS
330
3FC
102
}
330
3FC
100
AcDbXrecord
280
     1
102
RTVSPropertyOp0
 70
     1
102
RTVSPropertyOp1
 70
     1
102
RTVSPropertyOp2
 70
     1
102
RTVSPropertyOp3
 70
     1
102
RTVSPropertyOp4
 70
     1
102
RTVSPropertyOp5
 70
     1
102
RTVSPropertyOp6
 70
     1
102
RTVSPropertyOp7
 70
     1
102
RTVSPropertyOp8
 70
     1
102
RTVSPropertyOp9
 70
     1
102
RTVSPropertyOp10
 70
     1
102
RTVSPropertyOp11
 70
     1
102
RTVSPropertyOp12
 70
     1
102
RTVSPropertyOp13
 70
     1
102
RTVSPropertyOp14
 70
     1
102
RTVSPropertyOp15
 70
     1
102
RTVSPropertyOp16
 70
     1
102
RTVSPropertyOp17
 70
     1
102
RTVSPropertyOp18
 70
     1
102
RTVSPropertyOp19
 70
     1
102
RTVSPropertyOp20
 70
     1
102
RTVSPropertyOp21
 70
     1
102
RTVSPropertyOp22
 70
     1
102
RTVSPropertyOp23
 70
     1
102
RTVSPropertyOp24
 70
     1
102
RTVSPropertyOp25
 70
     1
102
RTVSPropertyOp26
 70
     1
102
RTVSPropertyOp27
 70
     1
102
RTVSPropertyOp28
 70
     1
102
RTVSPropertyOp29
 70
     1
102
RTVSPropertyOp30
 70
     1
102
RTVSPropertyOp31
 70
     1
102
RTVSPropertyOp32
 70
     1
102
RTVSPropertyOp33
 70
     1
102
RTVSPropertyOp34
 70
     1
102
RTVSPropertyOp35
 70
     1
102
RTVSPropertyOp36
 70
     1
102
RTVSPropertyOp37
 70
     1
102
RTVSPropertyOp38
 70
     1
102
RTVSPropertyOp39
 70
     1
102
RTVSPropertyOp40
 70
     1
102
RTVSPropertyOp41
 70
     1
102
RTVSPropertyOp42
 70
     1
102
RTVSPropertyOp43
 70
     1
102
RTVSPropertyOp44
 70
     1
102
RTVSPropertyOp45
 70
     1
102
RTVSPropertyOp46
 70
     1
102
RTVSPropertyOp47
 70
     1
102
RTVSPropertyOp48
 70
     1
102
RTVSPropertyOp49
 70
     1
102
RTVSPropertyOp50
 70
     1
102
RTVSPropertyOp51
 70
     0
102
RTVSPropertyOp52
 70
     0
102
RTVSPropertyOp53
 70
     1
102
RTVSPropertyOp54
 70
     1
102
RTVSPropertyOp55
 70
     1
102
RTVSPropertyOp56
 70
     1
102
RTVSPropertyOp57
 70
     1
102
RTVSPost2010Prop28
280
     0
102
RTVSPost2010PropOp28
 70
     1
102
RTVSPost2010Prop29
280
     1
102
RTVSPost2010PropOp29
 70
     1
102
RTVSPost2010Prop30
280
     1
102
RTVSPost2010PropOp30
 70
     1
102
RTVSPost2010Prop31
280
     0
102
RTVSPost2010PropOp31
 70
     1
102
RTVSPost2010Prop32
280
     0
102
RTVSPost2010PropOp32
 70
     1
102
RTVSPost2010Prop33
280
     0
102
RTVSPost2010PropOp33
 70
     1
102
RTVSPost2010Prop34
280
     0
102
RTVSPost2010PropOp34
 70
     1
102
RTVSPost2010Prop35
280
     0
102
RTVSPost2010PropOp35
 70
     1
102
RTVSPost2010Prop36
280
     0
102
RTVSPost2010PropOp36
 70
     1
102
RTVSPost2010Prop37
 90
       50
102
RTVSPost2010PropOp37
 70
     1
102
RTVSPost2010Prop38
140
0.0
102
RTVSPost2010PropOp38
 70
     1
102
RTVSPost2010Prop39
140
1.0
102
RTVSPost2010PropOp39
 70
     1
102
RTVSPost2010Prop40
 90
        0
102
RTVSPost2010PropOp40
 70
     1
102
RTVSPost2010Prop41ColorIndex
 90
       18
102
RTVSPost2010Prop41ColorRGB
 90
        0
102
RTVSPost2010PropOp41
 70
     1
102
RTVSPost2010Prop42
 90
       50
102
RTVSPost2010PropOp42
 70
     1
102
RTVSPost2010Prop43
 90
        3
102
RTVSPost2010PropOp43
 70
     1
102
RTVSPost2010Prop44ColorIndex
 90
        5
102
RTVSPost2010Prop44ColorRGB
 90
      255
102
RTVSPost2010PropOp44
 70
     1
102
RTVSPost2010Prop45
280
     0
102
RTVSPost2010PropOp45
 70
     1
102
RTVSPost2010Prop46
 90
       50
102
RTVSPost2010PropOp46
 70
     1
102
RTVSPost2010Prop47
 90
       50
102
RTVSPost2010PropOp47
 70
     1
102
RTVSPost2010Prop48
 90
       50
102
RTVSPost2010PropOp48
 70
     1
102
RTVSPost2010Prop49
280
     0
102
RTVSPost2010PropOp49
 70
     1
102
RTVSPost2010Prop50
 90
       50
102
RTVSPost2010PropOp50
 70
     1
102
RTVSPost2010Prop51ColorIndex
 90
      256
102
RTVSPost2010Prop51ColorRGB
 90
-16777216
102
RTVSPost2010PropOp51
 70
     0
102
RTVSPost2010Prop52
140
1.0
102
RTVSPost2010PropOp52
 70
     0
102
RTVSPost2010Prop53
 90
        2
102
RTVSPost2010PropOp53
 70
     1
102
RTVSPost2010Prop54
  1
strokes_ogs.tif
102
RTVSPost2010PropOp54
 70
     1
102
RTVSPost2010Prop55
280
     0
102
RTVSPost2010PropOp55
 70
     1
102
RTVSPost2010Prop56
140
1.0
102
RTVSPost2010PropOp56
 70
     1
102
RTVSPost2010Prop57
140
1.0
102
RTVSPost2010PropOp57
 70
     1
  0
XRECORD
  5
40D
102
{ACAD_REACTORS
330
40C
102
}
330
40C
100
AcDbXrecord
280
     1
102
RTVSPropertyOp0
 70
     0
102
RTVSPropertyOp1
 70
     0
102
RTVSPropertyOp2
 70
     0
102
RTVSPropertyOp3
 70
     0
102
RTVSPropertyOp4
 70
     0
102
RTVSPropertyOp5
 70
     0
102
RTVSPropertyOp6
 70
     0
102
RTVSPropertyOp7
 70
     0
102
RTVSPropertyOp8
 70
     0
102
RTVSPropertyOp9
 70
     0
102
RTVSPropertyOp10
 70
     0
102
RTVSPropertyOp11
 70
     0
102
RTVSPropertyOp12
 70
     0
102
RTVSPropertyOp13
 70
     0
102
RTVSPropertyOp14
 70
     2
102
RTVSPropertyOp15
 70
     0
102
RTVSPropertyOp16
 70
     0
102
RTVSPropertyOp17
 70
     0
102
RTVSPropertyOp18
 70
     0
102
RTVSPropertyOp19
 70
     0
102
RTVSPropertyOp20
 70
     0
102
RTVSPropertyOp21
 70
     0
102
RTVSPropertyOp22
 70
     0
102
RTVSPropertyOp23
 70
     0
102
RTVSPropertyOp24
 70
     0
102
RTVSPropertyOp25
 70
     0
102
RTVSPropertyOp26
 70
     0
102
RTVSPropertyOp27
 70
     0
102
RTVSPropertyOp28
 70
     0
102
RTVSPropertyOp29
 70
     0
102
RTVSPropertyOp30
 70
     0
102
RTVSPropertyOp31
 70
     0
102
RTVSPropertyOp32
 70
     0
102
RTVSPropertyOp33
 70
     0
102
RTVSPropertyOp34
 70
     0
102
RTVSPropertyOp35
 70
     0
102
RTVSPropertyOp36
 70
     0
102
RTVSPropertyOp37
 70
     0
102
RTVSPropertyOp38
 70
     0
102
RTVSPropertyOp39
 70
     0
102
RTVSPropertyOp40
 70
     0
102
RTVSPropertyOp41
 70
     0
102
RTVSPropertyOp42
 70
     0
102
RTVSPropertyOp43
 70
     0
102
RTVSPropertyOp44
 70
     0
102
RTVSPropertyOp45
 70
     0
102
RTVSPropertyOp46
 70
     0
102
RTVSPropertyOp47
 70
     0
102
RTVSPropertyOp48
 70
     0
102
RTVSPropertyOp49
 70
     0
102
RTVSPropertyOp50
 70
     0
102
RTVSPropertyOp51
 70
     0
102
RTVSPropertyOp52
 70
     0
102
RTVSPropertyOp53
 70
     0
102
RTVSPropertyOp54
 70
     0
102
RTVSPropertyOp55
 70
     0
102
RTVSPropertyOp56
 70
     0
102
RTVSPropertyOp57
 70
     0
102
RTVSPost2010Prop28
280
     0
102
RTVSPost2010PropOp28
 70
     0
102
RTVSPost2010Prop29
280
     1
102
RTVSPost2010PropOp29
 70
     0
102
RTVSPost2010Prop30
280
     1
102
RTVSPost2010PropOp30
 70
     0
102
RTVSPost2010Prop31
280
     0
102
RTVSPost2010PropOp31
 70
     0
102
RTVSPost2010Prop32
280
     0
102
RTVSPost2010PropOp32
 70
     0
102
RTVSPost2010Prop33
280
     0
102
RTVSPost2010PropOp33
 70
     0
102
RTVSPost2010Prop34
280
     0
102
RTVSPost2010PropOp34
 70
     0
102
RTVSPost2010Prop35
280
     0
102
RTVSPost2010PropOp35
 70
     0
102
RTVSPost2010Prop36
280
     0
102
RTVSPost2010PropOp36
 70
     0
102
RTVSPost2010Prop37
 90
       50
102
RTVSPost2010PropOp37
 70
     0
102
RTVSPost2010Prop38
140
0.0
102
RTVSPost2010PropOp38
 70
     0
102
RTVSPost2010Prop39
140
1.0
102
RTVSPost2010PropOp39
 70
     0
102
RTVSPost2010Prop40
 90
        0
102
RTVSPost2010PropOp40
 70
     0
102
RTVSPost2010Prop41ColorIndex
 90
       18
102
RTVSPost2010Prop41ColorRGB
 90
        0
102
RTVSPost2010PropOp41
 70
     0
102
RTVSPost2010Prop42
 90
       50
102
RTVSPost2010PropOp42
 70
     0
102
RTVSPost2010Prop43
 90
        3
102
RTVSPost2010PropOp43
 70
     0
102
RTVSPost2010Prop44ColorIndex
 90
        5
102
RTVSPost2010Prop44ColorRGB
 90
      255
102
RTVSPost2010PropOp44
 70
     0
102
RTVSPost2010Prop45
280
     0
102
RTVSPost2010PropOp45
 70
     0
102
RTVSPost2010Prop46
 90
       50
102
RTVSPost2010PropOp46
 70
     0
102
RTVSPost2010Prop47
 90
       50
102
RTVSPost2010PropOp47
 70
     0
102
RTVSPost2010Prop48
 90
       50
102
RTVSPost2010PropOp48
 70
     0
102
RTVSPost2010Prop49
280
     0
102
RTVSPost2010PropOp49
 70
     0
102
RTVSPost2010Prop50
 90
       50
102
RTVSPost2010PropOp50
 70
     0
102
RTVSPost2010Prop51ColorIndex
 90
      256
102
RTVSPost2010Prop51ColorRGB
 90
-16777216
102
RTVSPost2010PropOp51
 70
     0
102
RTVSPost2010Prop52
140
1.0
102
RTVSPost2010PropOp52
 70
     0
102
RTVSPost2010Prop53
 90
        2
102
RTVSPost2010PropOp53
 70
     0
102
RTVSPost2010Prop54
  1
strokes_ogs.tif
102
RTVSPost2010PropOp54
 70
     0
102
RTVSPost2010Prop55
280
     0
102
RTVSPost2010PropOp55
 70
     0
102
RTVSPost2010Prop56
140
1.0
102
RTVSPost2010PropOp56
 70
     0
102
RTVSPost2010Prop57
140
1.0
102
RTVSPost2010PropOp57
 70
     0
  0
XRECORD
  5
405
102
{ACAD_REACTORS
330
404
102
}
330
404
100
AcDbXrecord
280
     1
102
RTVSPropertyOp0
 70
     1
102
RTVSPropertyOp1
 70
     1
102
RTVSPropertyOp2
 70
     1
102
RTVSPropertyOp3
 70
     1
102
RTVSPropertyOp4
 70
     1
102
RTVSPropertyOp5
 70
     1
102
RTVSPropertyOp6
 70
     1
102
RTVSPropertyOp7
 70
     1
102
RTVSPropertyOp8
 70
     1
102
RTVSPropertyOp9
 70
     1
102
RTVSPropertyOp10
 70
     1
102
RTVSPropertyOp11
 70
     1
102
RTVSPropertyOp12
 70
     1
102
RTVSPropertyOp13
 70
     1
102
RTVSPropertyOp14
 70
     1
102
RTVSPropertyOp15
 70
     1
102
RTVSPropertyOp16
 70
     1
102
RTVSPropertyOp17
 70
     1
102
RTVSPropertyOp18
 70
     1
102
RTVSPropertyOp19
 70
     1
102
RTVSPropertyOp20
 70
     1
102
RTVSPropertyOp21
 70
     1
102
RTVSPropertyOp22
 70
     1
102
RTVSPropertyOp23
 70
     1
102
RTVSPropertyOp24
 70
     1
102
RTVSPropertyOp25
 70
     1
102
RTVSPropertyOp26
 70
     1
102
RTVSPropertyOp27
 70
     1
102
RTVSPropertyOp28
 70
     1
102
RTVSPropertyOp29
 70
     1
102
RTVSPropertyOp30
 70
     1
102
RTVSPropertyOp31
 70
     1
102
RTVSPropertyOp32
 70
     1
102
RTVSPropertyOp33
 70
     1
102
RTVSPropertyOp34
 70
     1
102
RTVSPropertyOp35
 70
     1
102
RTVSPropertyOp36
 70
     1
102
RTVSPropertyOp37
 70
     1
102
RTVSPropertyOp38
 70
     1
102
RTVSPropertyOp39
 70
     1
102
RTVSPropertyOp40
 70
     1
102
RTVSPropertyOp41
 70
     1
102
RTVSPropertyOp42
 70
     1
102
RTVSPropertyOp43
 70
     1
102
RTVSPropertyOp44
 70
     1
102
RTVSPropertyOp45
 70
     1
102
RTVSPropertyOp46
 70
     1
102
RTVSPropertyOp47
 70
     1
102
RTVSPropertyOp48
 70
     1
102
RTVSPropertyOp49
 70
     1
102
RTVSPropertyOp50
 70
     1
102
RTVSPropertyOp51
 70
     0
102
RTVSPropertyOp52
 70
     0
102
RTVSPropertyOp53
 70
     1
102
RTVSPropertyOp54
 70
     1
102
RTVSPropertyOp55
 70
     1
102
RTVSPropertyOp56
 70
     1
102
RTVSPropertyOp57
 70
     1
102
RTVSPost2010Prop28
280
     0
102
RTVSPost2010PropOp28
 70
     1
102
RTVSPost2010Prop29
280
     1
102
RTVSPost2010PropOp29
 70
     1
102
RTVSPost2010Prop30
280
     1
102
RTVSPost2010PropOp30
 70
     1
102
RTVSPost2010Prop31
280
     0
102
RTVSPost2010PropOp31
 70
     1
102
RTVSPost2010Prop32
280
     0
102
RTVSPost2010PropOp32
 70
     1
102
RTVSPost2010Prop33
280
     0
102
RTVSPost2010PropOp33
 70
     1
102
RTVSPost2010Prop34
280
     0
102
RTVSPost2010PropOp34
 70
     1
102
RTVSPost2010Prop35
280
     0
102
RTVSPost2010PropOp35
 70
     1
102
RTVSPost2010Prop36
280
     0
102
RTVSPost2010PropOp36
 70
     1
102
RTVSPost2010Prop37
 90
       50
102
RTVSPost2010PropOp37
 70
     1
102
RTVSPost2010Prop38
140
0.0
102
RTVSPost2010PropOp38
 70
     1
102
RTVSPost2010Prop39
140
1.0
102
RTVSPost2010PropOp39
 70
     1
102
RTVSPost2010Prop40
 90
        0
102
RTVSPost2010PropOp40
 70
     1
102
RTVSPost2010Prop41ColorIndex
 90
       18
102
RTVSPost2010Prop41ColorRGB
 90
        0
102
RTVSPost2010PropOp41
 70
     1
102
RTVSPost2010Prop42
 90
       50
102
RTVSPost2010PropOp42
 70
     1
102
RTVSPost2010Prop43
 90
        3
102
RTVSPost2010PropOp43
 70
     1
102
RTVSPost2010Prop44ColorIndex
 90
        5
102
RTVSPost2010Prop44ColorRGB
 90
      255
102
RTVSPost2010PropOp44
 70
     1
102
RTVSPost2010Prop45
280
     0
102
RTVSPost2010PropOp45
 70
     1
102
RTVSPost2010Prop46
 90
       50
102
RTVSPost2010PropOp46
 70
     1
102
RTVSPost2010Prop47
 90
       50
102
RTVSPost2010PropOp47
 70
     1
102
RTVSPost2010Prop48
 90
       50
102
RTVSPost2010PropOp48
 70
     1
102
RTVSPost2010Prop49
280
     0
102
RTVSPost2010PropOp49
 70
     1
102
RTVSPost2010Prop50
 90
       50
102
RTVSPost2010PropOp50
 70
     1
102
RTVSPost2010Prop51ColorIndex
 90
      256
102
RTVSPost2010Prop51ColorRGB
 90
-16777216
102
RTVSPost2010PropOp51
 70
     0
102
RTVSPost2010Prop52
140
1.0
102
RTVSPost2010PropOp52
 70
     0
102
RTVSPost2010Prop53
 90
        2
102
RTVSPost2010PropOp53
 70
     1
102
RTVSPost2010Prop54
  1
strokes_ogs.tif
102
RTVSPost2010PropOp54
 70
     1
102
RTVSPost2010Prop55
280
     0
102
RTVSPost2010PropOp55
 70
     1
102
RTVSPost2010Prop56
140
1.0
102
RTVSPost2010PropOp56
 70
     1
102
RTVSPost2010Prop57
140
1.0
102
RTVSPost2010PropOp57
 70
     1
  0
XRECORD
  5
3E9
102
{ACAD_REACTORS
330
3E8
102
}
330
3E8
100
AcDbXrecord
280
     1
102
RTVSPropertyOp0
 70
     1
102
RTVSPropertyOp1
 70
     1
102
RTVSPropertyOp2
 70
     1
102
RTVSPropertyOp3
 70
     1
102
RTVSPropertyOp4
 70
     1
102
RTVSPropertyOp5
 70
     1
102
RTVSPropertyOp6
 70
     1
102
RTVSPropertyOp7
 70
     1
102
RTVSPropertyOp8
 70
     1
102
RTVSPropertyOp9
 70
     1
102
RTVSPropertyOp10
 70
     1
102
RTVSPropertyOp11
 70
     1
102
RTVSPropertyOp12
 70
     1
102
RTVSPropertyOp13
 70
     1
102
RTVSPropertyOp14
 70
     1
102
RTVSPropertyOp15
 70
     1
102
RTVSPropertyOp16
 70
     1
102
RTVSPropertyOp17
 70
     1
102
RTVSPropertyOp18
 70
     1
102
RTVSPropertyOp19
 70
     1
102
RTVSPropertyOp20
 70
     1
102
RTVSPropertyOp21
 70
     1
102
RTVSPropertyOp22
 70
     1
102
RTVSPropertyOp23
 70
     1
102
RTVSPropertyOp24
 70
     1
102
RTVSPropertyOp25
 70
     1
102
RTVSPropertyOp26
 70
     1
102
RTVSPropertyOp27
 70
     1
102
RTVSPropertyOp28
 70
     1
102
RTVSPropertyOp29
 70
     1
102
RTVSPropertyOp30
 70
     1
102
RTVSPropertyOp31
 70
     1
102
RTVSPropertyOp32
 70
     1
102
RTVSPropertyOp33
 70
     1
102
RTVSPropertyOp34
 70
     1
102
RTVSPropertyOp35
 70
     1
102
RTVSPropertyOp36
 70
     1
102
RTVSPropertyOp37
 70
     1
102
RTVSPropertyOp38
 70
     1
102
RTVSPropertyOp39
 70
     1
102
RTVSPropertyOp40
 70
     1
102
RTVSPropertyOp41
 70
     1
102
RTVSPropertyOp42
 70
     1
102
RTVSPropertyOp43
 70
     1
102
RTVSPropertyOp44
 70
     1
102
RTVSPropertyOp45
 70
     1
102
RTVSPropertyOp46
 70
     1
102
RTVSPropertyOp47
 70
     1
102
RTVSPropertyOp48
 70
     1
102
RTVSPropertyOp49
 70
     1
102
RTVSPropertyOp50
 70
     1
102
RTVSPropertyOp51
 70
     0
102
RTVSPropertyOp52
 70
     0
102
RTVSPropertyOp53
 70
     1
102
RTVSPropertyOp54
 70
     1
102
RTVSPropertyOp55
 70
     1
102
RTVSPropertyOp56
 70
     1
102
RTVSPropertyOp57
 70
     1
102
RTVSPost2010Prop28
280
     0
102
RTVSPost2010PropOp28
 70
     1
102
RTVSPost2010Prop29
280
     1
102
RTVSPost2010PropOp29
 70
     1
102
RTVSPost2010Prop30
280
     1
102
RTVSPost2010PropOp30
 70
     1
102
RTVSPost2010Prop31
280
     0
102
RTVSPost2010PropOp31
 70
     1
102
RTVSPost2010Prop32
280
     0
102
RTVSPost2010PropOp32
 70
     1
102
RTVSPost2010Prop33
280
     0
102
RTVSPost2010PropOp33
 70
     1
102
RTVSPost2010Prop34
280
     0
102
RTVSPost2010PropOp34
 70
     1
102
RTVSPost2010Prop35
280
     0
102
RTVSPost2010PropOp35
 70
     1
102
RTVSPost2010Prop36
280
     0
102
RTVSPost2010PropOp36
 70
     1
102
RTVSPost2010Prop37
 90
       50
102
RTVSPost2010PropOp37
 70
     1
102
RTVSPost2010Prop38
140
0.0
102
RTVSPost2010PropOp38
 70
     1
102
RTVSPost2010Prop39
140
1.0
102
RTVSPost2010PropOp39
 70
     1
102
RTVSPost2010Prop40
 90
        0
102
RTVSPost2010PropOp40
 70
     1
102
RTVSPost2010Prop41ColorIndex
 90
       18
102
RTVSPost2010Prop41ColorRGB
 90
        0
102
RTVSPost2010PropOp41
 70
     1
102
RTVSPost2010Prop42
 90
       50
102
RTVSPost2010PropOp42
 70
     1
102
RTVSPost2010Prop43
 90
        3
102
RTVSPost2010PropOp43
 70
     1
102
RTVSPost2010Prop44ColorIndex
 90
        5
102
RTVSPost2010Prop44ColorRGB
 90
      255
102
RTVSPost2010PropOp44
 70
     1
102
RTVSPost2010Prop45
280
     0
102
RTVSPost2010PropOp45
 70
     1
102
RTVSPost2010Prop46
 90
       50
102
RTVSPost2010PropOp46
 70
     1
102
RTVSPost2010Prop47
 90
       50
102
RTVSPost2010PropOp47
 70
     1
102
RTVSPost2010Prop48
 90
       50
102
RTVSPost2010PropOp48
 70
     1
102
RTVSPost2010Prop49
280
     0
102
RTVSPost2010PropOp49
 70
     1
102
RTVSPost2010Prop50
 90
       50
102
RTVSPost2010PropOp50
 70
     1
102
RTVSPost2010Prop51ColorIndex
 90
      256
102
RTVSPost2010Prop51ColorRGB
 90
-16777216
102
RTVSPost2010PropOp51
 70
     0
102
RTVSPost2010Prop52
140
1.0
102
RTVSPost2010PropOp52
 70
     0
102
RTVSPost2010Prop53
 90
        2
102
RTVSPost2010PropOp53
 70
     1
102
RTVSPost2010Prop54
  1
strokes_ogs.tif
102
RTVSPost2010PropOp54
 70
     1
102
RTVSPost2010Prop55
280
     0
102
RTVSPost2010PropOp55
 70
     1
102
RTVSPost2010Prop56
140
1.0
102
RTVSPost2010PropOp56
 70
     1
102
RTVSPost2010Prop57
140
1.0
102
RTVSPost2010PropOp57
 70
     1
  0
XRECORD
  5
3EB
102
{ACAD_REACTORS
330
3EA
102
}
330
3EA
100
AcDbXrecord
280
     1
102
RTVSPropertyOp0
 70
     1
102
RTVSPropertyOp1
 70
     1
102
RTVSPropertyOp2
 70
     1
102
RTVSPropertyOp3
 70
     1
102
RTVSPropertyOp4
 70
     1
102
RTVSPropertyOp5
 70
     1
102
RTVSPropertyOp6
 70
     1
102
RTVSPropertyOp7
 70
     1
102
RTVSPropertyOp8
 70
     1
102
RTVSPropertyOp9
 70
     1
102
RTVSPropertyOp10
 70
     1
102
RTVSPropertyOp11
 70
     1
102
RTVSPropertyOp12
 70
     1
102
RTVSPropertyOp13
 70
     1
102
RTVSPropertyOp14
 70
     1
102
RTVSPropertyOp15
 70
     1
102
RTVSPropertyOp16
 70
     1
102
RTVSPropertyOp17
 70
     1
102
RTVSPropertyOp18
 70
     1
102
RTVSPropertyOp19
 70
     1
102
RTVSPropertyOp20
 70
     1
102
RTVSPropertyOp21
 70
     1
102
RTVSPropertyOp22
 70
     1
102
RTVSPropertyOp23
 70
     1
102
RTVSPropertyOp24
 70
     1
102
RTVSPropertyOp25
 70
     1
102
RTVSPropertyOp26
 70
     1
102
RTVSPropertyOp27
 70
     1
102
RTVSPropertyOp28
 70
     1
102
RTVSPropertyOp29
 70
     1
102
RTVSPropertyOp30
 70
     1
102
RTVSPropertyOp31
 70
     1
102
RTVSPropertyOp32
 70
     1
102
RTVSPropertyOp33
 70
     1
102
RTVSPropertyOp34
 70
     1
102
RTVSPropertyOp35
 70
     1
102
RTVSPropertyOp36
 70
     1
102
RTVSPropertyOp37
 70
     1
102
RTVSPropertyOp38
 70
     1
102
RTVSPropertyOp39
 70
     1
102
RTVSPropertyOp40
 70
     1
102
RTVSPropertyOp41
 70
     1
102
RTVSPropertyOp42
 70
     1
102
RTVSPropertyOp43
 70
     1
102
RTVSPropertyOp44
 70
     1
102
RTVSPropertyOp45
 70
     1
102
RTVSPropertyOp46
 70
     1
102
RTVSPropertyOp47
 70
     1
102
RTVSPropertyOp48
 70
     1
102
RTVSPropertyOp49
 70
     1
102
RTVSPropertyOp50
 70
     1
102
RTVSPropertyOp51
 70
     0
102
RTVSPropertyOp52
 70
     0
102
RTVSPropertyOp53
 70
     1
102
RTVSPropertyOp54
 70
     1
102
RTVSPropertyOp55
 70
     1
102
RTVSPropertyOp56
 70
     1
102
RTVSPropertyOp57
 70
     1
102
RTVSPost2010Prop28
280
     0
102
RTVSPost2010PropOp28
 70
     1
102
RTVSPost2010Prop29
280
     1
102
RTVSPost2010PropOp29
 70
     1
102
RTVSPost2010Prop30
280
     1
102
RTVSPost2010PropOp30
 70
     1
102
RTVSPost2010Prop31
280
     0
102
RTVSPost2010PropOp31
 70
     1
102
RTVSPost2010Prop32
280
     0
102
RTVSPost2010PropOp32
 70
     1
102
RTVSPost2010Prop33
280
     0
102
RTVSPost2010PropOp33
 70
     1
102
RTVSPost2010Prop34
280
     0
102
RTVSPost2010PropOp34
 70
     1
102
RTVSPost2010Prop35
280
     0
102
RTVSPost2010PropOp35
 70
     1
102
RTVSPost2010Prop36
280
     0
102
RTVSPost2010PropOp36
 70
     1
102
RTVSPost2010Prop37
 90
       50
102
RTVSPost2010PropOp37
 70
     1
102
RTVSPost2010Prop38
140
0.0
102
RTVSPost2010PropOp38
 70
     1
102
RTVSPost2010Prop39
140
1.0
102
RTVSPost2010PropOp39
 70
     1
102
RTVSPost2010Prop40
 90
        0
102
RTVSPost2010PropOp40
 70
     1
102
RTVSPost2010Prop41ColorIndex
 90
       18
102
RTVSPost2010Prop41ColorRGB
 90
        0
102
RTVSPost2010PropOp41
 70
     1
102
RTVSPost2010Prop42
 90
       50
102
RTVSPost2010PropOp42
 70
     1
102
RTVSPost2010Prop43
 90
        3
102
RTVSPost2010PropOp43
 70
     1
102
RTVSPost2010Prop44ColorIndex
 90
        5
102
RTVSPost2010Prop44ColorRGB
 90
      255
102
RTVSPost2010PropOp44
 70
     1
102
RTVSPost2010Prop45
280
     0
102
RTVSPost2010PropOp45
 70
     1
102
RTVSPost2010Prop46
 90
       50
102
RTVSPost2010PropOp46
 70
     1
102
RTVSPost2010Prop47
 90
       50
102
RTVSPost2010PropOp47
 70
     1
102
RTVSPost2010Prop48
 90
       50
102
RTVSPost2010PropOp48
 70
     1
102
RTVSPost2010Prop49
280
     0
102
RTVSPost2010PropOp49
 70
     1
102
RTVSPost2010Prop50
 90
       50
102
RTVSPost2010PropOp50
 70
     1
102
RTVSPost2010Prop51ColorIndex
 90
      256
102
RTVSPost2010Prop51ColorRGB
 90
-16777216
102
RTVSPost2010PropOp51
 70
     0
102
RTVSPost2010Prop52
140
1.0
102
RTVSPost2010PropOp52
 70
     0
102
RTVSPost2010Prop53
 90
        2
102
RTVSPost2010PropOp53
 70
     1
102
RTVSPost2010Prop54
  1
strokes_ogs.tif
102
RTVSPost2010PropOp54
 70
     1
102
RTVSPost2010Prop55
280
     0
102
RTVSPost2010PropOp55
 70
     1
102
RTVSPost2010Prop56
140
1.0
102
RTVSPost2010PropOp56
 70
     1
102
RTVSPost2010Prop57
140
1.0
102
RTVSPost2010PropOp57
 70
     1
  0
XRECORD
  5
3ED
102
{ACAD_REACTORS
330
3EC
102
}
330
3EC
100
AcDbXrecord
280
     1
102
RTVSPropertyOp0
 70
     1
102
RTVSPropertyOp1
 70
     1
102
RTVSPropertyOp2
 70
     1
102
RTVSPropertyOp3
 70
     1
102
RTVSPropertyOp4
 70
     1
102
RTVSPropertyOp5
 70
     1
102
RTVSPropertyOp6
 70
     1
102
RTVSPropertyOp7
 70
     1
102
RTVSPropertyOp8
 70
     1
102
RTVSPropertyOp9
 70
     1
102
RTVSPropertyOp10
 70
     1
102
RTVSPropertyOp11
 70
     1
102
RTVSPropertyOp12
 70
     1
102
RTVSPropertyOp13
 70
     1
102
RTVSPropertyOp14
 70
     1
102
RTVSPropertyOp15
 70
     1
102
RTVSPropertyOp16
 70
     1
102
RTVSPropertyOp17
 70
     1
102
RTVSPropertyOp18
 70
     1
102
RTVSPropertyOp19
 70
     1
102
RTVSPropertyOp20
 70
     1
102
RTVSPropertyOp21
 70
     1
102
RTVSPropertyOp22
 70
     1
102
RTVSPropertyOp23
 70
     1
102
RTVSPropertyOp24
 70
     1
102
RTVSPropertyOp25
 70
     1
102
RTVSPropertyOp26
 70
     1
102
RTVSPropertyOp27
 70
     1
102
RTVSPropertyOp28
 70
     1
102
RTVSPropertyOp29
 70
     1
102
RTVSPropertyOp30
 70
     1
102
RTVSPropertyOp31
 70
     1
102
RTVSPropertyOp32
 70
     1
102
RTVSPropertyOp33
 70
     1
102
RTVSPropertyOp34
 70
     1
102
RTVSPropertyOp35
 70
     1
102
RTVSPropertyOp36
 70
     1
102
RTVSPropertyOp37
 70
     1
102
RTVSPropertyOp38
 70
     1
102
RTVSPropertyOp39
 70
     1
102
RTVSPropertyOp40
 70
     1
102
RTVSPropertyOp41
 70
     1
102
RTVSPropertyOp42
 70
     1
102
RTVSPropertyOp43
 70
     1
102
RTVSPropertyOp44
 70
     1
102
RTVSPropertyOp45
 70
     1
102
RTVSPropertyOp46
 70
     1
102
RTVSPropertyOp47
 70
     1
102
RTVSPropertyOp48
 70
     1
102
RTVSPropertyOp49
 70
     1
102
RTVSPropertyOp50
 70
     1
102
RTVSPropertyOp51
 70
     0
102
RTVSPropertyOp52
 70
     0
102
RTVSPropertyOp53
 70
     1
102
RTVSPropertyOp54
 70
     1
102
RTVSPropertyOp55
 70
     1
102
RTVSPropertyOp56
 70
     1
102
RTVSPropertyOp57
 70
     1
102
RTVSPost2010Prop28
280
     0
102
RTVSPost2010PropOp28
 70
     1
102
RTVSPost2010Prop29
280
     1
102
RTVSPost2010PropOp29
 70
     1
102
RTVSPost2010Prop30
280
     1
102
RTVSPost2010PropOp30
 70
     1
102
RTVSPost2010Prop31
280
     0
102
RTVSPost2010PropOp31
 70
     1
102
RTVSPost2010Prop32
280
     0
102
RTVSPost2010PropOp32
 70
     1
102
RTVSPost2010Prop33
280
     0
102
RTVSPost2010PropOp33
 70
     1
102
RTVSPost2010Prop34
280
     0
102
RTVSPost2010PropOp34
 70
     1
102
RTVSPost2010Prop35
280
     0
102
RTVSPost2010PropOp35
 70
     1
102
RTVSPost2010Prop36
280
     0
102
RTVSPost2010PropOp36
 70
     1
102
RTVSPost2010Prop37
 90
       50
102
RTVSPost2010PropOp37
 70
     1
102
RTVSPost2010Prop38
140
0.0
102
RTVSPost2010PropOp38
 70
     1
102
RTVSPost2010Prop39
140
1.0
102
RTVSPost2010PropOp39
 70
     1
102
RTVSPost2010Prop40
 90
        0
102
RTVSPost2010PropOp40
 70
     1
102
RTVSPost2010Prop41ColorIndex
 90
       18
102
RTVSPost2010Prop41ColorRGB
 90
        0
102
RTVSPost2010PropOp41
 70
     1
102
RTVSPost2010Prop42
 90
       50
102
RTVSPost2010PropOp42
 70
     1
102
RTVSPost2010Prop43
 90
        3
102
RTVSPost2010PropOp43
 70
     1
102
RTVSPost2010Prop44ColorIndex
 90
        5
102
RTVSPost2010Prop44ColorRGB
 90
      255
102
RTVSPost2010PropOp44
 70
     1
102
RTVSPost2010Prop45
280
     0
102
RTVSPost2010PropOp45
 70
     1
102
RTVSPost2010Prop46
 90
       50
102
RTVSPost2010PropOp46
 70
     1
102
RTVSPost2010Prop47
 90
       50
102
RTVSPost2010PropOp47
 70
     1
102
RTVSPost2010Prop48
 90
       50
102
RTVSPost2010PropOp48
 70
     1
102
RTVSPost2010Prop49
280
     0
102
RTVSPost2010PropOp49
 70
     1
102
RTVSPost2010Prop50
 90
       50
102
RTVSPost2010PropOp50
 70
     1
102
RTVSPost2010Prop51ColorIndex
 90
      256
102
RTVSPost2010Prop51ColorRGB
 90
-16777216
102
RTVSPost2010PropOp51
 70
     0
102
RTVSPost2010Prop52
140
1.0
102
RTVSPost2010PropOp52
 70
     0
102
RTVSPost2010Prop53
 90
        2
102
RTVSPost2010PropOp53
 70
     1
102
RTVSPost2010Prop54
  1
strokes_ogs.tif
102
RTVSPost2010PropOp54
 70
     1
102
RTVSPost2010Prop55
280
     0
102
RTVSPost2010PropOp55
 70
     1
102
RTVSPost2010Prop56
140
1.0
102
RTVSPost2010PropOp56
 70
     1
102
RTVSPost2010Prop57
140
1.0
102
RTVSPost2010PropOp57
 70
     1
  0
XRECORD
  5
3EF
102
{ACAD_REACTORS
330
3EE
102
}
330
3EE
100
AcDbXrecord
280
     1
102
RTVSPropertyOp0
 70
     1
102
RTVSPropertyOp1
 70
     1
102
RTVSPropertyOp2
 70
     1
102
RTVSPropertyOp3
 70
     1
102
RTVSPropertyOp4
 70
     1
102
RTVSPropertyOp5
 70
     1
102
RTVSPropertyOp6
 70
     1
102
RTVSPropertyOp7
 70
     1
102
RTVSPropertyOp8
 70
     1
102
RTVSPropertyOp9
 70
     1
102
RTVSPropertyOp10
 70
     1
102
RTVSPropertyOp11
 70
     1
102
RTVSPropertyOp12
 70
     1
102
RTVSPropertyOp13
 70
     1
102
RTVSPropertyOp14
 70
     1
102
RTVSPropertyOp15
 70
     1
102
RTVSPropertyOp16
 70
     1
102
RTVSPropertyOp17
 70
     1
102
RTVSPropertyOp18
 70
     1
102
RTVSPropertyOp19
 70
     1
102
RTVSPropertyOp20
 70
     1
102
RTVSPropertyOp21
 70
     1
102
RTVSPropertyOp22
 70
     1
102
RTVSPropertyOp23
 70
     1
102
RTVSPropertyOp24
 70
     1
102
RTVSPropertyOp25
 70
     1
102
RTVSPropertyOp26
 70
     1
102
RTVSPropertyOp27
 70
     1
102
RTVSPropertyOp28
 70
     1
102
RTVSPropertyOp29
 70
     1
102
RTVSPropertyOp30
 70
     1
102
RTVSPropertyOp31
 70
     1
102
RTVSPropertyOp32
 70
     1
102
RTVSPropertyOp33
 70
     1
102
RTVSPropertyOp34
 70
     1
102
RTVSPropertyOp35
 70
     1
102
RTVSPropertyOp36
 70
     1
102
RTVSPropertyOp37
 70
     1
102
RTVSPropertyOp38
 70
     1
102
RTVSPropertyOp39
 70
     1
102
RTVSPropertyOp40
 70
     1
102
RTVSPropertyOp41
 70
     1
102
RTVSPropertyOp42
 70
     1
102
RTVSPropertyOp43
 70
     1
102
RTVSPropertyOp44
 70
     1
102
RTVSPropertyOp45
 70
     1
102
RTVSPropertyOp46
 70
     1
102
RTVSPropertyOp47
 70
     1
102
RTVSPropertyOp48
 70
     1
102
RTVSPropertyOp49
 70
     1
102
RTVSPropertyOp50
 70
     1
102
RTVSPropertyOp51
 70
     0
102
RTVSPropertyOp52
 70
     0
102
RTVSPropertyOp53
 70
     1
102
RTVSPropertyOp54
 70
     1
102
RTVSPropertyOp55
 70
     1
102
RTVSPropertyOp56
 70
     1
102
RTVSPropertyOp57
 70
     1
102
RTVSPost2010Prop28
280
     0
102
RTVSPost2010PropOp28
 70
     1
102
RTVSPost2010Prop29
280
     1
102
RTVSPost2010PropOp29
 70
     1
102
RTVSPost2010Prop30
280
     1
102
RTVSPost2010PropOp30
 70
     1
102
RTVSPost2010Prop31
280
     0
102
RTVSPost2010PropOp31
 70
     1
102
RTVSPost2010Prop32
280
     0
102
RTVSPost2010PropOp32
 70
     1
102
RTVSPost2010Prop33
280
     0
102
RTVSPost2010PropOp33
 70
     1
102
RTVSPost2010Prop34
280
     0
102
RTVSPost2010PropOp34
 70
     1
102
RTVSPost2010Prop35
280
     0
102
RTVSPost2010PropOp35
 70
     1
102
RTVSPost2010Prop36
280
     0
102
RTVSPost2010PropOp36
 70
     1
102
RTVSPost2010Prop37
 90
       50
102
RTVSPost2010PropOp37
 70
     1
102
RTVSPost2010Prop38
140
0.0
102
RTVSPost2010PropOp38
 70
     1
102
RTVSPost2010Prop39
140
1.0
102
RTVSPost2010PropOp39
 70
     1
102
RTVSPost2010Prop40
 90
        0
102
RTVSPost2010PropOp40
 70
     1
102
RTVSPost2010Prop41ColorIndex
 90
       18
102
RTVSPost2010Prop41ColorRGB
 90
        0
102
RTVSPost2010PropOp41
 70
     1
102
RTVSPost2010Prop42
 90
       50
102
RTVSPost2010PropOp42
 70
     1
102
RTVSPost2010Prop43
 90
        3
102
RTVSPost2010PropOp43
 70
     1
102
RTVSPost2010Prop44ColorIndex
 90
        5
102
RTVSPost2010Prop44ColorRGB
 90
      255
102
RTVSPost2010PropOp44
 70
     1
102
RTVSPost2010Prop45
280
     0
102
RTVSPost2010PropOp45
 70
     1
102
RTVSPost2010Prop46
 90
       50
102
RTVSPost2010PropOp46
 70
     1
102
RTVSPost2010Prop47
 90
       50
102
RTVSPost2010PropOp47
 70
     1
102
RTVSPost2010Prop48
 90
       50
102
RTVSPost2010PropOp48
 70
     1
102
RTVSPost2010Prop49
280
     0
102
RTVSPost2010PropOp49
 70
     1
102
RTVSPost2010Prop50
 90
       50
102
RTVSPost2010PropOp50
 70
     1
102
RTVSPost2010Prop51ColorIndex
 90
      256
102
RTVSPost2010Prop51ColorRGB
 90
-16777216
102
RTVSPost2010PropOp51
 70
     0
102
RTVSPost2010Prop52
140
1.0
102
RTVSPost2010PropOp52
 70
     0
102
RTVSPost2010Prop53
 90
        2
102
RTVSPost2010PropOp53
 70
     1
102
RTVSPost2010Prop54
  1
strokes_ogs.tif
102
RTVSPost2010PropOp54
 70
     1
102
RTVSPost2010Prop55
280
     0
102
RTVSPost2010PropOp55
 70
     1
102
RTVSPost2010Prop56
140
1.0
102
RTVSPost2010PropOp56
 70
     1
102
RTVSPost2010Prop57
140
1.0
102
RTVSPost2010PropOp57
 70
     1
  0
XRECORD
  5
3F5
102
{ACAD_REACTORS
330
3F4
102
}
330
3F4
100
AcDbXrecord
280
     1
102
RTVSPropertyOp0
 70
     1
102
RTVSPropertyOp1
 70
     1
102
RTVSPropertyOp2
 70
     1
102
RTVSPropertyOp3
 70
     1
102
RTVSPropertyOp4
 70
     1
102
RTVSPropertyOp5
 70
     1
102
RTVSPropertyOp6
 70
     1
102
RTVSPropertyOp7
 70
     1
102
RTVSPropertyOp8
 70
     1
102
RTVSPropertyOp9
 70
     1
102
RTVSPropertyOp10
 70
     1
102
RTVSPropertyOp11
 70
     1
102
RTVSPropertyOp12
 70
     1
102
RTVSPropertyOp13
 70
     1
102
RTVSPropertyOp14
 70
     1
102
RTVSPropertyOp15
 70
     1
102
RTVSPropertyOp16
 70
     1
102
RTVSPropertyOp17
 70
     1
102
RTVSPropertyOp18
 70
     1
102
RTVSPropertyOp19
 70
     1
102
RTVSPropertyOp20
 70
     1
102
RTVSPropertyOp21
 70
     1
102
RTVSPropertyOp22
 70
     1
102
RTVSPropertyOp23
 70
     1
102
RTVSPropertyOp24
 70
     1
102
RTVSPropertyOp25
 70
     1
102
RTVSPropertyOp26
 70
     1
102
RTVSPropertyOp27
 70
     1
102
RTVSPropertyOp28
 70
     1
102
RTVSPropertyOp29
 70
     1
102
RTVSPropertyOp30
 70
     1
102
RTVSPropertyOp31
 70
     1
102
RTVSPropertyOp32
 70
     1
102
RTVSPropertyOp33
 70
     1
102
RTVSPropertyOp34
 70
     1
102
RTVSPropertyOp35
 70
     1
102
RTVSPropertyOp36
 70
     1
102
RTVSPropertyOp37
 70
     1
102
RTVSPropertyOp38
 70
     1
102
RTVSPropertyOp39
 70
     1
102
RTVSPropertyOp40
 70
     1
102
RTVSPropertyOp41
 70
     1
102
RTVSPropertyOp42
 70
     1
102
RTVSPropertyOp43
 70
     1
102
RTVSPropertyOp44
 70
     1
102
RTVSPropertyOp45
 70
     1
102
RTVSPropertyOp46
 70
     1
102
RTVSPropertyOp47
 70
     1
102
RTVSPropertyOp48
 70
     1
102
RTVSPropertyOp49
 70
     1
102
RTVSPropertyOp50
 70
     1
102
RTVSPropertyOp51
 70
     0
102
RTVSPropertyOp52
 70
     0
102
RTVSPropertyOp53
 70
     1
102
RTVSPropertyOp54
 70
     1
102
RTVSPropertyOp55
 70
     1
102
RTVSPropertyOp56
 70
     1
102
RTVSPropertyOp57
 70
     1
102
RTVSPost2010Prop28
280
     0
102
RTVSPost2010PropOp28
 70
     1
102
RTVSPost2010Prop29
280
     1
102
RTVSPost2010PropOp29
 70
     1
102
RTVSPost2010Prop30
280
     1
102
RTVSPost2010PropOp30
 70
     1
102
RTVSPost2010Prop31
280
     0
102
RTVSPost2010PropOp31
 70
     1
102
RTVSPost2010Prop32
280
     0
102
RTVSPost2010PropOp32
 70
     1
102
RTVSPost2010Prop33
280
     0
102
RTVSPost2010PropOp33
 70
     1
102
RTVSPost2010Prop34
280
     0
102
RTVSPost2010PropOp34
 70
     1
102
RTVSPost2010Prop35
280
     0
102
RTVSPost2010PropOp35
 70
     1
102
RTVSPost2010Prop36
280
     0
102
RTVSPost2010PropOp36
 70
     1
102
RTVSPost2010Prop37
 90
       50
102
RTVSPost2010PropOp37
 70
     1
102
RTVSPost2010Prop38
140
0.0
102
RTVSPost2010PropOp38
 70
     1
102
RTVSPost2010Prop39
140
1.0
102
RTVSPost2010PropOp39
 70
     1
102
RTVSPost2010Prop40
 90
        0
102
RTVSPost2010PropOp40
 70
     1
102
RTVSPost2010Prop41ColorIndex
 90
       18
102
RTVSPost2010Prop41ColorRGB
 90
        0
102
RTVSPost2010PropOp41
 70
     1
102
RTVSPost2010Prop42
 90
       50
102
RTVSPost2010PropOp42
 70
     1
102
RTVSPost2010Prop43
 90
        3
102
RTVSPost2010PropOp43
 70
     1
102
RTVSPost2010Prop44ColorIndex
 90
        5
102
RTVSPost2010Prop44ColorRGB
 90
      255
102
RTVSPost2010PropOp44
 70
     1
102
RTVSPost2010Prop45
280
     0
102
RTVSPost2010PropOp45
 70
     1
102
RTVSPost2010Prop46
 90
       50
102
RTVSPost2010PropOp46
 70
     1
102
RTVSPost2010Prop47
 90
       50
102
RTVSPost2010PropOp47
 70
     1
102
RTVSPost2010Prop48
 90
       50
102
RTVSPost2010PropOp48
 70
     1
102
RTVSPost2010Prop49
280
     0
102
RTVSPost2010PropOp49
 70
     1
102
RTVSPost2010Prop50
 90
       50
102
RTVSPost2010PropOp50
 70
     1
102
RTVSPost2010Prop51ColorIndex
 90
      256
102
RTVSPost2010Prop51ColorRGB
 90
-16777216
102
RTVSPost2010PropOp51
 70
     0
102
RTVSPost2010Prop52
140
1.0
102
RTVSPost2010PropOp52
 70
     0
102
RTVSPost2010Prop53
 90
        2
102
RTVSPost2010PropOp53
 70
     1
102
RTVSPost2010Prop54
  1
strokes_ogs.tif
102
RTVSPost2010PropOp54
 70
     1
102
RTVSPost2010Prop55
280
     0
102
RTVSPost2010PropOp55
 70
     1
102
RTVSPost2010Prop56
140
1.0
102
RTVSPost2010PropOp56
 70
     1
102
RTVSPost2010Prop57
140
1.0
102
RTVSPost2010PropOp57
 70
     1
  0
XRECORD
  5
409
102
{ACAD_REACTORS
330
408
102
}
330
408
100
AcDbXrecord
280
     1
102
RTVSPropertyOp0
 70
     0
102
RTVSPropertyOp1
 70
     0
102
RTVSPropertyOp2
 70
     0
102
RTVSPropertyOp3
 70
     0
102
RTVSPropertyOp4
 70
     0
102
RTVSPropertyOp5
 70
     0
102
RTVSPropertyOp6
 70
     0
102
RTVSPropertyOp7
 70
     0
102
RTVSPropertyOp8
 70
     0
102
RTVSPropertyOp9
 70
     0
102
RTVSPropertyOp10
 70
     0
102
RTVSPropertyOp11
 70
     0
102
RTVSPropertyOp12
 70
     0
102
RTVSPropertyOp13
 70
     0
102
RTVSPropertyOp14
 70
     2
102
RTVSPropertyOp15
 70
     0
102
RTVSPropertyOp16
 70
     0
102
RTVSPropertyOp17
 70
     0
102
RTVSPropertyOp18
 70
     0
102
RTVSPropertyOp19
 70
     0
102
RTVSPropertyOp20
 70
     0
102
RTVSPropertyOp21
 70
     0
102
RTVSPropertyOp22
 70
     0
102
RTVSPropertyOp23
 70
     0
102
RTVSPropertyOp24
 70
     0
102
RTVSPropertyOp25
 70
     0
102
RTVSPropertyOp26
 70
     0
102
RTVSPropertyOp27
 70
     0
102
RTVSPropertyOp28
 70
     0
102
RTVSPropertyOp29
 70
     0
102
RTVSPropertyOp30
 70
     0
102
RTVSPropertyOp31
 70
     0
102
RTVSPropertyOp32
 70
     0
102
RTVSPropertyOp33
 70
     0
102
RTVSPropertyOp34
 70
     0
102
RTVSPropertyOp35
 70
     0
102
RTVSPropertyOp36
 70
     0
102
RTVSPropertyOp37
 70
     0
102
RTVSPropertyOp38
 70
     0
102
RTVSPropertyOp39
 70
     0
102
RTVSPropertyOp40
 70
     0
102
RTVSPropertyOp41
 70
     0
102
RTVSPropertyOp42
 70
     0
102
RTVSPropertyOp43
 70
     0
102
RTVSPropertyOp44
 70
     0
102
RTVSPropertyOp45
 70
     0
102
RTVSPropertyOp46
 70
     0
102
RTVSPropertyOp47
 70
     0
102
RTVSPropertyOp48
 70
     0
102
RTVSPropertyOp49
 70
     0
102
RTVSPropertyOp50
 70
     0
102
RTVSPropertyOp51
 70
     0
102
RTVSPropertyOp52
 70
     0
102
RTVSPropertyOp53
 70
     0
102
RTVSPropertyOp54
 70
     0
102
RTVSPropertyOp55
 70
     0
102
RTVSPropertyOp56
 70
     0
102
RTVSPropertyOp57
 70
     0
102
RTVSPost2010Prop28
280
     0
102
RTVSPost2010PropOp28
 70
     0
102
RTVSPost2010Prop29
280
     1
102
RTVSPost2010PropOp29
 70
     0
102
RTVSPost2010Prop30
280
     1
102
RTVSPost2010PropOp30
 70
     0
102
RTVSPost2010Prop31
280
     0
102
RTVSPost2010PropOp31
 70
     0
102
RTVSPost2010Prop32
280
     0
102
RTVSPost2010PropOp32
 70
     0
102
RTVSPost2010Prop33
280
     0
102
RTVSPost2010PropOp33
 70
     0
102
RTVSPost2010Prop34
280
     0
102
RTVSPost2010PropOp34
 70
     0
102
RTVSPost2010Prop35
280
     0
102
RTVSPost2010PropOp35
 70
     0
102
RTVSPost2010Prop36
280
     0
102
RTVSPost2010PropOp36
 70
     0
102
RTVSPost2010Prop37
 90
       50
102
RTVSPost2010PropOp37
 70
     0
102
RTVSPost2010Prop38
140
0.0
102
RTVSPost2010PropOp38
 70
     0
102
RTVSPost2010Prop39
140
1.0
102
RTVSPost2010PropOp39
 70
     0
102
RTVSPost2010Prop40
 90
        0
102
RTVSPost2010PropOp40
 70
     0
102
RTVSPost2010Prop41ColorIndex
 90
       18
102
RTVSPost2010Prop41ColorRGB
 90
        0
102
RTVSPost2010PropOp41
 70
     0
102
RTVSPost2010Prop42
 90
       50
102
RTVSPost2010PropOp42
 70
     0
102
RTVSPost2010Prop43
 90
        3
102
RTVSPost2010PropOp43
 70
     0
102
RTVSPost2010Prop44ColorIndex
 90
        5
102
RTVSPost2010Prop44ColorRGB
 90
      255
102
RTVSPost2010PropOp44
 70
     0
102
RTVSPost2010Prop45
280
     0
102
RTVSPost2010PropOp45
 70
     0
102
RTVSPost2010Prop46
 90
       50
102
RTVSPost2010PropOp46
 70
     0
102
RTVSPost2010Prop47
 90
       50
102
RTVSPost2010PropOp47
 70
     0
102
RTVSPost2010Prop48
 90
       50
102
RTVSPost2010PropOp48
 70
     0
102
RTVSPost2010Prop49
280
     0
102
RTVSPost2010PropOp49
 70
     0
102
RTVSPost2010Prop50
 90
       50
102
RTVSPost2010PropOp50
 70
     0
102
RTVSPost2010Prop51ColorIndex
 90
      256
102
RTVSPost2010Prop51ColorRGB
 90
-16777216
102
RTVSPost2010PropOp51
 70
     0
102
RTVSPost2010Prop52
140
1.0
102
RTVSPost2010PropOp52
 70
     0
102
RTVSPost2010Prop53
 90
        2
102
RTVSPost2010PropOp53
 70
     0
102
RTVSPost2010Prop54
  1
strokes_ogs.tif
102
RTVSPost2010PropOp54
 70
     0
102
RTVSPost2010Prop55
280
     0
102
RTVSPost2010PropOp55
 70
     0
102
RTVSPost2010Prop56
140
1.0
102
RTVSPost2010PropOp56
 70
     0
102
RTVSPost2010Prop57
140
1.0
102
RTVSPost2010PropOp57
 70
     0
  0
XRECORD
  5
403
102
{ACAD_REACTORS
330
402
102
}
330
402
100
AcDbXrecord
280
     1
102
RTVSPropertyOp0
 70
     1
102
RTVSPropertyOp1
 70
     1
102
RTVSPropertyOp2
 70
     1
102
RTVSPropertyOp3
 70
     1
102
RTVSPropertyOp4
 70
     1
102
RTVSPropertyOp5
 70
     1
102
RTVSPropertyOp6
 70
     1
102
RTVSPropertyOp7
 70
     1
102
RTVSPropertyOp8
 70
     1
102
RTVSPropertyOp9
 70
     1
102
RTVSPropertyOp10
 70
     1
102
RTVSPropertyOp11
 70
     1
102
RTVSPropertyOp12
 70
     1
102
RTVSPropertyOp13
 70
     1
102
RTVSPropertyOp14
 70
     1
102
RTVSPropertyOp15
 70
     1
102
RTVSPropertyOp16
 70
     1
102
RTVSPropertyOp17
 70
     1
102
RTVSPropertyOp18
 70
     1
102
RTVSPropertyOp19
 70
     1
102
RTVSPropertyOp20
 70
     1
102
RTVSPropertyOp21
 70
     1
102
RTVSPropertyOp22
 70
     1
102
RTVSPropertyOp23
 70
     1
102
RTVSPropertyOp24
 70
     1
102
RTVSPropertyOp25
 70
     1
102
RTVSPropertyOp26
 70
     1
102
RTVSPropertyOp27
 70
     1
102
RTVSPropertyOp28
 70
     1
102
RTVSPropertyOp29
 70
     1
102
RTVSPropertyOp30
 70
     1
102
RTVSPropertyOp31
 70
     1
102
RTVSPropertyOp32
 70
     1
102
RTVSPropertyOp33
 70
     1
102
RTVSPropertyOp34
 70
     1
102
RTVSPropertyOp35
 70
     1
102
RTVSPropertyOp36
 70
     1
102
RTVSPropertyOp37
 70
     1
102
RTVSPropertyOp38
 70
     1
102
RTVSPropertyOp39
 70
     1
102
RTVSPropertyOp40
 70
     1
102
RTVSPropertyOp41
 70
     1
102
RTVSPropertyOp42
 70
     1
102
RTVSPropertyOp43
 70
     1
102
RTVSPropertyOp44
 70
     1
102
RTVSPropertyOp45
 70
     1
102
RTVSPropertyOp46
 70
     1
102
RTVSPropertyOp47
 70
     1
102
RTVSPropertyOp48
 70
     1
102
RTVSPropertyOp49
 70
     1
102
RTVSPropertyOp50
 70
     1
102
RTVSPropertyOp51
 70
     0
102
RTVSPropertyOp52
 70
     0
102
RTVSPropertyOp53
 70
     1
102
RTVSPropertyOp54
 70
     1
102
RTVSPropertyOp55
 70
     1
102
RTVSPropertyOp56
 70
     1
102
RTVSPropertyOp57
 70
     1
102
RTVSPost2010Prop28
280
     0
102
RTVSPost2010PropOp28
 70
     1
102
RTVSPost2010Prop29
280
     1
102
RTVSPost2010PropOp29
 70
     1
102
RTVSPost2010Prop30
280
     1
102
RTVSPost2010PropOp30
 70
     1
102
RTVSPost2010Prop31
280
     0
102
RTVSPost2010PropOp31
 70
     1
102
RTVSPost2010Prop32
280
     0
102
RTVSPost2010PropOp32
 70
     1
102
RTVSPost2010Prop33
280
     0
102
RTVSPost2010PropOp33
 70
     1
102
RTVSPost2010Prop34
280
     0
102
RTVSPost2010PropOp34
 70
     1
102
RTVSPost2010Prop35
280
     0
102
RTVSPost2010PropOp35
 70
     1
102
RTVSPost2010Prop36
280
     0
102
RTVSPost2010PropOp36
 70
     1
102
RTVSPost2010Prop37
 90
       50
102
RTVSPost2010PropOp37
 70
     1
102
RTVSPost2010Prop38
140
0.0
102
RTVSPost2010PropOp38
 70
     1
102
RTVSPost2010Prop39
140
1.0
102
RTVSPost2010PropOp39
 70
     1
102
RTVSPost2010Prop40
 90
        0
102
RTVSPost2010PropOp40
 70
     1
102
RTVSPost2010Prop41ColorIndex
 90
       18
102
RTVSPost2010Prop41ColorRGB
 90
        0
102
RTVSPost2010PropOp41
 70
     1
102
RTVSPost2010Prop42
 90
       50
102
RTVSPost2010PropOp42
 70
     1
102
RTVSPost2010Prop43
 90
        3
102
RTVSPost2010PropOp43
 70
     1
102
RTVSPost2010Prop44ColorIndex
 90
        5
102
RTVSPost2010Prop44ColorRGB
 90
      255
102
RTVSPost2010PropOp44
 70
     1
102
RTVSPost2010Prop45
280
     0
102
RTVSPost2010PropOp45
 70
     1
102
RTVSPost2010Prop46
 90
       50
102
RTVSPost2010PropOp46
 70
     1
102
RTVSPost2010Prop47
 90
       50
102
RTVSPost2010PropOp47
 70
     1
102
RTVSPost2010Prop48
 90
       50
102
RTVSPost2010PropOp48
 70
     1
102
RTVSPost2010Prop49
280
     0
102
RTVSPost2010PropOp49
 70
     1
102
RTVSPost2010Prop50
 90
       50
102
RTVSPost2010PropOp50
 70
     1
102
RTVSPost2010Prop51ColorIndex
 90
      256
102
RTVSPost2010Prop51ColorRGB
 90
-16777216
102
RTVSPost2010PropOp51
 70
     0
102
RTVSPost2010Prop52
140
1.0
102
RTVSPost2010PropOp52
 70
     0
102
RTVSPost2010Prop53
 90
        2
102
RTVSPost2010PropOp53
 70
     1
102
RTVSPost2010Prop54
  1
strokes_ogs.tif
102
RTVSPost2010PropOp54
 70
     1
102
RTVSPost2010Prop55
280
     0
102
RTVSPost2010PropOp55
 70
     1
102
RTVSPost2010Prop56
140
1.0
102
RTVSPost2010PropOp56
 70
     1
102
RTVSPost2010Prop57
140
1.0
102
RTVSPost2010PropOp57
 70
     1
  0
XRECORD
  5
40B
102
{ACAD_REACTORS
330
40A
102
}
330
40A
100
AcDbXrecord
280
     1
102
RTVSPropertyOp0
 70
     0
102
RTVSPropertyOp1
 70
     0
102
RTVSPropertyOp2
 70
     0
102
RTVSPropertyOp3
 70
     0
102
RTVSPropertyOp4
 70
     0
102
RTVSPropertyOp5
 70
     0
102
RTVSPropertyOp6
 70
     0
102
RTVSPropertyOp7
 70
     0
102
RTVSPropertyOp8
 70
     0
102
RTVSPropertyOp9
 70
     0
102
RTVSPropertyOp10
 70
     0
102
RTVSPropertyOp11
 70
     0
102
RTVSPropertyOp12
 70
     0
102
RTVSPropertyOp13
 70
     0
102
RTVSPropertyOp14
 70
     2
102
RTVSPropertyOp15
 70
     0
102
RTVSPropertyOp16
 70
     0
102
RTVSPropertyOp17
 70
     0
102
RTVSPropertyOp18
 70
     0
102
RTVSPropertyOp19
 70
     0
102
RTVSPropertyOp20
 70
     0
102
RTVSPropertyOp21
 70
     0
102
RTVSPropertyOp22
 70
     0
102
RTVSPropertyOp23
 70
     0
102
RTVSPropertyOp24
 70
     0
102
RTVSPropertyOp25
 70
     0
102
RTVSPropertyOp26
 70
     0
102
RTVSPropertyOp27
 70
     0
102
RTVSPropertyOp28
 70
     0
102
RTVSPropertyOp29
 70
     0
102
RTVSPropertyOp30
 70
     0
102
RTVSPropertyOp31
 70
     0
102
RTVSPropertyOp32
 70
     0
102
RTVSPropertyOp33
 70
     0
102
RTVSPropertyOp34
 70
     0
102
RTVSPropertyOp35
 70
     0
102
RTVSPropertyOp36
 70
     0
102
RTVSPropertyOp37
 70
     0
102
RTVSPropertyOp38
 70
     0
102
RTVSPropertyOp39
 70
     0
102
RTVSPropertyOp40
 70
     0
102
RTVSPropertyOp41
 70
     0
102
RTVSPropertyOp42
 70
     0
102
RTVSPropertyOp43
 70
     0
102
RTVSPropertyOp44
 70
     0
102
RTVSPropertyOp45
 70
     0
102
RTVSPropertyOp46
 70
     0
102
RTVSPropertyOp47
 70
     0
102
RTVSPropertyOp48
 70
     0
102
RTVSPropertyOp49
 70
     0
102
RTVSPropertyOp50
 70
     0
102
RTVSPropertyOp51
 70
     0
102
RTVSPropertyOp52
 70
     0
102
RTVSPropertyOp53
 70
     0
102
RTVSPropertyOp54
 70
     0
102
RTVSPropertyOp55
 70
     0
102
RTVSPropertyOp56
 70
     0
102
RTVSPropertyOp57
 70
     0
102
RTVSPost2010Prop28
280
     0
102
RTVSPost2010PropOp28
 70
     0
102
RTVSPost2010Prop29
280
     1
102
RTVSPost2010PropOp29
 70
     0
102
RTVSPost2010Prop30
280
     1
102
RTVSPost2010PropOp30
 70
     0
102
RTVSPost2010Prop31
280
     0
102
RTVSPost2010PropOp31
 70
     0
102
RTVSPost2010Prop32
280
     0
102
RTVSPost2010PropOp32
 70
     0
102
RTVSPost2010Prop33
280
     0
102
RTVSPost2010PropOp33
 70
     0
102
RTVSPost2010Prop34
280
     0
102
RTVSPost2010PropOp34
 70
     0
102
RTVSPost2010Prop35
280
     0
102
RTVSPost2010PropOp35
 70
     0
102
RTVSPost2010Prop36
280
     0
102
RTVSPost2010PropOp36
 70
     0
102
RTVSPost2010Prop37
 90
       50
102
RTVSPost2010PropOp37
 70
     0
102
RTVSPost2010Prop38
140
0.0
102
RTVSPost2010PropOp38
 70
     0
102
RTVSPost2010Prop39
140
1.0
102
RTVSPost2010PropOp39
 70
     0
102
RTVSPost2010Prop40
 90
        0
102
RTVSPost2010PropOp40
 70
     0
102
RTVSPost2010Prop41ColorIndex
 90
       18
102
RTVSPost2010Prop41ColorRGB
 90
        0
102
RTVSPost2010PropOp41
 70
     0
102
RTVSPost2010Prop42
 90
       50
102
RTVSPost2010PropOp42
 70
     0
102
RTVSPost2010Prop43
 90
        3
102
RTVSPost2010PropOp43
 70
     0
102
RTVSPost2010Prop44ColorIndex
 90
        5
102
RTVSPost2010Prop44ColorRGB
 90
      255
102
RTVSPost2010PropOp44
 70
     0
102
RTVSPost2010Prop45
280
     0
102
RTVSPost2010PropOp45
 70
     0
102
RTVSPost2010Prop46
 90
       50
102
RTVSPost2010PropOp46
 70
     0
102
RTVSPost2010Prop47
 90
       50
102
RTVSPost2010PropOp47
 70
     0
102
RTVSPost2010Prop48
 90
       50
102
RTVSPost2010PropOp48
 70
     0
102
RTVSPost2010Prop49
280
     0
102
RTVSPost2010PropOp49
 70
     0
102
RTVSPost2010Prop50
 90
       50
102
RTVSPost2010PropOp50
 70
     0
102
RTVSPost2010Prop51ColorIndex
 90
      256
102
RTVSPost2010Prop51ColorRGB
 90
-16777216
102
RTVSPost2010PropOp51
 70
     0
102
RTVSPost2010Prop52
140
1.0
102
RTVSPost2010PropOp52
 70
     0
102
RTVSPost2010Prop53
 90
        2
102
RTVSPost2010PropOp53
 70
     0
102
RTVSPost2010Prop54
  1
strokes_ogs.tif
102
RTVSPost2010PropOp54
 70
     0
102
RTVSPost2010Prop55
280
     0
102
RTVSPost2010PropOp55
 70
     0
102
RTVSPost2010Prop56
140
1.0
102
RTVSPost2010PropOp56
 70
     0
102
RTVSPost2010Prop57
140
1.0
102
RTVSPost2010PropOp57
 70
     0
  0
XRECORD
  5
3F9
102
{ACAD_REACTORS
330
3F8
102
}
330
3F8
100
AcDbXrecord
280
     1
102
RTVSPropertyOp0
 70
     1
102
RTVSPropertyOp1
 70
     1
102
RTVSPropertyOp2
 70
     1
102
RTVSPropertyOp3
 70
     1
102
RTVSPropertyOp4
 70
     1
102
RTVSPropertyOp5
 70
     1
102
RTVSPropertyOp6
 70
     1
102
RTVSPropertyOp7
 70
     1
102
RTVSPropertyOp8
 70
     1
102
RTVSPropertyOp9
 70
     1
102
RTVSPropertyOp10
 70
     1
102
RTVSPropertyOp11
 70
     1
102
RTVSPropertyOp12
 70
     1
102
RTVSPropertyOp13
 70
     1
102
RTVSPropertyOp14
 70
     1
102
RTVSPropertyOp15
 70
     1
102
RTVSPropertyOp16
 70
     1
102
RTVSPropertyOp17
 70
     1
102
RTVSPropertyOp18
 70
     1
102
RTVSPropertyOp19
 70
     1
102
RTVSPropertyOp20
 70
     1
102
RTVSPropertyOp21
 70
     1
102
RTVSPropertyOp22
 70
     1
102
RTVSPropertyOp23
 70
     1
102
RTVSPropertyOp24
 70
     1
102
RTVSPropertyOp25
 70
     1
102
RTVSPropertyOp26
 70
     1
102
RTVSPropertyOp27
 70
     1
102
RTVSPropertyOp28
 70
     1
102
RTVSPropertyOp29
 70
     1
102
RTVSPropertyOp30
 70
     1
102
RTVSPropertyOp31
 70
     1
102
RTVSPropertyOp32
 70
     1
102
RTVSPropertyOp33
 70
     1
102
RTVSPropertyOp34
 70
     1
102
RTVSPropertyOp35
 70
     1
102
RTVSPropertyOp36
 70
     1
102
RTVSPropertyOp37
 70
     1
102
RTVSPropertyOp38
 70
     1
102
RTVSPropertyOp39
 70
     1
102
RTVSPropertyOp40
 70
     1
102
RTVSPropertyOp41
 70
     1
102
RTVSPropertyOp42
 70
     1
102
RTVSPropertyOp43
 70
     1
102
RTVSPropertyOp44
 70
     1
102
RTVSPropertyOp45
 70
     1
102
RTVSPropertyOp46
 70
     1
102
RTVSPropertyOp47
 70
     1
102
RTVSPropertyOp48
 70
     1
102
RTVSPropertyOp49
 70
     1
102
RTVSPropertyOp50
 70
     1
102
RTVSPropertyOp51
 70
     0
102
RTVSPropertyOp52
 70
     0
102
RTVSPropertyOp53
 70
     1
102
RTVSPropertyOp54
 70
     1
102
RTVSPropertyOp55
 70
     1
102
RTVSPropertyOp56
 70
     1
102
RTVSPropertyOp57
 70
     1
102
RTVSPost2010Prop28
280
     0
102
RTVSPost2010PropOp28
 70
     1
102
RTVSPost2010Prop29
280
     1
102
RTVSPost2010PropOp29
 70
     1
102
RTVSPost2010Prop30
280
     1
102
RTVSPost2010PropOp30
 70
     1
102
RTVSPost2010Prop31
280
     0
102
RTVSPost2010PropOp31
 70
     1
102
RTVSPost2010Prop32
280
     0
102
RTVSPost2010PropOp32
 70
     1
102
RTVSPost2010Prop33
280
     0
102
RTVSPost2010PropOp33
 70
     1
102
RTVSPost2010Prop34
280
     0
102
RTVSPost2010PropOp34
 70
     1
102
RTVSPost2010Prop35
280
     0
102
RTVSPost2010PropOp35
 70
     1
102
RTVSPost2010Prop36
280
     0
102
RTVSPost2010PropOp36
 70
     1
102
RTVSPost2010Prop37
 90
       50
102
RTVSPost2010PropOp37
 70
     1
102
RTVSPost2010Prop38
140
0.0
102
RTVSPost2010PropOp38
 70
     1
102
RTVSPost2010Prop39
140
1.0
102
RTVSPost2010PropOp39
 70
     1
102
RTVSPost2010Prop40
 90
        0
102
RTVSPost2010PropOp40
 70
     1
102
RTVSPost2010Prop41ColorIndex
 90
       18
102
RTVSPost2010Prop41ColorRGB
 90
        0
102
RTVSPost2010PropOp41
 70
     1
102
RTVSPost2010Prop42
 90
       50
102
RTVSPost2010PropOp42
 70
     1
102
RTVSPost2010Prop43
 90
        3
102
RTVSPost2010PropOp43
 70
     1
102
RTVSPost2010Prop44ColorIndex
 90
        5
102
RTVSPost2010Prop44ColorRGB
 90
      255
102
RTVSPost2010PropOp44
 70
     1
102
RTVSPost2010Prop45
280
     0
102
RTVSPost2010PropOp45
 70
     1
102
RTVSPost2010Prop46
 90
       50
102
RTVSPost2010PropOp46
 70
     1
102
RTVSPost2010Prop47
 90
       50
102
RTVSPost2010PropOp47
 70
     1
102
RTVSPost2010Prop48
 90
       50
102
RTVSPost2010PropOp48
 70
     1
102
RTVSPost2010Prop49
280
     0
102
RTVSPost2010PropOp49
 70
     1
102
RTVSPost2010Prop50
 90
       50
102
RTVSPost2010PropOp50
 70
     1
102
RTVSPost2010Prop51ColorIndex
 90
      256
102
RTVSPost2010Prop51ColorRGB
 90
-16777216
102
RTVSPost2010PropOp51
 70
     0
102
RTVSPost2010Prop52
140
1.0
102
RTVSPost2010PropOp52
 70
     0
102
RTVSPost2010Prop53
 90
        2
102
RTVSPost2010PropOp53
 70
     1
102
RTVSPost2010Prop54
  1
strokes_ogs.tif
102
RTVSPost2010PropOp54
 70
     1
102
RTVSPost2010Prop55
280
     0
102
RTVSPost2010PropOp55
 70
     1
102
RTVSPost2010Prop56
140
1.0
102
RTVSPost2010PropOp56
 70
     1
102
RTVSPost2010Prop57
140
1.0
102
RTVSPost2010PropOp57
 70
     1
  0
XRECORD
  5
417
102
{ACAD_REACTORS
330
416
102
}
330
416
100
AcDbXrecord
280
     1
102
RTVSPropertyOp0
 70
     1
102
RTVSPropertyOp1
 70
     1
102
RTVSPropertyOp2
 70
     1
102
RTVSPropertyOp3
 70
     1
102
RTVSPropertyOp4
 70
     1
102
RTVSPropertyOp5
 70
     1
102
RTVSPropertyOp6
 70
     1
102
RTVSPropertyOp7
 70
     1
102
RTVSPropertyOp8
 70
     1
102
RTVSPropertyOp9
 70
     1
102
RTVSPropertyOp10
 70
     1
102
RTVSPropertyOp11
 70
     1
102
RTVSPropertyOp12
 70
     1
102
RTVSPropertyOp13
 70
     1
102
RTVSPropertyOp14
 70
     1
102
RTVSPropertyOp15
 70
     1
102
RTVSPropertyOp16
 70
     1
102
RTVSPropertyOp17
 70
     1
102
RTVSPropertyOp18
 70
     1
102
RTVSPropertyOp19
 70
     1
102
RTVSPropertyOp20
 70
     1
102
RTVSPropertyOp21
 70
     1
102
RTVSPropertyOp22
 70
     1
102
RTVSPropertyOp23
 70
     1
102
RTVSPropertyOp24
 70
     1
102
RTVSPropertyOp25
 70
     1
102
RTVSPropertyOp26
 70
     1
102
RTVSPropertyOp27
 70
     1
102
RTVSPropertyOp28
 70
     1
102
RTVSPropertyOp29
 70
     1
102
RTVSPropertyOp30
 70
     1
102
RTVSPropertyOp31
 70
     1
102
RTVSPropertyOp32
 70
     1
102
RTVSPropertyOp33
 70
     1
102
RTVSPropertyOp34
 70
     1
102
RTVSPropertyOp35
 70
     1
102
RTVSPropertyOp36
 70
     1
102
RTVSPropertyOp37
 70
     1
102
RTVSPropertyOp38
 70
     1
102
RTVSPropertyOp39
 70
     1
102
RTVSPropertyOp40
 70
     1
102
RTVSPropertyOp41
 70
     1
102
RTVSPropertyOp42
 70
     1
102
RTVSPropertyOp43
 70
     1
102
RTVSPropertyOp44
 70
     1
102
RTVSPropertyOp45
 70
     1
102
RTVSPropertyOp46
 70
     1
102
RTVSPropertyOp47
 70
     1
102
RTVSPropertyOp48
 70
     1
102
RTVSPropertyOp49
 70
     1
102
RTVSPropertyOp50
 70
     1
102
RTVSPropertyOp51
 70
     0
102
RTVSPropertyOp52
 70
     0
102
RTVSPropertyOp53
 70
     1
102
RTVSPropertyOp54
 70
     1
102
RTVSPropertyOp55
 70
     1
102
RTVSPropertyOp56
 70
     1
102
RTVSPropertyOp57
 70
     1
102
RTVSPost2010Prop28
280
     0
102
RTVSPost2010PropOp28
 70
     1
102
RTVSPost2010Prop29
280
     1
102
RTVSPost2010PropOp29
 70
     1
102
RTVSPost2010Prop30
280
     1
102
RTVSPost2010PropOp30
 70
     1
102
RTVSPost2010Prop31
280
     0
102
RTVSPost2010PropOp31
 70
     1
102
RTVSPost2010Prop32
280
     0
102
RTVSPost2010PropOp32
 70
     1
102
RTVSPost2010Prop33
280
     0
102
RTVSPost2010PropOp33
 70
     1
102
RTVSPost2010Prop34
280
     0
102
RTVSPost2010PropOp34
 70
     1
102
RTVSPost2010Prop35
280
     0
102
RTVSPost2010PropOp35
 70
     1
102
RTVSPost2010Prop36
280
     0
102
RTVSPost2010PropOp36
 70
     1
102
RTVSPost2010Prop37
 90
       50
102
RTVSPost2010PropOp37
 70
     1
102
RTVSPost2010Prop38
140
0.0
102
RTVSPost2010PropOp38
 70
     1
102
RTVSPost2010Prop39
140
1.0
102
RTVSPost2010PropOp39
 70
     1
102
RTVSPost2010Prop40
 90
        0
102
RTVSPost2010PropOp40
 70
     1
102
RTVSPost2010Prop41ColorIndex
 90
       18
102
RTVSPost2010Prop41ColorRGB
 90
        0
102
RTVSPost2010PropOp41
 70
     1
102
RTVSPost2010Prop42
 90
       50
102
RTVSPost2010PropOp42
 70
     1
102
RTVSPost2010Prop43
 90
        3
102
RTVSPost2010PropOp43
 70
     1
102
RTVSPost2010Prop44ColorIndex
 90
        5
102
RTVSPost2010Prop44ColorRGB
 90
      255
102
RTVSPost2010PropOp44
 70
     1
102
RTVSPost2010Prop45
280
     0
102
RTVSPost2010PropOp45
 70
     1
102
RTVSPost2010Prop46
 90
       50
102
RTVSPost2010PropOp46
 70
     1
102
RTVSPost2010Prop47
 90
       50
102
RTVSPost2010PropOp47
 70
     1
102
RTVSPost2010Prop48
 90
       50
102
RTVSPost2010PropOp48
 70
     1
102
RTVSPost2010Prop49
280
     0
102
RTVSPost2010PropOp49
 70
     1
102
RTVSPost2010Prop50
 90
       50
102
RTVSPost2010PropOp50
 70
     1
102
RTVSPost2010Prop51ColorIndex
 90
      256
102
RTVSPost2010Prop51ColorRGB
 90
-16777216
102
RTVSPost2010PropOp51
 70
     0
102
RTVSPost2010Prop52
140
1.0
102
RTVSPost2010PropOp52
 70
     0
102
RTVSPost2010Prop53
 90
        2
102
RTVSPost2010PropOp53
 70
     1
102
RTVSPost2010Prop54
  1
strokes_ogs.tif
102
RTVSPost2010PropOp54
 70
     1
102
RTVSPost2010Prop55
280
     0
102
RTVSPost2010PropOp55
 70
     1
102
RTVSPost2010Prop56
140
1.0
102
RTVSPost2010PropOp56
 70
     1
102
RTVSPost2010Prop57
140
1.0
102
RTVSPost2010PropOp57
 70
     1
  0
XRECORD
  5
415
102
{ACAD_REACTORS
330
414
102
}
330
414
100
AcDbXrecord
280
     1
102
RTVSPropertyOp0
 70
     1
102
RTVSPropertyOp1
 70
     1
102
RTVSPropertyOp2
 70
     1
102
RTVSPropertyOp3
 70
     1
102
RTVSPropertyOp4
 70
     1
102
RTVSPropertyOp5
 70
     1
102
RTVSPropertyOp6
 70
     1
102
RTVSPropertyOp7
 70
     1
102
RTVSPropertyOp8
 70
     1
102
RTVSPropertyOp9
 70
     1
102
RTVSPropertyOp10
 70
     1
102
RTVSPropertyOp11
 70
     1
102
RTVSPropertyOp12
 70
     1
102
RTVSPropertyOp13
 70
     1
102
RTVSPropertyOp14
 70
     1
102
RTVSPropertyOp15
 70
     1
102
RTVSPropertyOp16
 70
     1
102
RTVSPropertyOp17
 70
     1
102
RTVSPropertyOp18
 70
     1
102
RTVSPropertyOp19
 70
     1
102
RTVSPropertyOp20
 70
     1
102
RTVSPropertyOp21
 70
     1
102
RTVSPropertyOp22
 70
     1
102
RTVSPropertyOp23
 70
     1
102
RTVSPropertyOp24
 70
     1
102
RTVSPropertyOp25
 70
     1
102
RTVSPropertyOp26
 70
     1
102
RTVSPropertyOp27
 70
     1
102
RTVSPropertyOp28
 70
     1
102
RTVSPropertyOp29
 70
     1
102
RTVSPropertyOp30
 70
     1
102
RTVSPropertyOp31
 70
     1
102
RTVSPropertyOp32
 70
     1
102
RTVSPropertyOp33
 70
     1
102
RTVSPropertyOp34
 70
     1
102
RTVSPropertyOp35
 70
     1
102
RTVSPropertyOp36
 70
     1
102
RTVSPropertyOp37
 70
     1
102
RTVSPropertyOp38
 70
     1
102
RTVSPropertyOp39
 70
     1
102
RTVSPropertyOp40
 70
     1
102
RTVSPropertyOp41
 70
     1
102
RTVSPropertyOp42
 70
     1
102
RTVSPropertyOp43
 70
     1
102
RTVSPropertyOp44
 70
     1
102
RTVSPropertyOp45
 70
     1
102
RTVSPropertyOp46
 70
     1
102
RTVSPropertyOp47
 70
     1
102
RTVSPropertyOp48
 70
     1
102
RTVSPropertyOp49
 70
     1
102
RTVSPropertyOp50
 70
     1
102
RTVSPropertyOp51
 70
     0
102
RTVSPropertyOp52
 70
     0
102
RTVSPropertyOp53
 70
     1
102
RTVSPropertyOp54
 70
     1
102
RTVSPropertyOp55
 70
     1
102
RTVSPropertyOp56
 70
     1
102
RTVSPropertyOp57
 70
     1
102
RTVSPost2010Prop28
280
     0
102
RTVSPost2010PropOp28
 70
     1
102
RTVSPost2010Prop29
280
     1
102
RTVSPost2010PropOp29
 70
     1
102
RTVSPost2010Prop30
280
     1
102
RTVSPost2010PropOp30
 70
     1
102
RTVSPost2010Prop31
280
     0
102
RTVSPost2010PropOp31
 70
     1
102
RTVSPost2010Prop32
280
     0
102
RTVSPost2010PropOp32
 70
     1
102
RTVSPost2010Prop33
280
     0
102
RTVSPost2010PropOp33
 70
     1
102
RTVSPost2010Prop34
280
     0
102
RTVSPost2010PropOp34
 70
     1
102
RTVSPost2010Prop35
280
     0
102
RTVSPost2010PropOp35
 70
     1
102
RTVSPost2010Prop36
280
     0
102
RTVSPost2010PropOp36
 70
     1
102
RTVSPost2010Prop37
 90
       50
102
RTVSPost2010PropOp37
 70
     1
102
RTVSPost2010Prop38
140
0.0
102
RTVSPost2010PropOp38
 70
     1
102
RTVSPost2010Prop39
140
1.0
102
RTVSPost2010PropOp39
 70
     1
102
RTVSPost2010Prop40
 90
        0
102
RTVSPost2010PropOp40
 70
     1
102
RTVSPost2010Prop41ColorIndex
 90
       18
102
RTVSPost2010Prop41ColorRGB
 90
        0
102
RTVSPost2010PropOp41
 70
     1
102
RTVSPost2010Prop42
 90
       50
102
RTVSPost2010PropOp42
 70
     1
102
RTVSPost2010Prop43
 90
        3
102
RTVSPost2010PropOp43
 70
     1
102
RTVSPost2010Prop44ColorIndex
 90
        5
102
RTVSPost2010Prop44ColorRGB
 90
      255
102
RTVSPost2010PropOp44
 70
     1
102
RTVSPost2010Prop45
280
     0
102
RTVSPost2010PropOp45
 70
     1
102
RTVSPost2010Prop46
 90
       50
102
RTVSPost2010PropOp46
 70
     1
102
RTVSPost2010Prop47
 90
       50
102
RTVSPost2010PropOp47
 70
     1
102
RTVSPost2010Prop48
 90
       50
102
RTVSPost2010PropOp48
 70
     1
102
RTVSPost2010Prop49
280
     0
102
RTVSPost2010PropOp49
 70
     1
102
RTVSPost2010Prop50
 90
       50
102
RTVSPost2010PropOp50
 70
     1
102
RTVSPost2010Prop51ColorIndex
 90
      256
102
RTVSPost2010Prop51ColorRGB
 90
-16777216
102
RTVSPost2010PropOp51
 70
     0
102
RTVSPost2010Prop52
140
1.0
102
RTVSPost2010PropOp52
 70
     0
102
RTVSPost2010Prop53
 90
        2
102
RTVSPost2010PropOp53
 70
     1
102
RTVSPost2010Prop54
  1
strokes_ogs.tif
102
RTVSPost2010PropOp54
 70
     1
102
RTVSPost2010Prop55
280
     0
102
RTVSPost2010PropOp55
 70
     1
102
RTVSPost2010Prop56
140
1.0
102
RTVSPost2010PropOp56
 70
     1
102
RTVSPost2010Prop57
140
1.0
102
RTVSPost2010PropOp57
 70
     1
  0
XRECORD
  5
40F
102
{ACAD_REACTORS
330
40E
102
}
330
40E
100
AcDbXrecord
280
     1
102
RTVSPropertyOp0
 70
     1
102
RTVSPropertyOp1
 70
     1
102
RTVSPropertyOp2
 70
     1
102
RTVSPropertyOp3
 70
     1
102
RTVSPropertyOp4
 70
     1
102
RTVSPropertyOp5
 70
     1
102
RTVSPropertyOp6
 70
     1
102
RTVSPropertyOp7
 70
     1
102
RTVSPropertyOp8
 70
     1
102
RTVSPropertyOp9
 70
     1
102
RTVSPropertyOp10
 70
     1
102
RTVSPropertyOp11
 70
     1
102
RTVSPropertyOp12
 70
     1
102
RTVSPropertyOp13
 70
     1
102
RTVSPropertyOp14
 70
     1
102
RTVSPropertyOp15
 70
     1
102
RTVSPropertyOp16
 70
     1
102
RTVSPropertyOp17
 70
     1
102
RTVSPropertyOp18
 70
     1
102
RTVSPropertyOp19
 70
     1
102
RTVSPropertyOp20
 70
     1
102
RTVSPropertyOp21
 70
     1
102
RTVSPropertyOp22
 70
     1
102
RTVSPropertyOp23
 70
     1
102
RTVSPropertyOp24
 70
     1
102
RTVSPropertyOp25
 70
     1
102
RTVSPropertyOp26
 70
     1
102
RTVSPropertyOp27
 70
     1
102
RTVSPropertyOp28
 70
     1
102
RTVSPropertyOp29
 70
     1
102
RTVSPropertyOp30
 70
     1
102
RTVSPropertyOp31
 70
     1
102
RTVSPropertyOp32
 70
     1
102
RTVSPropertyOp33
 70
     1
102
RTVSPropertyOp34
 70
     1
102
RTVSPropertyOp35
 70
     1
102
RTVSPropertyOp36
 70
     1
102
RTVSPropertyOp37
 70
     1
102
RTVSPropertyOp38
 70
     1
102
RTVSPropertyOp39
 70
     1
102
RTVSPropertyOp40
 70
     1
102
RTVSPropertyOp41
 70
     1
102
RTVSPropertyOp42
 70
     1
102
RTVSPropertyOp43
 70
     1
102
RTVSPropertyOp44
 70
     1
102
RTVSPropertyOp45
 70
     1
102
RTVSPropertyOp46
 70
     1
102
RTVSPropertyOp47
 70
     1
102
RTVSPropertyOp48
 70
     1
102
RTVSPropertyOp49
 70
     1
102
RTVSPropertyOp50
 70
     1
102
RTVSPropertyOp51
 70
     0
102
RTVSPropertyOp52
 70
     0
102
RTVSPropertyOp53
 70
     1
102
RTVSPropertyOp54
 70
     1
102
RTVSPropertyOp55
 70
     1
102
RTVSPropertyOp56
 70
     1
102
RTVSPropertyOp57
 70
     1
102
RTVSPost2010Prop28
280
     0
102
RTVSPost2010PropOp28
 70
     1
102
RTVSPost2010Prop29
280
     1
102
RTVSPost2010PropOp29
 70
     1
102
RTVSPost2010Prop30
280
     1
102
RTVSPost2010PropOp30
 70
     1
102
RTVSPost2010Prop31
280
     0
102
RTVSPost2010PropOp31
 70
     1
102
RTVSPost2010Prop32
280
     0
102
RTVSPost2010PropOp32
 70
     1
102
RTVSPost2010Prop33
280
     0
102
RTVSPost2010PropOp33
 70
     1
102
RTVSPost2010Prop34
280
     0
102
RTVSPost2010PropOp34
 70
     1
102
RTVSPost2010Prop35
280
     0
102
RTVSPost2010PropOp35
 70
     1
102
RTVSPost2010Prop36
280
     0
102
RTVSPost2010PropOp36
 70
     1
102
RTVSPost2010Prop37
 90
       50
102
RTVSPost2010PropOp37
 70
     1
102
RTVSPost2010Prop38
140
0.0
102
RTVSPost2010PropOp38
 70
     1
102
RTVSPost2010Prop39
140
1.0
102
RTVSPost2010PropOp39
 70
     1
102
RTVSPost2010Prop40
 90
        0
102
RTVSPost2010PropOp40
 70
     1
102
RTVSPost2010Prop41ColorIndex
 90
       18
102
RTVSPost2010Prop41ColorRGB
 90
        0
102
RTVSPost2010PropOp41
 70
     1
102
RTVSPost2010Prop42
 90
       50
102
RTVSPost2010PropOp42
 70
     1
102
RTVSPost2010Prop43
 90
        3
102
RTVSPost2010PropOp43
 70
     1
102
RTVSPost2010Prop44ColorIndex
 90
        5
102
RTVSPost2010Prop44ColorRGB
 90
      255
102
RTVSPost2010PropOp44
 70
     1
102
RTVSPost2010Prop45
280
     0
102
RTVSPost2010PropOp45
 70
     1
102
RTVSPost2010Prop46
 90
       50
102
RTVSPost2010PropOp46
 70
     1
102
RTVSPost2010Prop47
 90
       50
102
RTVSPost2010PropOp47
 70
     1
102
RTVSPost2010Prop48
 90
       50
102
RTVSPost2010PropOp48
 70
     1
102
RTVSPost2010Prop49
280
     0
102
RTVSPost2010PropOp49
 70
     1
102
RTVSPost2010Prop50
 90
       50
102
RTVSPost2010PropOp50
 70
     1
102
RTVSPost2010Prop51ColorIndex
 90
      256
102
RTVSPost2010Prop51ColorRGB
 90
-16777216
102
RTVSPost2010PropOp51
 70
     0
102
RTVSPost2010Prop52
140
1.0
102
RTVSPost2010PropOp52
 70
     0
102
RTVSPost2010Prop53
 90
        2
102
RTVSPost2010PropOp53
 70
     1
102
RTVSPost2010Prop54
  1
strokes_ogs.tif
102
RTVSPost2010PropOp54
 70
     1
102
RTVSPost2010Prop55
280
     0
102
RTVSPost2010PropOp55
 70
     1
102
RTVSPost2010Prop56
140
1.0
102
RTVSPost2010PropOp56
 70
     1
102
RTVSPost2010Prop57
140
1.0
102
RTVSPost2010PropOp57
 70
     1
  0
XRECORD
  5
411
102
{ACAD_REACTORS
330
410
102
}
330
410
100
AcDbXrecord
280
     1
102
RTVSPropertyOp0
 70
     1
102
RTVSPropertyOp1
 70
     1
102
RTVSPropertyOp2
 70
     1
102
RTVSPropertyOp3
 70
     1
102
RTVSPropertyOp4
 70
     1
102
RTVSPropertyOp5
 70
     1
102
RTVSPropertyOp6
 70
     1
102
RTVSPropertyOp7
 70
     1
102
RTVSPropertyOp8
 70
     1
102
RTVSPropertyOp9
 70
     1
102
RTVSPropertyOp10
 70
     1
102
RTVSPropertyOp11
 70
     1
102
RTVSPropertyOp12
 70
     1
102
RTVSPropertyOp13
 70
     1
102
RTVSPropertyOp14
 70
     1
102
RTVSPropertyOp15
 70
     1
102
RTVSPropertyOp16
 70
     1
102
RTVSPropertyOp17
 70
     1
102
RTVSPropertyOp18
 70
     1
102
RTVSPropertyOp19
 70
     1
102
RTVSPropertyOp20
 70
     1
102
RTVSPropertyOp21
 70
     1
102
RTVSPropertyOp22
 70
     1
102
RTVSPropertyOp23
 70
     1
102
RTVSPropertyOp24
 70
     1
102
RTVSPropertyOp25
 70
     1
102
RTVSPropertyOp26
 70
     1
102
RTVSPropertyOp27
 70
     1
102
RTVSPropertyOp28
 70
     1
102
RTVSPropertyOp29
 70
     1
102
RTVSPropertyOp30
 70
     1
102
RTVSPropertyOp31
 70
     1
102
RTVSPropertyOp32
 70
     1
102
RTVSPropertyOp33
 70
     1
102
RTVSPropertyOp34
 70
     1
102
RTVSPropertyOp35
 70
     1
102
RTVSPropertyOp36
 70
     1
102
RTVSPropertyOp37
 70
     1
102
RTVSPropertyOp38
 70
     1
102
RTVSPropertyOp39
 70
     1
102
RTVSPropertyOp40
 70
     1
102
RTVSPropertyOp41
 70
     1
102
RTVSPropertyOp42
 70
     1
102
RTVSPropertyOp43
 70
     1
102
RTVSPropertyOp44
 70
     1
102
RTVSPropertyOp45
 70
     1
102
RTVSPropertyOp46
 70
     1
102
RTVSPropertyOp47
 70
     1
102
RTVSPropertyOp48
 70
     1
102
RTVSPropertyOp49
 70
     1
102
RTVSPropertyOp50
 70
     1
102
RTVSPropertyOp51
 70
     0
102
RTVSPropertyOp52
 70
     0
102
RTVSPropertyOp53
 70
     1
102
RTVSPropertyOp54
 70
     1
102
RTVSPropertyOp55
 70
     1
102
RTVSPropertyOp56
 70
     1
102
RTVSPropertyOp57
 70
     1
102
RTVSPost2010Prop28
280
     0
102
RTVSPost2010PropOp28
 70
     1
102
RTVSPost2010Prop29
280
     1
102
RTVSPost2010PropOp29
 70
     1
102
RTVSPost2010Prop30
280
     1
102
RTVSPost2010PropOp30
 70
     1
102
RTVSPost2010Prop31
280
     0
102
RTVSPost2010PropOp31
 70
     1
102
RTVSPost2010Prop32
280
     0
102
RTVSPost2010PropOp32
 70
     1
102
RTVSPost2010Prop33
280
     0
102
RTVSPost2010PropOp33
 70
     1
102
RTVSPost2010Prop34
280
     0
102
RTVSPost2010PropOp34
 70
     1
102
RTVSPost2010Prop35
280
     0
102
RTVSPost2010PropOp35
 70
     1
102
RTVSPost2010Prop36
280
     0
102
RTVSPost2010PropOp36
 70
     1
102
RTVSPost2010Prop37
 90
       50
102
RTVSPost2010PropOp37
 70
     1
102
RTVSPost2010Prop38
140
0.0
102
RTVSPost2010PropOp38
 70
     1
102
RTVSPost2010Prop39
140
1.0
102
RTVSPost2010PropOp39
 70
     1
102
RTVSPost2010Prop40
 90
        0
102
RTVSPost2010PropOp40
 70
     1
102
RTVSPost2010Prop41ColorIndex
 90
       18
102
RTVSPost2010Prop41ColorRGB
 90
        0
102
RTVSPost2010PropOp41
 70
     1
102
RTVSPost2010Prop42
 90
       50
102
RTVSPost2010PropOp42
 70
     1
102
RTVSPost2010Prop43
 90
        3
102
RTVSPost2010PropOp43
 70
     1
102
RTVSPost2010Prop44ColorIndex
 90
        5
102
RTVSPost2010Prop44ColorRGB
 90
      255
102
RTVSPost2010PropOp44
 70
     1
102
RTVSPost2010Prop45
280
     0
102
RTVSPost2010PropOp45
 70
     1
102
RTVSPost2010Prop46
 90
       50
102
RTVSPost2010PropOp46
 70
     1
102
RTVSPost2010Prop47
 90
       50
102
RTVSPost2010PropOp47
 70
     1
102
RTVSPost2010Prop48
 90
       50
102
RTVSPost2010PropOp48
 70
     1
102
RTVSPost2010Prop49
280
     0
102
RTVSPost2010PropOp49
 70
     1
102
RTVSPost2010Prop50
 90
       50
102
RTVSPost2010PropOp50
 70
     1
102
RTVSPost2010Prop51ColorIndex
 90
      256
102
RTVSPost2010Prop51ColorRGB
 90
-16777216
102
RTVSPost2010PropOp51
 70
     0
102
RTVSPost2010Prop52
140
1.0
102
RTVSPost2010PropOp52
 70
     0
102
RTVSPost2010Prop53
 90
        2
102
RTVSPost2010PropOp53
 70
     1
102
RTVSPost2010Prop54
  1
strokes_ogs.tif
102
RTVSPost2010PropOp54
 70
     1
102
RTVSPost2010Prop55
280
     0
102
RTVSPost2010PropOp55
 70
     1
102
RTVSPost2010Prop56
140
1.0
102
RTVSPost2010PropOp56
 70
     1
102
RTVSPost2010Prop57
140
1.0
102
RTVSPost2010PropOp57
 70
     1
  0
XRECORD
  5
401
102
{ACAD_REACTORS
330
400
102
}
330
400
100
AcDbXrecord
280
     1
102
RTVSPropertyOp0
 70
     1
102
RTVSPropertyOp1
 70
     1
102
RTVSPropertyOp2
 70
     1
102
RTVSPropertyOp3
 70
     1
102
RTVSPropertyOp4
 70
     1
102
RTVSPropertyOp5
 70
     1
102
RTVSPropertyOp6
 70
     1
102
RTVSPropertyOp7
 70
     1
102
RTVSPropertyOp8
 70
     1
102
RTVSPropertyOp9
 70
     1
102
RTVSPropertyOp10
 70
     1
102
RTVSPropertyOp11
 70
     1
102
RTVSPropertyOp12
 70
     1
102
RTVSPropertyOp13
 70
     1
102
RTVSPropertyOp14
 70
     1
102
RTVSPropertyOp15
 70
     1
102
RTVSPropertyOp16
 70
     1
102
RTVSPropertyOp17
 70
     1
102
RTVSPropertyOp18
 70
     1
102
RTVSPropertyOp19
 70
     1
102
RTVSPropertyOp20
 70
     1
102
RTVSPropertyOp21
 70
     1
102
RTVSPropertyOp22
 70
     1
102
RTVSPropertyOp23
 70
     1
102
RTVSPropertyOp24
 70
     1
102
RTVSPropertyOp25
 70
     1
102
RTVSPropertyOp26
 70
     1
102
RTVSPropertyOp27
 70
     1
102
RTVSPropertyOp28
 70
     1
102
RTVSPropertyOp29
 70
     1
102
RTVSPropertyOp30
 70
     1
102
RTVSPropertyOp31
 70
     1
102
RTVSPropertyOp32
 70
     1
102
RTVSPropertyOp33
 70
     1
102
RTVSPropertyOp34
 70
     1
102
RTVSPropertyOp35
 70
     1
102
RTVSPropertyOp36
 70
     1
102
RTVSPropertyOp37
 70
     1
102
RTVSPropertyOp38
 70
     1
102
RTVSPropertyOp39
 70
     1
102
RTVSPropertyOp40
 70
     1
102
RTVSPropertyOp41
 70
     1
102
RTVSPropertyOp42
 70
     1
102
RTVSPropertyOp43
 70
     1
102
RTVSPropertyOp44
 70
     1
102
RTVSPropertyOp45
 70
     1
102
RTVSPropertyOp46
 70
     1
102
RTVSPropertyOp47
 70
     1
102
RTVSPropertyOp48
 70
     1
102
RTVSPropertyOp49
 70
     1
102
RTVSPropertyOp50
 70
     1
102
RTVSPropertyOp51
 70
     0
102
RTVSPropertyOp52
 70
     0
102
RTVSPropertyOp53
 70
     1
102
RTVSPropertyOp54
 70
     1
102
RTVSPropertyOp55
 70
     1
102
RTVSPropertyOp56
 70
     1
102
RTVSPropertyOp57
 70
     1
102
RTVSPost2010Prop28
280
     0
102
RTVSPost2010PropOp28
 70
     1
102
RTVSPost2010Prop29
280
     1
102
RTVSPost2010PropOp29
 70
     1
102
RTVSPost2010Prop30
280
     1
102
RTVSPost2010PropOp30
 70
     1
102
RTVSPost2010Prop31
280
     0
102
RTVSPost2010PropOp31
 70
     1
102
RTVSPost2010Prop32
280
     0
102
RTVSPost2010PropOp32
 70
     1
102
RTVSPost2010Prop33
280
     0
102
RTVSPost2010PropOp33
 70
     1
102
RTVSPost2010Prop34
280
     0
102
RTVSPost2010PropOp34
 70
     1
102
RTVSPost2010Prop35
280
     0
102
RTVSPost2010PropOp35
 70
     1
102
RTVSPost2010Prop36
280
     0
102
RTVSPost2010PropOp36
 70
     1
102
RTVSPost2010Prop37
 90
       50
102
RTVSPost2010PropOp37
 70
     1
102
RTVSPost2010Prop38
140
0.0
102
RTVSPost2010PropOp38
 70
     1
102
RTVSPost2010Prop39
140
1.0
102
RTVSPost2010PropOp39
 70
     1
102
RTVSPost2010Prop40
 90
        0
102
RTVSPost2010PropOp40
 70
     1
102
RTVSPost2010Prop41ColorIndex
 90
       18
102
RTVSPost2010Prop41ColorRGB
 90
        0
102
RTVSPost2010PropOp41
 70
     1
102
RTVSPost2010Prop42
 90
       50
102
RTVSPost2010PropOp42
 70
     1
102
RTVSPost2010Prop43
 90
        3
102
RTVSPost2010PropOp43
 70
     1
102
RTVSPost2010Prop44ColorIndex
 90
        5
102
RTVSPost2010Prop44ColorRGB
 90
      255
102
RTVSPost2010PropOp44
 70
     1
102
RTVSPost2010Prop45
280
     0
102
RTVSPost2010PropOp45
 70
     1
102
RTVSPost2010Prop46
 90
       50
102
RTVSPost2010PropOp46
 70
     1
102
RTVSPost2010Prop47
 90
       50
102
RTVSPost2010PropOp47
 70
     1
102
RTVSPost2010Prop48
 90
       50
102
RTVSPost2010PropOp48
 70
     1
102
RTVSPost2010Prop49
280
     0
102
RTVSPost2010PropOp49
 70
     1
102
RTVSPost2010Prop50
 90
       50
102
RTVSPost2010PropOp50
 70
     1
102
RTVSPost2010Prop51ColorIndex
 90
      256
102
RTVSPost2010Prop51ColorRGB
 90
-16777216
102
RTVSPost2010PropOp51
 70
     0
102
RTVSPost2010Prop52
140
1.0
102
RTVSPost2010PropOp52
 70
     0
102
RTVSPost2010Prop53
 90
        2
102
RTVSPost2010PropOp53
 70
     1
102
RTVSPost2010Prop54
  1
strokes_ogs.tif
102
RTVSPost2010PropOp54
 70
     1
102
RTVSPost2010Prop55
280
     0
102
RTVSPost2010PropOp55
 70
     1
102
RTVSPost2010Prop56
140
1.0
102
RTVSPost2010PropOp56
 70
     1
102
RTVSPost2010Prop57
140
1.0
102
RTVSPost2010PropOp57
 70
     1
  0
XRECORD
  5
3F3
102
{ACAD_REACTORS
330
3F2
102
}
330
3F2
100
AcDbXrecord
280
     1
102
RTVSPropertyOp0
 70
     1
102
RTVSPropertyOp1
 70
     1
102
RTVSPropertyOp2
 70
     1
102
RTVSPropertyOp3
 70
     1
102
RTVSPropertyOp4
 70
     1
102
RTVSPropertyOp5
 70
     1
102
RTVSPropertyOp6
 70
     1
102
RTVSPropertyOp7
 70
     1
102
RTVSPropertyOp8
 70
     1
102
RTVSPropertyOp9
 70
     1
102
RTVSPropertyOp10
 70
     1
102
RTVSPropertyOp11
 70
     1
102
RTVSPropertyOp12
 70
     1
102
RTVSPropertyOp13
 70
     1
102
RTVSPropertyOp14
 70
     1
102
RTVSPropertyOp15
 70
     1
102
RTVSPropertyOp16
 70
     1
102
RTVSPropertyOp17
 70
     1
102
RTVSPropertyOp18
 70
     1
102
RTVSPropertyOp19
 70
     1
102
RTVSPropertyOp20
 70
     1
102
RTVSPropertyOp21
 70
     1
102
RTVSPropertyOp22
 70
     1
102
RTVSPropertyOp23
 70
     1
102
RTVSPropertyOp24
 70
     1
102
RTVSPropertyOp25
 70
     1
102
RTVSPropertyOp26
 70
     1
102
RTVSPropertyOp27
 70
     1
102
RTVSPropertyOp28
 70
     1
102
RTVSPropertyOp29
 70
     1
102
RTVSPropertyOp30
 70
     1
102
RTVSPropertyOp31
 70
     1
102
RTVSPropertyOp32
 70
     1
102
RTVSPropertyOp33
 70
     1
102
RTVSPropertyOp34
 70
     1
102
RTVSPropertyOp35
 70
     1
102
RTVSPropertyOp36
 70
     1
102
RTVSPropertyOp37
 70
     1
102
RTVSPropertyOp38
 70
     1
102
RTVSPropertyOp39
 70
     1
102
RTVSPropertyOp40
 70
     1
102
RTVSPropertyOp41
 70
     1
102
RTVSPropertyOp42
 70
     1
102
RTVSPropertyOp43
 70
     1
102
RTVSPropertyOp44
 70
     1
102
RTVSPropertyOp45
 70
     1
102
RTVSPropertyOp46
 70
     1
102
RTVSPropertyOp47
 70
     1
102
RTVSPropertyOp48
 70
     1
102
RTVSPropertyOp49
 70
     1
102
RTVSPropertyOp50
 70
     1
102
RTVSPropertyOp51
 70
     0
102
RTVSPropertyOp52
 70
     0
102
RTVSPropertyOp53
 70
     1
102
RTVSPropertyOp54
 70
     1
102
RTVSPropertyOp55
 70
     1
102
RTVSPropertyOp56
 70
     1
102
RTVSPropertyOp57
 70
     1
102
RTVSPost2010Prop28
280
     0
102
RTVSPost2010PropOp28
 70
     1
102
RTVSPost2010Prop29
280
     1
102
RTVSPost2010PropOp29
 70
     1
102
RTVSPost2010Prop30
280
     1
102
RTVSPost2010PropOp30
 70
     1
102
RTVSPost2010Prop31
280
     0
102
RTVSPost2010PropOp31
 70
     1
102
RTVSPost2010Prop32
280
     0
102
RTVSPost2010PropOp32
 70
     1
102
RTVSPost2010Prop33
280
     0
102
RTVSPost2010PropOp33
 70
     1
102
RTVSPost2010Prop34
280
     0
102
RTVSPost2010PropOp34
 70
     1
102
RTVSPost2010Prop35
280
     0
102
RTVSPost2010PropOp35
 70
     1
102
RTVSPost2010Prop36
280
     0
102
RTVSPost2010PropOp36
 70
     1
102
RTVSPost2010Prop37
 90
       50
102
RTVSPost2010PropOp37
 70
     1
102
RTVSPost2010Prop38
140
0.0
102
RTVSPost2010PropOp38
 70
     1
102
RTVSPost2010Prop39
140
1.0
102
RTVSPost2010PropOp39
 70
     1
102
RTVSPost2010Prop40
 90
        0
102
RTVSPost2010PropOp40
 70
     1
102
RTVSPost2010Prop41ColorIndex
 90
       18
102
RTVSPost2010Prop41ColorRGB
 90
        0
102
RTVSPost2010PropOp41
 70
     1
102
RTVSPost2010Prop42
 90
       50
102
RTVSPost2010PropOp42
 70
     1
102
RTVSPost2010Prop43
 90
        3
102
RTVSPost2010PropOp43
 70
     1
102
RTVSPost2010Prop44ColorIndex
 90
        5
102
RTVSPost2010Prop44ColorRGB
 90
      255
102
RTVSPost2010PropOp44
 70
     1
102
RTVSPost2010Prop45
280
     0
102
RTVSPost2010PropOp45
 70
     1
102
RTVSPost2010Prop46
 90
       50
102
RTVSPost2010PropOp46
 70
     1
102
RTVSPost2010Prop47
 90
       50
102
RTVSPost2010PropOp47
 70
     1
102
RTVSPost2010Prop48
 90
       50
102
RTVSPost2010PropOp48
 70
     1
102
RTVSPost2010Prop49
280
     0
102
RTVSPost2010PropOp49
 70
     1
102
RTVSPost2010Prop50
 90
       50
102
RTVSPost2010PropOp50
 70
     1
102
RTVSPost2010Prop51ColorIndex
 90
      256
102
RTVSPost2010Prop51ColorRGB
 90
-16777216
102
RTVSPost2010PropOp51
 70
     0
102
RTVSPost2010Prop52
140
1.0
102
RTVSPost2010PropOp52
 70
     0
102
RTVSPost2010Prop53
 90
        2
102
RTVSPost2010PropOp53
 70
     1
102
RTVSPost2010Prop54
  1
strokes_ogs.tif
102
RTVSPost2010PropOp54
 70
     1
102
RTVSPost2010Prop55
280
     0
102
RTVSPost2010PropOp55
 70
     1
102
RTVSPost2010Prop56
140
1.0
102
RTVSPost2010PropOp56
 70
     1
102
RTVSPost2010Prop57
140
1.0
102
RTVSPost2010PropOp57
 70
     1
  0
XRECORD
  5
413
102
{ACAD_REACTORS
330
412
102
}
330
412
100
AcDbXrecord
280
     1
102
RTVSPropertyOp0
 70
     1
102
RTVSPropertyOp1
 70
     1
102
RTVSPropertyOp2
 70
     1
102
RTVSPropertyOp3
 70
     1
102
RTVSPropertyOp4
 70
     1
102
RTVSPropertyOp5
 70
     1
102
RTVSPropertyOp6
 70
     1
102
RTVSPropertyOp7
 70
     1
102
RTVSPropertyOp8
 70
     1
102
RTVSPropertyOp9
 70
     1
102
RTVSPropertyOp10
 70
     1
102
RTVSPropertyOp11
 70
     1
102
RTVSPropertyOp12
 70
     1
102
RTVSPropertyOp13
 70
     1
102
RTVSPropertyOp14
 70
     1
102
RTVSPropertyOp15
 70
     1
102
RTVSPropertyOp16
 70
     1
102
RTVSPropertyOp17
 70
     1
102
RTVSPropertyOp18
 70
     1
102
RTVSPropertyOp19
 70
     1
102
RTVSPropertyOp20
 70
     1
102
RTVSPropertyOp21
 70
     1
102
RTVSPropertyOp22
 70
     1
102
RTVSPropertyOp23
 70
     1
102
RTVSPropertyOp24
 70
     1
102
RTVSPropertyOp25
 70
     1
102
RTVSPropertyOp26
 70
     1
102
RTVSPropertyOp27
 70
     1
102
RTVSPropertyOp28
 70
     1
102
RTVSPropertyOp29
 70
     1
102
RTVSPropertyOp30
 70
     1
102
RTVSPropertyOp31
 70
     1
102
RTVSPropertyOp32
 70
     1
102
RTVSPropertyOp33
 70
     1
102
RTVSPropertyOp34
 70
     1
102
RTVSPropertyOp35
 70
     1
102
RTVSPropertyOp36
 70
     1
102
RTVSPropertyOp37
 70
     1
102
RTVSPropertyOp38
 70
     1
102
RTVSPropertyOp39
 70
     1
102
RTVSPropertyOp40
 70
     1
102
RTVSPropertyOp41
 70
     1
102
RTVSPropertyOp42
 70
     1
102
RTVSPropertyOp43
 70
     1
102
RTVSPropertyOp44
 70
     1
102
RTVSPropertyOp45
 70
     1
102
RTVSPropertyOp46
 70
     1
102
RTVSPropertyOp47
 70
     1
102
RTVSPropertyOp48
 70
     1
102
RTVSPropertyOp49
 70
     1
102
RTVSPropertyOp50
 70
     1
102
RTVSPropertyOp51
 70
     0
102
RTVSPropertyOp52
 70
     0
102
RTVSPropertyOp53
 70
     1
102
RTVSPropertyOp54
 70
     1
102
RTVSPropertyOp55
 70
     1
102
RTVSPropertyOp56
 70
     1
102
RTVSPropertyOp57
 70
     1
102
RTVSPost2010Prop28
280
     0
102
RTVSPost2010PropOp28
 70
     1
102
RTVSPost2010Prop29
280
     1
102
RTVSPost2010PropOp29
 70
     1
102
RTVSPost2010Prop30
280
     1
102
RTVSPost2010PropOp30
 70
     1
102
RTVSPost2010Prop31
280
     0
102
RTVSPost2010PropOp31
 70
     1
102
RTVSPost2010Prop32
280
     0
102
RTVSPost2010PropOp32
 70
     1
102
RTVSPost2010Prop33
280
     0
102
RTVSPost2010PropOp33
 70
     1
102
RTVSPost2010Prop34
280
     0
102
RTVSPost2010PropOp34
 70
     1
102
RTVSPost2010Prop35
280
     0
102
RTVSPost2010PropOp35
 70
     1
102
RTVSPost2010Prop36
280
     0
102
RTVSPost2010PropOp36
 70
     1
102
RTVSPost2010Prop37
 90
       50
102
RTVSPost2010PropOp37
 70
     1
102
RTVSPost2010Prop38
140
0.0
102
RTVSPost2010PropOp38
 70
     1
102
RTVSPost2010Prop39
140
1.0
102
RTVSPost2010PropOp39
 70
     1
102
RTVSPost2010Prop40
 90
        0
102
RTVSPost2010PropOp40
 70
     1
102
RTVSPost2010Prop41ColorIndex
 90
       18
102
RTVSPost2010Prop41ColorRGB
 90
        0
102
RTVSPost2010PropOp41
 70
     1
102
RTVSPost2010Prop42
 90
       50
102
RTVSPost2010PropOp42
 70
     1
102
RTVSPost2010Prop43
 90
        3
102
RTVSPost2010PropOp43
 70
     1
102
RTVSPost2010Prop44ColorIndex
 90
        5
102
RTVSPost2010Prop44ColorRGB
 90
      255
102
RTVSPost2010PropOp44
 70
     1
102
RTVSPost2010Prop45
280
     0
102
RTVSPost2010PropOp45
 70
     1
102
RTVSPost2010Prop46
 90
       50
102
RTVSPost2010PropOp46
 70
     1
102
RTVSPost2010Prop47
 90
       50
102
RTVSPost2010PropOp47
 70
     1
102
RTVSPost2010Prop48
 90
       50
102
RTVSPost2010PropOp48
 70
     1
102
RTVSPost2010Prop49
280
     0
102
RTVSPost2010PropOp49
 70
     1
102
RTVSPost2010Prop50
 90
       50
102
RTVSPost2010PropOp50
 70
     1
102
RTVSPost2010Prop51ColorIndex
 90
      256
102
RTVSPost2010Prop51ColorRGB
 90
-16777216
102
RTVSPost2010PropOp51
 70
     0
102
RTVSPost2010Prop52
140
1.0
102
RTVSPost2010PropOp52
 70
     0
102
RTVSPost2010Prop53
 90
        2
102
RTVSPost2010PropOp53
 70
     1
102
RTVSPost2010Prop54
  1
strokes_ogs.tif
102
RTVSPost2010PropOp54
 70
     1
102
RTVSPost2010Prop55
280
     0
102
RTVSPost2010PropOp55
 70
     1
102
RTVSPost2010Prop56
140
1.0
102
RTVSPost2010PropOp56
 70
     1
102
RTVSPost2010Prop57
140
1.0
102
RTVSPost2010PropOp57
 70
     1
  0
ENDSEC
  0
EOF
