  0
SECTION
  2
HEADER
  9
$ACADVER
  1
AC1021
  9
$ACADMAINTVER
 70
    25
  9
$DWGCODEPAGE
  3
ANSI_1252
  9
$INSBASE
 10
0.0
 20
0.0
 30
0.0
  9
$EXTMIN
 10
0.0
 20
0.0
 30
0.0
  9
$EXTMAX
 10
550.0
 20
511.0
 30
0.0
  9
$LIMMIN
 10
0.0
 20
0.0
  9
$LIMMAX
 10
550.0
 20
511.0
  9
$ORTHOMODE
 70
     0
  9
$REGENMODE
 70
     1
  9
$FILLMODE
 70
     1
  9
$QTEXTMODE
 70
     0
  9
$MIRRTEXT
 70
     1
  9
$LTSCALE
 40
1.0
  9
$ATTMODE
 70
     1
  9
$TEXTSIZE
 40
2.5
  9
$TRACEWID
 40
1.0
  9
$TEXTSTYLE
  7
Standard
  9
$CLAYER
  8
0
  9
$CELTYPE
  6
ByLayer
  9
$CECOLOR
 62
   256
  9
$CELTSCALE
 40
1.0
  9
$DISPSILH
 70
     0
  9
$DIMSCALE
 40
1.0
  9
$DIMASZ
 40
2.5
  9
$DIMEXO
 40
0.625
  9
$DIMDLI
 40
3.75
  9
$DIMRND
 40
0.0
  9
$DIMDLE
 40
0.0
  9
$DIMEXE
 40
1.25
  9
$DIMTP
 40
0.0
  9
$DIMTM
 40
0.0
  9
$DIMTXT
 40
2.5
  9
$DIMCEN
 40
2.5
  9
$DIMTSZ
 40
0.0
  9
$DIMTOL
 70
     0
  9
$DIMLIM
 70
     0
  9
$DIMTIH
 70
     0
  9
$DIMTOH
 70
     0
  9
$DIMSE1
 70
     0
  9
$DIMSE2
 70
     0
  9
$DIMTAD
 70
     1
  9
$DIMZIN
 70
     8
  9
$DIMBLK
  1

  9
$DIMASO
 70
     1
  9
$DIMSHO
 70
     1
  9
$DIMPOST
  1

  9
$DIMAPOST
  1

  9
$DIMALT
 70
     0
  9
$DIMALTD
 70
     3
  9
$DIMALTF
 40
0.0393700787
  9
$DIMLFAC
 40
1.0
  9
$DIMTOFL
 70
     1
  9
$DIMTVP
 40
0.0
  9
$DIMTIX
 70
     0
  9
$DIMSOXD
 70
     0
  9
$DIMSAH
 70
     0
  9
$DIMBLK1
  1

  9
$DIMBLK2
  1

  9
$DIMSTYLE
  2
ISO-25
  9
$DIMCLRD
 70
     0
  9
$DIMCLRE
 70
     0
  9
$DIMCLRT
 70
     0
  9
$DIMTFAC
 40
1.0
  9
$DIMGAP
 40
0.625
  9
$DIMJUST
 70
     0
  9
$DIMSD1
 70
     0
  9
$DIMSD2
 70
     0
  9
$DIMTOLJ
 70
     0
  9
$DIMTZIN
 70
     8
  9
$DIMALTZ
 70
     0
  9
$DIMALTTZ
 70
     0
  9
$DIMUPT
 70
     0
  9
$DIMDEC
 70
     2
  9
$DIMTDEC
 70
     2
  9
$DIMALTU
 70
     2
  9
$DIMALTTD
 70
     3
  9
$DIMTXSTY
  7
Standard
  9
$DIMAUNIT
 70
     0
  9
$DIMADEC
 70
     0
  9
$DIMALTRND
 40
0.0
  9
$DIMAZIN
 70
     0
  9
$DIMDSEP
 70
    44
  9
$DIMATFIT
 70
     3
  9
$DIMFRAC
 70
     0
  9
$DIMLDRBLK
  1

  9
$DIMLUNIT
 70
     2
  9
$DIMLWD
 70
    -2
  9
$DIMLWE
 70
    -2
  9
$DIMTMOVE
 70
     0
  9
$DIMFXL
 40
1.0
  9
$DIMFXLON
 70
     0
  9
$DIMJOGANG
 40
0.7853981634
  9
$DIMTFILL
 70
     0
  9
$DIMTFILLCLR
 70
     0
  9
$DIMARCSYM
 70
     0
  9
$DIMLTYPE
  6

  9
$DIMLTEX1
  6

  9
$DIMLTEX2
  6

  9
$LUNITS
 70
     2
  9
$LUPREC
 70
     4
  9
$SKETCHINC
 40
1.0
  9
$FILLETRAD
 40
10.0
  9
$AUNITS
 70
     0
  9
$AUPREC
 70
     0
  9
$MENU
  1
.
  9
$ELEVATION
 40
0.0
  9
$PELEVATION
 40
0.0
  9
$THICKNESS
 40
0.0
  9
$LIMCHECK
 70
     0
  9
$CHAMFERA
 40
0.0
  9
$CHAMFERB
 40
0.0
  9
$CHAMFERC
 40
0.0
  9
$CHAMFERD
 40
0.0
  9
$SKPOLY
 70
     0
  9
$TDCREATE
 40
2458037.394602268
  9
$TDUCREATE
 40
2458037.311268935
  9
$TDUPDATE
 40
2458037.39460956
  9
$TDUUPDATE
 40
2458037.311276227
  9
$TDINDWG
 40
0.0000000116
  9
$TDUSRTIMER
 40
0.0000000116
  9
$USRTIMER
 70
     1
  9
$ANGBASE
 50
0.0
  9
$ANGDIR
 70
     0
  9
$PDMODE
 70
     0
  9
$PDSIZE
 40
0.0
  9
$PLINEWID
 40
0.0
  9
$SPLFRAME
 70
     0
  9
$SPLINETYPE
 70
     6
  9
$SPLINESEGS
 70
     8
  9
$HANDSEED
  5
2CF
  9
$SURFTAB1
 70
     6
  9
$SURFTAB2
 70
     6
  9
$SURFTYPE
 70
     6
  9
$SURFU
 70
     6
  9
$SURFV
 70
     6
  9
$UCSBASE
  2

  9
$UCSNAME
  2

  9
$UCSORG
 10
0.0
 20
0.0
 30
0.0
  9
$UCSXDIR
 10
1.0
 20
0.0
 30
0.0
  9
$UCSYDIR
 10
0.0
 20
1.0
 30
0.0
  9
$UCSORTHOREF
  2

  9
$UCSORTHOVIEW
 70
     0
  9
$UCSORGTOP
 10
0.0
 20
0.0
 30
0.0
  9
$UCSORGBOTTOM
 10
0.0
 20
0.0
 30
0.0
  9
$UCSORGLEFT
 10
0.0
 20
0.0
 30
0.0
  9
$UCSORGRIGHT
 10
0.0
 20
0.0
 30
0.0
  9
$UCSORGFRONT
 10
0.0
 20
0.0
 30
0.0
  9
$UCSORGBACK
 10
0.0
 20
0.0
 30
0.0
  9
$PUCSBASE
  2

  9
$PUCSNAME
  2

  9
$PUCSORG
 10
0.0
 20
0.0
 30
0.0
  9
$PUCSXDIR
 10
1.0
 20
0.0
 30
0.0
  9
$PUCSYDIR
 10
0.0
 20
1.0
 30
0.0
  9
$PUCSORTHOREF
  2

  9
$PUCSORTHOVIEW
 70
     0
  9
$PUCSORGTOP
 10
0.0
 20
0.0
 30
0.0
  9
$PUCSORGBOTTOM
 10
0.0
 20
0.0
 30
0.0
  9
$PUCSORGLEFT
 10
0.0
 20
0.0
 30
0.0
  9
$PUCSORGRIGHT
 10
0.0
 20
0.0
 30
0.0
  9
$PUCSORGFRONT
 10
0.0
 20
0.0
 30
0.0
  9
$PUCSORGBACK
 10
0.0
 20
0.0
 30
0.0
  9
$USERI1
 70
     0
  9
$USERI2
 70
     0
  9
$USERI3
 70
     0
  9
$USERI4
 70
     0
  9
$USERI5
 70
     0
  9
$USERR1
 40
0.0
  9
$USERR2
 40
0.0
  9
$USERR3
 40
0.0
  9
$USERR4
 40
0.0
  9
$USERR5
 40
0.0
  9
$WORLDVIEW
 70
     1
  9
$SHADEDGE
 70
     3
  9
$SHADEDIF
 70
    70
  9
$TILEMODE
 70
     1
  9
$MAXACTVP
 70
    64
  9
$PINSBASE
 10
0.0
 20
0.0
 30
0.0
  9
$PLIMCHECK
 70
     0
  9
$PEXTMIN
 10
0.0
 20
0.0
 30
0.0
  9
$PEXTMAX
 10
550.0
 20
511.0
 30
0.0
  9
$PLIMMIN
 10
0.0
 20
0.0
  9
$PLIMMAX
 10
550.0
 20
511.0
  9
$UNITMODE
 70
     0
  9
$VISRETAIN
 70
     1
  9
$PLINEGEN
 70
     0
  9
$PSLTSCALE
 70
     1
  9
$TREEDEPTH
 70
  3020
  9
$CMLSTYLE
  2
Standard
  9
$CMLJUST
 70
     0
  9
$CMLSCALE
 40
20.0
  9
$PROXYGRAPHICS
 70
     1
  9
$MEASUREMENT
 70
     1
  9
$CELWEIGHT
370
    -1
  9
$ENDCAPS
280
     0
  9
$JOINSTYLE
280
     0
  9
$LWDISPLAY
290
     0
  9
$INSUNITS
 70
     4
  9
$HYPERLINKBASE
  1

  9
$STYLESHEET
  1

  9
$XEDIT
290
     1
  9
$CEPSNTYPE
380
     0
  9
$PSTYLEMODE
290
     1
  9
$FINGERPRINTGUID
  2
{9E9A94AC-98C0-4AA3-8582-15A0AA8370CF}
  9
$VERSIONGUID
  2
{FAEB1C32-E019-11D5-929B-00C0DF256EC4}
  9
$EXTNAMES
290
     1
  9
$PSVPSCALE
 40
0.0
  9
$OLESTARTUP
290
     0
  9
$SORTENTS
280
   127
  9
$INDEXCTL
280
     0
  9
$HIDETEXT
280
     1
  9
$XCLIPFRAME
290
     0
  9
$HALOGAP
280
     0
  9
$OBSCOLOR
 70
   257
  9
$OBSLTYPE
280
     0
  9
$INTERSECTIONDISPLAY
280
     0
  9
$INTERSECTIONCOLOR
 70
   257
  9
$DIMASSOC
280
     2
  9
$PROJECTNAME
  1

  9
$CAMERADISPLAY
290
     0
  9
$LENSLENGTH
 40
50.0
  9
$CAMERAHEIGHT
 40
0.0
  9
$STEPSPERSEC
 40
2.0
  9
$STEPSIZE
 40
6.0
  9
$3DDWFPREC
 40
2.0
  9
$PSOLWIDTH
 40
5.0
  9
$PSOLHEIGHT
 40
80.0
  9
$LOFTANG1
 40
1.5707963268
  9
$LOFTANG2
 40
1.5707963268
  9
$LOFTMAG1
 40
0.0
  9
$LOFTMAG2
 40
0.0
  9
$LOFTPARAM
 70
     7
  9
$LOFTNORMALS
280
     1
  9
$LATITUDE
 40
37.795
  9
$LONGITUDE
 40
-122.394
  9
$NORTHDIRECTION
 40
0.0
  9
$TIMEZONE
 70
 -8000
  9
$LIGHTGLYPHDISPLAY
280
     1
  9
$TILEMODELIGHTSYNCH
280
     1
  9
$CMATERIAL
347
44
  9
$SOLIDHIST
280
     0
  9
$SHOWHIST
280
     1
  9
$DWFFRAME
280
     2
  9
$DGNFRAME
280
     2
  9
$REALWORLDSCALE
290
     1
  9
$INTERFERECOLOR
 62
   256
  9
$CSHADOW
280
     0
  9
$SHADOWPLANELOCATION
 40
0.0
  0
ENDSEC
  0
SECTION
  2
CLASSES
  0
CLASS
  1
ACDBDICTIONARYWDFLT
  2
AcDbDictionaryWithDefault
  3
ObjectDBX Classes
 90
        0
 91
        4
280
     0
281
     0
  0
CLASS
  1
VISUALSTYLE
  2
AcDbVisualStyle
  3
ObjectDBX Classes
 90
     4095
 91
        4
280
     0
281
     0
  0
CLASS
  1
MATERIAL
  2
AcDbMaterial
  3
ObjectDBX Classes
 90
     1153
 91
        4
280
     0
281
     0
  0
CLASS
  1
SCALE
  2
AcDbScale
  3
ObjectDBX Classes
 90
     1153
 91
        4
280
     0
281
     0
  0
CLASS
  1
TABLESTYLE
  2
AcDbTableStyle
  3
ObjectDBX Classes
 90
     4095
 91
        4
280
     0
281
     0
  0
CLASS
  1
MLEADERSTYLE
  2
AcDbMLeaderStyle
  3
ACDB_MLEADERSTYLE_CLASS
 90
     4095
 91
        4
280
     0
281
     0
  0
CLASS
  1
SUN
  2
AcDbSun
  3
SCENEOE
 90
     1153
 91
        4
280
     0
281
     0
  0
CLASS
  1
MULTILEADER
  2
AcDbMLeader
  3
ACDB_MLEADER_CLASS
 90
     1025
 91
        4
280
     0
281
     1
  0
CLASS
  1
DICTIONARYVAR
  2
AcDbDictionaryVar
  3
ObjectDBX Classes
 90
        0
 91
        4
280
     0
281
     0
  0
CLASS
  1
CELLSTYLEMAP
  2
AcDbCellStyleMap
  3
ObjectDBX Classes
 90
     1152
 91
        4
280
     0
281
     0
  0
ENDSEC
  0
SECTION
  2
TABLES
  0
TABLE
  2
VPORT
  5
8
330
0
100
AcDbSymbolTable
 70
     1
  0
VPORT
  5
29
330
8
100
AcDbSymbolTableRecord
100
AcDbViewportTableRecord
  2
*Active
 70
     0
 10
0.0
 20
0.0
 11
1.0
 21
1.0
 12
344.1869158879
 22
148.5
 13
0.0
 23
0.0
 14
10.0
 24
10.0
 15
10.0
 25
10.0
 16
0.0
 26
0.0
 36
1.0
 17
0.0
 27
0.0
 37
0.0
 40
297.0
 41
1.9729729729
 42
50.0
 43
0.0
 44
0.0
 50
0.0
 51
0.0
 71
     0
 72
   100
 73
     1
 74
     3
 75
     0
 76
     0
 77
     0
 78
     0
281
     0
 65
     1
110
0.0
120
0.0
130
0.0
111
1.0
121
0.0
131
0.0
112
0.0
122
1.0
132
0.0
 79
     0
146
0.0
348
2F
 60
     3
 61
     5
292
     1
282
     1
141
0.0
142
0.0
 63
   250
361
6D
  0
ENDTAB
  0
TABLE
  2
LTYPE
  5
5
330
0
100
AcDbSymbolTable
 70
     1
  0
LTYPE
  5
14
330
5
100
AcDbSymbolTableRecord
100
AcDbLinetypeTableRecord
  2
ByBlock
 70
     0
  3

 72
    65
 73
     0
 40
0.0
  0
LTYPE
  5
15
330
5
100
AcDbSymbolTableRecord
100
AcDbLinetypeTableRecord
  2
ByLayer
 70
     0
  3

 72
    65
 73
     0
 40
0.0
  0
LTYPE
  5
16
330
5
100
AcDbSymbolTableRecord
100
AcDbLinetypeTableRecord
  2
Continuous
 70
     0
  3
Solid line
 72
    65
 73
     0
 40
0.0
  0
ENDTAB
  0
TABLE
  2
LAYER
  5
2
330
0
100
AcDbSymbolTable
 70
     8
  0
LAYER
  5
10
330
2
100
AcDbSymbolTableRecord
100
AcDbLayerTableRecord
  2
0
 70
     0
 62
     7
  6
Continuous
370
    -3
390
F
347
46
  0
LAYER
  5
6E
330
2
100
AcDbSymbolTableRecord
100
AcDbLayerTableRecord
  2
encadrement
 70
     1
 62
    -7
  6
Continuous
370
    -3
390
F
347
46
  0
LAYER
  5
74
330
2
100
AcDbSymbolTableRecord
100
AcDbLayerTableRecord
  2
Cartouche
 70
     0
 62
     7
  6
Continuous
370
    -3
390
F
347
46
  0
LAYER
  5
81
330
2
100
AcDbSymbolTableRecord
100
AcDbLayerTableRecord
  2
H663_CACHE_PLATI
 70
     0
 62
     7
  6
Continuous
370
    -3
390
F
347
46
  0
LAYER
  5
88
330
2
100
AcDbSymbolTableRecord
100
AcDbLayerTableRecord
  2
H664_COUDE
 70
     0
 62
     7
  6
Continuous
370
    -3
390
F
347
46
  0
LAYER
  5
A0
330
2
100
AcDbSymbolTableRecord
100
AcDbLayerTableRecord
  2
H663_TÉ_LONG
 70
     0
 62
     7
  6
Continuous
370
    -3
390
F
347
46
  0
LAYER
  5
BF
330
2
100
AcDbSymbolTableRecord
100
AcDbLayerTableRecord
  2
H662_BARRE_NYLON
 70
     0
 62
     7
  6
Continuous
370
    -3
390
F
347
46
  0
LAYER
  5
E1
330
2
100
AcDbSymbolTableRecord
100
AcDbLayerTableRecord
  2
H662_BARRE_480MM
 70
     0
 62
     7
  6
Continuous
370
    -3
390
F
347
46
  0
ENDTAB
  0
TABLE
  2
STYLE
  5
3
330
0
100
AcDbSymbolTable
 70
     3
  0
STYLE
  5
11
330
3
100
AcDbSymbolTableRecord
100
AcDbTextStyleTableRecord
  2
Standard
 70
     0
 40
0.0
 41
1.0
 50
0.0
 71
     0
 42
2.5
  3
txt
  4

  0
STYLE
  5
1A2
330
3
100
AcDbSymbolTableRecord
100
AcDbTextStyleTableRecord
  2
SEACAD_Arial
 70
     0
 40
0.0
 41
1.0
 50
0.0
 71
     0
 42
2.5
  3

  4

1001
ACAD
1000
Arial
1071
        0
  0
STYLE
  5
1A5
330
3
100
AcDbSymbolTableRecord
100
AcDbTextStyleTableRecord
  2
SEACAD_ArialB
 70
     0
 40
0.0
 41
1.0
 50
0.0
 71
     0
 42
2.5
  3
arialbd.ttf
  4

1001
ACAD
1000
Arial
1071
 33554432
  0
ENDTAB
  0
TABLE
  2
VIEW
  5
6
330
0
100
AcDbSymbolTable
 70
     0
  0
ENDTAB
  0
TABLE
  2
UCS
  5
7
330
0
100
AcDbSymbolTable
 70
     0
  0
ENDTAB
  0
TABLE
  2
APPID
  5
9
330
0
100
AcDbSymbolTable
 70
     2
  0
APPID
  5
12
330
9
100
AcDbSymbolTableRecord
100
AcDbRegAppTableRecord
  2
ACAD
 70
     0
  0
APPID
  5
291
330
9
100
AcDbSymbolTableRecord
100
AcDbRegAppTableRecord
  2
ACAD_MLEADERVER
 70
     0
  0
ENDTAB
  0
TABLE
  2
DIMSTYLE
  5
A
330
0
100
AcDbSymbolTable
 70
     3
100
AcDbDimStyleTable
  0
DIMSTYLE
105
27
330
A
100
AcDbSymbolTableRecord
100
AcDbDimStyleTableRecord
  2
ISO-25
 70
     0
 41
2.5
 42
0.625
 43
3.75
 44
1.25
 73
     0
 74
     0
 77
     1
 78
     8
140
2.5
141
2.5
143
0.0393700787
147
0.625
171
     3
172
     1
178
     0
271
     2
272
     2
274
     3
278
    44
283
     0
284
     8
340
11
  0
DIMSTYLE
105
195
330
A
100
AcDbSymbolTableRecord
100
AcDbDimStyleTableRecord
  2
Standard
 70
     0
178
     0
340
11
  0
DIMSTYLE
105
1A3
102
{ACAD_REACTORS
330
1A4
330
1B0
102
}
330
A
100
AcDbSymbolTableRecord
100
AcDbDimStyleTableRecord
  2
ISO
 70
     0
 41
24.0
 42
0.0
 44
8.0
 78
     8
140
16.0
141
0.0
143
0.0393700787
146
0.7
147
4.0
172
     1
173
     1
178
     0
271
     1
272
     3
278
    44
284
     8
340
1A2
343
79
344
79
  0
ENDTAB
  0
TABLE
  2
BLOCK_RECORD
  5
1
330
0
100
AcDbSymbolTable
 70
    13
  0
BLOCK_RECORD
  5
1F
330
1
100
AcDbSymbolTableRecord
100
AcDbBlockTableRecord
  2
*Model_Space
340
22
 70
     0
280
     1
281
     0
  0
BLOCK_RECORD
  5
1B
330
1
100
AcDbSymbolTableRecord
100
AcDbBlockTableRecord
  2
*Paper_Space
340
1E
 70
     0
280
     1
281
     0
  0
BLOCK_RECORD
  5
75
330
1
100
AcDbSymbolTableRecord
100
AcDbBlockTableRecord
  2
SEANNOT_GROUP
340
0
102
{BLKREFS
331
76
102
}
 70
     0
280
     1
281
     0
  0
BLOCK_RECORD
  5
79
330
1
100
AcDbSymbolTableRecord
100
AcDbBlockTableRecord
  2
_SE_FILLED
340
0
 70
     0
280
     1
281
     0
  0
BLOCK_RECORD
  5
7F
330
1
100
AcDbSymbolTableRecord
100
AcDbBlockTableRecord
  2
SE
340
0
102
{BLKREFS
331
80
102
}
 70
     0
280
     1
281
     0
  0
BLOCK_RECORD
  5
CC
330
1
100
AcDbSymbolTableRecord
100
AcDbBlockTableRecord
  2
SE1
340
0
102
{BLKREFS
331
CD
102
}
 70
     0
280
     1
281
     0
  0
BLOCK_RECORD
  5
131
330
1
100
AcDbSymbolTableRecord
100
AcDbBlockTableRecord
  2
SE2
340
0
102
{BLKREFS
331
132
102
}
 70
     0
280
     1
281
     0
  0
BLOCK_RECORD
  5
196
330
1
100
AcDbSymbolTableRecord
100
AcDbBlockTableRecord
  2
_OBLIQUE
340
0
 70
     0
280
     1
281
     0
  0
BLOCK_RECORD
  5
19A
330
1
100
AcDbSymbolTableRecord
100
AcDbBlockTableRecord
  2
_DOT
340
0
 70
     0
280
     1
281
     0
  0
BLOCK_RECORD
  5
1A6
330
1
100
AcDbSymbolTableRecord
100
AcDbBlockTableRecord
  2
DMBLK39
340
0
 70
     0
280
     1
281
     0
  0
BLOCK_RECORD
  5
1B1
330
1
100
AcDbSymbolTableRecord
100
AcDbBlockTableRecord
  2
DMBLK40
340
0
 70
     0
280
     1
281
     0
  0
BLOCK_RECORD
  5
1BB
330
1
100
AcDbSymbolTableRecord
100
AcDbBlockTableRecord
  2
SE3
340
0
102
{BLKREFS
331
1BC
102
}
 70
     0
280
     1
281
     0
  0
BLOCK_RECORD
  5
227
330
1
100
AcDbSymbolTableRecord
100
AcDbBlockTableRecord
  2
SE4
340
0
102
{BLKREFS
331
228
102
}
 70
     0
280
     1
281
     0
  0
BLOCK_RECORD
  5
259
330
1
100
AcDbSymbolTableRecord
100
AcDbBlockTableRecord
  2
SE5
340
0
102
{BLKREFS
331
25A
102
}
 70
     0
280
     1
281
     0
  0
ENDTAB
  0
ENDSEC
  0
SECTION
  2
BLOCKS
  0
BLOCK
  5
20
330
1F
100
AcDbEntity
  8
0
100
AcDbBlockBegin
  2
*Model_Space
 70
     0
 10
0.0
 20
0.0
 30
0.0
  3
*Model_Space
  1

  0
ENDBLK
  5
21
330
1F
100
AcDbEntity
  8
0
100
AcDbBlockEnd
  0
BLOCK
  5
1C
330
1B
100
AcDbEntity
 67
     1
  8
0
100
AcDbBlockBegin
  2
*Paper_Space
 70
     0
 10
0.0
 20
0.0
 30
0.0
  3
*Paper_Space
  1

  0
ENDBLK
  5
1D
330
1B
100
AcDbEntity
 67
     1
  8
0
100
AcDbBlockEnd
  0
BLOCK
  5
77
330
75
100
AcDbEntity
  8
0
100
AcDbBlockBegin
  2
SEANNOT_GROUP
 70
     0
 10
0.0
 20
0.0
 30
0.0
  3
SEANNOT_GROUP
  1

  0
ENDBLK
  5
78
330
75
100
AcDbEntity
  8
0
100
AcDbBlockEnd
  0
BLOCK
  5
7C
330
79
100
AcDbEntity
  8
0
100
AcDbBlockBegin
  2
_SE_FILLED
 70
     0
 10
0.0
 20
0.0
 30
0.0
  3
_SE_FILLED
  1

  0
SOLID
  5
7A
330
79
100
AcDbEntity
  8
0
 62
     0
100
AcDbTrace
 10
0.0
 20
0.0
 30
0.0
 11
-1.0
 21
-0.1665
 31
0.0
 12
-1.0
 22
0.1665
 32
0.0
 13
0.0
 23
0.0
 33
0.0
  0
LINE
  5
7B
330
79
100
AcDbEntity
  8
0
 62
     0
100
AcDbLine
 10
0.0
 20
0.0
 30
0.0
 11
-1.0
 21
0.0
 31
0.0
  0
ENDBLK
  5
7D
330
79
100
AcDbEntity
  8
0
100
AcDbBlockEnd
  0
BLOCK
  5
CA
330
7F
100
AcDbEntity
  8
0
100
AcDbBlockBegin
  2
SE
 70
     0
 10
0.0
 20
0.0
 30
0.0
  3
SE
  1

  0
ARC
  5
82
330
7F
100
AcDbEntity
  8
H663_CACHE_PLATI
  6
Continuous
 62
     7
100
AcDbCircle
 10
287.7630935286
 20
-105.9540893722
 30
0.0
 40
38.00000000000001
100
AcDbArc
 50
0.0
 51
63.425030481
  0
ARC
  5
83
330
7F
100
AcDbEntity
  8
H663_CACHE_PLATI
  6
Continuous
 62
     7
100
AcDbCircle
 10
287.7630935286
 20
-105.9540893722
 30
0.0
 40
38.00000000000001
100
AcDbArc
 50
116.574969519
 51
0.0
  0
ARC
  5
84
330
7F
100
AcDbEntity
  8
H663_CACHE_PLATI
  6
Continuous
 62
     7
100
AcDbCircle
 10
287.7630935286
 20
-105.9540893722
 30
0.0
 40
36.00000000000001
100
AcDbArc
 50
0.0
 51
61.8213572595
  0
ARC
  5
85
330
7F
100
AcDbEntity
  8
H663_CACHE_PLATI
  6
Continuous
 62
     7
100
AcDbCircle
 10
287.7630935286
 20
-105.9540893722
 30
0.0
 40
36.00000000000001
100
AcDbArc
 50
118.1786427405
 51
0.0
  0
ARC
  5
86
330
7F
100
AcDbEntity
  8
H663_CACHE_PLATI
  6
Continuous
 62
     7
100
AcDbCircle
 10
287.7630935286
 20
-105.9540893722
 30
0.0
 40
17.50000000000001
100
AcDbArc
 50
0.0
 51
13.7291326754
  0
ARC
  5
87
330
7F
100
AcDbEntity
  8
H663_CACHE_PLATI
  6
Continuous
 62
     7
100
AcDbCircle
 10
287.7630935286
 20
-105.9540893722
 30
0.0
 40
17.50000000000001
100
AcDbArc
 50
166.2708673246
 51
0.0
  0
LINE
  5
89
330
7F
100
AcDbEntity
  8
H664_COUDE
  6
Continuous
 62
     7
100
AcDbLine
 10
304.7630935286
 20
-58.4540893722
 30
0.0
 11
270.7630935286
 21
-58.4540893722
 31
0.0
  0
ARC
  5
8A
330
7F
100
AcDbEntity
  8
H664_COUDE
  6
Continuous
 62
     7
100
AcDbCircle
 10
287.7630935286
 20
-105.9540893722
 30
0.0
 40
17.0
100
AcDbArc
 50
180.0
 51
0.0
  0
LINE
  5
8B
330
7F
100
AcDbEntity
  8
H664_COUDE
  6
Continuous
 62
     7
100
AcDbLine
 10
304.7630935286
 20
-33.9540893722
 30
0.0
 11
270.7630935286
 21
-33.9540893722
 31
0.0
  0
LINE
  5
8C
330
7F
100
AcDbEntity
  8
H664_COUDE
  6
Continuous
 62
     7
100
AcDbLine
 10
271.2630935286
 20
-33.4540893722
 30
0.0
 11
304.2630935286
 21
-33.4540893722
 31
0.0
  0
LINE
  5
8D
330
7F
100
AcDbEntity
  8
H664_COUDE
  6
Continuous
 62
     7
100
AcDbLine
 10
304.7630935286
 20
-58.4540893722
 30
0.0
 11
304.7630935286
 21
-33.9540893722
 31
0.0
  0
LINE
  5
8E
330
7F
100
AcDbEntity
  8
H664_COUDE
  6
Continuous
 62
     7
100
AcDbLine
 10
270.7630935286
 20
-33.9540893722
 30
0.0
 11
270.7630935286
 21
-58.4540893722
 31
0.0
  0
LINE
  5
8F
330
7F
100
AcDbEntity
  8
H664_COUDE
  6
Continuous
 62
     7
100
AcDbLine
 10
270.7630935286
 20
-58.4540893722
 30
0.0
 11
270.7630935286
 21
-105.9540893722
 31
0.0
  0
LINE
  5
90
330
7F
100
AcDbEntity
  8
H664_COUDE
  6
Continuous
 62
     7
100
AcDbLine
 10
304.7630935286
 20
-105.9540893722
 30
0.0
 11
304.7630935286
 21
-58.4540893722
 31
0.0
  0
ARC
  5
91
330
7F
100
AcDbEntity
  8
H664_COUDE
  6
Continuous
 62
     7
100
AcDbCircle
 10
271.2630935286
 20
-33.9540893722
 30
0.0
 40
0.5000000000000004
100
AcDbArc
 50
90.0
 51
180.0
  0
ARC
  5
92
330
7F
100
AcDbEntity
  8
H664_COUDE
  6
Continuous
 62
     7
100
AcDbCircle
 10
304.2630935286
 20
-33.9540893722
 30
0.0
 40
0.5000000000000004
100
AcDbArc
 50
0.0
 51
90.0
  0
LINE
  5
93
330
7F
100
AcDbEntity
  8
H663_CACHE_PLATI
  6
Continuous
 62
     7
100
AcDbLine
 10
249.7630935286
 20
594.0459106278
 30
0.0
 11
325.7630935286
 21
594.0459106278
 31
0.0
  0
LINE
  5
94
330
7F
100
AcDbEntity
  8
H663_CACHE_PLATI
  6
Continuous
 62
     7
100
AcDbLine
 10
249.7630935286
 20
583.0459106278
 30
0.0
 11
325.7630935286
 21
583.0459106278
 31
0.0
  0
LINE
  5
95
330
7F
100
AcDbEntity
  8
H663_CACHE_PLATI
  6
Continuous
 62
     7
100
AcDbLine
 10
251.7630935286
 20
581.0459106278
 30
0.0
 11
323.7630935286
 21
581.0459106278
 31
0.0
  0
LINE
  5
96
330
7F
100
AcDbEntity
  8
H663_CACHE_PLATI
  6
Continuous
 62
     7
100
AcDbLine
 10
325.7630935286
 20
583.0459106278
 30
0.0
 11
325.7630935286
 21
594.0459106278
 31
0.0
  0
LINE
  5
97
330
7F
100
AcDbEntity
  8
H663_CACHE_PLATI
  6
Continuous
 62
     7
100
AcDbLine
 10
249.7630935286
 20
594.0459106278
 30
0.0
 11
249.7630935286
 21
583.0459106278
 31
0.0
  0
ARC
  5
98
330
7F
100
AcDbEntity
  8
H663_CACHE_PLATI
  6
Continuous
 62
     7
100
AcDbCircle
 10
323.7630935286
 20
583.0459106278
 30
0.0
 40
2.000000000000002
100
AcDbArc
 50
270.0
 51
0.0
  0
ARC
  5
99
330
7F
100
AcDbEntity
  8
H663_CACHE_PLATI
  6
Continuous
 62
     7
100
AcDbCircle
 10
251.7630935286
 20
583.0459106278
 30
0.0
 40
2.000000000000002
100
AcDbArc
 50
180.0
 51
270.0
  0
ARC
  5
9A
330
7F
100
AcDbEntity
  8
H664_COUDE
  6
Continuous
 62
     7
100
AcDbCircle
 10
287.7630935286
 20
519.0459106278
 30
0.0
 40
17.0
100
AcDbArc
 50
180.0
 51
0.0
  0
LINE
  5
9B
330
7F
100
AcDbEntity
  8
H664_COUDE
  6
Continuous
 62
     7
100
AcDbLine
 10
304.7630935286
 20
566.5459106278
 30
0.0
 11
270.7630935286
 21
566.5459106278
 31
0.0
  0
LINE
  5
9C
330
7F
100
AcDbEntity
  8
H664_COUDE
  6
Continuous
 62
     7
100
AcDbLine
 10
304.7630935286
 20
519.0459106278
 30
0.0
 11
304.7630935286
 21
566.5459106278
 31
0.0
  0
LINE
  5
9D
330
7F
100
AcDbEntity
  8
H664_COUDE
  6
Continuous
 62
     7
100
AcDbLine
 10
270.7630935286
 20
566.5459106278
 30
0.0
 11
270.7630935286
 21
519.0459106278
 31
0.0
  0
LINE
  5
9E
330
7F
100
AcDbEntity
  8
H664_COUDE
  6
Continuous
 62
     7
100
AcDbLine
 10
270.7630935286
 20
581.0459106278
 30
0.0
 11
270.7630935286
 21
566.5459106278
 31
0.0
  0
LINE
  5
9F
330
7F
100
AcDbEntity
  8
H664_COUDE
  6
Continuous
 62
     7
100
AcDbLine
 10
304.7630935286
 20
566.5459106278
 30
0.0
 11
304.7630935286
 21
581.0459106278
 31
0.0
  0
LINE
  5
A1
330
7F
100
AcDbEntity
  8
H663_TÉ_LONG
  6
Continuous
 62
     7
100
AcDbLine
 10
304.7630935286
 20
446.0459106278
 30
0.0
 11
270.7630935286
 21
446.0459106278
 31
0.0
  0
LINE
  5
A2
330
7F
100
AcDbEntity
  8
H663_TÉ_LONG
  6
Continuous
 62
     7
100
AcDbLine
 10
271.2630935286
 20
446.5459106278
 30
0.0
 11
304.2630935286
 21
446.5459106278
 31
0.0
  0
LINE
  5
A3
330
7F
100
AcDbEntity
  8
H663_TÉ_LONG
  6
Continuous
 62
     7
100
AcDbLine
 10
304.2630935286
 20
356.5459106278
 30
0.0
 11
271.2630935286
 21
356.5459106278
 31
0.0
  0
LINE
  5
A4
330
7F
100
AcDbEntity
  8
H663_TÉ_LONG
  6
Continuous
 62
     7
100
AcDbLine
 10
270.7630935286
 20
357.0459106278
 30
0.0
 11
304.7630935286
 21
357.0459106278
 31
0.0
  0
LINE
  5
A5
330
7F
100
AcDbEntity
  8
H663_TÉ_LONG
  6
Continuous
 62
     7
100
AcDbLine
 10
304.7630935286
 20
401.5459106278
 30
0.0
 11
304.7630935286
 21
446.0459106278
 31
0.0
  0
LINE
  5
A6
330
7F
100
AcDbEntity
  8
H663_TÉ_LONG
  6
Continuous
 62
     7
100
AcDbLine
 10
304.7630935286
 20
357.0459106278
 30
0.0
 11
304.7630935286
 21
401.5459106278
 31
0.0
  0
LINE
  5
A7
330
7F
100
AcDbEntity
  8
H663_TÉ_LONG
  6
Continuous
 62
     7
100
AcDbLine
 10
270.7630935286
 20
401.5459106278
 30
0.0
 11
270.7630935286
 21
357.0459106278
 31
0.0
  0
LINE
  5
A8
330
7F
100
AcDbEntity
  8
H663_TÉ_LONG
  6
Continuous
 62
     7
100
AcDbLine
 10
270.7630935286
 20
446.0459106278
 30
0.0
 11
270.7630935286
 21
401.5459106278
 31
0.0
  0
ARC
  5
A9
330
7F
100
AcDbEntity
  8
H663_TÉ_LONG
  6
Continuous
 62
     7
100
AcDbCircle
 10
271.2630935286
 20
446.0459106278
 30
0.0
 40
0.500000000000056
100
AcDbArc
 50
90.0
 51
180.0
  0
ARC
  5
AA
330
7F
100
AcDbEntity
  8
H663_TÉ_LONG
  6
Continuous
 62
     7
100
AcDbCircle
 10
304.2630935286
 20
446.0459106278
 30
0.0
 40
0.5000000000000004
100
AcDbArc
 50
0.0
 51
90.0
  0
ARC
  5
AB
330
7F
100
AcDbEntity
  8
H663_TÉ_LONG
  6
Continuous
 62
     7
100
AcDbCircle
 10
304.2630935286
 20
357.0459106278
 30
0.0
 40
0.5000000000000004
100
AcDbArc
 50
270.0
 51
0.0
  0
ARC
  5
AC
330
7F
100
AcDbEntity
  8
H663_TÉ_LONG
  6
Continuous
 62
     7
100
AcDbCircle
 10
271.2630935286
 20
357.0459106278
 30
0.0
 40
0.5000000000000004
100
AcDbArc
 50
180.0
 51
270.0
  0
ARC
  5
AD
330
7F
100
AcDbEntity
  8
H663_CACHE_PLATI
  6
Continuous
 62
     7
100
AcDbCircle
 10
287.7630935286
 20
401.5459106278
 30
0.0
 40
38.00000000000001
100
AcDbArc
 50
0.0
 51
63.425030481
  0
ARC
  5
AE
330
7F
100
AcDbEntity
  8
H663_CACHE_PLATI
  6
Continuous
 62
     7
100
AcDbCircle
 10
287.7630935286
 20
401.5459106278
 30
0.0
 40
38.00000000000001
100
AcDbArc
 50
116.574969519
 51
243.425030481
  0
ARC
  5
AF
330
7F
100
AcDbEntity
  8
H663_CACHE_PLATI
  6
Continuous
 62
     7
100
AcDbCircle
 10
287.7630935286
 20
401.5459106278
 30
0.0
 40
38.00000000000001
100
AcDbArc
 50
296.574969519
 51
0.0
  0
ARC
  5
B0
330
7F
100
AcDbEntity
  8
H663_CACHE_PLATI
  6
Continuous
 62
     7
100
AcDbCircle
 10
287.7630935286
 20
401.5459106278
 30
0.0
 40
36.00000000000001
100
AcDbArc
 50
0.0
 51
61.8213572595
  0
ARC
  5
B1
330
7F
100
AcDbEntity
  8
H663_CACHE_PLATI
  6
Continuous
 62
     7
100
AcDbCircle
 10
287.7630935286
 20
401.5459106278
 30
0.0
 40
36.00000000000001
100
AcDbArc
 50
118.1786427405
 51
241.8213572595
  0
ARC
  5
B2
330
7F
100
AcDbEntity
  8
H663_CACHE_PLATI
  6
Continuous
 62
     7
100
AcDbCircle
 10
287.7630935286
 20
401.5459106278
 30
0.0
 40
36.00000000000001
100
AcDbArc
 50
298.1786427405
 51
0.0
  0
ARC
  5
B3
330
7F
100
AcDbEntity
  8
H663_CACHE_PLATI
  6
Continuous
 62
     7
100
AcDbCircle
 10
287.7630935286
 20
401.5459106278
 30
0.0
 40
17.50000000000001
100
AcDbArc
 50
0.0
 51
13.7291326754
  0
ARC
  5
B4
330
7F
100
AcDbEntity
  8
H663_CACHE_PLATI
  6
Continuous
 62
     7
100
AcDbCircle
 10
287.7630935286
 20
401.5459106278
 30
0.0
 40
17.50000000000001
100
AcDbArc
 50
166.2708673246
 51
193.7291326754
  0
ARC
  5
B5
330
7F
100
AcDbEntity
  8
H663_CACHE_PLATI
  6
Continuous
 62
     7
100
AcDbCircle
 10
287.7630935286
 20
401.5459106278
 30
0.0
 40
17.50000000000001
100
AcDbArc
 50
346.2708673246
 51
0.0
  0
LINE
  5
B6
330
7F
100
AcDbEntity
  8
H664_COUDE
  6
Continuous
 62
     7
100
AcDbLine
 10
270.7630935286
 20
471.5459106278
 30
0.0
 11
304.7630935286
 21
471.5459106278
 31
0.0
  0
LINE
  5
B7
330
7F
100
AcDbEntity
  8
H664_COUDE
  6
Continuous
 62
     7
100
AcDbLine
 10
270.7630935286
 20
447.0459106278
 30
0.0
 11
304.7630935286
 21
447.0459106278
 31
0.0
  0
LINE
  5
B8
330
7F
100
AcDbEntity
  8
H664_COUDE
  6
Continuous
 62
     7
100
AcDbLine
 10
304.2630935286
 20
446.5459106278
 30
0.0
 11
271.2630935286
 21
446.5459106278
 31
0.0
  0
LINE
  5
B9
330
7F
100
AcDbEntity
  8
H664_COUDE
  6
Continuous
 62
     7
100
AcDbLine
 10
270.7630935286
 20
471.5459106278
 30
0.0
 11
270.7630935286
 21
447.0459106278
 31
0.0
  0
LINE
  5
BA
330
7F
100
AcDbEntity
  8
H664_COUDE
  6
Continuous
 62
     7
100
AcDbLine
 10
304.7630935286
 20
447.0459106278
 30
0.0
 11
304.7630935286
 21
471.5459106278
 31
0.0
  0
LINE
  5
BB
330
7F
100
AcDbEntity
  8
H664_COUDE
  6
Continuous
 62
     7
100
AcDbLine
 10
270.7630935286
 20
519.0459106278
 30
0.0
 11
270.7630935286
 21
471.5459106278
 31
0.0
  0
LINE
  5
BC
330
7F
100
AcDbEntity
  8
H664_COUDE
  6
Continuous
 62
     7
100
AcDbLine
 10
304.7630935286
 20
471.5459106278
 30
0.0
 11
304.7630935286
 21
519.0459106278
 31
0.0
  0
ARC
  5
BD
330
7F
100
AcDbEntity
  8
H664_COUDE
  6
Continuous
 62
     7
100
AcDbCircle
 10
304.2630935286
 20
447.0459106278
 30
0.0
 40
0.4999999999999449
100
AcDbArc
 50
270.0
 51
0.0
  0
ARC
  5
BE
330
7F
100
AcDbEntity
  8
H664_COUDE
  6
Continuous
 62
     7
100
AcDbCircle
 10
271.2630935286
 20
447.0459106278
 30
0.0
 40
0.5000000000000004
100
AcDbArc
 50
180.0
 51
270.0
  0
LINE
  5
C0
330
7F
100
AcDbEntity
  8
H662_BARRE_NYLON
  6
Continuous
 62
     7
100
AcDbLine
 10
304.2630935286
 20
-33.4540893722
 30
0.0
 11
271.2630935286
 21
-33.4540893722
 31
0.0
  0
LINE
  5
C1
330
7F
100
AcDbEntity
  8
H662_BARRE_NYLON
  6
Continuous
 62
     7
100
AcDbLine
 10
270.7630935286
 20
-32.9540893722
 30
0.0
 11
304.7630935286
 21
-32.9540893722
 31
0.0
  0
LINE
  5
C2
330
7F
100
AcDbEntity
  8
H662_BARRE_NYLON
  6
Continuous
 62
     7
100
AcDbLine
 10
304.7630935286
 20
356.0459106278
 30
0.0
 11
270.7630935286
 21
356.0459106278
 31
0.0
  0
LINE
  5
C3
330
7F
100
AcDbEntity
  8
H662_BARRE_NYLON
  6
Continuous
 62
     7
100
AcDbLine
 10
271.2630935286
 20
356.5459106278
 30
0.0
 11
304.2630935286
 21
356.5459106278
 31
0.0
  0
LINE
  5
C4
330
7F
100
AcDbEntity
  8
H662_BARRE_NYLON
  6
Continuous
 62
     7
100
AcDbLine
 10
304.7630935286
 20
-32.9540893722
 30
0.0
 11
304.7630935286
 21
356.0459106278
 31
0.0
  0
LINE
  5
C5
330
7F
100
AcDbEntity
  8
H662_BARRE_NYLON
  6
Continuous
 62
     7
100
AcDbLine
 10
270.7630935286
 20
356.0459106278
 30
0.0
 11
270.7630935286
 21
-32.9540893722
 31
0.0
  0
ARC
  5
C6
330
7F
100
AcDbEntity
  8
H662_BARRE_NYLON
  6
Continuous
 62
     7
100
AcDbCircle
 10
271.2630935286
 20
-32.9540893722
 30
0.0
 40
0.5000000000000004
100
AcDbArc
 50
180.0
 51
270.0
  0
ARC
  5
C7
330
7F
100
AcDbEntity
  8
H662_BARRE_NYLON
  6
Continuous
 62
     7
100
AcDbCircle
 10
304.2630935286
 20
-32.9540893722
 30
0.0
 40
0.5000000000000004
100
AcDbArc
 50
270.0
 51
0.0
  0
ARC
  5
C8
330
7F
100
AcDbEntity
  8
H662_BARRE_NYLON
  6
Continuous
 62
     7
100
AcDbCircle
 10
304.2630935286
 20
356.0459106278
 30
0.0
 40
0.5000000000000004
100
AcDbArc
 50
0.0
 51
90.0
  0
ARC
  5
C9
330
7F
100
AcDbEntity
  8
H662_BARRE_NYLON
  6
Continuous
 62
     7
100
AcDbCircle
 10
271.2630935286
 20
356.0459106278
 30
0.0
 40
0.5000000000000004
100
AcDbArc
 50
90.0
 51
180.0
  0
ENDBLK
  5
CB
330
7F
100
AcDbEntity
  8
0
100
AcDbBlockEnd
  0
BLOCK
  5
12F
330
CC
100
AcDbEntity
  8
0
100
AcDbBlockBegin
  2
SE1
 70
     0
 10
0.0
 20
0.0
 30
0.0
  3
SE1
  1

  0
LINE
  5
CE
330
CC
100
AcDbEntity
  8
H663_CACHE_PLATI
  6
Continuous
 62
     7
100
AcDbLine
 10
161.8497873972
 20
-67.9540893722
 30
0.0
 11
161.8497873972
 21
-143.9540893722
 31
0.0
  0
LINE
  5
CF
330
CC
100
AcDbEntity
  8
H663_CACHE_PLATI
  6
Continuous
 62
     7
100
AcDbLine
 10
150.8497873972
 20
-67.9540893722
 30
0.0
 11
150.8497873972
 21
-143.9540893722
 31
0.0
  0
LINE
  5
D0
330
CC
100
AcDbEntity
  8
H663_CACHE_PLATI
  6
Continuous
 62
     7
100
AcDbLine
 10
148.8497873972
 20
-69.9540893722
 30
0.0
 11
148.8497873972
 21
-141.9540893722
 31
0.0
  0
LINE
  5
D1
330
CC
100
AcDbEntity
  8
H663_CACHE_PLATI
  6
Continuous
 62
     7
100
AcDbLine
 10
150.8497873972
 20
-143.9540893722
 30
0.0
 11
161.8497873972
 21
-143.9540893722
 31
0.0
  0
LINE
  5
D2
330
CC
100
AcDbEntity
  8
H663_CACHE_PLATI
  6
Continuous
 62
     7
100
AcDbLine
 10
161.8497873972
 20
-67.9540893722
 30
0.0
 11
150.8497873972
 21
-67.9540893722
 31
0.0
  0
ARC
  5
D3
330
CC
100
AcDbEntity
  8
H663_CACHE_PLATI
  6
Continuous
 62
     7
100
AcDbCircle
 10
150.8497873972
 20
-141.9540893722
 30
0.0
 40
2.000000000000002
100
AcDbArc
 50
180.0
 51
270.0
  0
ARC
  5
D4
330
CC
100
AcDbEntity
  8
H663_CACHE_PLATI
  6
Continuous
 62
     7
100
AcDbCircle
 10
150.8497873972
 20
-69.9540893722
 30
0.0
 40
2.000000000000002
100
AcDbArc
 50
90.0
 51
180.0
  0
LINE
  5
D5
330
CC
100
AcDbEntity
  8
H664_COUDE
  6
Continuous
 62
     7
100
AcDbLine
 10
69.8497873972
 20
-58.4540893722
 30
0.0
 11
103.8497873972
 21
-58.4540893722
 31
0.0
  0
LINE
  5
D6
330
CC
100
AcDbEntity
  8
H664_COUDE
  6
Continuous
 62
     7
100
AcDbLine
 10
134.3497873972
 20
-122.9540893722
 30
0.0
 11
134.3497873972
 21
-88.9540893722
 31
0.0
  0
LINE
  5
D7
330
CC
100
AcDbEntity
  8
H664_COUDE
  6
Continuous
 62
     7
100
AcDbLine
 10
69.8497873972
 20
-33.9540893722
 30
0.0
 11
103.8497873972
 21
-33.9540893722
 31
0.0
  0
LINE
  5
D8
330
CC
100
AcDbEntity
  8
H664_COUDE
  6
Continuous
 62
     7
100
AcDbLine
 10
103.3497873972
 20
-33.4540893722
 30
0.0
 11
70.3497873972
 21
-33.4540893722
 31
0.0
  0
LINE
  5
D9
330
CC
100
AcDbEntity
  8
H664_COUDE
  6
Continuous
 62
     7
100
AcDbLine
 10
103.8497873972
 20
-58.4540893722
 30
0.0
 11
103.8497873972
 21
-33.9540893722
 31
0.0
  0
LINE
  5
DA
330
CC
100
AcDbEntity
  8
H664_COUDE
  6
Continuous
 62
     7
100
AcDbLine
 10
69.8497873972
 20
-33.9540893722
 30
0.0
 11
69.8497873972
 21
-58.4540893722
 31
0.0
  0
ARC
  5
DB
330
CC
100
AcDbEntity
  8
H664_COUDE
  6
Continuous
 62
     7
100
AcDbCircle
 10
134.3497873972
 20
-58.4540893722
 30
0.0
 40
30.50000000000008
100
AcDbArc
 50
180.0
 51
270.0
  0
ARC
  5
DC
330
CC
100
AcDbEntity
  8
H664_COUDE
  6
Continuous
 62
     7
100
AcDbCircle
 10
134.3497873972
 20
-58.4540893722
 30
0.0
 40
64.5
100
AcDbArc
 50
180.0
 51
270.0
  0
LINE
  5
DD
330
CC
100
AcDbEntity
  8
H664_COUDE
  6
Continuous
 62
     7
100
AcDbLine
 10
148.8497873972
 20
-88.9540893722
 30
0.0
 11
134.3497873972
 21
-88.9540893722
 31
0.0
  0
LINE
  5
DE
330
CC
100
AcDbEntity
  8
H664_COUDE
  6
Continuous
 62
     7
100
AcDbLine
 10
134.3497873972
 20
-122.9540893722
 30
0.0
 11
148.8497873972
 21
-122.9540893722
 31
0.0
  0
ARC
  5
DF
330
CC
100
AcDbEntity
  8
H664_COUDE
  6
Continuous
 62
     7
100
AcDbCircle
 10
70.3497873972
 20
-33.9540893722
 30
0.0
 40
0.5000000000000004
100
AcDbArc
 50
90.0
 51
180.0
  0
ARC
  5
E0
330
CC
100
AcDbEntity
  8
H664_COUDE
  6
Continuous
 62
     7
100
AcDbCircle
 10
103.3497873972
 20
-33.9540893722
 30
0.0
 40
0.5000000000000004
100
AcDbArc
 50
0.0
 51
90.0
  0
LINE
  5
E2
330
CC
100
AcDbEntity
  8
H662_BARRE_480MM
  6
Continuous
 62
     7
100
AcDbLine
 10
14.3497873972
 20
502.5459106278
 30
0.0
 11
14.3497873972
 21
535.5459106278
 31
0.0
  0
LINE
  5
E3
330
CC
100
AcDbEntity
  8
H662_BARRE_480MM
  6
Continuous
 62
     7
100
AcDbLine
 10
13.8497873972
 20
502.0459106278
 30
0.0
 11
13.8497873972
 21
536.0459106278
 31
0.0
  0
LINE
  5
E4
330
CC
100
AcDbEntity
  8
H662_BARRE_480MM
  6
Continuous
 62
     7
100
AcDbLine
 10
-465.1502126028
 20
502.0459106278
 30
0.0
 11
-465.1502126028
 21
536.0459106278
 31
0.0
  0
LINE
  5
E5
330
CC
100
AcDbEntity
  8
H662_BARRE_480MM
  6
Continuous
 62
     7
100
AcDbLine
 10
-465.6502126028
 20
502.5459106278
 30
0.0
 11
-465.6502126028
 21
535.5459106278
 31
0.0
  0
LINE
  5
E6
330
CC
100
AcDbEntity
  8
H662_BARRE_480MM
  6
Continuous
 62
     7
100
AcDbLine
 10
13.8497873972
 20
536.0459106278
 30
0.0
 11
-465.1502126028
 21
536.0459106278
 31
0.0
  0
LINE
  5
E7
330
CC
100
AcDbEntity
  8
H662_BARRE_480MM
  6
Continuous
 62
     7
100
AcDbLine
 10
-465.1502126028
 20
502.0459106278
 30
0.0
 11
13.8497873972
 21
502.0459106278
 31
0.0
  0
ARC
  5
E8
330
CC
100
AcDbEntity
  8
H662_BARRE_480MM
  6
Continuous
 62
     7
100
AcDbCircle
 10
13.8497873972
 20
502.5459106278
 30
0.0
 40
0.4999999999999449
100
AcDbArc
 50
270.0
 51
0.0
  0
ARC
  5
E9
330
CC
100
AcDbEntity
  8
H662_BARRE_480MM
  6
Continuous
 62
     7
100
AcDbCircle
 10
13.8497873972
 20
535.5459106278
 30
0.0
 40
0.5000000000000004
100
AcDbArc
 50
0.0
 51
90.0
  0
ARC
  5
EA
330
CC
100
AcDbEntity
  8
H662_BARRE_480MM
  6
Continuous
 62
     7
100
AcDbCircle
 10
-465.1502126028
 20
535.5459106278
 30
0.0
 40
0.4999999999999449
100
AcDbArc
 50
90.0
 51
180.0
  0
ARC
  5
EB
330
CC
100
AcDbEntity
  8
H662_BARRE_480MM
  6
Continuous
 62
     7
100
AcDbCircle
 10
-465.1502126028
 20
502.5459106278
 30
0.0
 40
0.4999999999999449
100
AcDbArc
 50
180.0
 51
270.0
  0
LINE
  5
EC
330
CC
100
AcDbEntity
  8
H663_CACHE_PLATI
  6
Continuous
 62
     7
100
AcDbLine
 10
-576.1502126028
 20
594.0459106278
 30
0.0
 11
-500.1502126028
 21
594.0459106278
 31
0.0
  0
LINE
  5
ED
330
CC
100
AcDbEntity
  8
H663_CACHE_PLATI
  6
Continuous
 62
     7
100
AcDbLine
 10
-576.1502126028
 20
583.0459106278
 30
0.0
 11
-500.1502126028
 21
583.0459106278
 31
0.0
  0
LINE
  5
EE
330
CC
100
AcDbEntity
  8
H663_CACHE_PLATI
  6
Continuous
 62
     7
100
AcDbLine
 10
-574.1502126028
 20
581.0459106278
 30
0.0
 11
-502.1502126028
 21
581.0459106278
 31
0.0
  0
LINE
  5
EF
330
CC
100
AcDbEntity
  8
H663_CACHE_PLATI
  6
Continuous
 62
     7
100
AcDbLine
 10
-500.1502126028
 20
583.0459106278
 30
0.0
 11
-500.1502126028
 21
594.0459106278
 31
0.0
  0
LINE
  5
F0
330
CC
100
AcDbEntity
  8
H663_CACHE_PLATI
  6
Continuous
 62
     7
100
AcDbLine
 10
-576.1502126028
 20
594.0459106278
 30
0.0
 11
-576.1502126028
 21
583.0459106278
 31
0.0
  0
ARC
  5
F1
330
CC
100
AcDbEntity
  8
H663_CACHE_PLATI
  6
Continuous
 62
     7
100
AcDbCircle
 10
-502.1502126028
 20
583.0459106278
 30
0.0
 40
2.000000000000002
100
AcDbArc
 50
270.0
 51
0.0
  0
ARC
  5
F2
330
CC
100
AcDbEntity
  8
H663_CACHE_PLATI
  6
Continuous
 62
     7
100
AcDbCircle
 10
-574.1502126028
 20
583.0459106278
 30
0.0
 40
2.000000000000002
100
AcDbArc
 50
180.0
 51
270.0
  0
LINE
  5
F3
330
CC
100
AcDbEntity
  8
H664_COUDE
  6
Continuous
 62
     7
100
AcDbLine
 10
-490.6502126028
 20
502.0459106278
 30
0.0
 11
-490.6502126028
 21
536.0459106278
 31
0.0
  0
LINE
  5
F4
330
CC
100
AcDbEntity
  8
H664_COUDE
  6
Continuous
 62
     7
100
AcDbLine
 10
-521.1502126028
 20
566.5459106278
 30
0.0
 11
-555.1502126028
 21
566.5459106278
 31
0.0
  0
LINE
  5
F5
330
CC
100
AcDbEntity
  8
H664_COUDE
  6
Continuous
 62
     7
100
AcDbLine
 10
-466.1502126028
 20
502.0459106278
 30
0.0
 11
-466.1502126028
 21
536.0459106278
 31
0.0
  0
LINE
  5
F6
330
CC
100
AcDbEntity
  8
H664_COUDE
  6
Continuous
 62
     7
100
AcDbLine
 10
-465.6502126028
 20
502.5459106278
 30
0.0
 11
-465.6502126028
 21
535.5459106278
 31
0.0
  0
LINE
  5
F7
330
CC
100
AcDbEntity
  8
H664_COUDE
  6
Continuous
 62
     7
100
AcDbLine
 10
-490.6502126028
 20
502.0459106278
 30
0.0
 11
-466.1502126028
 21
502.0459106278
 31
0.0
  0
LINE
  5
F8
330
CC
100
AcDbEntity
  8
H664_COUDE
  6
Continuous
 62
     7
100
AcDbLine
 10
-466.1502126028
 20
536.0459106278
 30
0.0
 11
-490.6502126028
 21
536.0459106278
 31
0.0
  0
ARC
  5
F9
330
CC
100
AcDbEntity
  8
H664_COUDE
  6
Continuous
 62
     7
100
AcDbCircle
 10
-490.6502126028
 20
566.5459106278
 30
0.0
 40
30.49999999999997
100
AcDbArc
 50
180.0
 51
270.0
  0
ARC
  5
FA
330
CC
100
AcDbEntity
  8
H664_COUDE
  6
Continuous
 62
     7
100
AcDbCircle
 10
-490.6502126028
 20
566.5459106278
 30
0.0
 40
64.5
100
AcDbArc
 50
180.0
 51
270.0
  0
LINE
  5
FB
330
CC
100
AcDbEntity
  8
H664_COUDE
  6
Continuous
 62
     7
100
AcDbLine
 10
-555.1502126028
 20
581.0459106278
 30
0.0
 11
-555.1502126028
 21
566.5459106278
 31
0.0
  0
LINE
  5
FC
330
CC
100
AcDbEntity
  8
H664_COUDE
  6
Continuous
 62
     7
100
AcDbLine
 10
-521.1502126028
 20
566.5459106278
 30
0.0
 11
-521.1502126028
 21
581.0459106278
 31
0.0
  0
ARC
  5
FD
330
CC
100
AcDbEntity
  8
H664_COUDE
  6
Continuous
 62
     7
100
AcDbCircle
 10
-466.1502126028
 20
535.5459106278
 30
0.0
 40
0.500000000000056
100
AcDbArc
 50
0.0
 51
90.0
  0
ARC
  5
FE
330
CC
100
AcDbEntity
  8
H664_COUDE
  6
Continuous
 62
     7
100
AcDbCircle
 10
-466.1502126028
 20
502.5459106278
 30
0.0
 40
0.500000000000056
100
AcDbArc
 50
270.0
 51
0.0
  0
LINE
  5
FF
330
CC
100
AcDbEntity
  8
H663_TÉ_LONG
  6
Continuous
 62
     7
100
AcDbLine
 10
86.8497873972
 20
401.5459106278
 30
0.0
 11
103.8497873972
 21
418.5459106278
 31
0.0
  0
LINE
  5
100
330
CC
100
AcDbEntity
  8
H663_TÉ_LONG
  6
Continuous
 62
     7
100
AcDbLine
 10
103.8497873972
 20
384.5459106278
 30
0.0
 11
86.8497873972
 21
401.5459106278
 31
0.0
  0
LINE
  5
101
330
CC
100
AcDbEntity
  8
H663_TÉ_LONG
  6
Continuous
 62
     7
100
AcDbLine
 10
69.8497873972
 20
446.0459106278
 30
0.0
 11
103.8497873972
 21
446.0459106278
 31
0.0
  0
LINE
  5
102
330
CC
100
AcDbEntity
  8
H663_TÉ_LONG
  6
Continuous
 62
     7
100
AcDbLine
 10
103.3497873972
 20
446.5459106278
 30
0.0
 11
70.3497873972
 21
446.5459106278
 31
0.0
  0
LINE
  5
103
330
CC
100
AcDbEntity
  8
H663_TÉ_LONG
  6
Continuous
 62
     7
100
AcDbLine
 10
70.3497873972
 20
356.5459106278
 30
0.0
 11
103.3497873972
 21
356.5459106278
 31
0.0
  0
LINE
  5
104
330
CC
100
AcDbEntity
  8
H663_TÉ_LONG
  6
Continuous
 62
     7
100
AcDbLine
 10
103.8497873972
 20
357.0459106278
 30
0.0
 11
69.8497873972
 21
357.0459106278
 31
0.0
  0
LINE
  5
105
330
CC
100
AcDbEntity
  8
H663_TÉ_LONG
  6
Continuous
 62
     7
100
AcDbLine
 10
103.8497873972
 20
418.5459106278
 30
0.0
 11
103.8497873972
 21
446.0459106278
 31
0.0
  0
LINE
  5
106
330
CC
100
AcDbEntity
  8
H663_TÉ_LONG
  6
Continuous
 62
     7
100
AcDbLine
 10
103.8497873972
 20
357.0459106278
 30
0.0
 11
103.8497873972
 21
384.5459106278
 31
0.0
  0
LINE
  5
107
330
CC
100
AcDbEntity
  8
H663_TÉ_LONG
  6
Continuous
 62
     7
100
AcDbLine
 10
69.8497873972
 20
446.0459106278
 30
0.0
 11
69.8497873972
 21
357.0459106278
 31
0.0
  0
LINE
  5
108
330
CC
100
AcDbEntity
  8
H663_TÉ_LONG
  6
Continuous
 62
     7
100
AcDbLine
 10
103.8497873972
 20
384.5459106278
 30
0.0
 11
148.8497873972
 21
384.5459106278
 31
0.0
  0
LINE
  5
109
330
CC
100
AcDbEntity
  8
H663_TÉ_LONG
  6
Continuous
 62
     7
100
AcDbLine
 10
148.8497873972
 20
418.5459106278
 30
0.0
 11
103.8497873972
 21
418.5459106278
 31
0.0
  0
ARC
  5
10A
330
CC
100
AcDbEntity
  8
H663_TÉ_LONG
  6
Continuous
 62
     7
100
AcDbCircle
 10
70.3497873972
 20
446.0459106278
 30
0.0
 40
0.500000000000056
100
AcDbArc
 50
90.0
 51
180.0
  0
ARC
  5
10B
330
CC
100
AcDbEntity
  8
H663_TÉ_LONG
  6
Continuous
 62
     7
100
AcDbCircle
 10
103.3497873972
 20
446.0459106278
 30
0.0
 40
0.5000000000000004
100
AcDbArc
 50
0.0
 51
90.0
  0
ARC
  5
10C
330
CC
100
AcDbEntity
  8
H663_TÉ_LONG
  6
Continuous
 62
     7
100
AcDbCircle
 10
103.3497873972
 20
357.0459106278
 30
0.0
 40
0.5000000000000004
100
AcDbArc
 50
270.0
 51
0.0
  0
ARC
  5
10D
330
CC
100
AcDbEntity
  8
H663_TÉ_LONG
  6
Continuous
 62
     7
100
AcDbCircle
 10
70.3497873972
 20
357.0459106278
 30
0.0
 40
0.5000000000000004
100
AcDbArc
 50
180.0
 51
270.0
  0
LINE
  5
10E
330
CC
100
AcDbEntity
  8
H663_CACHE_PLATI
  6
Continuous
 62
     7
100
AcDbLine
 10
161.8497873972
 20
439.5459106278
 30
0.0
 11
161.8497873972
 21
363.5459106278
 31
0.0
  0
LINE
  5
10F
330
CC
100
AcDbEntity
  8
H663_CACHE_PLATI
  6
Continuous
 62
     7
100
AcDbLine
 10
150.8497873972
 20
439.5459106278
 30
0.0
 11
150.8497873972
 21
363.5459106278
 31
0.0
  0
LINE
  5
110
330
CC
100
AcDbEntity
  8
H663_CACHE_PLATI
  6
Continuous
 62
     7
100
AcDbLine
 10
148.8497873972
 20
437.5459106278
 30
0.0
 11
148.8497873972
 21
365.5459106278
 31
0.0
  0
LINE
  5
111
330
CC
100
AcDbEntity
  8
H663_CACHE_PLATI
  6
Continuous
 62
     7
100
AcDbLine
 10
150.8497873972
 20
363.5459106278
 30
0.0
 11
161.8497873972
 21
363.5459106278
 31
0.0
  0
LINE
  5
112
330
CC
100
AcDbEntity
  8
H663_CACHE_PLATI
  6
Continuous
 62
     7
100
AcDbLine
 10
161.8497873972
 20
439.5459106278
 30
0.0
 11
150.8497873972
 21
439.5459106278
 31
0.0
  0
ARC
  5
113
330
CC
100
AcDbEntity
  8
H663_CACHE_PLATI
  6
Continuous
 62
     7
100
AcDbCircle
 10
150.8497873972
 20
365.5459106278
 30
0.0
 40
2.000000000000002
100
AcDbArc
 50
180.0
 51
270.0
  0
ARC
  5
114
330
CC
100
AcDbEntity
  8
H663_CACHE_PLATI
  6
Continuous
 62
     7
100
AcDbCircle
 10
150.8497873972
 20
437.5459106278
 30
0.0
 40
2.000000000000002
100
AcDbArc
 50
90.0
 51
180.0
  0
LINE
  5
115
330
CC
100
AcDbEntity
  8
H664_COUDE
  6
Continuous
 62
     7
100
AcDbLine
 10
103.8497873972
 20
471.5459106278
 30
0.0
 11
69.8497873972
 21
471.5459106278
 31
0.0
  0
LINE
  5
116
330
CC
100
AcDbEntity
  8
H664_COUDE
  6
Continuous
 62
     7
100
AcDbLine
 10
39.3497873972
 20
502.0459106278
 30
0.0
 11
39.3497873972
 21
536.0459106278
 31
0.0
  0
LINE
  5
117
330
CC
100
AcDbEntity
  8
H664_COUDE
  6
Continuous
 62
     7
100
AcDbLine
 10
14.3497873972
 20
502.5459106278
 30
0.0
 11
14.3497873972
 21
535.5459106278
 31
0.0
  0
LINE
  5
118
330
CC
100
AcDbEntity
  8
H664_COUDE
  6
Continuous
 62
     7
100
AcDbLine
 10
14.8497873972
 20
502.0459106278
 30
0.0
 11
14.8497873972
 21
536.0459106278
 31
0.0
  0
LINE
  5
119
330
CC
100
AcDbEntity
  8
H664_COUDE
  6
Continuous
 62
     7
100
AcDbLine
 10
103.8497873972
 20
447.0459106278
 30
0.0
 11
69.8497873972
 21
447.0459106278
 31
0.0
  0
LINE
  5
11A
330
CC
100
AcDbEntity
  8
H664_COUDE
  6
Continuous
 62
     7
100
AcDbLine
 10
70.3497873972
 20
446.5459106278
 30
0.0
 11
103.3497873972
 21
446.5459106278
 31
0.0
  0
LINE
  5
11B
330
CC
100
AcDbEntity
  8
H664_COUDE
  6
Continuous
 62
     7
100
AcDbLine
 10
69.8497873972
 20
471.5459106278
 30
0.0
 11
69.8497873972
 21
447.0459106278
 31
0.0
  0
LINE
  5
11C
330
CC
100
AcDbEntity
  8
H664_COUDE
  6
Continuous
 62
     7
100
AcDbLine
 10
103.8497873972
 20
447.0459106278
 30
0.0
 11
103.8497873972
 21
471.5459106278
 31
0.0
  0
ARC
  5
11D
330
CC
100
AcDbEntity
  8
H664_COUDE
  6
Continuous
 62
     7
100
AcDbCircle
 10
39.3497873972
 20
471.5459106278
 30
0.0
 40
30.50000000000008
100
AcDbArc
 50
0.0
 51
90.0
  0
ARC
  5
11E
330
CC
100
AcDbEntity
  8
H664_COUDE
  6
Continuous
 62
     7
100
AcDbCircle
 10
39.3497873972
 20
471.5459106278
 30
0.0
 40
64.50000000000001
100
AcDbArc
 50
0.0
 51
90.0
  0
LINE
  5
11F
330
CC
100
AcDbEntity
  8
H664_COUDE
  6
Continuous
 62
     7
100
AcDbLine
 10
14.8497873972
 20
502.0459106278
 30
0.0
 11
39.3497873972
 21
502.0459106278
 31
0.0
  0
LINE
  5
120
330
CC
100
AcDbEntity
  8
H664_COUDE
  6
Continuous
 62
     7
100
AcDbLine
 10
39.3497873972
 20
536.0459106278
 30
0.0
 11
14.8497873972
 21
536.0459106278
 31
0.0
  0
ARC
  5
121
330
CC
100
AcDbEntity
  8
H664_COUDE
  6
Continuous
 62
     7
100
AcDbCircle
 10
14.8497873972
 20
535.5459106278
 30
0.0
 40
0.500000000000056
100
AcDbArc
 50
90.0
 51
180.0
  0
ARC
  5
122
330
CC
100
AcDbEntity
  8
H664_COUDE
  6
Continuous
 62
     7
100
AcDbCircle
 10
14.8497873972
 20
502.5459106278
 30
0.0
 40
0.5000000000000004
100
AcDbArc
 50
180.0
 51
270.0
  0
ARC
  5
123
330
CC
100
AcDbEntity
  8
H664_COUDE
  6
Continuous
 62
     7
100
AcDbCircle
 10
103.3497873972
 20
447.0459106278
 30
0.0
 40
0.4999999999999449
100
AcDbArc
 50
270.0
 51
0.0
  0
ARC
  5
124
330
CC
100
AcDbEntity
  8
H664_COUDE
  6
Continuous
 62
     7
100
AcDbCircle
 10
70.3497873972
 20
447.0459106278
 30
0.0
 40
0.5000000000000004
100
AcDbArc
 50
180.0
 51
270.0
  0
LINE
  5
125
330
CC
100
AcDbEntity
  8
H662_BARRE_NYLON
  6
Continuous
 62
     7
100
AcDbLine
 10
70.3497873972
 20
-33.4540893722
 30
0.0
 11
103.3497873972
 21
-33.4540893722
 31
0.0
  0
LINE
  5
126
330
CC
100
AcDbEntity
  8
H662_BARRE_NYLON
  6
Continuous
 62
     7
100
AcDbLine
 10
103.8497873972
 20
-32.9540893722
 30
0.0
 11
69.8497873972
 21
-32.9540893722
 31
0.0
  0
LINE
  5
127
330
CC
100
AcDbEntity
  8
H662_BARRE_NYLON
  6
Continuous
 62
     7
100
AcDbLine
 10
69.8497873972
 20
356.0459106278
 30
0.0
 11
103.8497873972
 21
356.0459106278
 31
0.0
  0
LINE
  5
128
330
CC
100
AcDbEntity
  8
H662_BARRE_NYLON
  6
Continuous
 62
     7
100
AcDbLine
 10
103.3497873972
 20
356.5459106278
 30
0.0
 11
70.3497873972
 21
356.5459106278
 31
0.0
  0
LINE
  5
129
330
CC
100
AcDbEntity
  8
H662_BARRE_NYLON
  6
Continuous
 62
     7
100
AcDbLine
 10
103.8497873972
 20
-32.9540893722
 30
0.0
 11
103.8497873972
 21
356.0459106278
 31
0.0
  0
LINE
  5
12A
330
CC
100
AcDbEntity
  8
H662_BARRE_NYLON
  6
Continuous
 62
     7
100
AcDbLine
 10
69.8497873972
 20
356.0459106278
 30
0.0
 11
69.8497873972
 21
-32.9540893722
 31
0.0
  0
ARC
  5
12B
330
CC
100
AcDbEntity
  8
H662_BARRE_NYLON
  6
Continuous
 62
     7
100
AcDbCircle
 10
70.3497873972
 20
-32.9540893722
 30
0.0
 40
0.4999999999999866
100
AcDbArc
 50
180.0
 51
270.0
  0
ARC
  5
12C
330
CC
100
AcDbEntity
  8
H662_BARRE_NYLON
  6
Continuous
 62
     7
100
AcDbCircle
 10
103.3497873972
 20
-32.9540893722
 30
0.0
 40
0.5000000000000004
100
AcDbArc
 50
270.0
 51
0.0
  0
ARC
  5
12D
330
CC
100
AcDbEntity
  8
H662_BARRE_NYLON
  6
Continuous
 62
     7
100
AcDbCircle
 10
103.3497873972
 20
356.0459106278
 30
0.0
 40
0.4999999999999935
100
AcDbArc
 50
0.0
 51
90.0
  0
ARC
  5
12E
330
CC
100
AcDbEntity
  8
H662_BARRE_NYLON
  6
Continuous
 62
     7
100
AcDbCircle
 10
70.3497873972
 20
356.0459106278
 30
0.0
 40
0.4999999999999449
100
AcDbArc
 50
90.0
 51
180.0
  0
ENDBLK
  5
130
330
CC
100
AcDbEntity
  8
0
100
AcDbBlockEnd
  0
BLOCK
  5
193
330
131
100
AcDbEntity
  8
0
100
AcDbBlockBegin
  2
SE2
 70
     0
 10
0.0
 20
0.0
 30
0.0
  3
SE2
  1

  0
LINE
  5
133
330
131
100
AcDbEntity
  8
H663_CACHE_PLATI
  6
Continuous
 62
     7
100
AcDbLine
 10
421.7223300705
 20
-67.9540893722
 30
0.0
 11
421.7223300705
 21
-143.9540893722
 31
0.0
  0
LINE
  5
134
330
131
100
AcDbEntity
  8
H663_CACHE_PLATI
  6
Continuous
 62
     7
100
AcDbLine
 10
432.7223300705
 20
-67.9540893722
 30
0.0
 11
432.7223300705
 21
-143.9540893722
 31
0.0
  0
LINE
  5
135
330
131
100
AcDbEntity
  8
H663_CACHE_PLATI
  6
Continuous
 62
     7
100
AcDbLine
 10
434.7223300705
 20
-69.9540893722
 30
0.0
 11
434.7223300705
 21
-141.9540893722
 31
0.0
  0
LINE
  5
136
330
131
100
AcDbEntity
  8
H663_CACHE_PLATI
  6
Continuous
 62
     7
100
AcDbLine
 10
432.7223300705
 20
-67.9540893722
 30
0.0
 11
421.7223300705
 21
-67.9540893722
 31
0.0
  0
LINE
  5
137
330
131
100
AcDbEntity
  8
H663_CACHE_PLATI
  6
Continuous
 62
     7
100
AcDbLine
 10
421.7223300705
 20
-143.9540893722
 30
0.0
 11
432.7223300705
 21
-143.9540893722
 31
0.0
  0
ARC
  5
138
330
131
100
AcDbEntity
  8
H663_CACHE_PLATI
  6
Continuous
 62
     7
100
AcDbCircle
 10
432.7223300705
 20
-69.9540893722
 30
0.0
 40
2.000000000000002
100
AcDbArc
 50
0.0
 51
90.0
  0
ARC
  5
139
330
131
100
AcDbEntity
  8
H663_CACHE_PLATI
  6
Continuous
 62
     7
100
AcDbCircle
 10
432.7223300705
 20
-141.9540893722
 30
0.0
 40
2.000000000000002
100
AcDbArc
 50
270.0
 51
0.0
  0
LINE
  5
13A
330
131
100
AcDbEntity
  8
H664_COUDE
  6
Continuous
 62
     7
100
AcDbLine
 10
513.7223300705
 20
-58.4540893722
 30
0.0
 11
479.7223300705
 21
-58.4540893722
 31
0.0
  0
LINE
  5
13B
330
131
100
AcDbEntity
  8
H664_COUDE
  6
Continuous
 62
     7
100
AcDbLine
 10
449.2223300705
 20
-122.9540893722
 30
0.0
 11
449.2223300705
 21
-88.9540893722
 31
0.0
  0
LINE
  5
13C
330
131
100
AcDbEntity
  8
H664_COUDE
  6
Continuous
 62
     7
100
AcDbLine
 10
513.7223300705
 20
-33.9540893722
 30
0.0
 11
479.7223300705
 21
-33.9540893722
 31
0.0
  0
LINE
  5
13D
330
131
100
AcDbEntity
  8
H664_COUDE
  6
Continuous
 62
     7
100
AcDbLine
 10
480.2223300705
 20
-33.4540893722
 30
0.0
 11
513.2223300705
 21
-33.4540893722
 31
0.0
  0
LINE
  5
13E
330
131
100
AcDbEntity
  8
H664_COUDE
  6
Continuous
 62
     7
100
AcDbLine
 10
513.7223300705
 20
-58.4540893722
 30
0.0
 11
513.7223300705
 21
-33.9540893722
 31
0.0
  0
LINE
  5
13F
330
131
100
AcDbEntity
  8
H664_COUDE
  6
Continuous
 62
     7
100
AcDbLine
 10
479.7223300705
 20
-33.9540893722
 30
0.0
 11
479.7223300705
 21
-58.4540893722
 31
0.0
  0
ARC
  5
140
330
131
100
AcDbEntity
  8
H664_COUDE
  6
Continuous
 62
     7
100
AcDbCircle
 10
449.2223300705
 20
-58.4540893722
 30
0.0
 40
30.50000000000002
100
AcDbArc
 50
270.0
 51
0.0
  0
ARC
  5
141
330
131
100
AcDbEntity
  8
H664_COUDE
  6
Continuous
 62
     7
100
AcDbCircle
 10
449.2223300705
 20
-58.4540893722
 30
0.0
 40
64.50000000000009
100
AcDbArc
 50
270.0
 51
0.0
  0
LINE
  5
142
330
131
100
AcDbEntity
  8
H664_COUDE
  6
Continuous
 62
     7
100
AcDbLine
 10
434.7223300705
 20
-122.9540893722
 30
0.0
 11
449.2223300705
 21
-122.9540893722
 31
0.0
  0
LINE
  5
143
330
131
100
AcDbEntity
  8
H664_COUDE
  6
Continuous
 62
     7
100
AcDbLine
 10
449.2223300705
 20
-88.9540893722
 30
0.0
 11
434.7223300705
 21
-88.9540893722
 31
0.0
  0
ARC
  5
144
330
131
100
AcDbEntity
  8
H664_COUDE
  6
Continuous
 62
     7
100
AcDbCircle
 10
480.2223300705
 20
-33.9540893722
 30
0.0
 40
0.5000000000000004
100
AcDbArc
 50
90.0
 51
180.0
  0
ARC
  5
145
330
131
100
AcDbEntity
  8
H664_COUDE
  6
Continuous
 62
     7
100
AcDbCircle
 10
513.2223300705
 20
-33.9540893722
 30
0.0
 40
0.5000000000000004
100
AcDbArc
 50
0.0
 51
90.0
  0
LINE
  5
146
330
131
100
AcDbEntity
  8
H662_BARRE_480MM
  6
Continuous
 62
     7
100
AcDbLine
 10
569.2223300705
 20
502.5459106278
 30
0.0
 11
569.2223300705
 21
535.5459106278
 31
0.0
  0
LINE
  5
147
330
131
100
AcDbEntity
  8
H662_BARRE_480MM
  6
Continuous
 62
     7
100
AcDbLine
 10
569.7223300705
 20
502.0459106278
 30
0.0
 11
569.7223300705
 21
536.0459106278
 31
0.0
  0
LINE
  5
148
330
131
100
AcDbEntity
  8
H662_BARRE_480MM
  6
Continuous
 62
     7
100
AcDbLine
 10
1048.7223300705
 20
502.0459106278
 30
0.0
 11
1048.7223300705
 21
536.0459106278
 31
0.0
  0
LINE
  5
149
330
131
100
AcDbEntity
  8
H662_BARRE_480MM
  6
Continuous
 62
     7
100
AcDbLine
 10
1049.2223300705
 20
502.5459106278
 30
0.0
 11
1049.2223300705
 21
535.5459106278
 31
0.0
  0
LINE
  5
14A
330
131
100
AcDbEntity
  8
H662_BARRE_480MM
  6
Continuous
 62
     7
100
AcDbLine
 10
569.7223300705
 20
502.0459106278
 30
0.0
 11
1048.7223300705
 21
502.0459106278
 31
0.0
  0
LINE
  5
14B
330
131
100
AcDbEntity
  8
H662_BARRE_480MM
  6
Continuous
 62
     7
100
AcDbLine
 10
1048.7223300705
 20
536.0459106278
 30
0.0
 11
569.7223300705
 21
536.0459106278
 31
0.0
  0
ARC
  5
14C
330
131
100
AcDbEntity
  8
H662_BARRE_480MM
  6
Continuous
 62
     7
100
AcDbCircle
 10
569.7223300705
 20
535.5459106278
 30
0.0
 40
0.4999999999999449
100
AcDbArc
 50
90.0
 51
180.0
  0
ARC
  5
14D
330
131
100
AcDbEntity
  8
H662_BARRE_480MM
  6
Continuous
 62
     7
100
AcDbCircle
 10
569.7223300705
 20
502.5459106278
 30
0.0
 40
0.5000000000000004
100
AcDbArc
 50
180.0
 51
270.0
  0
ARC
  5
14E
330
131
100
AcDbEntity
  8
H662_BARRE_480MM
  6
Continuous
 62
     7
100
AcDbCircle
 10
1048.7223300705
 20
502.5459106278
 30
0.0
 40
0.4999999999999449
100
AcDbArc
 50
270.0
 51
0.0
  0
ARC
  5
14F
330
131
100
AcDbEntity
  8
H662_BARRE_480MM
  6
Continuous
 62
     7
100
AcDbCircle
 10
1048.7223300705
 20
535.5459106278
 30
0.0
 40
0.4999999999999449
100
AcDbArc
 50
0.0
 51
90.0
  0
LINE
  5
150
330
131
100
AcDbEntity
  8
H663_CACHE_PLATI
  6
Continuous
 62
     7
100
AcDbLine
 10
1159.7223300705
 20
594.0459106278
 30
0.0
 11
1083.7223300705
 21
594.0459106278
 31
0.0
  0
LINE
  5
151
330
131
100
AcDbEntity
  8
H663_CACHE_PLATI
  6
Continuous
 62
     7
100
AcDbLine
 10
1159.7223300705
 20
583.0459106278
 30
0.0
 11
1083.7223300705
 21
583.0459106278
 31
0.0
  0
LINE
  5
152
330
131
100
AcDbEntity
  8
H663_CACHE_PLATI
  6
Continuous
 62
     7
100
AcDbLine
 10
1157.7223300705
 20
581.0459106278
 30
0.0
 11
1085.7223300705
 21
581.0459106278
 31
0.0
  0
LINE
  5
153
330
131
100
AcDbEntity
  8
H663_CACHE_PLATI
  6
Continuous
 62
     7
100
AcDbLine
 10
1159.7223300705
 20
583.0459106278
 30
0.0
 11
1159.7223300705
 21
594.0459106278
 31
0.0
  0
LINE
  5
154
330
131
100
AcDbEntity
  8
H663_CACHE_PLATI
  6
Continuous
 62
     7
100
AcDbLine
 10
1083.7223300705
 20
594.0459106278
 30
0.0
 11
1083.7223300705
 21
583.0459106278
 31
0.0
  0
ARC
  5
155
330
131
100
AcDbEntity
  8
H663_CACHE_PLATI
  6
Continuous
 62
     7
100
AcDbCircle
 10
1157.7223300705
 20
583.0459106278
 30
0.0
 40
2.000000000000002
100
AcDbArc
 50
270.0
 51
0.0
  0
ARC
  5
156
330
131
100
AcDbEntity
  8
H663_CACHE_PLATI
  6
Continuous
 62
     7
100
AcDbCircle
 10
1085.7223300705
 20
583.0459106278
 30
0.0
 40
2.000000000000002
100
AcDbArc
 50
180.0
 51
270.0
  0
LINE
  5
157
330
131
100
AcDbEntity
  8
H664_COUDE
  6
Continuous
 62
     7
100
AcDbLine
 10
1074.2223300705
 20
502.0459106278
 30
0.0
 11
1074.2223300705
 21
536.0459106278
 31
0.0
  0
LINE
  5
158
330
131
100
AcDbEntity
  8
H664_COUDE
  6
Continuous
 62
     7
100
AcDbLine
 10
1104.7223300705
 20
566.5459106278
 30
0.0
 11
1138.7223300705
 21
566.5459106278
 31
0.0
  0
LINE
  5
159
330
131
100
AcDbEntity
  8
H664_COUDE
  6
Continuous
 62
     7
100
AcDbLine
 10
1049.7223300705
 20
502.0459106278
 30
0.0
 11
1049.7223300705
 21
536.0459106278
 31
0.0
  0
LINE
  5
15A
330
131
100
AcDbEntity
  8
H664_COUDE
  6
Continuous
 62
     7
100
AcDbLine
 10
1049.2223300705
 20
502.5459106278
 30
0.0
 11
1049.2223300705
 21
535.5459106278
 31
0.0
  0
LINE
  5
15B
330
131
100
AcDbEntity
  8
H664_COUDE
  6
Continuous
 62
     7
100
AcDbLine
 10
1074.2223300705
 20
536.0459106278
 30
0.0
 11
1049.7223300705
 21
536.0459106278
 31
0.0
  0
LINE
  5
15C
330
131
100
AcDbEntity
  8
H664_COUDE
  6
Continuous
 62
     7
100
AcDbLine
 10
1049.7223300705
 20
502.0459106278
 30
0.0
 11
1074.2223300705
 21
502.0459106278
 31
0.0
  0
ARC
  5
15D
330
131
100
AcDbEntity
  8
H664_COUDE
  6
Continuous
 62
     7
100
AcDbCircle
 10
1074.2223300705
 20
566.5459106278
 30
0.0
 40
30.50000000000008
100
AcDbArc
 50
270.0
 51
0.0
  0
ARC
  5
15E
330
131
100
AcDbEntity
  8
H664_COUDE
  6
Continuous
 62
     7
100
AcDbCircle
 10
1074.2223300705
 20
566.5459106278
 30
0.0
 40
64.5
100
AcDbArc
 50
270.0
 51
0.0
  0
LINE
  5
15F
330
131
100
AcDbEntity
  8
H664_COUDE
  6
Continuous
 62
     7
100
AcDbLine
 10
1104.7223300705
 20
581.0459106278
 30
0.0
 11
1104.7223300705
 21
566.5459106278
 31
0.0
  0
LINE
  5
160
330
131
100
AcDbEntity
  8
H664_COUDE
  6
Continuous
 62
     7
100
AcDbLine
 10
1138.7223300705
 20
566.5459106278
 30
0.0
 11
1138.7223300705
 21
581.0459106278
 31
0.0
  0
ARC
  5
161
330
131
100
AcDbEntity
  8
H664_COUDE
  6
Continuous
 62
     7
100
AcDbCircle
 10
1049.7223300705
 20
502.5459106278
 30
0.0
 40
0.4999999999999449
100
AcDbArc
 50
180.0
 51
270.0
  0
ARC
  5
162
330
131
100
AcDbEntity
  8
H664_COUDE
  6
Continuous
 62
     7
100
AcDbCircle
 10
1049.7223300705
 20
535.5459106278
 30
0.0
 40
0.500000000000056
100
AcDbArc
 50
90.0
 51
180.0
  0
LINE
  5
163
330
131
100
AcDbEntity
  8
H663_TÉ_LONG
  6
Continuous
 62
     7
100
AcDbLine
 10
496.7223300705
 20
401.5459106278
 30
0.0
 11
479.7223300705
 21
418.5459106278
 31
0.0
  0
LINE
  5
164
330
131
100
AcDbEntity
  8
H663_TÉ_LONG
  6
Continuous
 62
     7
100
AcDbLine
 10
479.7223300705
 20
384.5459106278
 30
0.0
 11
496.7223300705
 21
401.5459106278
 31
0.0
  0
LINE
  5
165
330
131
100
AcDbEntity
  8
H663_TÉ_LONG
  6
Continuous
 62
     7
100
AcDbLine
 10
513.7223300705
 20
446.0459106278
 30
0.0
 11
479.7223300705
 21
446.0459106278
 31
0.0
  0
LINE
  5
166
330
131
100
AcDbEntity
  8
H663_TÉ_LONG
  6
Continuous
 62
     7
100
AcDbLine
 10
480.2223300705
 20
446.5459106278
 30
0.0
 11
513.2223300705
 21
446.5459106278
 31
0.0
  0
LINE
  5
167
330
131
100
AcDbEntity
  8
H663_TÉ_LONG
  6
Continuous
 62
     7
100
AcDbLine
 10
513.2223300705
 20
356.5459106278
 30
0.0
 11
480.2223300705
 21
356.5459106278
 31
0.0
  0
LINE
  5
168
330
131
100
AcDbEntity
  8
H663_TÉ_LONG
  6
Continuous
 62
     7
100
AcDbLine
 10
479.7223300705
 20
357.0459106278
 30
0.0
 11
513.7223300705
 21
357.0459106278
 31
0.0
  0
LINE
  5
169
330
131
100
AcDbEntity
  8
H663_TÉ_LONG
  6
Continuous
 62
     7
100
AcDbLine
 10
513.7223300705
 20
357.0459106278
 30
0.0
 11
513.7223300705
 21
446.0459106278
 31
0.0
  0
LINE
  5
16A
330
131
100
AcDbEntity
  8
H663_TÉ_LONG
  6
Continuous
 62
     7
100
AcDbLine
 10
479.7223300705
 20
384.5459106278
 30
0.0
 11
479.7223300705
 21
357.0459106278
 31
0.0
  0
LINE
  5
16B
330
131
100
AcDbEntity
  8
H663_TÉ_LONG
  6
Continuous
 62
     7
100
AcDbLine
 10
479.7223300705
 20
446.0459106278
 30
0.0
 11
479.7223300705
 21
418.5459106278
 31
0.0
  0
LINE
  5
16C
330
131
100
AcDbEntity
  8
H663_TÉ_LONG
  6
Continuous
 62
     7
100
AcDbLine
 10
479.7223300705
 20
418.5459106278
 30
0.0
 11
434.7223300705
 21
418.5459106278
 31
0.0
  0
LINE
  5
16D
330
131
100
AcDbEntity
  8
H663_TÉ_LONG
  6
Continuous
 62
     7
100
AcDbLine
 10
434.7223300705
 20
384.5459106278
 30
0.0
 11
479.7223300705
 21
384.5459106278
 31
0.0
  0
ARC
  5
16E
330
131
100
AcDbEntity
  8
H663_TÉ_LONG
  6
Continuous
 62
     7
100
AcDbCircle
 10
480.2223300705
 20
446.0459106278
 30
0.0
 40
0.500000000000056
100
AcDbArc
 50
90.0
 51
180.0
  0
ARC
  5
16F
330
131
100
AcDbEntity
  8
H663_TÉ_LONG
  6
Continuous
 62
     7
100
AcDbCircle
 10
513.2223300705
 20
446.0459106278
 30
0.0
 40
0.5000000000000004
100
AcDbArc
 50
0.0
 51
90.0
  0
ARC
  5
170
330
131
100
AcDbEntity
  8
H663_TÉ_LONG
  6
Continuous
 62
     7
100
AcDbCircle
 10
513.2223300705
 20
357.0459106278
 30
0.0
 40
0.4999999999999449
100
AcDbArc
 50
270.0
 51
0.0
  0
ARC
  5
171
330
131
100
AcDbEntity
  8
H663_TÉ_LONG
  6
Continuous
 62
     7
100
AcDbCircle
 10
480.2223300705
 20
357.0459106278
 30
0.0
 40
0.5000000000000004
100
AcDbArc
 50
180.0
 51
270.0
  0
LINE
  5
172
330
131
100
AcDbEntity
  8
H663_CACHE_PLATI
  6
Continuous
 62
     7
100
AcDbLine
 10
421.7223300705
 20
439.5459106278
 30
0.0
 11
421.7223300705
 21
363.5459106278
 31
0.0
  0
LINE
  5
173
330
131
100
AcDbEntity
  8
H663_CACHE_PLATI
  6
Continuous
 62
     7
100
AcDbLine
 10
432.7223300705
 20
439.5459106278
 30
0.0
 11
432.7223300705
 21
363.5459106278
 31
0.0
  0
LINE
  5
174
330
131
100
AcDbEntity
  8
H663_CACHE_PLATI
  6
Continuous
 62
     7
100
AcDbLine
 10
434.7223300705
 20
437.5459106278
 30
0.0
 11
434.7223300705
 21
365.5459106278
 31
0.0
  0
LINE
  5
175
330
131
100
AcDbEntity
  8
H663_CACHE_PLATI
  6
Continuous
 62
     7
100
AcDbLine
 10
432.7223300705
 20
439.5459106278
 30
0.0
 11
421.7223300705
 21
439.5459106278
 31
0.0
  0
LINE
  5
176
330
131
100
AcDbEntity
  8
H663_CACHE_PLATI
  6
Continuous
 62
     7
100
AcDbLine
 10
421.7223300705
 20
363.5459106278
 30
0.0
 11
432.7223300705
 21
363.5459106278
 31
0.0
  0
ARC
  5
177
330
131
100
AcDbEntity
  8
H663_CACHE_PLATI
  6
Continuous
 62
     7
100
AcDbCircle
 10
432.7223300705
 20
437.5459106278
 30
0.0
 40
2.000000000000002
100
AcDbArc
 50
0.0
 51
90.0
  0
ARC
  5
178
330
131
100
AcDbEntity
  8
H663_CACHE_PLATI
  6
Continuous
 62
     7
100
AcDbCircle
 10
432.7223300705
 20
365.5459106278
 30
0.0
 40
2.000000000000002
100
AcDbArc
 50
270.0
 51
0.0
  0
LINE
  5
179
330
131
100
AcDbEntity
  8
H664_COUDE
  6
Continuous
 62
     7
100
AcDbLine
 10
479.7223300705
 20
471.5459106278
 30
0.0
 11
513.7223300705
 21
471.5459106278
 31
0.0
  0
LINE
  5
17A
330
131
100
AcDbEntity
  8
H664_COUDE
  6
Continuous
 62
     7
100
AcDbLine
 10
544.2223300705
 20
502.0459106278
 30
0.0
 11
544.2223300705
 21
536.0459106278
 31
0.0
  0
LINE
  5
17B
330
131
100
AcDbEntity
  8
H664_COUDE
  6
Continuous
 62
     7
100
AcDbLine
 10
569.2223300705
 20
502.5459106278
 30
0.0
 11
569.2223300705
 21
535.5459106278
 31
0.0
  0
LINE
  5
17C
330
131
100
AcDbEntity
  8
H664_COUDE
  6
Continuous
 62
     7
100
AcDbLine
 10
568.7223300705
 20
502.0459106278
 30
0.0
 11
568.7223300705
 21
536.0459106278
 31
0.0
  0
LINE
  5
17D
330
131
100
AcDbEntity
  8
H664_COUDE
  6
Continuous
 62
     7
100
AcDbLine
 10
479.7223300705
 20
447.0459106278
 30
0.0
 11
513.7223300705
 21
447.0459106278
 31
0.0
  0
LINE
  5
17E
330
131
100
AcDbEntity
  8
H664_COUDE
  6
Continuous
 62
     7
100
AcDbLine
 10
513.2223300705
 20
446.5459106278
 30
0.0
 11
480.2223300705
 21
446.5459106278
 31
0.0
  0
LINE
  5
17F
330
131
100
AcDbEntity
  8
H664_COUDE
  6
Continuous
 62
     7
100
AcDbLine
 10
479.7223300705
 20
471.5459106278
 30
0.0
 11
479.7223300705
 21
447.0459106278
 31
0.0
  0
LINE
  5
180
330
131
100
AcDbEntity
  8
H664_COUDE
  6
Continuous
 62
     7
100
AcDbLine
 10
513.7223300705
 20
447.0459106278
 30
0.0
 11
513.7223300705
 21
471.5459106278
 31
0.0
  0
ARC
  5
181
330
131
100
AcDbEntity
  8
H664_COUDE
  6
Continuous
 62
     7
100
AcDbCircle
 10
544.2223300705
 20
471.5459106278
 30
0.0
 40
30.50000000000001
100
AcDbArc
 50
90.0
 51
180.0
  0
ARC
  5
182
330
131
100
AcDbEntity
  8
H664_COUDE
  6
Continuous
 62
     7
100
AcDbCircle
 10
544.2223300705
 20
471.5459106278
 30
0.0
 40
64.5
100
AcDbArc
 50
90.0
 51
180.0
  0
LINE
  5
183
330
131
100
AcDbEntity
  8
H664_COUDE
  6
Continuous
 62
     7
100
AcDbLine
 10
568.7223300705
 20
536.0459106278
 30
0.0
 11
544.2223300705
 21
536.0459106278
 31
0.0
  0
LINE
  5
184
330
131
100
AcDbEntity
  8
H664_COUDE
  6
Continuous
 62
     7
100
AcDbLine
 10
544.2223300705
 20
502.0459106278
 30
0.0
 11
568.7223300705
 21
502.0459106278
 31
0.0
  0
ARC
  5
185
330
131
100
AcDbEntity
  8
H664_COUDE
  6
Continuous
 62
     7
100
AcDbCircle
 10
568.7223300705
 20
502.5459106278
 30
0.0
 40
0.500000000000056
100
AcDbArc
 50
270.0
 51
0.0
  0
ARC
  5
186
330
131
100
AcDbEntity
  8
H664_COUDE
  6
Continuous
 62
     7
100
AcDbCircle
 10
568.7223300705
 20
535.5459106278
 30
0.0
 40
0.5000000000000004
100
AcDbArc
 50
0.0
 51
90.0
  0
ARC
  5
187
330
131
100
AcDbEntity
  8
H664_COUDE
  6
Continuous
 62
     7
100
AcDbCircle
 10
513.2223300705
 20
447.0459106278
 30
0.0
 40
0.500000000000056
100
AcDbArc
 50
270.0
 51
0.0
  0
ARC
  5
188
330
131
100
AcDbEntity
  8
H664_COUDE
  6
Continuous
 62
     7
100
AcDbCircle
 10
480.2223300705
 20
447.0459106278
 30
0.0
 40
0.5000000000000004
100
AcDbArc
 50
180.0
 51
270.0
  0
LINE
  5
189
330
131
100
AcDbEntity
  8
H662_BARRE_NYLON
  6
Continuous
 62
     7
100
AcDbLine
 10
513.2223300705
 20
-33.4540893722
 30
0.0
 11
480.2223300705
 21
-33.4540893722
 31
0.0
  0
LINE
  5
18A
330
131
100
AcDbEntity
  8
H662_BARRE_NYLON
  6
Continuous
 62
     7
100
AcDbLine
 10
479.7223300705
 20
-32.9540893722
 30
0.0
 11
513.7223300705
 21
-32.9540893722
 31
0.0
  0
LINE
  5
18B
330
131
100
AcDbEntity
  8
H662_BARRE_NYLON
  6
Continuous
 62
     7
100
AcDbLine
 10
513.7223300705
 20
356.0459106278
 30
0.0
 11
479.7223300705
 21
356.0459106278
 31
0.0
  0
LINE
  5
18C
330
131
100
AcDbEntity
  8
H662_BARRE_NYLON
  6
Continuous
 62
     7
100
AcDbLine
 10
480.2223300705
 20
356.5459106278
 30
0.0
 11
513.2223300705
 21
356.5459106278
 31
0.0
  0
LINE
  5
18D
330
131
100
AcDbEntity
  8
H662_BARRE_NYLON
  6
Continuous
 62
     7
100
AcDbLine
 10
513.7223300705
 20
-32.9540893722
 30
0.0
 11
513.7223300705
 21
356.0459106278
 31
0.0
  0
LINE
  5
18E
330
131
100
AcDbEntity
  8
H662_BARRE_NYLON
  6
Continuous
 62
     7
100
AcDbLine
 10
479.7223300705
 20
356.0459106278
 30
0.0
 11
479.7223300705
 21
-32.9540893722
 31
0.0
  0
ARC
  5
18F
330
131
100
AcDbEntity
  8
H662_BARRE_NYLON
  6
Continuous
 62
     7
100
AcDbCircle
 10
480.2223300705
 20
-32.9540893722
 30
0.0
 40
0.5000000000000004
100
AcDbArc
 50
180.0
 51
270.0
  0
ARC
  5
190
330
131
100
AcDbEntity
  8
H662_BARRE_NYLON
  6
Continuous
 62
     7
100
AcDbCircle
 10
513.2223300705
 20
-32.9540893722
 30
0.0
 40
0.5000000000000004
100
AcDbArc
 50
270.0
 51
0.0
  0
ARC
  5
191
330
131
100
AcDbEntity
  8
H662_BARRE_NYLON
  6
Continuous
 62
     7
100
AcDbCircle
 10
513.2223300705
 20
356.0459106278
 30
0.0
 40
0.5000000000000004
100
AcDbArc
 50
0.0
 51
90.0
  0
ARC
  5
192
330
131
100
AcDbEntity
  8
H662_BARRE_NYLON
  6
Continuous
 62
     7
100
AcDbCircle
 10
480.2223300705
 20
356.0459106278
 30
0.0
 40
0.500000000000056
100
AcDbArc
 50
90.0
 51
180.0
  0
ENDBLK
  5
194
330
131
100
AcDbEntity
  8
0
100
AcDbBlockEnd
  0
BLOCK
  5
197
330
196
100
AcDbEntity
  8
0
100
AcDbBlockBegin
  2
_OBLIQUE
 70
     0
 10
0.0
 20
0.0
 30
0.0
  3
_OBLIQUE
  1

  0
LINE
  5
199
330
196
100
AcDbEntity
  8
0
  6
ByBlock
 62
     0
370
    -2
100
AcDbLine
 10
-0.5
 20
-0.5
 30
0.0
 11
0.5
 21
0.5
 31
0.0
  0
ENDBLK
  5
198
330
196
100
AcDbEntity
  8
0
100
AcDbBlockEnd
  0
BLOCK
  5
19B
330
19A
100
AcDbEntity
  8
0
100
AcDbBlockBegin
  2
_DOT
 70
     0
 10
0.0
 20
0.0
 30
0.0
  3
_DOT
  1

  0
POLYLINE
  5
19D
330
19A
100
AcDbEntity
  8
0
  6
ByBlock
 62
     0
100
AcDb2dPolyline
 66
     1
 10
0.0
 20
0.0
 30
0.0
 70
     1
 40
0.5
 41
0.5
  0
VERTEX
  5
19F
330
19D
100
AcDbEntity
  8
0
  6
ByBlock
 62
     0
100
AcDbVertex
100
AcDb2dVertex
 10
-0.25
 20
0.0
 30
0.0
 42
1.0
  0
VERTEX
  5
1A0
330
19D
100
AcDbEntity
  8
0
  6
ByBlock
 62
     0
100
AcDbVertex
100
AcDb2dVertex
 10
0.25
 20
0.0
 30
0.0
 42
1.0
  0
SEQEND
  5
1A1
330
19D
100
AcDbEntity
  8
0
  6
ByBlock
 62
     0
  0
LINE
  5
19E
330
19A
100
AcDbEntity
  8
0
  6
ByBlock
 62
     0
370
    -2
100
AcDbLine
 10
-0.5
 20
0.0
 30
0.0
 11
-1.0
 21
0.0
 31
0.0
  0
ENDBLK
  5
19C
330
19A
100
AcDbEntity
  8
0
100
AcDbBlockEnd
  0
BLOCK
  5
1AE
330
1A6
100
AcDbEntity
  8
0
100
AcDbBlockBegin
  2
DMBLK39
 70
     0
 10
0.0
 20
0.0
 30
0.0
  3
DMBLK39
  1

  0
HATCH
  5
1A7
330
1A6
100
AcDbEntity
  8
Cartouche
  6
Continuous
 62
     7
100
AcDbHatch
 10
0.0
 20
0.0
 30
0.0
210
0.0
220
0.0
230
1.0
  2
SOLID
 70
     1
 71
     0
 91
        1
 92
        1
 93
        3
 72
     1
 10
218.7744805395989
 20
570.0459104191528
 11
214.7744805048295
 21
594.0459106277691
 72
     1
 10
214.7744805048295
 20
594.0459106277691
 11
210.7744804700601
 21
570.0459104191528
 72
     1
 10
210.7744804700601
 20
570.0459104191528
 11
218.7744805395989
 21
570.0459104191528
 97
        0
 75
     0
 76
     1
 98
        0
  0
HATCH
  5
1A8
330
1A6
100
AcDbEntity
  8
Cartouche
  6
Continuous
 62
     7
100
AcDbHatch
 10
0.0
 20
0.0
 30
0.0
210
0.0
220
0.0
230
1.0
  2
SOLID
 70
     1
 71
     0
 91
        1
 92
        1
 93
        3
 72
     1
 10
218.7744805395989
 20
-81.95408916361524
 11
210.7744804700601
 21
-81.95408916361524
 72
     1
 10
210.7744804700601
 20
-81.95408916361524
 11
214.7744805048295
 21
-105.9540893722315
 72
     1
 10
214.7744805048295
 20
-105.9540893722315
 11
218.7744805395989
 21
-81.95408916361524
 97
        0
 75
     0
 76
     1
 98
        0
  0
LINE
  5
1A9
330
1A6
100
AcDbEntity
  8
Cartouche
  6
Continuous
 62
     7
100
AcDbLine
 10
-500.1502126028
 20
594.0459106278
 30
0.0
 11
222.7744808848
 21
594.0459106278
 31
0.0
  0
LINE
  5
1AA
330
1A6
100
AcDbEntity
  8
Cartouche
  6
Continuous
 62
     7
100
AcDbLine
 10
161.8497873972
 20
-105.9540893722
 30
0.0
 11
222.7744808848
 21
-105.9540893722
 31
0.0
  0
LINE
  5
1AB
330
1A6
100
AcDbEntity
  8
Cartouche
  6
Continuous
 62
     7
100
AcDbLine
 10
214.7744805048
 20
594.0459106278
 30
0.0
 11
214.7744805048
 21
257.6459083866
 31
0.0
  0
LINE
  5
1AC
330
1A6
100
AcDbEntity
  8
Cartouche
  6
Continuous
 62
     7
100
AcDbLine
 10
214.7744805048
 20
230.4459128689
 30
0.0
 11
214.7744805048
 21
-105.9540893722
 31
0.0
  0
TEXT
  5
1AD
330
1A6
100
AcDbEntity
  8
Cartouche
  6
Continuous
 62
     7
100
AcDbText
 10
196.6411471715
 20
236.0459165882
 30
0.0
 40
16.0
  1
700
  7
SEACAD_ArialB
 11
196.6411471715
 21
252.0459165882
 31
0.0
100
AcDbText
 73
     3
  0
ENDBLK
  5
1AF
330
1A6
100
AcDbEntity
  8
0
100
AcDbBlockEnd
  0
BLOCK
  5
1B9
330
1B1
100
AcDbEntity
  8
0
100
AcDbBlockBegin
  2
DMBLK40
 70
     0
 10
0.0
 20
0.0
 30
0.0
  3
DMBLK40
  1

  0
HATCH
  5
1B2
330
1B1
100
AcDbEntity
  8
Cartouche
  6
Continuous
 62
     7
100
AcDbHatch
 10
0.0
 20
0.0
 30
0.0
210
0.0
220
0.0
230
1.0
  2
SOLID
 70
     1
 71
     0
 91
        1
 92
        1
 93
        3
 72
     1
 10
137.8497871886077
 20
644.4298036755388
 11
137.8497871886077
 21
636.429803606
 72
     1
 10
137.8497871886077
 20
636.429803606
 11
161.8497873972239
 21
640.4298036407694
 72
     1
 10
161.8497873972239
 20
640.4298036407694
 11
137.8497871886077
 21
644.4298036755388
 97
        0
 75
     0
 76
     1
 98
        0
  0
HATCH
  5
1B3
330
1B1
100
AcDbEntity
  8
Cartouche
  6
Continuous
 62
     7
100
AcDbHatch
 10
0.0
 20
0.0
 30
0.0
210
0.0
220
0.0
230
1.0
  2
SOLID
 70
     1
 71
     0
 91
        1
 92
        1
 93
        3
 72
     1
 10
-514.1502123941592
 20
644.4298036755388
 11
-538.1502126027755
 21
640.4298036407694
 72
     1
 10
-538.1502126027755
 20
640.4298036407694
 11
-514.1502123941592
 21
636.429803606
 72
     1
 10
-514.1502123941592
 20
636.429803606
 11
-514.1502123941592
 21
644.4298036755388
 97
        0
 75
     0
 76
     1
 98
        0
  0
LINE
  5
1B4
330
1B1
100
AcDbEntity
  8
Cartouche
  6
Continuous
 62
     7
100
AcDbLine
 10
161.8497873972
 20
-67.954091816
 30
0.0
 11
161.8497873972
 21
648.4298040207
 31
0.0
  0
LINE
  5
1B5
330
1B1
100
AcDbEntity
  8
Cartouche
  6
Continuous
 62
     7
100
AcDbLine
 10
-538.1502126028
 20
583.0459106278
 30
0.0
 11
-538.1502126028
 21
648.4298040207
 31
0.0
  0
LINE
  5
1B6
330
1B1
100
AcDbEntity
  8
Cartouche
  6
Continuous
 62
     7
100
AcDbLine
 10
161.8497873972
 20
640.4298036408
 30
0.0
 11
-164.416858988
 21
640.4298036408
 31
0.0
  0
LINE
  5
1B7
330
1B1
100
AcDbEntity
  8
Cartouche
  6
Continuous
 62
     7
100
AcDbLine
 10
-211.8835364153
 20
640.4298036408
 30
0.0
 11
-538.1502126028
 21
640.4298036408
 31
0.0
  0
TEXT
  5
1B8
330
1B1
100
AcDbEntity
  8
Cartouche
  6
Continuous
 62
     7
100
AcDbText
 10
-206.2835399756
 20
632.4298036408
 30
0.0
 40
16.0
  1
700
  7
SEACAD_ArialB
 11
-206.2835399756
 21
648.4298036408
 31
0.0
100
AcDbText
 73
     3
  0
ENDBLK
  5
1BA
330
1B1
100
AcDbEntity
  8
0
100
AcDbBlockEnd
  0
BLOCK
  5
225
330
1BB
100
AcDbEntity
  8
0
100
AcDbBlockBegin
  2
SE3
 70
     0
 10
0.0
 20
0.0
 30
0.0
  3
SE3
  1

  0
ELLIPSE
  5
1BD
330
1BB
100
AcDbEntity
  8
H663_CACHE_PLATI
  6
Continuous
 62
     7
100
AcDbEllipse
 10
-228.3125243451
 20
-434.933811676
 30
0.0
 11
-8.749998816819385
 21
-15.15544524933727
 31
0.0
210
0.0
220
0.0
230
1.0
 40
0.5773502536
 41
0.0809004252022696
 42
0.2396185686290851
  0
ELLIPSE
  5
1BE
330
1BB
100
AcDbEntity
  8
H663_CACHE_PLATI
  6
Continuous
 62
     7
100
AcDbEllipse
 10
-228.3125243451
 20
-434.933811676
 30
0.0
 11
-8.749998816819385
 21
-15.15544524933727
 31
0.0
210
0.0
220
0.0
230
1.0
 40
0.5773502536
 41
2.901974084960701
 42
3.060692228387552
  0
ELLIPSE
  5
1BF
330
1BB
100
AcDbEntity
  8
H663_CACHE_PLATI
  6
Continuous
 62
     7
100
AcDbEllipse
 10
-236.0906993935
 20
-430.4430810276
 30
0.0
 11
-18.99999743080781
 21
-32.90896682713236
 31
0.0
210
0.0
220
0.0
230
1.0
 40
0.5773502536
 41
3.141592653589793
 42
6.283185307179585
  0
ELLIPSE
  5
1C0
330
1BB
100
AcDbEntity
  8
H663_CACHE_PLATI
  6
Continuous
 62
     7
100
AcDbEllipse
 10
-228.3125243451
 20
-434.933811676
 30
0.0
 11
-18.99999743080781
 21
-32.90896682713236
 31
0.0
210
0.0
220
0.0
230
1.0
 40
0.5773502536
 41
0.0
 42
0.0029079769749691
  0
ELLIPSE
  5
1C1
330
1BB
100
AcDbEntity
  8
H663_CACHE_PLATI
  6
Continuous
 62
     7
100
AcDbEllipse
 10
-228.3125243451
 20
-434.933811676
 30
0.0
 11
-18.99999743080781
 21
-32.90896682713236
 31
0.0
210
0.0
220
0.0
230
1.0
 40
0.5773502536
 41
3.114725898727458
 42
3.141592653589792
  0
ELLIPSE
  5
1C2
330
1BB
100
AcDbEntity
  8
H663_CACHE_PLATI
  6
Continuous
 62
     7
100
AcDbEllipse
 10
-228.3125243451
 20
-434.933811676
 30
0.0
 11
-18.99999743080781
 21
-32.90896682713236
 31
0.0
210
0.0
220
0.0
230
1.0
 40
0.5773502536
 41
3.141592653589792
 42
6.283185307179586
  0
ELLIPSE
  5
1C3
330
1BB
100
AcDbEntity
  8
H663_CACHE_PLATI
  6
Continuous
 62
     7
100
AcDbEllipse
 10
-226.8983106999
 20
-435.7503081575
 30
0.0
 11
-17.99999756602844
 21
-31.17691594149381
 31
0.0
210
0.0
220
0.0
230
1.0
 40
0.5773502536
 41
0.0
 42
1.088657882379281
  0
ELLIPSE
  5
1C4
330
1BB
100
AcDbEntity
  8
H663_CACHE_PLATI
  6
Continuous
 62
     7
100
AcDbEllipse
 10
-226.8983106999
 20
-435.7503081575
 30
0.0
 11
-17.99999756602844
 21
-31.17691594149381
 31
0.0
210
0.0
220
0.0
230
1.0
 40
0.5773502536
 41
2.085341864464311
 42
6.283185307179586
  0
ELLIPSE
  5
1C5
330
1BB
100
AcDbEntity
  8
H663_CACHE_PLATI
  6
Continuous
 62
     7
100
AcDbEllipse
 10
-226.8983106999
 20
-435.7503081575
 30
0.0
 11
-8.749998816819387
 21
-15.15544524933728
 31
0.0
210
0.0
220
0.0
230
1.0
 40
0.5773502536
 41
0.0
 42
0.2396185686290903
  0
ELLIPSE
  5
1C6
330
1BB
100
AcDbEntity
  8
H663_CACHE_PLATI
  6
Continuous
 62
     7
100
AcDbEllipse
 10
-226.8983106999
 20
-435.7503081575
 30
0.0
 11
-8.749998816819387
 21
-15.15544524933728
 31
0.0
210
0.0
220
0.0
230
1.0
 40
0.5773502536
 41
2.901974084960687
 42
6.283185307179584
  0
LINE
  5
1C7
330
1BB
100
AcDbEntity
  8
H663_CACHE_PLATI
  6
Continuous
 62
     7
100
AcDbLine
 10
-209.3125269143
 20
-402.0248448488
 30
0.0
 11
-217.0907019627
 21
-397.5341142005
 31
0.0
  0
LINE
  5
1C8
330
1BB
100
AcDbEntity
  8
H663_CACHE_PLATI
  6
Continuous
 62
     7
100
AcDbLine
 10
-255.0906968243
 20
-463.3520478547
 30
0.0
 11
-247.3125217759
 21
-467.8427785031
 31
0.0
  0
SPLINE
  5
1C9
330
1BB
100
AcDbEntity
  8
H663_CACHE_PLATI
  6
Continuous
 62
     7
100
AcDbSpline
210
0.0
220
0.0
230
1.0
 70
     8
 71
     3
 72
    18
 73
    14
 74
     0
 42
0.000000001
 43
0.0000000001
 40
0.0
 40
0.0
 40
0.0
 40
0.0
 40
0.0294433123043457
 40
0.0643301651780871
 40
0.099396440421913
 40
0.1348768284773025
 40
0.1708381701035211
 40
0.2071991388994175
 40
0.2438117896575687
 40
0.2805390762621335
 40
0.3172794905201805
 40
0.3539871470341477
 40
0.3568004302621263
 40
0.3568004302621263
 40
0.3568004302621263
 40
0.3568004302621263
 10
-247.2344321737483
 20
-467.8507098694745
 30
0.0
 10
-246.5294139681059
 20
-468.2332044612554
 30
0.0
 10
-245.2187123217076
 20
-468.9251915675891
 30
0.0
 10
-242.7485271274498
 20
-469.5935462230436
 30
0.0
 10
-240.0583886446742
 20
-469.8674211061422
 30
0.0
 10
-237.2043134269452
 20
-469.7001904602166
 30
0.0
 10
-234.2411794939488
 20
-469.0925734215468
 30
0.0
 10
-231.1953910018669
 20
-468.0467988964858
 30
0.0
 10
-228.109730786579
 20
-466.5744132600731
 30
0.0
 10
-225.0267965379532
 20
-464.6958957688556
 30
0.0
 10
-221.9886272125973
 20
-462.438836707779
 30
0.0
 10
-219.9424662289901
 20
-460.6357858474738
 30
0.0
 10
-218.9046671174235
 20
-459.6406362826664
 30
0.0
 10
-218.8309087975699
 20
-459.5694918553652
 30
0.0
  0
SPLINE
  5
1CA
330
1BB
100
AcDbEntity
  8
H663_CACHE_PLATI
  6
Continuous
 62
     7
100
AcDbSpline
210
0.0
220
0.0
230
1.0
 70
     8
 71
     3
 72
    17
 73
    13
 74
     0
 42
0.000000001
 43
0.0000000001
 40
0.6619771125633926
 40
0.6619771125633926
 40
0.6619771125633926
 40
0.6619771125633926
 40
0.6835397332758383
 40
0.7202964643007478
 40
0.7571246342569786
 40
0.7940192870863889
 40
0.8309457559124328
 40
0.8678039648738904
 40
0.9044474797567968
 40
0.9406958141236973
 40
0.9764177214328521
 40
1.0
 40
1.0
 40
1.0
 40
1.0
 10
-201.9624014999208
 20
-429.6680883894405
 30
0.0
 10
-201.7921998493577
 20
-428.9093235440836
 30
0.0
 10
-201.383680351183
 20
-426.8674447736012
 30
0.0
 10
-200.9506024270117
 20
-423.6006446211911
 30
0.0
 10
-200.7981575245141
 20
-419.9471392220979
 30
0.0
 10
-201.0024642541503
 20
-416.4712176261216
 30
0.0
 10
-201.5676245840988
 20
-413.2174948068394
 30
0.0
 10
-202.4917315586535
 20
-410.2347301806274
 30
0.0
 10
-203.7687128012767
 20
-407.560208775585
 30
0.0
 10
-205.3688600463577
 20
-405.2727550903034
 30
0.0
 10
-207.0898026385551
 20
-403.4985278241618
 30
0.0
 10
-208.240605145796
 20
-402.7541229961715
 30
0.0
 10
-208.7833278418915
 20
-402.4102448406974
 30
0.0
  0
ELLIPSE
  5
1CB
330
1BB
100
AcDbEntity
  8
H664_COUDE
  6
Continuous
 62
     7
100
AcDbEllipse
 10
-149.4701175597
 20
-441.6699048173
 30
0.0
 11
8.500000527815262
 21
-14.72243155960116
 31
0.0
210
0.0
220
0.0
230
1.0
 40
0.5773503129
 41
0.0
 42
3.141224592890957
  0
ELLIPSE
  5
1CC
330
1BB
100
AcDbEntity
  8
H664_COUDE
  6
Continuous
 62
     7
100
AcDbEllipse
 10
-149.4701175597
 20
-441.6699048173
 30
0.0
 11
8.500000527815262
 21
-14.72243155960116
 31
0.0
210
0.0
220
0.0
230
1.0
 40
0.5773503129
 41
6.282905679717508
 42
6.283185307179586
  0
ELLIPSE
  5
1CD
330
1BB
100
AcDbEntity
  8
H664_COUDE
  6
Continuous
 62
     7
100
AcDbEllipse
 10
-216.6452617724
 20
-441.6699076485
 30
0.0
 11
-8.499998850624538
 21
-14.72243252792763
 31
0.0
210
0.0
220
0.0
230
1.0
 40
0.5773502536
 41
3.144749504205926
 42
6.283185307179586
  0
ELLIPSE
  5
1CE
330
1BB
100
AcDbEntity
  8
H664_COUDE
  6
Continuous
 62
     7
100
AcDbEllipse
 10
-216.6452617724
 20
-441.6699076485
 30
0.0
 11
-8.499998850624538
 21
-14.72243252792763
 31
0.0
210
0.0
220
0.0
230
1.0
 40
0.5773502536
 41
0.0
 42
0.0002749698351305
  0
ELLIPSE
  5
1CF
330
1BB
100
AcDbEntity
  8
H664_COUDE
  6
Continuous
 62
     7
100
AcDbEllipse
 10
-132.1460024349
 20
-431.6678214584
 30
0.0
 11
8.500000527815263
 21
-14.72243155960117
 31
0.0
210
0.0
220
0.0
230
1.0
 40
0.5773503129
 41
0.0
 42
3.141592653589793
  0
ELLIPSE
  5
1D0
330
1BB
100
AcDbEntity
  8
H664_COUDE
  6
Continuous
 62
     7
100
AcDbEllipse
 10
-131.792449065
 20
-431.4636973082
 30
0.0
 11
-8.250000512291296
 21
14.28941886667172
 31
0.0
210
0.0
220
0.0
230
1.0
 40
0.5773503129
 41
3.911951935453756
 42
5.512826025384238
  0
LINE
  5
1D1
330
1BB
100
AcDbEntity
  8
H664_COUDE
  6
Continuous
 62
     7
100
AcDbLine
 10
-140.9701170319
 20
-456.3923363769
 30
0.0
 11
-123.6460019071
 21
-446.390253018
 31
0.0
  0
LINE
  5
1D2
330
1BB
100
AcDbEntity
  8
H664_COUDE
  6
Continuous
 62
     7
100
AcDbLine
 10
-140.6460029627
 20
-416.9453898988
 30
0.0
 11
-157.9701180875
 21
-426.9474732577
 31
0.0
  0
ARC
  5
1D3
330
1BB
100
AcDbEntity
  8
H664_COUDE
  6
Continuous
 62
     7
100
AcDbCircle
 10
-183.0576924368
 20
-374.9080028743
 30
0.0
 40
57.77103828489143
100
AcDbArc
 50
244.2618728672
 51
295.7381313874
  0
ARC
  5
1D4
330
1BB
100
AcDbEntity
  8
H664_COUDE
  6
Continuous
 62
     7
100
AcDbCircle
 10
-183.0576924844
 20
-375.3778040601
 30
0.0
 40
91.29467922050786
100
AcDbArc
 50
242.5478355582
 51
297.4521696143
  0
LINE
  5
1D5
330
1BB
100
AcDbEntity
  8
H664_COUDE
  6
Continuous
 62
     7
100
AcDbLine
 10
-237.4749655539
 20
-449.273782999
 30
0.0
 11
-225.1452606231
 21
-456.3923401764
 31
0.0
  0
LINE
  5
1D6
330
1BB
100
AcDbEntity
  8
H664_COUDE
  6
Continuous
 62
     7
100
AcDbLine
 10
-208.1452629218
 20
-426.9474751206
 30
0.0
 11
-220.4749678527
 21
-419.8289179432
 31
0.0
  0
ELLIPSE
  5
1D7
330
1BB
100
AcDbEntity
  8
H662_BARRE_480MM
  6
Continuous
 62
     7
100
AcDbEllipse
 10
310.1492693062
 20
-235.504508812
 30
0.0
 11
8.249998884429694
 21
14.28941980651803
 31
0.0
210
0.0
220
0.0
230
1.0
 40
0.5773502536
 41
0.7853981011772762
 42
2.371232289734429
  0
ELLIPSE
  5
1D8
330
1BB
100
AcDbEntity
  8
H662_BARRE_480MM
  6
Continuous
 62
     7
100
AcDbEllipse
 10
310.5028227175
 20
-235.7086329324
 30
0.0
 11
-8.499998850624598
 21
-14.72243252792764
 31
0.0
210
0.0
220
0.0
230
1.0
 40
0.5773502536
 41
3.141592653589793
 42
6.283185307179586
  0
ELLIPSE
  5
1D9
330
1BB
100
AcDbEntity
  8
H662_BARRE_480MM
  6
Continuous
 62
     7
100
AcDbEllipse
 10
649.2069907349
 20
-431.2595402562
 30
0.0
 11
8.499998850624559
 21
14.72243252792765
 31
0.0
210
0.0
220
0.0
230
1.0
 40
0.5773502536
 41
6.241578785807543
 42
6.283185307179586
  0
ELLIPSE
  5
1DA
330
1BB
100
AcDbEntity
  8
H662_BARRE_480MM
  6
Continuous
 62
     7
100
AcDbEllipse
 10
649.2069907349
 20
-431.2595402562
 30
0.0
 11
8.499998850624559
 21
14.72243252792765
 31
0.0
210
0.0
220
0.0
230
1.0
 40
0.5773502536
 41
3.14159265358979
 42
3.183199174961676
  0
ELLIPSE
  5
1DB
330
1BB
100
AcDbEntity
  8
H662_BARRE_480MM
  6
Continuous
 62
     7
100
AcDbEllipse
 10
649.2069907349
 20
-431.2595402562
 30
0.0
 11
8.499998850624559
 21
14.72243252792765
 31
0.0
210
0.0
220
0.0
230
1.0
 40
0.5773502536
 41
0.0
 42
3.14159265358979
  0
LINE
  5
1DC
330
1BB
100
AcDbEntity
  8
H662_BARRE_480MM
  6
Continuous
 62
     7
100
AcDbLine
 10
302.0028238668
 20
-250.4310654604
 30
0.0
 11
640.7069918842
 21
-445.9819727842
 31
0.0
  0
LINE
  5
1DD
330
1BB
100
AcDbEntity
  8
H662_BARRE_480MM
  6
Continuous
 62
     7
100
AcDbLine
 10
657.7069895855
 20
-416.5371077283
 30
0.0
 11
319.0028215681
 21
-220.9862004045
 31
0.0
  0
ELLIPSE
  5
1DE
330
1BB
100
AcDbEntity
  8
H663_CACHE_PLATI
  6
Continuous
 62
     7
100
AcDbEllipse
 10
746.08062013
 20
-434.9337706084
 30
0.0
 11
8.750000543339192
 21
-15.15544425253061
 31
0.0
210
0.0
220
0.0
230
1.0
 40
0.5773503129
 41
3.222493066307653
 42
3.381211222218888
  0
ELLIPSE
  5
1DF
330
1BB
100
AcDbEntity
  8
H663_CACHE_PLATI
  6
Continuous
 62
     7
100
AcDbEllipse
 10
746.08062013
 20
-434.9337706084
 30
0.0
 11
8.750000543339192
 21
-15.15544425253061
 31
0.0
210
0.0
220
0.0
230
1.0
 40
0.5773503129
 41
6.043566738550505
 42
6.202284894461744
  0
ELLIPSE
  5
1E0
330
1BB
100
AcDbEntity
  8
H663_CACHE_PLATI
  6
Continuous
 62
     7
100
AcDbEllipse
 10
753.8587942677
 20
-430.4430393044
 30
0.0
 11
19.0000011798224
 21
-32.90896466263795
 31
0.0
210
0.0
220
0.0
230
1.0
 40
0.5773503129
 41
0.0
 42
3.141592653589793
  0
ELLIPSE
  5
1E1
330
1BB
100
AcDbEntity
  8
H663_CACHE_PLATI
  6
Continuous
 62
     7
100
AcDbEllipse
 10
746.08062013
 20
-434.9337706084
 30
0.0
 11
19.00000117982232
 21
-32.90896466263791
 31
0.0
210
0.0
220
0.0
230
1.0
 40
0.5773503129
 41
0.0
 42
3.141592653589794
  0
ELLIPSE
  5
1E2
330
1BB
100
AcDbEntity
  8
H663_CACHE_PLATI
  6
Continuous
 62
     7
100
AcDbEllipse
 10
746.08062013
 20
-434.9337706084
 30
0.0
 11
19.00000117982232
 21
-32.90896466263791
 31
0.0
210
0.0
220
0.0
230
1.0
 40
0.5773503129
 41
3.141592653589794
 42
3.176663464890018
  0
ELLIPSE
  5
1E3
330
1BB
100
AcDbEntity
  8
H663_CACHE_PLATI
  6
Continuous
 62
     7
100
AcDbEllipse
 10
746.08062013
 20
-434.9337706084
 30
0.0
 11
19.00000117982232
 21
-32.90896466263791
 31
0.0
210
0.0
220
0.0
230
1.0
 40
0.5773503129
 41
6.258269879465124
 42
6.283185307179585
  0
ELLIPSE
  5
1E4
330
1BB
100
AcDbEntity
  8
H663_CACHE_PLATI
  6
Continuous
 62
     7
100
AcDbEllipse
 10
744.6664066504
 20
-435.7502672091
 30
0.0
 11
18.00000111772642
 21
-31.17691389092012
 31
0.0
210
0.0
220
0.0
230
1.0
 40
0.5773503129
 41
0.0
 42
4.197466241454594
  0
ELLIPSE
  5
1E5
330
1BB
100
AcDbEntity
  8
H663_CACHE_PLATI
  6
Continuous
 62
     7
100
AcDbEllipse
 10
744.6664066504
 20
-435.7502672091
 30
0.0
 11
18.00000111772642
 21
-31.17691389092012
 31
0.0
210
0.0
220
0.0
230
1.0
 40
0.5773503129
 41
5.196210904873706
 42
6.283185307179583
  0
ELLIPSE
  5
1E6
330
1BB
100
AcDbEntity
  8
H663_CACHE_PLATI
  6
Continuous
 62
     7
100
AcDbEllipse
 10
744.6664066504
 20
-435.7502672091
 30
0.0
 11
8.750000543339272
 21
-15.15544425253065
 31
0.0
210
0.0
220
0.0
230
1.0
 40
0.5773503129
 41
0.0
 42
3.381211222218892
  0
ELLIPSE
  5
1E7
330
1BB
100
AcDbEntity
  8
H663_CACHE_PLATI
  6
Continuous
 62
     7
100
AcDbEllipse
 10
744.6664066504
 20
-435.7502672091
 30
0.0
 11
8.750000543339272
 21
-15.15544425253065
 31
0.0
210
0.0
220
0.0
230
1.0
 40
0.5773503129
 41
6.043566738550512
 42
6.283185307179586
  0
LINE
  5
1E8
330
1BB
100
AcDbEntity
  8
H663_CACHE_PLATI
  6
Continuous
 62
     7
100
AcDbLine
 10
765.0806213098
 20
-467.842735271
 30
0.0
 11
772.8587954475
 21
-463.352003967
 31
0.0
  0
LINE
  5
1E9
330
1BB
100
AcDbEntity
  8
H663_CACHE_PLATI
  6
Continuous
 62
     7
100
AcDbLine
 10
734.8587930879
 20
-397.5340746417
 30
0.0
 11
727.0806189502
 21
-402.0248059457
 31
0.0
  0
SPLINE
  5
1EA
330
1BB
100
AcDbEntity
  8
H663_CACHE_PLATI
  6
Continuous
 62
     7
100
AcDbSpline
210
0.0
220
0.0
230
1.0
 70
     8
 71
     3
 72
    17
 73
    13
 74
     0
 42
0.000000001
 43
0.0000000001
 40
0.0
 40
0.0
 40
0.0
 40
0.0
 40
0.0197394031489777
 40
0.0666301073252306
 40
0.1137113265754305
 40
0.161321719422305
 40
0.2095798890397305
 40
0.2583959650992085
 40
0.3075755959359728
 40
0.3569290180916322
 40
0.4063140219417194
 40
0.4511803841953289
 40
0.4511803841953289
 40
0.4511803841953289
 40
0.4511803841953289
 10
726.3884820193952
 20
-402.5219405770749
 30
0.0
 10
726.0458828569033
 20
-402.7282800909461
 30
0.0
 10
725.0639101068788
 20
-403.3277101294191
 30
0.0
 10
723.5012482288956
 20
-404.86494676953
 30
0.0
 10
721.8784140793903
 20
-407.0017504159954
 30
0.0
 10
720.5583207748289
 20
-409.519495227572
 30
0.0
 10
719.5620365588711
 20
-412.3506218223488
 30
0.0
 10
718.9025469653401
 20
-415.4779840544337
 30
0.0
 10
718.5915382575332
 20
-418.8583201754095
 30
0.0
 10
718.6335473580273
 20
-422.4455230050714
 30
0.0
 10
719.0145614962471
 20
-426.0761555098999
 30
0.0
 10
719.4732933576588
 20
-428.5249327621716
 30
0.0
 10
719.7376037178548
 20
-429.6997264443787
 30
0.0
  0
SPLINE
  5
1EB
330
1BB
100
AcDbEntity
  8
H663_CACHE_PLATI
  6
Continuous
 62
     7
100
AcDbSpline
210
0.0
220
0.0
230
1.0
 70
     8
 71
     3
 72
    10
 73
     6
 74
     0
 42
0.000000001
 43
0.0000000001
 40
0.8609531725113088
 40
0.8609531725113088
 40
0.8609531725113088
 40
0.8609531725113088
 40
0.8985985698998815
 40
0.94799117770452
 40
1.0
 40
1.0
 40
1.0
 40
1.0
 10
736.5970261850077
 20
-459.5675220366794
 30
0.0
 10
737.3294083655384
 20
-460.2739269189713
 30
0.0
 10
739.0500433940144
 20
-461.8378115224621
 30
0.0
 10
741.9358035005207
 20
-464.1148882279554
 30
0.0
 10
743.8912656205582
 20
-465.3314054412199
 30
0.0
 10
745.0806206332182
 20
-466.0596991238833
 30
0.0
  0
ARC
  5
1EC
330
1BB
100
AcDbEntity
  8
H663_CACHE_PLATI
  6
Continuous
 62
     7
100
AcDbCircle
 10
756.6309428103
 20
-449.6367041521
 30
0.0
 40
20.07796568968322
100
AcDbArc
 50
234.8812101528
 51
293.1692239347
  0
ELLIPSE
  5
1ED
330
1BB
100
AcDbEntity
  8
H664_COUDE
  6
Continuous
 62
     7
100
AcDbEllipse
 10
667.2382147107
 20
-441.6698703956
 30
0.0
 11
-8.499998850624637
 21
-14.72243252792768
 31
0.0
210
0.0
220
0.0
230
1.0
 40
0.5773502536
 41
0.0
 42
0.0000920782601013
  0
ELLIPSE
  5
1EE
330
1BB
100
AcDbEntity
  8
H664_COUDE
  6
Continuous
 62
     7
100
AcDbEllipse
 10
667.2382147107
 20
-441.6698703956
 30
0.0
 11
-8.499998850624637
 21
-14.72243252792768
 31
0.0
210
0.0
220
0.0
230
1.0
 40
0.5773502536
 41
3.144480445468705
 42
6.283185307179582
  0
ELLIPSE
  5
1EF
330
1BB
100
AcDbEntity
  8
H664_COUDE
  6
Continuous
 62
     7
100
AcDbEllipse
 10
734.4133589235
 20
-441.6698675644
 30
0.0
 11
-8.500000527815292
 21
14.72243155960108
 31
0.0
210
0.0
220
0.0
230
1.0
 40
0.5773503129
 41
3.141486825051976
 42
6.280031574918727
  0
ELLIPSE
  5
1F0
330
1BB
100
AcDbEntity
  8
H664_COUDE
  6
Continuous
 62
     7
100
AcDbEllipse
 10
649.9140975574
 20
-431.667788497
 30
0.0
 11
-8.499998850624559
 21
-14.72243252792766
 31
0.0
210
0.0
220
0.0
230
1.0
 40
0.5773502536
 41
3.14159265358979
 42
6.283185307179583
  0
ELLIPSE
  5
1F1
330
1BB
100
AcDbEntity
  8
H664_COUDE
  6
Continuous
 62
     7
100
AcDbEllipse
 10
649.5605441462
 20
-431.4636643766
 30
0.0
 11
8.249998884429735
 21
14.28941980651801
 31
0.0
210
0.0
220
0.0
230
1.0
 40
0.5773502536
 41
0.7703591141667125
 42
2.371233533942332
  0
LINE
  5
1F2
330
1BB
100
AcDbEntity
  8
H664_COUDE
  6
Continuous
 62
     7
100
AcDbLine
 10
675.7382135614
 20
-426.9474378677
 30
0.0
 11
658.4140964081
 21
-416.9453559691
 31
0.0
  0
LINE
  5
1F3
330
1BB
100
AcDbEntity
  8
H664_COUDE
  6
Continuous
 62
     7
100
AcDbLine
 10
641.4140987068
 20
-446.3902210249
 30
0.0
 11
658.7382158601
 21
-456.3923029235
 31
0.0
  0
ARC
  5
1F4
330
1BB
100
AcDbEntity
  8
H664_COUDE
  6
Continuous
 62
     7
100
AcDbCircle
 10
700.8257839988
 20
-375.3777668072
 30
0.0
 40
91.2946792205073
100
AcDbArc
 50
242.5478355582
 51
297.4521696143
  0
ARC
  5
1F5
330
1BB
100
AcDbEntity
  8
H664_COUDE
  6
Continuous
 62
     7
100
AcDbCircle
 10
700.8257840464
 20
-374.9079656214
 30
0.0
 40
57.77103828489133
100
AcDbArc
 50
244.2618728672
 51
295.7381313874
  0
LINE
  5
1F6
330
1BB
100
AcDbEntity
  8
H664_COUDE
  6
Continuous
 62
     7
100
AcDbLine
 10
738.2430622025
 20
-419.8288776035
 30
0.0
 11
725.9133583956
 21
-426.9474360048
 31
0.0
  0
LINE
  5
1F7
330
1BB
100
AcDbEntity
  8
H664_COUDE
  6
Continuous
 62
     7
100
AcDbLine
 10
742.9133594513
 20
-456.392299124
 30
0.0
 11
755.2430632582
 21
-449.2737407227
 31
0.0
  0
LINE
  5
1F8
330
1BB
100
AcDbEntity
  8
H663_TÉ_LONG
  6
Continuous
 62
     7
100
AcDbLine
 10
175.7989816254
 20
-234.2457777366
 30
0.0
 11
175.7989818471
 21
-239.9952444357
 31
0.0
  0
ELLIPSE
  5
1F9
330
1BB
100
AcDbEntity
  8
H663_TÉ_LONG
  6
Continuous
 62
     7
100
AcDbEllipse
 10
175.7989827436
 20
-253.8756866498
 30
0.0
 11
24.0416305603426
 21
1.369420573466007E-6
 31
0.0
210
0.0
220
0.0
230
1.0
 40
0.5773502833
 41
1.570796301137095
 42
2.356194453629975
  0
ELLIPSE
  5
1FA
330
1BB
100
AcDbEntity
  8
H663_TÉ_LONG
  6
Continuous
 62
     7
100
AcDbEllipse
 10
207.2652326642
 20
-235.7086372836
 30
0.0
 11
8.500000527815292
 21
-14.72243155960116
 31
0.0
210
0.0
220
0.0
230
1.0
 40
0.5773503129
 41
0.0000000000000001
 42
3.141592653589792
  0
ELLIPSE
  5
1FB
330
1BB
100
AcDbEntity
  8
H663_TÉ_LONG
  6
Continuous
 62
     7
100
AcDbEllipse
 10
207.6187860341
 20
-235.5045131334
 30
0.0
 11
-8.250000512291297
 21
14.28941886667171
 31
0.0
210
0.0
220
0.0
230
1.0
 40
0.5773503129
 41
3.911952041110657
 42
5.512825895359293
  0
ELLIPSE
  5
1FC
330
1BB
100
AcDbEntity
  8
H663_TÉ_LONG
  6
Continuous
 62
     7
100
AcDbEllipse
 10
144.3327328229
 20
-272.042736016
 30
0.0
 11
-8.500000527815313
 21
14.72243155960113
 31
0.0
210
0.0
220
0.0
230
1.0
 40
0.5773503129
 41
3.141592653589781
 42
6.283185307179586
  0
LINE
  5
1FD
330
1BB
100
AcDbEntity
  8
H663_TÉ_LONG
  6
Continuous
 62
     7
100
AcDbLine
 10
152.8327333507
 20
-286.7651675756
 30
0.0
 11
215.765233192
 21
-250.4310688432
 31
0.0
  0
LINE
  5
1FE
330
1BB
100
AcDbEntity
  8
H663_TÉ_LONG
  6
Continuous
 62
     7
100
AcDbLine
 10
158.7989828061
 20
-244.0607324438
 30
0.0
 11
135.8327322951
 21
-257.3203044564
 31
0.0
  0
LINE
  5
1FF
330
1BB
100
AcDbEntity
  8
H663_TÉ_LONG
  6
Continuous
 62
     7
100
AcDbLine
 10
198.7652321364
 20
-220.986205724
 30
0.0
 11
175.7989816254
 21
-234.2457777366
 31
0.0
  0
LINE
  5
200
330
1BB
100
AcDbEntity
  8
H663_TÉ_LONG
  6
Continuous
 62
     7
100
AcDbLine
 10
175.7989816254
 20
-234.2457777366
 30
0.0
 11
138.3817025906
 21
-212.6429055084
 31
0.0
  0
LINE
  5
201
330
1BB
100
AcDbEntity
  8
H663_TÉ_LONG
  6
Continuous
 62
     7
100
AcDbLine
 10
121.3817048894
 20
-242.0877705642
 30
0.0
 11
141.7989815005
 21
-253.8756885864
 31
0.0
  0
ELLIPSE
  5
202
330
1BB
100
AcDbEntity
  8
H663_CACHE_PLATI
  6
Continuous
 62
     7
100
AcDbEllipse
 10
130.5441460982
 20
-227.7477992412
 30
0.0
 11
8.749998816819366
 21
15.15544524933731
 31
0.0
210
0.0
220
0.0
230
1.0
 40
0.5773502536
 41
3.222493076918571
 42
3.381211222218911
  0
ELLIPSE
  5
203
330
1BB
100
AcDbEntity
  8
H663_CACHE_PLATI
  6
Continuous
 62
     7
100
AcDbEllipse
 10
130.5441460982
 20
-227.7477992412
 30
0.0
 11
8.749998816819366
 21
15.15544524933731
 31
0.0
210
0.0
220
0.0
230
1.0
 40
0.5773502536
 41
6.043566738550499
 42
6.202284884504234
  0
ELLIPSE
  5
204
330
1BB
100
AcDbEntity
  8
H663_CACHE_PLATI
  6
Continuous
 62
     7
100
AcDbEllipse
 10
122.7659710498
 20
-223.2570685928
 30
0.0
 11
18.99999743080787
 21
32.9089668271324
 31
0.0
210
0.0
220
0.0
230
1.0
 40
0.5773502536
 41
0.0
 42
3.141592653589793
  0
ELLIPSE
  5
205
330
1BB
100
AcDbEntity
  8
H663_CACHE_PLATI
  6
Continuous
 62
     7
100
AcDbEllipse
 10
130.5441460982
 20
-227.7477992412
 30
0.0
 11
18.99999743080784
 21
32.90896682713234
 31
0.0
210
0.0
220
0.0
230
1.0
 40
0.5773502536
 41
0.0
 42
3.141592653589793
  0
ELLIPSE
  5
206
330
1BB
100
AcDbEntity
  8
H663_CACHE_PLATI
  6
Continuous
 62
     7
100
AcDbEllipse
 10
130.5441460982
 20
-227.7477992412
 30
0.0
 11
18.99999743080784
 21
32.90896682713234
 31
0.0
210
0.0
220
0.0
230
1.0
 40
0.5773502536
 41
3.141592653589793
 42
3.176663435883272
  0
ELLIPSE
  5
207
330
1BB
100
AcDbEntity
  8
H663_CACHE_PLATI
  6
Continuous
 62
     7
100
AcDbEllipse
 10
130.5441460982
 20
-227.7477992412
 30
0.0
 11
18.99999743080784
 21
32.90896682713234
 31
0.0
210
0.0
220
0.0
230
1.0
 40
0.5773502536
 41
6.258269868929536
 42
6.283185307179585
  0
ELLIPSE
  5
208
330
1BB
100
AcDbEntity
  8
H663_CACHE_PLATI
  6
Continuous
 62
     7
100
AcDbEllipse
 10
131.9583597434
 20
-228.5642957227
 30
0.0
 11
17.99999756602848
 21
31.17691594149378
 31
0.0
210
0.0
220
0.0
230
1.0
 40
0.5773502536
 41
0.0
 42
4.220578885819247
  0
ELLIPSE
  5
209
330
1BB
100
AcDbEntity
  8
H663_CACHE_PLATI
  6
Continuous
 62
     7
100
AcDbEllipse
 10
131.9583597434
 20
-228.5642957227
 30
0.0
 11
17.99999756602848
 21
31.17691594149378
 31
0.0
210
0.0
220
0.0
230
1.0
 40
0.5773502536
 41
5.204199074950132
 42
6.283185307179585
  0
ELLIPSE
  5
20A
330
1BB
100
AcDbEntity
  8
H663_CACHE_PLATI
  6
Continuous
 62
     7
100
AcDbEllipse
 10
131.9583597434
 20
-228.5642957227
 30
0.0
 11
8.749998816819344
 21
15.1554452493373
 31
0.0
210
0.0
220
0.0
230
1.0
 40
0.5773502536
 41
0.0000000000000018
 42
3.38121122221889
  0
ELLIPSE
  5
20B
330
1BB
100
AcDbEntity
  8
H663_CACHE_PLATI
  6
Continuous
 62
     7
100
AcDbEllipse
 10
131.9583597434
 20
-228.5642957227
 30
0.0
 11
8.749998816819344
 21
15.1554452493373
 31
0.0
210
0.0
220
0.0
230
1.0
 40
0.5773502536
 41
6.043566738550497
 42
6.283185307179586
  0
LINE
  5
20C
330
1BB
100
AcDbEntity
  8
H663_CACHE_PLATI
  6
Continuous
 62
     7
100
AcDbLine
 10
149.544143529
 20
-194.838832414
 30
0.0
 11
141.7659684806
 21
-190.3481017657
 31
0.0
  0
LINE
  5
20D
330
1BB
100
AcDbEntity
  8
H663_CACHE_PLATI
  6
Continuous
 62
     7
100
AcDbLine
 10
103.765973619
 20
-256.1660354199
 30
0.0
 11
111.5441486674
 21
-260.6567660683
 31
0.0
  0
SPLINE
  5
20E
330
1BB
100
AcDbEntity
  8
H663_CACHE_PLATI
  6
Continuous
 62
     7
100
AcDbSpline
210
0.0
220
0.0
230
1.0
 70
     8
 71
     3
 72
    18
 73
    14
 74
     0
 42
0.000000001
 43
0.0000000001
 40
0.0
 40
0.0
 40
0.0
 40
0.0
 40
0.0197393873494111
 40
0.0666300918859707
 40
0.1137113113446248
 40
0.1613217045068468
 40
0.2095798747076341
 40
0.258395951630031
 40
0.307575583518542
 40
0.3569290068076527
 40
0.4063140117919682
 40
0.4556586848190758
 40
0.4601791792140376
 40
0.4601791792140376
 40
0.4601791792140376
 40
0.4601791792140376
 10
112.3207476801073
 20
-261.0076065506518
 30
0.0
 10
112.6707421979549
 20
-261.2011362169352
 30
0.0
 10
113.6808498583514
 20
-261.7518344268665
 30
0.0
 10
115.7934662806079
 20
-262.3365209136077
 30
0.0
 10
118.4554093063286
 20
-262.6735347405242
 30
0.0
 10
121.2958866460078
 20
-262.5578967091347
 30
0.0
 10
124.2458560336593
 20
-262.0051408924188
 30
0.0
 10
127.2839757161458
 20
-261.0125945535964
 30
0.0
 10
130.366936791617
 20
-259.591767964704
 30
0.0
 10
133.4525408109945
 20
-257.7617856250826
 30
0.0
 10
136.4983649584646
 20
-255.5496008655922
 30
0.0
 10
138.5678209759217
 20
-253.76198676968
 30
0.0
 10
139.6250745574019
 20
-252.7660748123128
 30
0.0
 10
139.7136398240791
 20
-252.6820541969024
 30
0.0
  0
SPLINE
  5
20F
330
1BB
100
AcDbEntity
  8
H663_CACHE_PLATI
  6
Continuous
 62
     7
100
AcDbSpline
210
0.0
220
0.0
230
1.0
 70
     8
 71
     3
 72
    10
 73
     6
 74
     0
 42
0.000000001
 43
0.0000000001
 40
0.8665223342923185
 40
0.8665223342923185
 40
0.8665223342923185
 40
0.8665223342923185
 40
0.8985985697399513
 40
0.9479911785147308
 40
1.0
 40
1.0
 40
1.0
 40
1.0
 10
156.7262945321432
 20
-223.2060027460967
 30
0.0
 10
156.9275255464017
 20
-222.3657158286137
 30
0.0
 10
157.3802078488615
 20
-220.2387392855296
 30
0.0
 10
157.8881414325492
 20
-216.7467573074742
 30
0.0
 10
157.9639453217261
 20
-214.4450188577505
 30
0.0
 10
157.9999887306691
 20
-213.0508604030152
 30
0.0
  0
ARC
  5
210
330
1BB
100
AcDbEntity
  8
H663_CACHE_PLATI
  6
Continuous
 62
     7
100
AcDbCircle
 10
138.0020978398
 20
-211.2594835363
 30
0.0
 40
20.07796481618114
100
AcDbArc
 50
354.8812044133
 51
53.1692233347
  0
ELLIPSE
  5
211
330
1BB
100
AcDbEntity
  8
H664_COUDE
  6
Continuous
 62
     7
100
AcDbEllipse
 10
225.2964545289
 20
-225.2983056243
 30
0.0
 11
-8.500000527815216
 21
14.72243155960121
 31
0.0
210
0.0
220
0.0
230
1.0
 40
0.5773503129
 41
3.138438921326294
 42
6.283079478571481
  0
ELLIPSE
  5
212
330
1BB
100
AcDbEntity
  8
H664_COUDE
  6
Continuous
 62
     7
100
AcDbEllipse
 10
292.4715987416
 20
-225.2983027931
 30
0.0
 11
-8.499998850624559
 21
-14.72243252792761
 31
0.0
210
0.0
220
0.0
230
1.0
 40
0.5773502536
 41
0.0
 42
0.0028877918723766
  0
ELLIPSE
  5
213
330
1BB
100
AcDbEntity
  8
H664_COUDE
  6
Continuous
 62
     7
100
AcDbEllipse
 10
292.4715987416
 20
-225.2983027931
 30
0.0
 11
-8.499998850624559
 21
-14.72243252792761
 31
0.0
210
0.0
220
0.0
230
1.0
 40
0.5773502536
 41
3.141684731822162
 42
6.283185307179586
  0
ELLIPSE
  5
214
330
1BB
100
AcDbEntity
  8
H664_COUDE
  6
Continuous
 62
     7
100
AcDbEllipse
 10
309.7957158949
 20
-235.3003846917
 30
0.0
 11
8.499998850624561
 21
14.72243252792768
 31
0.0
210
0.0
220
0.0
230
1.0
 40
0.5773502536
 41
6.241578785824604
 42
6.283185307179586
  0
ELLIPSE
  5
215
330
1BB
100
AcDbEntity
  8
H664_COUDE
  6
Continuous
 62
     7
100
AcDbEllipse
 10
309.7957158949
 20
-235.3003846917
 30
0.0
 11
8.499998850624561
 21
14.72243252792768
 31
0.0
210
0.0
220
0.0
230
1.0
 40
0.5773502536
 41
3.14159265358979
 42
3.18319917495195
  0
ELLIPSE
  5
216
330
1BB
100
AcDbEntity
  8
H664_COUDE
  6
Continuous
 62
     7
100
AcDbEllipse
 10
309.7957158949
 20
-235.3003846917
 30
0.0
 11
8.499998850624561
 21
14.72243252792768
 31
0.0
210
0.0
220
0.0
230
1.0
 40
0.5773502536
 41
0.0
 42
3.14159265358979
  0
ELLIPSE
  5
217
330
1BB
100
AcDbEntity
  8
H664_COUDE
  6
Continuous
 62
     7
100
AcDbEllipse
 10
207.972339404
 20
-235.3003889832
 30
0.0
 11
-8.500000527815294
 21
14.72243155960114
 31
0.0
210
0.0
220
0.0
230
1.0
 40
0.5773503129
 41
3.141592653589794
 42
6.283185307179586
  0
LINE
  5
218
330
1BB
100
AcDbEntity
  8
H664_COUDE
  6
Continuous
 62
     7
100
AcDbLine
 10
216.796454001
 20
-210.5758740647
 30
0.0
 11
199.4723388762
 21
-220.5779574236
 31
0.0
  0
LINE
  5
219
330
1BB
100
AcDbEntity
  8
H664_COUDE
  6
Continuous
 62
     7
100
AcDbLine
 10
216.4723399318
 20
-250.0228205428
 30
0.0
 11
233.7964550567
 21
-240.0207371839
 31
0.0
  0
ARC
  5
21A
330
1BB
100
AcDbEntity
  8
H664_COUDE
  6
Continuous
 62
     7
100
AcDbCircle
 10
258.8840294059
 20
-292.0602075673
 30
0.0
 40
57.77103828489174
100
AcDbArc
 50
64.2618728672
 51
115.7381313874
  0
ARC
  5
21B
330
1BB
100
AcDbEntity
  8
H664_COUDE
  6
Continuous
 62
     7
100
AcDbCircle
 10
258.8840294535
 20
-291.5904063815
 30
0.0
 40
91.2946792205067
100
AcDbArc
 50
62.5478355582
 51
117.4521696143
  0
LINE
  5
21C
330
1BB
100
AcDbEntity
  8
H664_COUDE
  6
Continuous
 62
     7
100
AcDbLine
 10
318.2957147455
 20
-220.5779521637
 30
0.0
 11
300.9715975922
 21
-210.5758702651
 31
0.0
  0
LINE
  5
21D
330
1BB
100
AcDbEntity
  8
H664_COUDE
  6
Continuous
 62
     7
100
AcDbLine
 10
283.971599891
 20
-240.020735321
 30
0.0
 11
301.2957170442
 21
-250.0228172196
 31
0.0
  0
ELLIPSE
  5
21E
330
1BB
100
AcDbEntity
  8
H662_BARRE_NYLON
  6
Continuous
 62
     7
100
AcDbEllipse
 10
-131.4388956951
 20
-431.259573158
 30
0.0
 11
-8.500000527815258
 21
14.72243155960118
 31
0.0
210
0.0
220
0.0
230
1.0
 40
0.5773503129
 41
3.141592653589791
 42
6.283185307179586
  0
ELLIPSE
  5
21F
330
1BB
100
AcDbEntity
  8
H662_BARRE_NYLON
  6
Continuous
 62
     7
100
AcDbEllipse
 10
-131.4388956951
 20
-431.259573158
 30
0.0
 11
-8.500000527815258
 21
14.72243155960118
 31
0.0
210
0.0
220
0.0
230
1.0
 40
0.5773503129
 41
3.099986138655642
 42
3.141592653589791
  0
ELLIPSE
  5
220
330
1BB
100
AcDbEntity
  8
H662_BARRE_NYLON
  6
Continuous
 62
     7
100
AcDbEllipse
 10
-131.4388956951
 20
-431.259573158
 30
0.0
 11
-8.500000527815258
 21
14.72243155960118
 31
0.0
210
0.0
220
0.0
230
1.0
 40
0.5773503129
 41
0.0
 42
0.0416065149419635
  0
ELLIPSE
  5
221
330
1BB
100
AcDbEntity
  8
H662_BARRE_NYLON
  6
Continuous
 62
     7
100
AcDbEllipse
 10
143.6256260831
 20
-272.4509843163
 30
0.0
 11
8.500000527815255
 21
-14.72243155960119
 31
0.0
210
0.0
220
0.0
230
1.0
 40
0.5773503129
 41
0.0
 42
3.141592653589793
  0
ELLIPSE
  5
222
330
1BB
100
AcDbEntity
  8
H662_BARRE_NYLON
  6
Continuous
 62
     7
100
AcDbEllipse
 10
143.979179453
 20
-272.2468601662
 30
0.0
 11
-8.250000512291278
 21
14.28941886667172
 31
0.0
210
0.0
220
0.0
230
1.0
 40
0.5773503129
 41
3.911952661833611
 42
5.512825088603129
  0
LINE
  5
223
330
1BB
100
AcDbEntity
  8
H662_BARRE_NYLON
  6
Continuous
 62
     7
100
AcDbLine
 10
-122.9388951673
 20
-445.9820047176
 30
0.0
 11
152.125626611
 21
-287.1734158759
 31
0.0
  0
LINE
  5
224
330
1BB
100
AcDbEntity
  8
H662_BARRE_NYLON
  6
Continuous
 62
     7
100
AcDbLine
 10
135.1256255553
 20
-257.7285527567
 30
0.0
 11
-139.9388962229
 21
-416.5371415984
 31
0.0
  0
ENDBLK
  5
226
330
1BB
100
AcDbEntity
  8
0
100
AcDbBlockEnd
  0
BLOCK
  5
257
330
227
100
AcDbEntity
  8
0
100
AcDbBlockBegin
  2
SE4
 70
     0
 10
0.0
 20
0.0
 30
0.0
  3
SE4
  1

  0
LINE
  5
229
330
227
100
AcDbEntity
  8
H663_CACHE_PLATI
  6
Continuous
 62
     7
100
AcDbLine
 10
161.8497873972
 20
781.8848085586
 30
0.0
 11
161.8497873972
 21
705.8848085586
 31
0.0
  0
LINE
  5
22A
330
227
100
AcDbEntity
  8
H663_CACHE_PLATI
  6
Continuous
 62
     7
100
AcDbLine
 10
150.8497873972
 20
781.8848085586
 30
0.0
 11
150.8497873972
 21
705.8848085586
 31
0.0
  0
LINE
  5
22B
330
227
100
AcDbEntity
  8
H663_CACHE_PLATI
  6
Continuous
 62
     7
100
AcDbLine
 10
148.8497873972
 20
779.8848085586
 30
0.0
 11
148.8497873972
 21
707.8848085586
 31
0.0
  0
LINE
  5
22C
330
227
100
AcDbEntity
  8
H663_CACHE_PLATI
  6
Continuous
 62
     7
100
AcDbLine
 10
150.8497873972
 20
705.8848085586
 30
0.0
 11
161.8497873972
 21
705.8848085586
 31
0.0
  0
LINE
  5
22D
330
227
100
AcDbEntity
  8
H663_CACHE_PLATI
  6
Continuous
 62
     7
100
AcDbLine
 10
161.8497873972
 20
781.8848085586
 30
0.0
 11
150.8497873972
 21
781.8848085586
 31
0.0
  0
ARC
  5
22E
330
227
100
AcDbEntity
  8
H663_CACHE_PLATI
  6
Continuous
 62
     7
100
AcDbCircle
 10
150.8497873972
 20
707.8848085586
 30
0.0
 40
2.000000000000002
100
AcDbArc
 50
180.0
 51
270.0
  0
ARC
  5
22F
330
227
100
AcDbEntity
  8
H663_CACHE_PLATI
  6
Continuous
 62
     7
100
AcDbCircle
 10
150.8497873972
 20
779.8848085586
 30
0.0
 40
2.000000000000002
100
AcDbArc
 50
90.0
 51
180.0
  0
ARC
  5
230
330
227
100
AcDbEntity
  8
H664_COUDE
  6
Continuous
 62
     7
100
AcDbCircle
 10
86.8497873972
 20
743.8848085586
 30
0.0
 40
17.0
100
AcDbArc
 50
90.0
 51
270.0
  0
LINE
  5
231
330
227
100
AcDbEntity
  8
H664_COUDE
  6
Continuous
 62
     7
100
AcDbLine
 10
134.3497873972
 20
726.8848085586
 30
0.0
 11
134.3497873972
 21
760.8848085586
 31
0.0
  0
LINE
  5
232
330
227
100
AcDbEntity
  8
H664_COUDE
  6
Continuous
 62
     7
100
AcDbLine
 10
86.8497873972
 20
726.8848085586
 30
0.0
 11
134.3497873972
 21
726.8848085586
 31
0.0
  0
LINE
  5
233
330
227
100
AcDbEntity
  8
H664_COUDE
  6
Continuous
 62
     7
100
AcDbLine
 10
134.3497873972
 20
760.8848085586
 30
0.0
 11
86.8497873972
 21
760.8848085586
 31
0.0
  0
LINE
  5
234
330
227
100
AcDbEntity
  8
H664_COUDE
  6
Continuous
 62
     7
100
AcDbLine
 10
148.8497873972
 20
760.8848085586
 30
0.0
 11
134.3497873972
 21
760.8848085586
 31
0.0
  0
LINE
  5
235
330
227
100
AcDbEntity
  8
H664_COUDE
  6
Continuous
 62
     7
100
AcDbLine
 10
134.3497873972
 20
726.8848085586
 30
0.0
 11
148.8497873972
 21
726.8848085586
 31
0.0
  0
LINE
  5
236
330
227
100
AcDbEntity
  8
H662_BARRE_480MM
  6
Continuous
 62
     7
100
AcDbLine
 10
14.3497873972
 20
760.3848085586
 30
0.0
 11
14.3497873972
 21
727.3848085586
 31
0.0
  0
LINE
  5
237
330
227
100
AcDbEntity
  8
H662_BARRE_480MM
  6
Continuous
 62
     7
100
AcDbLine
 10
13.8497873972
 20
726.8848085586
 30
0.0
 11
13.8497873972
 21
760.8848085586
 31
0.0
  0
LINE
  5
238
330
227
100
AcDbEntity
  8
H662_BARRE_480MM
  6
Continuous
 62
     7
100
AcDbLine
 10
-465.1502126028
 20
760.8848085586
 30
0.0
 11
-465.1502126028
 21
726.8848085586
 31
0.0
  0
LINE
  5
239
330
227
100
AcDbEntity
  8
H662_BARRE_480MM
  6
Continuous
 62
     7
100
AcDbLine
 10
-465.6502126028
 20
727.3848085586
 30
0.0
 11
-465.6502126028
 21
760.3848085586
 31
0.0
  0
LINE
  5
23A
330
227
100
AcDbEntity
  8
H662_BARRE_480MM
  6
Continuous
 62
     7
100
AcDbLine
 10
13.8497873972
 20
760.8848085586
 30
0.0
 11
-465.1502126028
 21
760.8848085586
 31
0.0
  0
LINE
  5
23B
330
227
100
AcDbEntity
  8
H662_BARRE_480MM
  6
Continuous
 62
     7
100
AcDbLine
 10
-465.1502126028
 20
726.8848085586
 30
0.0
 11
13.8497873972
 21
726.8848085586
 31
0.0
  0
ARC
  5
23C
330
227
100
AcDbEntity
  8
H662_BARRE_480MM
  6
Continuous
 62
     7
100
AcDbCircle
 10
13.8497873972
 20
727.3848085586
 30
0.0
 40
0.5000000000000004
100
AcDbArc
 50
270.0
 51
0.0
  0
ARC
  5
23D
330
227
100
AcDbEntity
  8
H662_BARRE_480MM
  6
Continuous
 62
     7
100
AcDbCircle
 10
13.8497873972
 20
760.3848085586
 30
0.0
 40
0.5000000000000004
100
AcDbArc
 50
0.0
 51
90.0
  0
ARC
  5
23E
330
227
100
AcDbEntity
  8
H662_BARRE_480MM
  6
Continuous
 62
     7
100
AcDbCircle
 10
-465.1502126028
 20
760.3848085586
 30
0.0
 40
0.5000000000000004
100
AcDbArc
 50
90.0
 51
180.0
  0
ARC
  5
23F
330
227
100
AcDbEntity
  8
H662_BARRE_480MM
  6
Continuous
 62
     7
100
AcDbCircle
 10
-465.1502126028
 20
727.3848085586
 30
0.0
 40
0.4999999999999449
100
AcDbArc
 50
180.0
 51
270.0
  0
ARC
  5
240
330
227
100
AcDbEntity
  8
H663_CACHE_PLATI
  6
Continuous
 62
     7
100
AcDbCircle
 10
-538.1502126028
 20
743.8848085586
 30
0.0
 40
38.00000000000001
100
AcDbArc
 50
26.574969519
 51
333.425030481
  0
ARC
  5
241
330
227
100
AcDbEntity
  8
H663_CACHE_PLATI
  6
Continuous
 62
     7
100
AcDbCircle
 10
-538.1502126028
 20
743.8848085586
 30
0.0
 40
36.00000000000001
100
AcDbArc
 50
28.1786427405
 51
331.8213572595
  0
ARC
  5
242
330
227
100
AcDbEntity
  8
H663_CACHE_PLATI
  6
Continuous
 62
     7
100
AcDbCircle
 10
-538.1502126028
 20
743.8848085586
 30
0.0
 40
17.50000000000001
100
AcDbArc
 50
76.2708673246
 51
283.7291326754
  0
LINE
  5
243
330
227
100
AcDbEntity
  8
H664_COUDE
  6
Continuous
 62
     7
100
AcDbLine
 10
-490.6502126028
 20
726.8848085586
 30
0.0
 11
-490.6502126028
 21
760.8848085586
 31
0.0
  0
ARC
  5
244
330
227
100
AcDbEntity
  8
H664_COUDE
  6
Continuous
 62
     7
100
AcDbCircle
 10
-538.1502126028
 20
743.8848085586
 30
0.0
 40
17.0
100
AcDbArc
 50
90.0
 51
270.0
  0
LINE
  5
245
330
227
100
AcDbEntity
  8
H664_COUDE
  6
Continuous
 62
     7
100
AcDbLine
 10
-466.1502126028
 20
726.8848085586
 30
0.0
 11
-466.1502126028
 21
760.8848085586
 31
0.0
  0
LINE
  5
246
330
227
100
AcDbEntity
  8
H664_COUDE
  6
Continuous
 62
     7
100
AcDbLine
 10
-465.6502126028
 20
760.3848085586
 30
0.0
 11
-465.6502126028
 21
727.3848085586
 31
0.0
  0
LINE
  5
247
330
227
100
AcDbEntity
  8
H664_COUDE
  6
Continuous
 62
     7
100
AcDbLine
 10
-490.6502126028
 20
726.8848085586
 30
0.0
 11
-466.1502126028
 21
726.8848085586
 31
0.0
  0
LINE
  5
248
330
227
100
AcDbEntity
  8
H664_COUDE
  6
Continuous
 62
     7
100
AcDbLine
 10
-466.1502126028
 20
760.8848085586
 30
0.0
 11
-490.6502126028
 21
760.8848085586
 31
0.0
  0
LINE
  5
249
330
227
100
AcDbEntity
  8
H664_COUDE
  6
Continuous
 62
     7
100
AcDbLine
 10
-490.6502126028
 20
760.8848085586
 30
0.0
 11
-538.1502126028
 21
760.8848085586
 31
0.0
  0
LINE
  5
24A
330
227
100
AcDbEntity
  8
H664_COUDE
  6
Continuous
 62
     7
100
AcDbLine
 10
-538.1502126028
 20
726.8848085586
 30
0.0
 11
-490.6502126028
 21
726.8848085586
 31
0.0
  0
ARC
  5
24B
330
227
100
AcDbEntity
  8
H664_COUDE
  6
Continuous
 62
     7
100
AcDbCircle
 10
-466.1502126028
 20
760.3848085586
 30
0.0
 40
0.500000000000056
100
AcDbArc
 50
0.0
 51
90.0
  0
ARC
  5
24C
330
227
100
AcDbEntity
  8
H664_COUDE
  6
Continuous
 62
     7
100
AcDbCircle
 10
-466.1502126028
 20
727.3848085586
 30
0.0
 40
0.5000000000000004
100
AcDbArc
 50
270.0
 51
0.0
  0
ARC
  5
24D
330
227
100
AcDbEntity
  8
H663_TÉ_LONG
  6
Continuous
 62
     7
100
AcDbCircle
 10
86.8497873972
 20
743.8848085586
 30
0.0
 40
17.0
100
AcDbArc
 50
114.2034283393
 51
270.0
  0
LINE
  5
24E
330
227
100
AcDbEntity
  8
H664_COUDE
  6
Continuous
 62
     7
100
AcDbLine
 10
39.3497873972
 20
726.8848085586
 30
0.0
 11
39.3497873972
 21
760.8848085586
 31
0.0
  0
LINE
  5
24F
330
227
100
AcDbEntity
  8
H664_COUDE
  6
Continuous
 62
     7
100
AcDbLine
 10
14.3497873972
 20
727.3848085586
 30
0.0
 11
14.3497873972
 21
760.3848085586
 31
0.0
  0
LINE
  5
250
330
227
100
AcDbEntity
  8
H664_COUDE
  6
Continuous
 62
     7
100
AcDbLine
 10
14.8497873972
 20
760.8848085586
 30
0.0
 11
14.8497873972
 21
726.8848085586
 31
0.0
  0
LINE
  5
251
330
227
100
AcDbEntity
  8
H664_COUDE
  6
Continuous
 62
     7
100
AcDbLine
 10
39.3497873972
 20
726.8848085586
 30
0.0
 11
86.8497873972
 21
726.8848085586
 31
0.0
  0
LINE
  5
252
330
227
100
AcDbEntity
  8
H664_COUDE
  6
Continuous
 62
     7
100
AcDbLine
 10
86.8497873972
 20
760.8848085586
 30
0.0
 11
39.3497873972
 21
760.8848085586
 31
0.0
  0
LINE
  5
253
330
227
100
AcDbEntity
  8
H664_COUDE
  6
Continuous
 62
     7
100
AcDbLine
 10
14.8497873972
 20
726.8848085586
 30
0.0
 11
39.3497873972
 21
726.8848085586
 31
0.0
  0
LINE
  5
254
330
227
100
AcDbEntity
  8
H664_COUDE
  6
Continuous
 62
     7
100
AcDbLine
 10
39.3497873972
 20
760.8848085586
 30
0.0
 11
14.8497873972
 21
760.8848085586
 31
0.0
  0
ARC
  5
255
330
227
100
AcDbEntity
  8
H664_COUDE
  6
Continuous
 62
     7
100
AcDbCircle
 10
14.8497873972
 20
760.3848085586
 30
0.0
 40
0.5000000000000004
100
AcDbArc
 50
90.0
 51
180.0
  0
ARC
  5
256
330
227
100
AcDbEntity
  8
H664_COUDE
  6
Continuous
 62
     7
100
AcDbCircle
 10
14.8497873972
 20
727.3848085586
 30
0.0
 40
0.5000000000000004
100
AcDbArc
 50
180.0
 51
270.0
  0
ENDBLK
  5
258
330
227
100
AcDbEntity
  8
0
100
AcDbBlockEnd
  0
BLOCK
  5
28F
330
259
100
AcDbEntity
  8
0
100
AcDbBlockBegin
  2
SE5
 70
     0
 10
0.0
 20
0.0
 30
0.0
  3
SE5
  1

  0
LINE
  5
25B
330
259
100
AcDbEntity
  8
H663_CACHE_PLATI
  6
Continuous
 62
     7
100
AcDbLine
 10
421.7223300705
 20
710.2610576719
 30
0.0
 11
421.7223300705
 21
786.2610576719
 31
0.0
  0
LINE
  5
25C
330
259
100
AcDbEntity
  8
H663_CACHE_PLATI
  6
Continuous
 62
     7
100
AcDbLine
 10
432.7223300705
 20
710.2610576719
 30
0.0
 11
432.7223300705
 21
786.2610576719
 31
0.0
  0
LINE
  5
25D
330
259
100
AcDbEntity
  8
H663_CACHE_PLATI
  6
Continuous
 62
     7
100
AcDbLine
 10
434.7223300705
 20
712.2610576719
 30
0.0
 11
434.7223300705
 21
784.2610576719
 31
0.0
  0
LINE
  5
25E
330
259
100
AcDbEntity
  8
H663_CACHE_PLATI
  6
Continuous
 62
     7
100
AcDbLine
 10
432.7223300705
 20
786.2610576719
 30
0.0
 11
421.7223300705
 21
786.2610576719
 31
0.0
  0
LINE
  5
25F
330
259
100
AcDbEntity
  8
H663_CACHE_PLATI
  6
Continuous
 62
     7
100
AcDbLine
 10
421.7223300705
 20
710.2610576719
 30
0.0
 11
432.7223300705
 21
710.2610576719
 31
0.0
  0
ARC
  5
260
330
259
100
AcDbEntity
  8
H663_CACHE_PLATI
  6
Continuous
 62
     7
100
AcDbCircle
 10
432.7223300705
 20
784.2610576719
 30
0.0
 40
2.000000000000002
100
AcDbArc
 50
0.0
 51
90.0
  0
ARC
  5
261
330
259
100
AcDbEntity
  8
H663_CACHE_PLATI
  6
Continuous
 62
     7
100
AcDbCircle
 10
432.7223300705
 20
712.2610576719
 30
0.0
 40
2.000000000000002
100
AcDbArc
 50
270.0
 51
0.0
  0
ARC
  5
262
330
259
100
AcDbEntity
  8
H664_COUDE
  6
Continuous
 62
     7
100
AcDbCircle
 10
496.7223300705
 20
748.2610576719
 30
0.0
 40
17.0
100
AcDbArc
 50
0.0
 51
90.0
  0
ARC
  5
263
330
259
100
AcDbEntity
  8
H664_COUDE
  6
Continuous
 62
     7
100
AcDbCircle
 10
496.7223300705
 20
748.2610576719
 30
0.0
 40
17.0
100
AcDbArc
 50
270.0
 51
0.0
  0
LINE
  5
264
330
259
100
AcDbEntity
  8
H664_COUDE
  6
Continuous
 62
     7
100
AcDbLine
 10
449.2223300705
 20
765.2610576719
 30
0.0
 11
449.2223300705
 21
731.2610576719
 31
0.0
  0
LINE
  5
265
330
259
100
AcDbEntity
  8
H664_COUDE
  6
Continuous
 62
     7
100
AcDbLine
 10
496.7223300705
 20
765.2610576719
 30
0.0
 11
449.2223300705
 21
765.2610576719
 31
0.0
  0
LINE
  5
266
330
259
100
AcDbEntity
  8
H664_COUDE
  6
Continuous
 62
     7
100
AcDbLine
 10
449.2223300705
 20
731.2610576719
 30
0.0
 11
496.7223300705
 21
731.2610576719
 31
0.0
  0
LINE
  5
267
330
259
100
AcDbEntity
  8
H664_COUDE
  6
Continuous
 62
     7
100
AcDbLine
 10
434.7223300705
 20
731.2610576719
 30
0.0
 11
449.2223300705
 21
731.2610576719
 31
0.0
  0
LINE
  5
268
330
259
100
AcDbEntity
  8
H664_COUDE
  6
Continuous
 62
     7
100
AcDbLine
 10
449.2223300705
 20
765.2610576719
 30
0.0
 11
434.7223300705
 21
765.2610576719
 31
0.0
  0
LINE
  5
269
330
259
100
AcDbEntity
  8
H662_BARRE_480MM
  6
Continuous
 62
     7
100
AcDbLine
 10
569.2223300705
 20
731.7610576719
 30
0.0
 11
569.2223300705
 21
764.7610576719
 31
0.0
  0
LINE
  5
26A
330
259
100
AcDbEntity
  8
H662_BARRE_480MM
  6
Continuous
 62
     7
100
AcDbLine
 10
569.7223300705
 20
765.2610576719
 30
0.0
 11
569.7223300705
 21
731.2610576719
 31
0.0
  0
LINE
  5
26B
330
259
100
AcDbEntity
  8
H662_BARRE_480MM
  6
Continuous
 62
     7
100
AcDbLine
 10
1048.7223300705
 20
731.2610576719
 30
0.0
 11
1048.7223300705
 21
765.2610576719
 31
0.0
  0
LINE
  5
26C
330
259
100
AcDbEntity
  8
H662_BARRE_480MM
  6
Continuous
 62
     7
100
AcDbLine
 10
1049.2223300705
 20
764.7610576719
 30
0.0
 11
1049.2223300705
 21
731.7610576719
 31
0.0
  0
LINE
  5
26D
330
259
100
AcDbEntity
  8
H662_BARRE_480MM
  6
Continuous
 62
     7
100
AcDbLine
 10
569.7223300705
 20
731.2610576719
 30
0.0
 11
1048.7223300705
 21
731.2610576719
 31
0.0
  0
LINE
  5
26E
330
259
100
AcDbEntity
  8
H662_BARRE_480MM
  6
Continuous
 62
     7
100
AcDbLine
 10
1048.7223300705
 20
765.2610576719
 30
0.0
 11
569.7223300705
 21
765.2610576719
 31
0.0
  0
ARC
  5
26F
330
259
100
AcDbEntity
  8
H662_BARRE_480MM
  6
Continuous
 62
     7
100
AcDbCircle
 10
569.7223300705
 20
764.7610576719
 30
0.0
 40
0.5000000000000004
100
AcDbArc
 50
90.0
 51
180.0
  0
ARC
  5
270
330
259
100
AcDbEntity
  8
H662_BARRE_480MM
  6
Continuous
 62
     7
100
AcDbCircle
 10
569.7223300705
 20
731.7610576719
 30
0.0
 40
0.5000000000000004
100
AcDbArc
 50
180.0
 51
270.0
  0
ARC
  5
271
330
259
100
AcDbEntity
  8
H662_BARRE_480MM
  6
Continuous
 62
     7
100
AcDbCircle
 10
1048.7223300705
 20
731.7610576719
 30
0.0
 40
0.5000000000000004
100
AcDbArc
 50
270.0
 51
0.0
  0
ARC
  5
272
330
259
100
AcDbEntity
  8
H662_BARRE_480MM
  6
Continuous
 62
     7
100
AcDbCircle
 10
1048.7223300705
 20
764.7610576719
 30
0.0
 40
0.4999999999999449
100
AcDbArc
 50
0.0
 51
90.0
  0
ARC
  5
273
330
259
100
AcDbEntity
  8
H663_CACHE_PLATI
  6
Continuous
 62
     7
100
AcDbCircle
 10
1121.7223300705
 20
748.2610576719
 30
0.0
 40
38.00000000000001
100
AcDbArc
 50
0.0
 51
153.425030481
  0
ARC
  5
274
330
259
100
AcDbEntity
  8
H663_CACHE_PLATI
  6
Continuous
 62
     7
100
AcDbCircle
 10
1121.7223300705
 20
748.2610576719
 30
0.0
 40
38.00000000000001
100
AcDbArc
 50
206.574969519
 51
360.0
  0
ARC
  5
275
330
259
100
AcDbEntity
  8
H663_CACHE_PLATI
  6
Continuous
 62
     7
100
AcDbCircle
 10
1121.7223300705
 20
748.2610576719
 30
0.0
 40
36.00000000000001
100
AcDbArc
 50
0.0
 51
151.8213572595
  0
ARC
  5
276
330
259
100
AcDbEntity
  8
H663_CACHE_PLATI
  6
Continuous
 62
     7
100
AcDbCircle
 10
1121.7223300705
 20
748.2610576719
 30
0.0
 40
36.00000000000001
100
AcDbArc
 50
208.1786427405
 51
360.0
  0
ARC
  5
277
330
259
100
AcDbEntity
  8
H663_CACHE_PLATI
  6
Continuous
 62
     7
100
AcDbCircle
 10
1121.7223300705
 20
748.2610576719
 30
0.0
 40
17.50000000000001
100
AcDbArc
 50
0.0
 51
103.7291326754
  0
ARC
  5
278
330
259
100
AcDbEntity
  8
H663_CACHE_PLATI
  6
Continuous
 62
     7
100
AcDbCircle
 10
1121.7223300705
 20
748.2610576719
 30
0.0
 40
17.50000000000001
100
AcDbArc
 50
256.2708673246
 51
360.0
  0
LINE
  5
279
330
259
100
AcDbEntity
  8
H664_COUDE
  6
Continuous
 62
     7
100
AcDbLine
 10
1074.2223300705
 20
765.2610576719
 30
0.0
 11
1074.2223300705
 21
731.2610576719
 31
0.0
  0
ARC
  5
27A
330
259
100
AcDbEntity
  8
H664_COUDE
  6
Continuous
 62
     7
100
AcDbCircle
 10
1121.7223300705
 20
748.2610576719
 30
0.0
 40
17.0
100
AcDbArc
 50
270.0
 51
0.0
  0
ARC
  5
27B
330
259
100
AcDbEntity
  8
H664_COUDE
  6
Continuous
 62
     7
100
AcDbCircle
 10
1121.7223300705
 20
748.2610576719
 30
0.0
 40
17.0
100
AcDbArc
 50
0.0
 51
90.0
  0
LINE
  5
27C
330
259
100
AcDbEntity
  8
H664_COUDE
  6
Continuous
 62
     7
100
AcDbLine
 10
1049.7223300705
 20
765.2610576719
 30
0.0
 11
1049.7223300705
 21
731.2610576719
 31
0.0
  0
LINE
  5
27D
330
259
100
AcDbEntity
  8
H664_COUDE
  6
Continuous
 62
     7
100
AcDbLine
 10
1049.2223300705
 20
731.7610576719
 30
0.0
 11
1049.2223300705
 21
764.7610576719
 31
0.0
  0
LINE
  5
27E
330
259
100
AcDbEntity
  8
H664_COUDE
  6
Continuous
 62
     7
100
AcDbLine
 10
1074.2223300705
 20
765.2610576719
 30
0.0
 11
1049.7223300705
 21
765.2610576719
 31
0.0
  0
LINE
  5
27F
330
259
100
AcDbEntity
  8
H664_COUDE
  6
Continuous
 62
     7
100
AcDbLine
 10
1049.7223300705
 20
731.2610576719
 30
0.0
 11
1074.2223300705
 21
731.2610576719
 31
0.0
  0
LINE
  5
280
330
259
100
AcDbEntity
  8
H664_COUDE
  6
Continuous
 62
     7
100
AcDbLine
 10
1074.2223300705
 20
731.2610576719
 30
0.0
 11
1121.7223300705
 21
731.2610576719
 31
0.0
  0
LINE
  5
281
330
259
100
AcDbEntity
  8
H664_COUDE
  6
Continuous
 62
     7
100
AcDbLine
 10
1121.7223300705
 20
765.2610576719
 30
0.0
 11
1074.2223300705
 21
765.2610576719
 31
0.0
  0
ARC
  5
282
330
259
100
AcDbEntity
  8
H664_COUDE
  6
Continuous
 62
     7
100
AcDbCircle
 10
1049.7223300705
 20
731.7610576719
 30
0.0
 40
0.500000000000056
100
AcDbArc
 50
180.0
 51
270.0
  0
ARC
  5
283
330
259
100
AcDbEntity
  8
H664_COUDE
  6
Continuous
 62
     7
100
AcDbCircle
 10
1049.7223300705
 20
764.7610576719
 30
0.0
 40
0.5000000000000004
100
AcDbArc
 50
90.0
 51
180.0
  0
ARC
  5
284
330
259
100
AcDbEntity
  8
H663_TÉ_LONG
  6
Continuous
 62
     7
100
AcDbCircle
 10
496.7223300705
 20
748.2610576719
 30
0.0
 40
17.0
100
AcDbArc
 50
294.2034283393
 51
0.0
  0
ARC
  5
285
330
259
100
AcDbEntity
  8
H663_TÉ_LONG
  6
Continuous
 62
     7
100
AcDbCircle
 10
496.7223300705
 20
748.2610576719
 30
0.0
 40
17.0
100
AcDbArc
 50
0.0
 51
90.0
  0
LINE
  5
286
330
259
100
AcDbEntity
  8
H664_COUDE
  6
Continuous
 62
     7
100
AcDbLine
 10
544.2223300705
 20
765.2610576719
 30
0.0
 11
544.2223300705
 21
731.2610576719
 31
0.0
  0
LINE
  5
287
330
259
100
AcDbEntity
  8
H664_COUDE
  6
Continuous
 62
     7
100
AcDbLine
 10
569.2223300705
 20
764.7610576719
 30
0.0
 11
569.2223300705
 21
731.7610576719
 31
0.0
  0
LINE
  5
288
330
259
100
AcDbEntity
  8
H664_COUDE
  6
Continuous
 62
     7
100
AcDbLine
 10
568.7223300705
 20
731.2610576719
 30
0.0
 11
568.7223300705
 21
765.2610576719
 31
0.0
  0
LINE
  5
289
330
259
100
AcDbEntity
  8
H664_COUDE
  6
Continuous
 62
     7
100
AcDbLine
 10
544.2223300705
 20
765.2610576719
 30
0.0
 11
496.7223300705
 21
765.2610576719
 31
0.0
  0
LINE
  5
28A
330
259
100
AcDbEntity
  8
H664_COUDE
  6
Continuous
 62
     7
100
AcDbLine
 10
496.7223300705
 20
731.2610576719
 30
0.0
 11
544.2223300705
 21
731.2610576719
 31
0.0
  0
LINE
  5
28B
330
259
100
AcDbEntity
  8
H664_COUDE
  6
Continuous
 62
     7
100
AcDbLine
 10
568.7223300705
 20
765.2610576719
 30
0.0
 11
544.2223300705
 21
765.2610576719
 31
0.0
  0
LINE
  5
28C
330
259
100
AcDbEntity
  8
H664_COUDE
  6
Continuous
 62
     7
100
AcDbLine
 10
544.2223300705
 20
731.2610576719
 30
0.0
 11
568.7223300705
 21
731.2610576719
 31
0.0
  0
ARC
  5
28D
330
259
100
AcDbEntity
  8
H664_COUDE
  6
Continuous
 62
     7
100
AcDbCircle
 10
568.7223300705
 20
731.7610576719
 30
0.0
 40
0.5000000000000004
100
AcDbArc
 50
270.0
 51
0.0
  0
ARC
  5
28E
330
259
100
AcDbEntity
  8
H664_COUDE
  6
Continuous
 62
     7
100
AcDbCircle
 10
568.7223300705
 20
764.7610576719
 30
0.0
 40
0.5000000000000004
100
AcDbArc
 50
0.0
 51
90.0
  0
ENDBLK
  5
290
330
259
100
AcDbEntity
  8
0
100
AcDbBlockEnd
  0
ENDSEC
  0
SECTION
  2
ENTITIES
  0
LINE
  5
6F
330
1F
100
AcDbEntity
  8
encadrement
  6
Continuous
 62
     7
100
AcDbLine
 10
10.0
 20
80.035459542
 30
0.0
 11
200.0
 21
80.035459542
 31
0.0
  0
LINE
  5
70
330
1F
100
AcDbEntity
  8
encadrement
  6
Continuous
 62
     7
100
AcDbLine
 10
10.0
 20
65.035459542
 30
0.0
 11
200.0
 21
65.035459542
 31
0.0
  0
LINE
  5
71
330
1F
100
AcDbEntity
  8
encadrement
  6
Continuous
 62
     7
100
AcDbLine
 10
10.0
 20
55.035459542
 30
0.0
 11
200.0
 21
55.035459542
 31
0.0
  0
LINE
  5
72
330
1F
100
AcDbEntity
  8
encadrement
  6
Continuous
 62
     7
100
AcDbLine
 10
10.0
 20
45.035459542
 30
0.0
 11
200.0
 21
45.035459542
 31
0.0
  0
LINE
  5
73
330
1F
100
AcDbEntity
  8
encadrement
  6
Continuous
 62
     7
100
AcDbLine
 10
10.0
 20
35.035459542
 30
0.0
 11
200.0
 21
35.035459542
 31
0.0
  0
INSERT
  5
76
330
1F
100
AcDbEntity
  8
Cartouche
100
AcDbBlockReference
  2
SEANNOT_GROUP
 10
0.0
 20
0.0
 30
0.0
  0
MULTILEADER
  5
7E
330
1F
100
AcDbEntity
  8
Cartouche
  6
Continuous
 62
     7
 92
      816
310
300300000F0000000C00000013000000993A0000B800000026000000F56D0FFD4C777840317A326B038A6840000000000000000000000000000000000000000000000000000000000000F03F000000000000F03F00000000000000000000000000000000D80033003400000003000000010000000000000000003040000000
310
000000F03F0000000000000000000000000000F03F00000000000000000000000000000000000000000100000000000000000000002200000041007200690061006C00000000000000000000000C00000013000000112700000C0000001300000001000000880000001D00000095829CF8072532C08494BB6BFD6A2F400000
310
000000000000BF548FA1350C73408494BB6BFD6A2FC095829CF8072532C00000000000000000C5999019783164400000000000000000000000000000000000000000000038400000000000000000000000000000000000000000000000000000000000000000000000000000F03F0C00000012000000FF7F00005400000020
310
00000002000000000000000000000000000000000000000000000000000000000000000000F0BF0000000000000000000000000000000000000000000000000000000000000000000000000000F03F080000001F000000880000001D000000000000000000F03F000000000000000000000000000000000000000000000000
310
0000000000000000000000000000F03F0000000000000000000000000000000000000000000000000000000000000000000000000000F03F0000000000000000000000000000000000000000000000000000000000000000000000000000F03F080000001F0000000C00000013000000891300000C00000012000000000000
310
00540000002000000002000000E81C1921862E74400D534CF02728664000000000000000002CF7505D32287640AEB967C9BD936940000000000000000000000000000000000000000000000000000000000000F03F0C00000013000000112700005400000020000000020000002CF7505D32287640AEB967C9BD9369400000
310
0000000000002CF7505D32287840AEB967C9BD936940000000000000000000000000000000000000000000000000000000000000F03F
100
AcDbMLeader
300
CONTEXT_DATA{
 40
1.0
 10
390.1122960246
 20
198.6169173265
 30
0.0
 41
16.0
140
24.0
145
5.6
174
     1
175
     1
176
     0
177
     0
290
     1
304
{\pxsm0.9;\fArial|b1||i0||c0|p34;\W1.;%%c34\P}
 11
0.0
 21
0.0
 31
1.0
340
11
 12
392.1122960246
 22
213.0649173265
 32
0.0
 13
1.0
 23
0.0
 33
0.0
 42
0.0
 43
0.0
 44
0.0
 45
1.0
170
     1
 90
-1073741824
171
     1
172
     1
 91
-939524096
141
1.5
 92
        0
291
     0
292
     0
173
     0
293
     0
142
0.0
143
0.0
294
     0
295
     0
296
     0
110
0.0
120
0.0
130
0.0
111
1.0
121
0.0
131
0.0
112
0.0
122
1.0
132
0.0
297
     0
302
LEADER{
290
     1
291
     1
 10
354.5122960246
 20
204.6169173265
 30
0.0
 11
1.0
 21
0.0
 31
0.0
 90
        0
 40
32.0
304
LEADER_LINE{
 10
304.7630935286
 20
161.5459106278
 30
0.0
 91
        0
305
}
303
}
301
}
340
6C
 90
 35052448
170
     1
 91
-1056964608
341
14
171
    -2
290
     1
291
     1
 41
32.0
342
79
 42
4.0
172
     2
343
11
173
     1
 95
        1
174
     1
175
     0
 92
-1073741824
292
     0
 93
-1023410169
 10
1.0
 20
1.0
 30
1.0
 43
0.0
176
     0
293
     0
294
     0
178
     0
179
     1
 45
1.0
1001
ACAD_MLEADERVER
1070
     2
  0
INSERT
  5
80
330
1F
100
AcDbEntity
  8
Cartouche
100
AcDbBlockReference
  2
SE
 10
0.0
 20
0.0
 30
0.0
  0
INSERT
  5
CD
330
1F
100
AcDbEntity
  8
Cartouche
100
AcDbBlockReference
  2
SE1
 10
0.0
 20
0.0
 30
0.0
  0
INSERT
  5
132
330
1F
100
AcDbEntity
  8
Cartouche
100
AcDbBlockReference
  2
SE2
 10
0.0
 20
0.0
 30
0.0
  0
DIMENSION
  5
1A4
330
1F
100
AcDbEntity
  8
Cartouche
  6
Continuous
 62
     7
100
AcDbDimension
  2
DMBLK39
 10
214.7744805048
 20
-105.9540893722
 30
0.0
 11
214.7744805048
 21
244.0459165882
 31
0.0
 70
   160
  1
\A1;<>
 71
     5
 42
-1.0
 73
     0
 74
     0
 75
     0
  3
ISO
100
AcDbAlignedDimension
 13
-500.1502126028
 23
594.0459106278
 33
0.0
 14
161.8497873972
 24
-105.9540893722
 34
0.0
 50
90.0
100
AcDbRotatedDimension
  0
DIMENSION
  5
1B0
330
1F
100
AcDbEntity
  8
Cartouche
  6
Continuous
 62
     7
100
AcDbDimension
  2
DMBLK40
 10
-538.1502126028
 20
640.4298036408
 30
0.0
 11
-188.1502066423
 21
640.4298036408
 31
0.0
 70
   160
  1
\A1;<>
 71
     5
 42
-1.0
 73
     0
 74
     0
 75
     0
  3
ISO
100
AcDbAlignedDimension
 13
161.8497873972
 23
-143.9540893722
 33
0.0
 14
-538.1502126028
 24
583.0459106278
 34
0.0
100
AcDbRotatedDimension
  0
INSERT
  5
1BC
330
1F
100
AcDbEntity
  8
Cartouche
100
AcDbBlockReference
  2
SE3
 10
0.0
 20
0.0
 30
0.0
  0
INSERT
  5
228
330
1F
100
AcDbEntity
  8
Cartouche
100
AcDbBlockReference
  2
SE4
 10
0.0
 20
0.0
 30
0.0
  0
INSERT
  5
25A
330
1F
100
AcDbEntity
  8
Cartouche
100
AcDbBlockReference
  2
SE5
 10
0.0
 20
0.0
 30
0.0
  0
ENDSEC
  0
SECTION
  2
OBJECTS
  0
DICTIONARY
  5
C
330
0
100
AcDbDictionary
281
     1
  3
ACAD_DETAILVIEWSTYLE
350
2CC
  3
ACAD_GROUP
350
D
  3
ACAD_LAYOUT
350
1A
  3
ACAD_MATERIAL
350
43
  3
ACAD_MLEADERSTYLE
350
6B
  3
ACAD_MLINESTYLE
350
17
  3
ACAD_PLOTSETTINGS
350
19
  3
ACAD_PLOTSTYLENAME
350
E
  3
ACAD_SCALELIST
350
47
  3
ACAD_SECTIONVIEWSTYLE
350
2CD
  3
ACAD_TABLESTYLE
350
69
  3
ACAD_VISUALSTYLE
350
2A
  3
ACDB_RECOMPOSE_DATA
350
2C9
  3
AcDbVariableDictionary
350
292
  0
SUN
  5
6D
330
29
100
AcDbSun
 90
        1
290
     0
 63
     7
421
 16777215
 40
1.0
291
     1
 91
  2455826
 92
 54000000
292
     0
 70
     2
 71
   256
280
     1
  0
DICTIONARY
  5
2CC
102
{ACAD_REACTORS
330
C
102
}
330
C
100
AcDbDictionary
281
     1
  0
DICTIONARY
  5
D
102
{ACAD_REACTORS
330
C
102
}
330
C
100
AcDbDictionary
281
     1
  0
DICTIONARY
  5
1A
102
{ACAD_REACTORS
330
C
102
}
330
C
100
AcDbDictionary
281
     1
  3
Layout1
350
1E
  3
Model
350
22
  0
DICTIONARY
  5
43
102
{ACAD_REACTORS
330
C
102
}
330
C
100
AcDbDictionary
281
     1
  3
ByBlock
350
45
  3
ByLayer
350
44
  3
Global
350
46
  0
DICTIONARY
  5
6B
102
{ACAD_REACTORS
330
C
102
}
330
C
100
AcDbDictionary
281
     1
  3
Standard
350
6C
  0
DICTIONARY
  5
17
102
{ACAD_REACTORS
330
C
102
}
330
C
100
AcDbDictionary
281
     1
  3
Standard
350
18
  0
DICTIONARY
  5
19
102
{ACAD_REACTORS
330
C
102
}
330
C
100
AcDbDictionary
281
     1
  0
ACDBDICTIONARYWDFLT
  5
E
102
{ACAD_REACTORS
330
C
102
}
330
C
100
AcDbDictionary
281
     1
  3
Normal
350
F
100
AcDbDictionaryWithDefault
340
F
  0
DICTIONARY
  5
47
102
{ACAD_REACTORS
330
C
102
}
330
C
100
AcDbDictionary
281
     1
  3
A0
350
48
  3
A1
350
49
  3
A2
350
4A
  3
A3
350
4B
  3
A4
350
4C
  3
A5
350
4D
  3
A6
350
4E
  3
A7
350
4F
  3
A8
350
50
  3
A9
350
51
  3
B0
350
52
  3
B1
350
53
  3
B2
350
54
  3
B3
350
55
  3
B4
350
56
  3
B5
350
57
  3
B6
350
58
  3
B7
350
59
  3
B8
350
5A
  3
B9
350
5B
  3
C0
350
5C
  3
C1
350
5D
  3
C2
350
5E
  3
C3
350
5F
  3
C4
350
60
  3
C5
350
61
  3
C6
350
62
  3
C7
350
63
  3
C8
350
64
  3
C9
350
65
  3
D0
350
66
  3
D1
350
67
  3
D2
350
68
  0
DICTIONARY
  5
2CD
102
{ACAD_REACTORS
330
C
102
}
330
C
100
AcDbDictionary
281
     1
  0
DICTIONARY
  5
69
102
{ACAD_REACTORS
330
C
102
}
330
C
100
AcDbDictionary
281
     1
  3
Standard
350
6A
  0
DICTIONARY
  5
2A
102
{ACAD_REACTORS
330
C
102
}
330
C
100
AcDbDictionary
281
     1
  3
2dWireframe
350
2F
  3
Basic
350
32
  3
Brighten
350
36
  3
ColorChange
350
3A
  3
Conceptual
350
34
  3
Dim
350
35
  3
EdgeColorOff
350
3D
  3
Facepattern
350
39
  3
Flat
350
2B
  3
FlatWithEdges
350
2C
  3
Gouraud
350
2D
  3
GouraudWithEdges
350
2E
  3
Hidden
350
31
  3
JitterOff
350
3B
  3
Linepattern
350
38
  3
OverhangOff
350
3C
  3
Realistic
350
33
  3
Shaded
350
42
  3
Shaded with edges
350
41
  3
Shades of Gray
350
3E
  3
Sketchy
350
3F
  3
Thicken
350
37
  3
Wireframe
350
30
  3
X-Ray
350
40
  0
XRECORD
  5
2C9
102
{ACAD_REACTORS
330
C
102
}
330
C
100
AcDbXrecord
280
     1
 90
        1
330
6A
  0
DICTIONARY
  5
292
102
{ACAD_REACTORS
330
C
102
}
330
C
100
AcDbDictionary
281
     1
  3
CANNOSCALE
350
293
  3
CMLEADERSTYLE
350
2CB
  3
CTABLESTYLE
350
2CA
  3
SECTIONTHICKNESSINC
350
2CE
  3
XCLIPFRAME
350
294
  0
LAYOUT
  5
1E
102
{ACAD_REACTORS
330
1A
102
}
330
1A
100
AcDbPlotSettings
  1

  2
none_device
  4

  6

 40
0.0
 41
0.0
 42
0.0
 43
0.0
 44
0.0
 45
0.0
 46
0.0
 47
0.0
 48
0.0
 49
0.0
140
0.0
141
0.0
142
1.0
143
1.0
 70
   688
 72
     1
 73
     0
 74
     5
  7

 75
    16
 76
     0
 77
     2
 78
   300
147
1.0
148
0.0
149
0.0
100
AcDbLayout
  1
Layout1
 70
     1
 71
     1
 10
0.0
 20
0.0
 11
550.0
 21
511.0
 12
0.0
 22
0.0
 32
0.0
 14
0.0
 24
0.0
 34
0.0
 15
550.0
 25
511.0
 35
0.0
146
0.0
 13
0.0
 23
0.0
 33
0.0
 16
1.0
 26
0.0
 36
0.0
 17
0.0
 27
1.0
 37
0.0
 76
     0
330
1B
  0
LAYOUT
  5
22
102
{ACAD_REACTORS
330
1A
102
}
330
1A
100
AcDbPlotSettings
  1

  2
none_device
  4
Letter_(8.50_x_11.00_Inches)
  6

 40
6.35
 41
6.35
 42
6.35000508
 43
6.35000508
 44
215.9
 45
279.4
 46
0.0
 47
0.0
 48
0.0
 49
0.0
140
0.0
141
0.0
142
1.0
143
1.0
 70
  1712
 72
     1
 73
     0
 74
     0
  7

 75
     0
 76
     0
 77
     2
 78
   300
147
1.0
148
0.0
149
0.0
100
AcDbLayout
  1
Model
 70
     1
 71
     0
 10
0.0
 20
0.0
 11
550.0
 21
511.0
 12
0.0
 22
0.0
 32
0.0
 14
0.0
 24
0.0
 34
0.0
 15
550.0
 25
511.0
 35
0.0
146
0.0
 13
0.0
 23
0.0
 33
0.0
 16
1.0
 26
0.0
 36
0.0
 17
0.0
 27
1.0
 37
0.0
 76
     0
330
1F
331
29
  0
MATERIAL
  5
45
102
{ACAD_REACTORS
330
43
102
}
330
43
100
AcDbMaterial
  1
ByBlock
 72
     1
 94
      127
  0
MATERIAL
  5
44
102
{ACAD_REACTORS
330
43
102
}
330
43
100
AcDbMaterial
  1
ByLayer
 72
     1
 94
      127
  0
MATERIAL
  5
46
102
{ACAD_REACTORS
330
43
102
}
330
43
100
AcDbMaterial
  1
Global
 72
     1
 94
      127
  0
MLEADERSTYLE
  5
6C
102
{ACAD_REACTORS
330
6B
102
}
102
{ACAD_XDICTIONARY
360
2C7
102
}
330
6B
100
AcDbMLeaderStyle
170
     2
171
     1
172
     0
 90
        2
 40
0.0
 41
0.0
173
     1
 91
-1056964608
340
14
 92
       -2
290
     1
 42
2.0
291
     1
 43
8.0
  3
Standard
341
0
 44
4.0
300

342
11
174
     1
178
     6
175
     1
176
     0
 93
-1056964608
 45
4.0
292
     0
297
     0
 46
4.0
343
0
 94
-1056964608
 47
1.0
 49
1.0
140
1.0
293
     1
141
0.0
294
     1
177
     0
142
1.0
295
     0
296
     0
143
3.75
1001
ACAD_MLEADERVER
1070
     2
  0
MLINESTYLE
  5
18
102
{ACAD_REACTORS
330
17
102
}
330
17
100
AcDbMlineStyle
  2
Standard
 70
     0
  3

 62
   256
 51
90.0
 52
90.0
 71
     2
 49
0.5
 62
   256
  6
BYLAYER
 49
-0.5
 62
   256
  6
BYLAYER
  0
ACDBPLACEHOLDER
  5
F
102
{ACAD_REACTORS
330
E
102
}
330
E
  0
SCALE
  5
48
102
{ACAD_REACTORS
330
47
102
}
330
47
100
AcDbScale
 70
     0
300
1:1
140
1.0
141
1.0
290
     1
  0
SCALE
  5
49
102
{ACAD_REACTORS
330
47
102
}
330
47
100
AcDbScale
 70
     0
300
1:2
140
1.0
141
2.0
290
     0
  0
SCALE
  5
4A
102
{ACAD_REACTORS
330
47
102
}
330
47
100
AcDbScale
 70
     0
300
1:4
140
1.0
141
4.0
290
     0
  0
SCALE
  5
4B
102
{ACAD_REACTORS
330
47
102
}
330
47
100
AcDbScale
 70
     0
300
1:5
140
1.0
141
5.0
290
     0
  0
SCALE
  5
4C
102
{ACAD_REACTORS
330
47
102
}
330
47
100
AcDbScale
 70
     0
300
1:8
140
1.0
141
8.0
290
     0
  0
SCALE
  5
4D
102
{ACAD_REACTORS
330
47
102
}
330
47
100
AcDbScale
 70
     0
300
1:10
140
1.0
141
10.0
290
     0
  0
SCALE
  5
4E
102
{ACAD_REACTORS
330
47
102
}
330
47
100
AcDbScale
 70
     0
300
1:16
140
1.0
141
16.0
290
     0
  0
SCALE
  5
4F
102
{ACAD_REACTORS
330
47
102
}
330
47
100
AcDbScale
 70
     0
300
1:20
140
1.0
141
20.0
290
     0
  0
SCALE
  5
50
102
{ACAD_REACTORS
330
47
102
}
330
47
100
AcDbScale
 70
     0
300
1:30
140
1.0
141
30.0
290
     0
  0
SCALE
  5
51
102
{ACAD_REACTORS
330
47
102
}
330
47
100
AcDbScale
 70
     0
300
1:40
140
1.0
141
40.0
290
     0
  0
SCALE
  5
52
102
{ACAD_REACTORS
330
47
102
}
330
47
100
AcDbScale
 70
     0
300
1:50
140
1.0
141
50.0
290
     0
  0
SCALE
  5
53
102
{ACAD_REACTORS
330
47
102
}
330
47
100
AcDbScale
 70
     0
300
1:100
140
1.0
141
100.0
290
     0
  0
SCALE
  5
54
102
{ACAD_REACTORS
330
47
102
}
330
47
100
AcDbScale
 70
     0
300
2:1
140
2.0
141
1.0
290
     0
  0
SCALE
  5
55
102
{ACAD_REACTORS
330
47
102
}
330
47
100
AcDbScale
 70
     0
300
4:1
140
4.0
141
1.0
290
     0
  0
SCALE
  5
56
102
{ACAD_REACTORS
330
47
102
}
330
47
100
AcDbScale
 70
     0
300
8:1
140
8.0
141
1.0
290
     0
  0
SCALE
  5
57
102
{ACAD_REACTORS
330
47
102
}
330
47
100
AcDbScale
 70
     0
300
10:1
140
10.0
141
1.0
290
     0
  0
SCALE
  5
58
102
{ACAD_REACTORS
330
47
102
}
330
47
100
AcDbScale
 70
     0
300
100:1
140
100.0
141
1.0
290
     0
  0
SCALE
  5
59
102
{ACAD_REACTORS
330
47
102
}
330
47
100
AcDbScale
 70
     0
300
1/128" = 1'-0"
140
0.0078125
141
12.0
290
     0
  0
SCALE
  5
5A
102
{ACAD_REACTORS
330
47
102
}
330
47
100
AcDbScale
 70
     0
300
1/64" = 1'-0"
140
0.015625
141
12.0
290
     0
  0
SCALE
  5
5B
102
{ACAD_REACTORS
330
47
102
}
330
47
100
AcDbScale
 70
     0
300
1/32" = 1'-0"
140
0.03125
141
12.0
290
     0
  0
SCALE
  5
5C
102
{ACAD_REACTORS
330
47
102
}
330
47
100
AcDbScale
 70
     0
300
1/16" = 1'-0"
140
0.0625
141
12.0
290
     0
  0
SCALE
  5
5D
102
{ACAD_REACTORS
330
47
102
}
330
47
100
AcDbScale
 70
     0
300
3/32" = 1'-0"
140
0.09375
141
12.0
290
     0
  0
SCALE
  5
5E
102
{ACAD_REACTORS
330
47
102
}
330
47
100
AcDbScale
 70
     0
300
1/8" = 1'-0"
140
0.125
141
12.0
290
     0
  0
SCALE
  5
5F
102
{ACAD_REACTORS
330
47
102
}
330
47
100
AcDbScale
 70
     0
300
3/16" = 1'-0"
140
0.1875
141
12.0
290
     0
  0
SCALE
  5
60
102
{ACAD_REACTORS
330
47
102
}
330
47
100
AcDbScale
 70
     0
300
1/4" = 1'-0"
140
0.25
141
12.0
290
     0
  0
SCALE
  5
61
102
{ACAD_REACTORS
330
47
102
}
330
47
100
AcDbScale
 70
     0
300
3/8" = 1'-0"
140
0.375
141
12.0
290
     0
  0
SCALE
  5
62
102
{ACAD_REACTORS
330
47
102
}
330
47
100
AcDbScale
 70
     0
300
1/2" = 1'-0"
140
0.5
141
12.0
290
     0
  0
SCALE
  5
63
102
{ACAD_REACTORS
330
47
102
}
330
47
100
AcDbScale
 70
     0
300
3/4" = 1'-0"
140
0.75
141
12.0
290
     0
  0
SCALE
  5
64
102
{ACAD_REACTORS
330
47
102
}
330
47
100
AcDbScale
 70
     0
300
1" = 1'-0"
140
1.0
141
12.0
290
     0
  0
SCALE
  5
65
102
{ACAD_REACTORS
330
47
102
}
330
47
100
AcDbScale
 70
     0
300
1-1/2" = 1'-0"
140
1.5
141
12.0
290
     0
  0
SCALE
  5
66
102
{ACAD_REACTORS
330
47
102
}
330
47
100
AcDbScale
 70
     0
300
3" = 1'-0"
140
3.0
141
12.0
290
     0
  0
SCALE
  5
67
102
{ACAD_REACTORS
330
47
102
}
330
47
100
AcDbScale
 70
     0
300
6" = 1'-0"
140
6.0
141
12.0
290
     0
  0
SCALE
  5
68
102
{ACAD_REACTORS
330
47
102
}
330
47
100
AcDbScale
 70
     0
300
1'-0" = 1'-0"
140
12.0
141
12.0
290
     0
  0
TABLESTYLE
  5
6A
102
{ACAD_REACTORS
330
69
102
}
102
{ACAD_XDICTIONARY
360
2C5
102
}
330
69
100
AcDbTableStyle
  3
Standard
 70
     0
 71
     0
 40
0.06
 41
0.06
280
     0
281
     0
  7
Standard
140
4.5
170
     2
 62
     0
 63
   257
283
     0
 90
        4
 91
        0
  1

274
    -2
284
     1
 64
     0
275
    -2
285
     1
 65
     0
276
    -2
286
     1
 66
     0
277
    -2
287
     1
 67
     0
278
    -2
288
     1
 68
     0
279
    -2
289
     1
 69
     0
  7
Standard
140
6.0
170
     5
 62
     0
 63
   257
283
     0
 90
        4
 91
        0
  1

274
    -2
284
     1
 64
     0
275
    -2
285
     1
 65
     0
276
    -2
286
     1
 66
     0
277
    -2
287
     1
 67
     0
278
    -2
288
     1
 68
     0
279
    -2
289
     1
 69
     0
  7
Standard
140
4.5
170
     5
 62
     0
 63
   257
283
     0
 90
        4
 91
        0
  1

274
    -2
284
     1
 64
     0
275
    -2
285
     1
 65
     0
276
    -2
286
     1
 66
     0
277
    -2
287
     1
 67
     0
278
    -2
288
     1
 68
     0
279
    -2
289
     1
 69
     0
  0
VISUALSTYLE
  5
2F
102
{ACAD_REACTORS
330
2A
102
}
102
{ACAD_XDICTIONARY
360
29D
102
}
330
2A
100
AcDbVisualStyle
  2
2dWireframe
 70
     4
 71
     0
 72
     2
 73
     0
 90
        0
 40
0.6
 41
30.0
 62
     5
 63
     7
421
 16777215
 74
     1
 91
        4
 64
     7
 65
   257
 75
     1
175
     1
 42
1.0
 92
        0
 66
   257
 43
1.0
 76
     1
 77
     6
 78
     2
 67
     7
 79
     5
170
     0
171
     0
290
     0
174
     0
 93
        1
 44
0.0
173
     0
291
     0
 45
0.0
  0
VISUALSTYLE
  5
32
102
{ACAD_REACTORS
330
2A
102
}
102
{ACAD_XDICTIONARY
360
2A3
102
}
330
2A
100
AcDbVisualStyle
  2
Basic
 70
     7
 71
     1
 72
     0
 73
     1
 90
        0
 40
0.6
 41
30.0
 62
     5
 63
     7
421
 16777215
 74
     0
 91
        4
 64
     7
 65
   257
 75
     1
175
     1
 42
1.0
 92
        8
 66
     7
 43
1.0
 76
     1
 77
     6
 78
     2
 67
     7
 79
     5
170
     0
171
     0
290
     0
174
     0
 93
        1
 44
0.0
173
     0
291
     1
 45
0.0
  0
VISUALSTYLE
  5
36
102
{ACAD_REACTORS
330
2A
102
}
102
{ACAD_XDICTIONARY
360
2AB
102
}
330
2A
100
AcDbVisualStyle
  2
Brighten
 70
    12
 71
     2
 72
     2
 73
     0
 90
        0
 40
0.6
 41
30.0
 62
     5
 63
     7
421
 16777215
 74
     1
 91
        4
 64
     7
 65
   257
 75
     1
175
     1
 42
1.0
 92
        8
 66
     7
 43
1.0
 76
     1
 77
     6
 78
     2
 67
     7
 79
     5
170
     0
171
     0
290
     0
174
     0
 93
        1
 44
50.0
173
     0
291
     1
 45
0.0
  0
VISUALSTYLE
  5
3A
102
{ACAD_REACTORS
330
2A
102
}
102
{ACAD_XDICTIONARY
360
2B3
102
}
330
2A
100
AcDbVisualStyle
  2
ColorChange
 70
    16
 71
     2
 72
     2
 73
     3
 90
        0
 40
0.6
 41
30.0
 62
     5
 63
     8
421
  8421504
 74
     1
 91
        4
 64
     7
 65
   257
 75
     1
175
     1
 42
1.0
 92
        8
 66
     8
424
  8421504
 43
1.0
 76
     1
 77
     6
 78
     2
 67
     7
 79
     5
170
     0
171
     0
290
     0
174
     0
 93
        1
 44
0.0
173
     0
291
     1
 45
0.0
  0
VISUALSTYLE
  5
34
102
{ACAD_REACTORS
330
2A
102
}
102
{ACAD_XDICTIONARY
360
2A7
102
}
330
2A
100
AcDbVisualStyle
  2
Conceptual
 70
     9
 71
     3
 72
     2
 73
     0
 90
        0
 40
0.6
 41
30.0
 62
     5
 63
     7
421
 16777215
 74
     2
 91
        2
 64
     7
 65
   257
 75
     1
175
     1
 42
179.0
 92
        8
 66
     7
 43
1.0
 76
     1
 77
     6
 78
     2
 67
     7
 79
     3
170
     0
171
     0
290
     0
174
     0
 93
        1
 44
0.0
173
     0
291
     0
 45
0.0
  0
VISUALSTYLE
  5
35
102
{ACAD_REACTORS
330
2A
102
}
102
{ACAD_XDICTIONARY
360
2A9
102
}
330
2A
100
AcDbVisualStyle
  2
Dim
 70
    11
 71
     2
 72
     2
 73
     0
 90
        0
 40
0.6
 41
30.0
 62
     5
 63
     7
421
 16777215
 74
     1
 91
        4
 64
     7
 65
   257
 75
     1
175
     1
 42
1.0
 92
        8
 66
     7
 43
1.0
 76
     1
 77
     6
 78
     2
 67
     7
 79
     5
170
     0
171
     0
290
     0
174
     0
 93
        1
 44
-50.0
173
     0
291
     1
 45
0.0
  0
VISUALSTYLE
  5
3D
102
{ACAD_REACTORS
330
2A
102
}
102
{ACAD_XDICTIONARY
360
2B9
102
}
330
2A
100
AcDbVisualStyle
  2
EdgeColorOff
 70
    22
 71
     2
 72
     2
 73
     0
 90
        0
 40
0.6
 41
30.0
 62
     5
 63
     7
421
 16777215
 74
     1
 91
        4
 64
     7
 65
   257
 75
     1
175
     1
 42
1.0
 92
        8
 66
     7
 43
1.0
 76
     1
 77
     6
 78
     2
 67
     7
 79
     5
170
     0
171
     0
290
     0
174
     0
 93
        1
 44
0.0
173
     0
291
     1
 45
0.0
  0
VISUALSTYLE
  5
39
102
{ACAD_REACTORS
330
2A
102
}
102
{ACAD_XDICTIONARY
360
2B1
102
}
330
2A
100
AcDbVisualStyle
  2
Facepattern
 70
    15
 71
     2
 72
     2
 73
     0
 90
        0
 40
0.6
 41
30.0
 62
     5
 63
     7
421
 16777215
 74
     1
 91
        4
 64
     7
 65
   257
 75
     1
175
     1
 42
1.0
 92
        8
 66
     7
 43
1.0
 76
     1
 77
     6
 78
     2
 67
     7
 79
     5
170
     0
171
     0
290
     0
174
     0
 93
        1
 44
0.0
173
     0
291
     1
 45
0.0
  0
VISUALSTYLE
  5
2B
102
{ACAD_REACTORS
330
2A
102
}
102
{ACAD_XDICTIONARY
360
295
102
}
330
2A
100
AcDbVisualStyle
  2
Flat
 70
     0
 71
     2
 72
     1
 73
     1
 90
        2
 40
0.6
 41
30.0
 62
     5
 63
     7
421
 16777215
 74
     0
 91
        0
 64
     7
 65
   257
 75
     1
175
     1
 42
1.0
 92
        8
 66
     7
 43
1.0
 76
     1
 77
     6
 78
     2
 67
     7
 79
     5
170
     0
171
     0
290
     0
174
     0
 93
       13
 44
0.0
173
     0
291
     1
 45
0.0
  0
VISUALSTYLE
  5
2C
102
{ACAD_REACTORS
330
2A
102
}
102
{ACAD_XDICTIONARY
360
297
102
}
330
2A
100
AcDbVisualStyle
  2
FlatWithEdges
 70
     1
 71
     2
 72
     1
 73
     1
 90
        2
 40
0.6
 41
30.0
 62
     5
 63
     7
421
 16777215
 74
     1
 91
        0
 64
     7
 65
   257
 75
     1
175
     1
 42
1.0
 92
        0
 66
   257
 43
1.0
 76
     1
 77
     6
 78
     2
 67
     7
 79
     5
170
     0
171
     0
290
     0
174
     0
 93
       13
 44
0.0
173
     0
291
     1
 45
0.0
  0
VISUALSTYLE
  5
2D
102
{ACAD_REACTORS
330
2A
102
}
102
{ACAD_XDICTIONARY
360
299
102
}
330
2A
100
AcDbVisualStyle
  2
Gouraud
 70
     2
 71
     2
 72
     2
 73
     1
 90
        2
 40
0.6
 41
30.0
 62
     5
 63
     7
421
 16777215
 74
     0
 91
        0
 64
     7
 65
   257
 75
     1
175
     1
 42
1.0
 92
        0
 66
     7
 43
1.0
 76
     1
 77
     6
 78
     2
 67
     7
 79
     5
170
     0
171
     0
290
     0
174
     0
 93
       13
 44
0.0
173
     0
291
     1
 45
0.0
  0
VISUALSTYLE
  5
2E
102
{ACAD_REACTORS
330
2A
102
}
102
{ACAD_XDICTIONARY
360
29B
102
}
330
2A
100
AcDbVisualStyle
  2
GouraudWithEdges
 70
     3
 71
     2
 72
     2
 73
     1
 90
        2
 40
0.6
 41
30.0
 62
     5
 63
     7
421
 16777215
 74
     1
 91
        0
 64
     7
 65
   257
 75
     1
175
     1
 42
1.0
 92
        0
 66
   257
 43
1.0
 76
     1
 77
     6
 78
     2
 67
     7
 79
     5
170
     0
171
     0
290
     0
174
     0
 93
       13
 44
0.0
173
     0
291
     1
 45
0.0
  0
VISUALSTYLE
  5
31
102
{ACAD_REACTORS
330
2A
102
}
102
{ACAD_XDICTIONARY
360
2A1
102
}
330
2A
100
AcDbVisualStyle
  2
Hidden
 70
     6
 71
     1
 72
     2
 73
     2
 90
        0
 40
0.6
 41
30.0
 62
     5
 63
     7
421
 16777215
 74
     2
 91
        2
 64
     7
 65
   257
 75
     2
175
     1
 42
40.0
 92
        0
 66
   257
 43
1.0
 76
     1
 77
     6
 78
     2
 67
     7
 79
     3
170
     0
171
     0
290
     0
174
     0
 93
        1
 44
0.0
173
     0
291
     0
 45
0.0
  0
VISUALSTYLE
  5
3B
102
{ACAD_REACTORS
330
2A
102
}
102
{ACAD_XDICTIONARY
360
2B5
102
}
330
2A
100
AcDbVisualStyle
  2
JitterOff
 70
    20
 71
     2
 72
     2
 73
     0
 90
        0
 40
0.6
 41
30.0
 62
     5
 63
     7
421
 16777215
 74
     1
 91
        4
 64
     7
 65
   257
 75
     1
175
     1
 42
1.0
 92
       10
 66
     7
 43
1.0
 76
     1
 77
     6
 78
     2
 67
     7
 79
     5
170
     0
171
     0
290
     0
174
     0
 93
        1
 44
0.0
173
     0
291
     1
 45
0.0
  0
VISUALSTYLE
  5
38
102
{ACAD_REACTORS
330
2A
102
}
102
{ACAD_XDICTIONARY
360
2AF
102
}
330
2A
100
AcDbVisualStyle
  2
Linepattern
 70
    14
 71
     2
 72
     2
 73
     0
 90
        0
 40
0.6
 41
30.0
 62
     5
 63
     7
421
 16777215
 74
     1
 91
        4
 64
     7
 65
   257
 75
     7
175
     7
 42
1.0
 92
        8
 66
     7
 43
1.0
 76
     1
 77
     6
 78
     2
 67
     7
 79
     5
170
     0
171
     0
290
     0
174
     0
 93
        1
 44
0.0
173
     0
291
     1
 45
0.0
  0
VISUALSTYLE
  5
3C
102
{ACAD_REACTORS
330
2A
102
}
102
{ACAD_XDICTIONARY
360
2B7
102
}
330
2A
100
AcDbVisualStyle
  2
OverhangOff
 70
    21
 71
     2
 72
     2
 73
     0
 90
        0
 40
0.6
 41
30.0
 62
     5
 63
     7
421
 16777215
 74
     1
 91
        4
 64
     7
 65
   257
 75
     1
175
     1
 42
1.0
 92
        9
 66
     7
 43
1.0
 76
     1
 77
     6
 78
     2
 67
     7
 79
     5
170
     0
171
     0
290
     0
174
     0
 93
        1
 44
0.0
173
     0
291
     1
 45
0.0
  0
VISUALSTYLE
  5
33
102
{ACAD_REACTORS
330
2A
102
}
102
{ACAD_XDICTIONARY
360
2A5
102
}
330
2A
100
AcDbVisualStyle
  2
Realistic
 70
     8
 71
     2
 72
     3
 73
     0
 90
        2
 40
0.6
 41
30.0
 62
     5
 63
     7
421
 16777215
 74
     0
 91
        0
 64
     7
 65
   257
 75
     1
175
     1
 42
1.0
 92
        8
 66
   257
 43
1.0
 76
     1
 77
     6
 78
     2
 67
     7
 79
     3
170
     0
171
     0
290
     0
174
     0
 93
       13
 44
0.0
173
     0
291
     0
 45
0.0
  0
VISUALSTYLE
  5
42
102
{ACAD_REACTORS
330
2A
102
}
102
{ACAD_XDICTIONARY
360
2C3
102
}
330
2A
100
AcDbVisualStyle
  2
Shaded
 70
    27
 71
     2
 72
     2
 73
     1
 90
        2
 40
0.6
 41
30.0
 62
     5
 63
     7
421
 16777215
 74
     0
 91
        4
 64
     7
 65
   257
 75
     1
175
     1
 42
1.0
 92
        8
 66
   257
 43
1.0
 76
     1
 77
     6
 78
     2
 67
     8
425
  7895160
 79
     3
170
     0
171
     0
290
     0
174
     0
 93
        5
 44
0.0
173
     0
291
     0
 45
0.0
  0
VISUALSTYLE
  5
41
102
{ACAD_REACTORS
330
2A
102
}
102
{ACAD_XDICTIONARY
360
2C1
102
}
330
2A
100
AcDbVisualStyle
  2
Shaded with edges
 70
    26
 71
     2
 72
     2
 73
     1
 90
        2
 40
0.6
 41
30.0
 62
     5
 63
     7
421
 16777215
 74
     1
 91
       10
 64
     7
 65
   257
 75
     2
175
     1
 42
1.0
 92
        8
 66
   257
 43
1.0
 76
     1
 77
     6
 78
     2
 67
     7
 79
     3
170
     0
171
     0
290
     0
174
     0
 93
        5
 44
0.0
173
     0
291
     0
 45
0.0
  0
VISUALSTYLE
  5
3E
102
{ACAD_REACTORS
330
2A
102
}
102
{ACAD_XDICTIONARY
360
2BB
102
}
330
2A
100
AcDbVisualStyle
  2
Shades of Gray
 70
    23
 71
     2
 72
     2
 73
     3
 90
        0
 40
0.6
 41
30.0
 62
     5
 63
     7
421
 16777215
 74
     2
 91
        2
 64
     7
 65
     7
 75
     1
175
     1
 42
40.0
 92
        8
 66
     7
 43
1.0
 76
     1
 77
     6
 78
     2
 67
     7
 79
     3
170
     0
171
     0
290
     0
174
     0
 93
        1
 44
0.0
173
     0
291
     0
 45
0.0
  0
VISUALSTYLE
  5
3F
102
{ACAD_REACTORS
330
2A
102
}
102
{ACAD_XDICTIONARY
360
2BD
102
}
330
2A
100
AcDbVisualStyle
  2
Sketchy
 70
    24
 71
     1
 72
     2
 73
     2
 90
        0
 40
0.6
 41
30.0
 62
     5
 63
     7
421
 16777215
 74
     2
 91
        2
 64
     7
 65
     7
 75
     1
175
     1
 42
40.0
 92
       11
 66
     7
 43
1.0
 76
     1
 77
     6
 78
     2
 67
     7
 79
     6
170
     0
171
     0
290
     0
174
     0
 93
        1
 44
0.0
173
     0
291
     0
 45
0.0
  0
VISUALSTYLE
  5
37
102
{ACAD_REACTORS
330
2A
102
}
102
{ACAD_XDICTIONARY
360
2AD
102
}
330
2A
100
AcDbVisualStyle
  2
Thicken
 70
    13
 71
     2
 72
     2
 73
     0
 90
        0
 40
0.6
 41
30.0
 62
     5
 63
     7
421
 16777215
 74
     1
 91
        4
 64
     7
 65
   257
 75
     1
175
     1
 42
1.0
 92
       12
 66
     7
 43
1.0
 76
     1
 77
     6
 78
     2
 67
     7
 79
     5
170
     0
171
     0
290
     0
174
     0
 93
        1
 44
0.0
173
     0
291
     1
 45
0.0
  0
VISUALSTYLE
  5
30
102
{ACAD_REACTORS
330
2A
102
}
102
{ACAD_XDICTIONARY
360
29F
102
}
330
2A
100
AcDbVisualStyle
  2
Wireframe
 70
     5
 71
     0
 72
     2
 73
     0
 90
        0
 40
0.6
 41
30.0
 62
     5
 63
     7
421
 16777215
 74
     1
 91
        4
 64
     7
 65
   257
 75
     1
175
     1
 42
1.0
 92
        0
 66
   257
 43
1.0
 76
     1
 77
     6
 78
     2
 67
     7
 79
     3
170
     0
171
     0
290
     0
174
     0
 93
        1
 44
0.0
173
     0
291
     0
 45
0.0
  0
VISUALSTYLE
  5
40
102
{ACAD_REACTORS
330
2A
102
}
102
{ACAD_XDICTIONARY
360
2BF
102
}
330
2A
100
AcDbVisualStyle
  2
X-Ray
 70
    25
 71
     2
 72
     2
 73
     1
 90
        1
 40
0.5
 41
30.0
 62
     5
 63
     7
421
 16777215
 74
     1
 91
        0
 64
     7
 65
   257
 75
     1
175
     1
 42
1.0
 92
        8
 66
     7
 43
1.0
 76
     1
 77
     6
 78
     2
 67
     7
 79
     3
170
     0
171
     0
290
     0
174
     0
 93
       13
 44
0.0
173
     0
291
     0
 45
0.0
  0
DICTIONARYVAR
  5
293
102
{ACAD_REACTORS
330
292
102
}
330
292
100
DictionaryVariables
280
     0
  1
1:1
  0
DICTIONARYVAR
  5
2CB
102
{ACAD_REACTORS
330
292
102
}
330
292
100
DictionaryVariables
280
     0
  1
Standard
  0
DICTIONARYVAR
  5
2CA
102
{ACAD_REACTORS
330
292
102
}
330
292
100
DictionaryVariables
280
     0
  1
Standard
  0
DICTIONARYVAR
  5
2CE
102
{ACAD_REACTORS
330
292
102
}
330
292
100
DictionaryVariables
280
     0
  1
6.000000
  0
DICTIONARYVAR
  5
294
102
{ACAD_REACTORS
330
292
102
}
330
292
100
DictionaryVariables
280
     0
  1
2
  0
DICTIONARY
  5
2C7
330
6C
100
AcDbDictionary
280
     1
281
     1
  3
ACAD_XREC_ROUNDTRIP
360
2C8
  0
DICTIONARY
  5
2C5
330
6A
100
AcDbDictionary
280
     1
281
     1
  3
ACAD_ROUNDTRIP_2008_TABLESTYLE_CELLSTYLEMAP
360
2C6
  0
DICTIONARY
  5
29D
330
2F
100
AcDbDictionary
280
     1
281
     1
  3
ACAD_XREC_ROUNDTRIP
360
29E
  0
DICTIONARY
  5
2A3
330
32
100
AcDbDictionary
280
     1
281
     1
  3
ACAD_XREC_ROUNDTRIP
360
2A4
  0
DICTIONARY
  5
2AB
330
36
100
AcDbDictionary
280
     1
281
     1
  3
ACAD_XREC_ROUNDTRIP
360
2AC
  0
DICTIONARY
  5
2B3
330
3A
100
AcDbDictionary
280
     1
281
     1
  3
ACAD_XREC_ROUNDTRIP
360
2B4
  0
DICTIONARY
  5
2A7
330
34
100
AcDbDictionary
280
     1
281
     1
  3
ACAD_XREC_ROUNDTRIP
360
2A8
  0
DICTIONARY
  5
2A9
330
35
100
AcDbDictionary
280
     1
281
     1
  3
ACAD_XREC_ROUNDTRIP
360
2AA
  0
DICTIONARY
  5
2B9
330
3D
100
AcDbDictionary
280
     1
281
     1
  3
ACAD_XREC_ROUNDTRIP
360
2BA
  0
DICTIONARY
  5
2B1
330
39
100
AcDbDictionary
280
     1
281
     1
  3
ACAD_XREC_ROUNDTRIP
360
2B2
  0
DICTIONARY
  5
295
330
2B
100
AcDbDictionary
280
     1
281
     1
  3
ACAD_XREC_ROUNDTRIP
360
296
  0
DICTIONARY
  5
297
330
2C
100
AcDbDictionary
280
     1
281
     1
  3
ACAD_XREC_ROUNDTRIP
360
298
  0
DICTIONARY
  5
299
330
2D
100
AcDbDictionary
280
     1
281
     1
  3
ACAD_XREC_ROUNDTRIP
360
29A
  0
DICTIONARY
  5
29B
330
2E
100
AcDbDictionary
280
     1
281
     1
  3
ACAD_XREC_ROUNDTRIP
360
29C
  0
DICTIONARY
  5
2A1
330
31
100
AcDbDictionary
280
     1
281
     1
  3
ACAD_XREC_ROUNDTRIP
360
2A2
  0
DICTIONARY
  5
2B5
330
3B
100
AcDbDictionary
280
     1
281
     1
  3
ACAD_XREC_ROUNDTRIP
360
2B6
  0
DICTIONARY
  5
2AF
330
38
100
AcDbDictionary
280
     1
281
     1
  3
ACAD_XREC_ROUNDTRIP
360
2B0
  0
DICTIONARY
  5
2B7
330
3C
100
AcDbDictionary
280
     1
281
     1
  3
ACAD_XREC_ROUNDTRIP
360
2B8
  0
DICTIONARY
  5
2A5
330
33
100
AcDbDictionary
280
     1
281
     1
  3
ACAD_XREC_ROUNDTRIP
360
2A6
  0
DICTIONARY
  5
2C3
330
42
100
AcDbDictionary
280
     1
281
     1
  3
ACAD_XREC_ROUNDTRIP
360
2C4
  0
DICTIONARY
  5
2C1
330
41
100
AcDbDictionary
280
     1
281
     1
  3
ACAD_XREC_ROUNDTRIP
360
2C2
  0
DICTIONARY
  5
2BB
330
3E
100
AcDbDictionary
280
     1
281
     1
  3
ACAD_XREC_ROUNDTRIP
360
2BC
  0
DICTIONARY
  5
2BD
330
3F
100
AcDbDictionary
280
     1
281
     1
  3
ACAD_XREC_ROUNDTRIP
360
2BE
  0
DICTIONARY
  5
2AD
330
37
100
AcDbDictionary
280
     1
281
     1
  3
ACAD_XREC_ROUNDTRIP
360
2AE
  0
DICTIONARY
  5
29F
330
30
100
AcDbDictionary
280
     1
281
     1
  3
ACAD_XREC_ROUNDTRIP
360
2A0
  0
DICTIONARY
  5
2BF
330
40
100
AcDbDictionary
280
     1
281
     1
  3
ACAD_XREC_ROUNDTRIP
360
2C0
  0
XRECORD
  5
2C8
102
{ACAD_REACTORS
330
2C7
102
}
330
2C7
100
AcDbXrecord
280
     1
102
ACAD_ROUNDTRIP_2010_MLEADER_STYLE
  0
CELLSTYLEMAP
  5
2C6
102
{ACAD_REACTORS
330
2C5
102
}
330
2C5
100
AcDbCellStyleMap
 90
        3
300
CELLSTYLE
  1
TABLEFORMAT_BEGIN
 90
        5
170
     1
 91
        0
 92
    32768
 62
   257
 93
        1
300
CONTENTFORMAT
  1
CONTENTFORMAT_BEGIN
 90
        0
 91
        0
 92
        4
 93
        0
300

 40
0.0
140
1.0
 94
        5
 62
     0
340
11
144
6.0
309
CONTENTFORMAT_END
171
     1
301
MARGIN
  1
CELLMARGIN_BEGIN
 40
1.5
 40
1.5
 40
1.5
 40
1.5
 40
1.5
 40
1.5
309
CELLMARGIN_END
 94
        6
 95
        1
302
GRIDFORMAT
  1
GRIDFORMAT_BEGIN
 90
        0
 91
        1
 62
     0
 92
       -2
340
14
 93
        0
 40
0.045
309
GRIDFORMAT_END
 95
        2
302
GRIDFORMAT
  1
GRIDFORMAT_BEGIN
 90
        0
 91
        1
 62
     0
 92
       -2
340
14
 93
        0
 40
0.045
309
GRIDFORMAT_END
 95
        4
302
GRIDFORMAT
  1
GRIDFORMAT_BEGIN
 90
        0
 91
        1
 62
     0
 92
       -2
340
14
 93
        0
 40
0.045
309
GRIDFORMAT_END
 95
        8
302
GRIDFORMAT
  1
GRIDFORMAT_BEGIN
 90
        0
 91
        1
 62
     0
 92
       -2
340
14
 93
        0
 40
0.045
309
GRIDFORMAT_END
 95
       16
302
GRIDFORMAT
  1
GRIDFORMAT_BEGIN
 90
        0
 91
        1
 62
     0
 92
       -2
340
14
 93
        0
 40
0.045
309
GRIDFORMAT_END
 95
       32
302
GRIDFORMAT
  1
GRIDFORMAT_BEGIN
 90
        0
 91
        1
 62
     0
 92
       -2
340
14
 93
        0
 40
0.045
309
GRIDFORMAT_END
309
TABLEFORMAT_END
  1
CELLSTYLE_BEGIN
 90
        1
 91
        1
300
_TITLE
309
CELLSTYLE_END
300
CELLSTYLE
  1
TABLEFORMAT_BEGIN
 90
        5
170
     1
 91
        0
 92
        0
 62
   257
 93
        1
300
CONTENTFORMAT
  1
CONTENTFORMAT_BEGIN
 90
        0
 91
        0
 92
        4
 93
        0
300

 40
0.0
140
1.0
 94
        5
 62
     0
340
11
144
4.5
309
CONTENTFORMAT_END
171
     1
301
MARGIN
  1
CELLMARGIN_BEGIN
 40
1.5
 40
1.5
 40
1.5
 40
1.5
 40
1.5
 40
1.5
309
CELLMARGIN_END
 94
        6
 95
        1
302
GRIDFORMAT
  1
GRIDFORMAT_BEGIN
 90
        0
 91
        1
 62
     0
 92
       -2
340
14
 93
        0
 40
0.045
309
GRIDFORMAT_END
 95
        2
302
GRIDFORMAT
  1
GRIDFORMAT_BEGIN
 90
        0
 91
        1
 62
     0
 92
       -2
340
14
 93
        0
 40
0.045
309
GRIDFORMAT_END
 95
        4
302
GRIDFORMAT
  1
GRIDFORMAT_BEGIN
 90
        0
 91
        1
 62
     0
 92
       -2
340
14
 93
        0
 40
0.045
309
GRIDFORMAT_END
 95
        8
302
GRIDFORMAT
  1
GRIDFORMAT_BEGIN
 90
        0
 91
        1
 62
     0
 92
       -2
340
14
 93
        0
 40
0.045
309
GRIDFORMAT_END
 95
       16
302
GRIDFORMAT
  1
GRIDFORMAT_BEGIN
 90
        0
 91
        1
 62
     0
 92
       -2
340
14
 93
        0
 40
0.045
309
GRIDFORMAT_END
 95
       32
302
GRIDFORMAT
  1
GRIDFORMAT_BEGIN
 90
        0
 91
        1
 62
     0
 92
       -2
340
14
 93
        0
 40
0.045
309
GRIDFORMAT_END
309
TABLEFORMAT_END
  1
CELLSTYLE_BEGIN
 90
        2
 91
        1
300
_HEADER
309
CELLSTYLE_END
300
CELLSTYLE
  1
TABLEFORMAT_BEGIN
 90
        5
170
     1
 91
        0
 92
        0
 62
   257
 93
        1
300
CONTENTFORMAT
  1
CONTENTFORMAT_BEGIN
 90
        0
 91
        0
 92
        4
 93
        0
300

 40
0.0
140
1.0
 94
        2
 62
     0
340
11
144
4.5
309
CONTENTFORMAT_END
171
     1
301
MARGIN
  1
CELLMARGIN_BEGIN
 40
1.5
 40
1.5
 40
1.5
 40
1.5
 40
1.5
 40
1.5
309
CELLMARGIN_END
 94
        6
 95
        1
302
GRIDFORMAT
  1
GRIDFORMAT_BEGIN
 90
        0
 91
        1
 62
     0
 92
       -2
340
14
 93
        0
 40
0.045
309
GRIDFORMAT_END
 95
        2
302
GRIDFORMAT
  1
GRIDFORMAT_BEGIN
 90
        0
 91
        1
 62
     0
 92
       -2
340
14
 93
        0
 40
0.045
309
GRIDFORMAT_END
 95
        4
302
GRIDFORMAT
  1
GRIDFORMAT_BEGIN
 90
        0
 91
        1
 62
     0
 92
       -2
340
14
 93
        0
 40
0.045
309
GRIDFORMAT_END
 95
        8
302
GRIDFORMAT
  1
GRIDFORMAT_BEGIN
 90
        0
 91
        1
 62
     0
 92
       -2
340
14
 93
        0
 40
0.045
309
GRIDFORMAT_END
 95
       16
302
GRIDFORMAT
  1
GRIDFORMAT_BEGIN
 90
        0
 91
        1
 62
     0
 92
       -2
340
14
 93
        0
 40
0.045
309
GRIDFORMAT_END
 95
       32
302
GRIDFORMAT
  1
GRIDFORMAT_BEGIN
 90
        0
 91
        1
 62
     0
 92
       -2
340
14
 93
        0
 40
0.045
309
GRIDFORMAT_END
309
TABLEFORMAT_END
  1
CELLSTYLE_BEGIN
 90
        3
 91
        2
300
_DATA
309
CELLSTYLE_END
  0
XRECORD
  5
29E
102
{ACAD_REACTORS
330
29D
102
}
330
29D
100
AcDbXrecord
280
     1
102
RTVSPropertyOp0
 70
     1
102
RTVSPropertyOp1
 70
     1
102
RTVSPropertyOp2
 70
     1
102
RTVSPropertyOp3
 70
     1
102
RTVSPropertyOp4
 70
     1
102
RTVSPropertyOp5
 70
     1
102
RTVSPropertyOp6
 70
     1
102
RTVSPropertyOp7
 70
     1
102
RTVSPropertyOp8
 70
     1
102
RTVSPropertyOp9
 70
     1
102
RTVSPropertyOp10
 70
     1
102
RTVSPropertyOp11
 70
     1
102
RTVSPropertyOp12
 70
     1
102
RTVSPropertyOp13
 70
     1
102
RTVSPropertyOp14
 70
     1
102
RTVSPropertyOp15
 70
     1
102
RTVSPropertyOp16
 70
     1
102
RTVSPropertyOp17
 70
     1
102
RTVSPropertyOp18
 70
     1
102
RTVSPropertyOp19
 70
     1
102
RTVSPropertyOp20
 70
     1
102
RTVSPropertyOp21
 70
     1
102
RTVSPropertyOp22
 70
     1
102
RTVSPropertyOp23
 70
     1
102
RTVSPropertyOp24
 70
     1
102
RTVSPropertyOp25
 70
     1
102
RTVSPropertyOp26
 70
     1
102
RTVSPropertyOp27
 70
     1
102
RTVSPropertyOp28
 70
     1
102
RTVSPropertyOp29
 70
     1
102
RTVSPropertyOp30
 70
     1
102
RTVSPropertyOp31
 70
     1
102
RTVSPropertyOp32
 70
     1
102
RTVSPropertyOp33
 70
     1
102
RTVSPropertyOp34
 70
     1
102
RTVSPropertyOp35
 70
     1
102
RTVSPropertyOp36
 70
     1
102
RTVSPropertyOp37
 70
     1
102
RTVSPropertyOp38
 70
     1
102
RTVSPropertyOp39
 70
     1
102
RTVSPropertyOp40
 70
     1
102
RTVSPropertyOp41
 70
     1
102
RTVSPropertyOp42
 70
     1
102
RTVSPropertyOp43
 70
     1
102
RTVSPropertyOp44
 70
     1
102
RTVSPropertyOp45
 70
     1
102
RTVSPropertyOp46
 70
     1
102
RTVSPropertyOp47
 70
     1
102
RTVSPropertyOp48
 70
     1
102
RTVSPropertyOp49
 70
     1
102
RTVSPropertyOp50
 70
     1
102
RTVSPropertyOp51
 70
     0
102
RTVSPropertyOp52
 70
     0
102
RTVSPropertyOp53
 70
     1
102
RTVSPropertyOp54
 70
     1
102
RTVSPropertyOp55
 70
     1
102
RTVSPropertyOp56
 70
     1
102
RTVSPropertyOp57
 70
     1
102
RTVSPost2010Prop28
280
     1
102
RTVSPost2010PropOp28
 70
     1
102
RTVSPost2010Prop29
280
     1
102
RTVSPost2010PropOp29
 70
     1
102
RTVSPost2010Prop30
280
     0
102
RTVSPost2010PropOp30
 70
     1
102
RTVSPost2010Prop31
280
     0
102
RTVSPost2010PropOp31
 70
     1
102
RTVSPost2010Prop32
280
     0
102
RTVSPost2010PropOp32
 70
     1
102
RTVSPost2010Prop33
280
     0
102
RTVSPost2010PropOp33
 70
     1
102
RTVSPost2010Prop34
280
     0
102
RTVSPost2010PropOp34
 70
     1
102
RTVSPost2010Prop35
280
     0
102
RTVSPost2010PropOp35
 70
     1
102
RTVSPost2010Prop36
280
     0
102
RTVSPost2010PropOp36
 70
     1
102
RTVSPost2010Prop37
 90
       50
102
RTVSPost2010PropOp37
 70
     1
102
RTVSPost2010Prop38
140
0.0
102
RTVSPost2010PropOp38
 70
     1
102
RTVSPost2010Prop39
140
1.0
102
RTVSPost2010PropOp39
 70
     1
102
RTVSPost2010Prop40
 90
        0
102
RTVSPost2010PropOp40
 70
     1
102
RTVSPost2010Prop41ColorIndex
 90
       18
102
RTVSPost2010Prop41ColorRGB
 90
        0
102
RTVSPost2010PropOp41
 70
     1
102
RTVSPost2010Prop42
 90
       50
102
RTVSPost2010PropOp42
 70
     1
102
RTVSPost2010Prop43
 90
        3
102
RTVSPost2010PropOp43
 70
     1
102
RTVSPost2010Prop44ColorIndex
 90
        5
102
RTVSPost2010Prop44ColorRGB
 90
      255
102
RTVSPost2010PropOp44
 70
     1
102
RTVSPost2010Prop45
280
     0
102
RTVSPost2010PropOp45
 70
     1
102
RTVSPost2010Prop46
 90
       50
102
RTVSPost2010PropOp46
 70
     1
102
RTVSPost2010Prop47
 90
       50
102
RTVSPost2010PropOp47
 70
     1
102
RTVSPost2010Prop48
 90
       50
102
RTVSPost2010PropOp48
 70
     1
102
RTVSPost2010Prop49
280
     0
102
RTVSPost2010PropOp49
 70
     1
102
RTVSPost2010Prop50
 90
       50
102
RTVSPost2010PropOp50
 70
     1
102
RTVSPost2010Prop51ColorIndex
 90
      256
102
RTVSPost2010Prop51ColorRGB
 90
-16777216
102
RTVSPost2010PropOp51
 70
     0
102
RTVSPost2010Prop52
140
1.0
102
RTVSPost2010PropOp52
 70
     0
102
RTVSPost2010Prop53
 90
        2
102
RTVSPost2010PropOp53
 70
     1
102
RTVSPost2010Prop54
  1
strokes_ogs.tif
102
RTVSPost2010PropOp54
 70
     1
102
RTVSPost2010Prop55
280
     0
102
RTVSPost2010PropOp55
 70
     1
102
RTVSPost2010Prop56
140
1.0
102
RTVSPost2010PropOp56
 70
     1
102
RTVSPost2010Prop57
140
1.0
102
RTVSPost2010PropOp57
 70
     1
  0
XRECORD
  5
2A4
102
{ACAD_REACTORS
330
2A3
102
}
330
2A3
100
AcDbXrecord
280
     1
102
RTVSPropertyOp0
 70
     1
102
RTVSPropertyOp1
 70
     1
102
RTVSPropertyOp2
 70
     1
102
RTVSPropertyOp3
 70
     1
102
RTVSPropertyOp4
 70
     1
102
RTVSPropertyOp5
 70
     1
102
RTVSPropertyOp6
 70
     1
102
RTVSPropertyOp7
 70
     1
102
RTVSPropertyOp8
 70
     1
102
RTVSPropertyOp9
 70
     1
102
RTVSPropertyOp10
 70
     1
102
RTVSPropertyOp11
 70
     1
102
RTVSPropertyOp12
 70
     1
102
RTVSPropertyOp13
 70
     1
102
RTVSPropertyOp14
 70
     1
102
RTVSPropertyOp15
 70
     1
102
RTVSPropertyOp16
 70
     1
102
RTVSPropertyOp17
 70
     1
102
RTVSPropertyOp18
 70
     1
102
RTVSPropertyOp19
 70
     1
102
RTVSPropertyOp20
 70
     1
102
RTVSPropertyOp21
 70
     1
102
RTVSPropertyOp22
 70
     1
102
RTVSPropertyOp23
 70
     1
102
RTVSPropertyOp24
 70
     1
102
RTVSPropertyOp25
 70
     1
102
RTVSPropertyOp26
 70
     1
102
RTVSPropertyOp27
 70
     1
102
RTVSPropertyOp28
 70
     1
102
RTVSPropertyOp29
 70
     1
102
RTVSPropertyOp30
 70
     1
102
RTVSPropertyOp31
 70
     1
102
RTVSPropertyOp32
 70
     1
102
RTVSPropertyOp33
 70
     1
102
RTVSPropertyOp34
 70
     1
102
RTVSPropertyOp35
 70
     1
102
RTVSPropertyOp36
 70
     1
102
RTVSPropertyOp37
 70
     1
102
RTVSPropertyOp38
 70
     1
102
RTVSPropertyOp39
 70
     1
102
RTVSPropertyOp40
 70
     1
102
RTVSPropertyOp41
 70
     1
102
RTVSPropertyOp42
 70
     1
102
RTVSPropertyOp43
 70
     1
102
RTVSPropertyOp44
 70
     1
102
RTVSPropertyOp45
 70
     1
102
RTVSPropertyOp46
 70
     1
102
RTVSPropertyOp47
 70
     1
102
RTVSPropertyOp48
 70
     1
102
RTVSPropertyOp49
 70
     1
102
RTVSPropertyOp50
 70
     1
102
RTVSPropertyOp51
 70
     0
102
RTVSPropertyOp52
 70
     0
102
RTVSPropertyOp53
 70
     1
102
RTVSPropertyOp54
 70
     1
102
RTVSPropertyOp55
 70
     1
102
RTVSPropertyOp56
 70
     1
102
RTVSPropertyOp57
 70
     1
102
RTVSPost2010Prop28
280
     0
102
RTVSPost2010PropOp28
 70
     1
102
RTVSPost2010Prop29
280
     1
102
RTVSPost2010PropOp29
 70
     1
102
RTVSPost2010Prop30
280
     1
102
RTVSPost2010PropOp30
 70
     1
102
RTVSPost2010Prop31
280
     0
102
RTVSPost2010PropOp31
 70
     1
102
RTVSPost2010Prop32
280
     0
102
RTVSPost2010PropOp32
 70
     1
102
RTVSPost2010Prop33
280
     0
102
RTVSPost2010PropOp33
 70
     1
102
RTVSPost2010Prop34
280
     0
102
RTVSPost2010PropOp34
 70
     1
102
RTVSPost2010Prop35
280
     0
102
RTVSPost2010PropOp35
 70
     1
102
RTVSPost2010Prop36
280
     0
102
RTVSPost2010PropOp36
 70
     1
102
RTVSPost2010Prop37
 90
       50
102
RTVSPost2010PropOp37
 70
     1
102
RTVSPost2010Prop38
140
0.0
102
RTVSPost2010PropOp38
 70
     1
102
RTVSPost2010Prop39
140
1.0
102
RTVSPost2010PropOp39
 70
     1
102
RTVSPost2010Prop40
 90
        0
102
RTVSPost2010PropOp40
 70
     1
102
RTVSPost2010Prop41ColorIndex
 90
       18
102
RTVSPost2010Prop41ColorRGB
 90
        0
102
RTVSPost2010PropOp41
 70
     1
102
RTVSPost2010Prop42
 90
       50
102
RTVSPost2010PropOp42
 70
     1
102
RTVSPost2010Prop43
 90
        3
102
RTVSPost2010PropOp43
 70
     1
102
RTVSPost2010Prop44ColorIndex
 90
        5
102
RTVSPost2010Prop44ColorRGB
 90
      255
102
RTVSPost2010PropOp44
 70
     1
102
RTVSPost2010Prop45
280
     0
102
RTVSPost2010PropOp45
 70
     1
102
RTVSPost2010Prop46
 90
       50
102
RTVSPost2010PropOp46
 70
     1
102
RTVSPost2010Prop47
 90
       50
102
RTVSPost2010PropOp47
 70
     1
102
RTVSPost2010Prop48
 90
       50
102
RTVSPost2010PropOp48
 70
     1
102
RTVSPost2010Prop49
280
     0
102
RTVSPost2010PropOp49
 70
     1
102
RTVSPost2010Prop50
 90
       50
102
RTVSPost2010PropOp50
 70
     1
102
RTVSPost2010Prop51ColorIndex
 90
      256
102
RTVSPost2010Prop51ColorRGB
 90
-16777216
102
RTVSPost2010PropOp51
 70
     0
102
RTVSPost2010Prop52
140
1.0
102
RTVSPost2010PropOp52
 70
     0
102
RTVSPost2010Prop53
 90
        2
102
RTVSPost2010PropOp53
 70
     1
102
RTVSPost2010Prop54
  1
strokes_ogs.tif
102
RTVSPost2010PropOp54
 70
     1
102
RTVSPost2010Prop55
280
     0
102
RTVSPost2010PropOp55
 70
     1
102
RTVSPost2010Prop56
140
1.0
102
RTVSPost2010PropOp56
 70
     1
102
RTVSPost2010Prop57
140
1.0
102
RTVSPost2010PropOp57
 70
     1
  0
XRECORD
  5
2AC
102
{ACAD_REACTORS
330
2AB
102
}
330
2AB
100
AcDbXrecord
280
     1
102
RTVSPropertyOp0
 70
     1
102
RTVSPropertyOp1
 70
     1
102
RTVSPropertyOp2
 70
     1
102
RTVSPropertyOp3
 70
     1
102
RTVSPropertyOp4
 70
     1
102
RTVSPropertyOp5
 70
     1
102
RTVSPropertyOp6
 70
     1
102
RTVSPropertyOp7
 70
     1
102
RTVSPropertyOp8
 70
     1
102
RTVSPropertyOp9
 70
     1
102
RTVSPropertyOp10
 70
     1
102
RTVSPropertyOp11
 70
     1
102
RTVSPropertyOp12
 70
     1
102
RTVSPropertyOp13
 70
     1
102
RTVSPropertyOp14
 70
     1
102
RTVSPropertyOp15
 70
     1
102
RTVSPropertyOp16
 70
     1
102
RTVSPropertyOp17
 70
     1
102
RTVSPropertyOp18
 70
     1
102
RTVSPropertyOp19
 70
     1
102
RTVSPropertyOp20
 70
     1
102
RTVSPropertyOp21
 70
     1
102
RTVSPropertyOp22
 70
     1
102
RTVSPropertyOp23
 70
     1
102
RTVSPropertyOp24
 70
     1
102
RTVSPropertyOp25
 70
     1
102
RTVSPropertyOp26
 70
     1
102
RTVSPropertyOp27
 70
     1
102
RTVSPropertyOp28
 70
     1
102
RTVSPropertyOp29
 70
     1
102
RTVSPropertyOp30
 70
     1
102
RTVSPropertyOp31
 70
     1
102
RTVSPropertyOp32
 70
     1
102
RTVSPropertyOp33
 70
     1
102
RTVSPropertyOp34
 70
     1
102
RTVSPropertyOp35
 70
     1
102
RTVSPropertyOp36
 70
     1
102
RTVSPropertyOp37
 70
     1
102
RTVSPropertyOp38
 70
     1
102
RTVSPropertyOp39
 70
     1
102
RTVSPropertyOp40
 70
     1
102
RTVSPropertyOp41
 70
     1
102
RTVSPropertyOp42
 70
     1
102
RTVSPropertyOp43
 70
     1
102
RTVSPropertyOp44
 70
     1
102
RTVSPropertyOp45
 70
     1
102
RTVSPropertyOp46
 70
     1
102
RTVSPropertyOp47
 70
     1
102
RTVSPropertyOp48
 70
     1
102
RTVSPropertyOp49
 70
     1
102
RTVSPropertyOp50
 70
     1
102
RTVSPropertyOp51
 70
     0
102
RTVSPropertyOp52
 70
     0
102
RTVSPropertyOp53
 70
     1
102
RTVSPropertyOp54
 70
     1
102
RTVSPropertyOp55
 70
     1
102
RTVSPropertyOp56
 70
     1
102
RTVSPropertyOp57
 70
     1
102
RTVSPost2010Prop28
280
     0
102
RTVSPost2010PropOp28
 70
     1
102
RTVSPost2010Prop29
280
     1
102
RTVSPost2010PropOp29
 70
     1
102
RTVSPost2010Prop30
280
     1
102
RTVSPost2010PropOp30
 70
     1
102
RTVSPost2010Prop31
280
     0
102
RTVSPost2010PropOp31
 70
     1
102
RTVSPost2010Prop32
280
     0
102
RTVSPost2010PropOp32
 70
     1
102
RTVSPost2010Prop33
280
     0
102
RTVSPost2010PropOp33
 70
     1
102
RTVSPost2010Prop34
280
     0
102
RTVSPost2010PropOp34
 70
     1
102
RTVSPost2010Prop35
280
     0
102
RTVSPost2010PropOp35
 70
     1
102
RTVSPost2010Prop36
280
     0
102
RTVSPost2010PropOp36
 70
     1
102
RTVSPost2010Prop37
 90
       50
102
RTVSPost2010PropOp37
 70
     1
102
RTVSPost2010Prop38
140
0.0
102
RTVSPost2010PropOp38
 70
     1
102
RTVSPost2010Prop39
140
1.0
102
RTVSPost2010PropOp39
 70
     1
102
RTVSPost2010Prop40
 90
        0
102
RTVSPost2010PropOp40
 70
     1
102
RTVSPost2010Prop41ColorIndex
 90
       18
102
RTVSPost2010Prop41ColorRGB
 90
        0
102
RTVSPost2010PropOp41
 70
     1
102
RTVSPost2010Prop42
 90
       50
102
RTVSPost2010PropOp42
 70
     1
102
RTVSPost2010Prop43
 90
        3
102
RTVSPost2010PropOp43
 70
     1
102
RTVSPost2010Prop44ColorIndex
 90
        5
102
RTVSPost2010Prop44ColorRGB
 90
      255
102
RTVSPost2010PropOp44
 70
     1
102
RTVSPost2010Prop45
280
     0
102
RTVSPost2010PropOp45
 70
     1
102
RTVSPost2010Prop46
 90
       50
102
RTVSPost2010PropOp46
 70
     1
102
RTVSPost2010Prop47
 90
       50
102
RTVSPost2010PropOp47
 70
     1
102
RTVSPost2010Prop48
 90
       50
102
RTVSPost2010PropOp48
 70
     1
102
RTVSPost2010Prop49
280
     0
102
RTVSPost2010PropOp49
 70
     1
102
RTVSPost2010Prop50
 90
       50
102
RTVSPost2010PropOp50
 70
     1
102
RTVSPost2010Prop51ColorIndex
 90
      256
102
RTVSPost2010Prop51ColorRGB
 90
-16777216
102
RTVSPost2010PropOp51
 70
     0
102
RTVSPost2010Prop52
140
1.0
102
RTVSPost2010PropOp52
 70
     0
102
RTVSPost2010Prop53
 90
        2
102
RTVSPost2010PropOp53
 70
     1
102
RTVSPost2010Prop54
  1
strokes_ogs.tif
102
RTVSPost2010PropOp54
 70
     1
102
RTVSPost2010Prop55
280
     0
102
RTVSPost2010PropOp55
 70
     1
102
RTVSPost2010Prop56
140
1.0
102
RTVSPost2010PropOp56
 70
     1
102
RTVSPost2010Prop57
140
1.0
102
RTVSPost2010PropOp57
 70
     1
  0
XRECORD
  5
2B4
102
{ACAD_REACTORS
330
2B3
102
}
330
2B3
100
AcDbXrecord
280
     1
102
RTVSPropertyOp0
 70
     1
102
RTVSPropertyOp1
 70
     1
102
RTVSPropertyOp2
 70
     1
102
RTVSPropertyOp3
 70
     1
102
RTVSPropertyOp4
 70
     1
102
RTVSPropertyOp5
 70
     1
102
RTVSPropertyOp6
 70
     1
102
RTVSPropertyOp7
 70
     1
102
RTVSPropertyOp8
 70
     1
102
RTVSPropertyOp9
 70
     1
102
RTVSPropertyOp10
 70
     1
102
RTVSPropertyOp11
 70
     1
102
RTVSPropertyOp12
 70
     1
102
RTVSPropertyOp13
 70
     1
102
RTVSPropertyOp14
 70
     1
102
RTVSPropertyOp15
 70
     1
102
RTVSPropertyOp16
 70
     1
102
RTVSPropertyOp17
 70
     1
102
RTVSPropertyOp18
 70
     1
102
RTVSPropertyOp19
 70
     1
102
RTVSPropertyOp20
 70
     1
102
RTVSPropertyOp21
 70
     1
102
RTVSPropertyOp22
 70
     1
102
RTVSPropertyOp23
 70
     1
102
RTVSPropertyOp24
 70
     1
102
RTVSPropertyOp25
 70
     1
102
RTVSPropertyOp26
 70
     1
102
RTVSPropertyOp27
 70
     1
102
RTVSPropertyOp28
 70
     1
102
RTVSPropertyOp29
 70
     1
102
RTVSPropertyOp30
 70
     1
102
RTVSPropertyOp31
 70
     1
102
RTVSPropertyOp32
 70
     1
102
RTVSPropertyOp33
 70
     1
102
RTVSPropertyOp34
 70
     1
102
RTVSPropertyOp35
 70
     1
102
RTVSPropertyOp36
 70
     1
102
RTVSPropertyOp37
 70
     1
102
RTVSPropertyOp38
 70
     1
102
RTVSPropertyOp39
 70
     1
102
RTVSPropertyOp40
 70
     1
102
RTVSPropertyOp41
 70
     1
102
RTVSPropertyOp42
 70
     1
102
RTVSPropertyOp43
 70
     1
102
RTVSPropertyOp44
 70
     1
102
RTVSPropertyOp45
 70
     1
102
RTVSPropertyOp46
 70
     1
102
RTVSPropertyOp47
 70
     1
102
RTVSPropertyOp48
 70
     1
102
RTVSPropertyOp49
 70
     1
102
RTVSPropertyOp50
 70
     1
102
RTVSPropertyOp51
 70
     0
102
RTVSPropertyOp52
 70
     0
102
RTVSPropertyOp53
 70
     1
102
RTVSPropertyOp54
 70
     1
102
RTVSPropertyOp55
 70
     1
102
RTVSPropertyOp56
 70
     1
102
RTVSPropertyOp57
 70
     1
102
RTVSPost2010Prop28
280
     0
102
RTVSPost2010PropOp28
 70
     1
102
RTVSPost2010Prop29
280
     1
102
RTVSPost2010PropOp29
 70
     1
102
RTVSPost2010Prop30
280
     1
102
RTVSPost2010PropOp30
 70
     1
102
RTVSPost2010Prop31
280
     0
102
RTVSPost2010PropOp31
 70
     1
102
RTVSPost2010Prop32
280
     0
102
RTVSPost2010PropOp32
 70
     1
102
RTVSPost2010Prop33
280
     0
102
RTVSPost2010PropOp33
 70
     1
102
RTVSPost2010Prop34
280
     0
102
RTVSPost2010PropOp34
 70
     1
102
RTVSPost2010Prop35
280
     0
102
RTVSPost2010PropOp35
 70
     1
102
RTVSPost2010Prop36
280
     0
102
RTVSPost2010PropOp36
 70
     1
102
RTVSPost2010Prop37
 90
       50
102
RTVSPost2010PropOp37
 70
     1
102
RTVSPost2010Prop38
140
0.0
102
RTVSPost2010PropOp38
 70
     1
102
RTVSPost2010Prop39
140
1.0
102
RTVSPost2010PropOp39
 70
     1
102
RTVSPost2010Prop40
 90
        0
102
RTVSPost2010PropOp40
 70
     1
102
RTVSPost2010Prop41ColorIndex
 90
       18
102
RTVSPost2010Prop41ColorRGB
 90
        0
102
RTVSPost2010PropOp41
 70
     1
102
RTVSPost2010Prop42
 90
       50
102
RTVSPost2010PropOp42
 70
     1
102
RTVSPost2010Prop43
 90
        3
102
RTVSPost2010PropOp43
 70
     1
102
RTVSPost2010Prop44ColorIndex
 90
        5
102
RTVSPost2010Prop44ColorRGB
 90
      255
102
RTVSPost2010PropOp44
 70
     1
102
RTVSPost2010Prop45
280
     0
102
RTVSPost2010PropOp45
 70
     1
102
RTVSPost2010Prop46
 90
       50
102
RTVSPost2010PropOp46
 70
     1
102
RTVSPost2010Prop47
 90
       50
102
RTVSPost2010PropOp47
 70
     1
102
RTVSPost2010Prop48
 90
       50
102
RTVSPost2010PropOp48
 70
     1
102
RTVSPost2010Prop49
280
     0
102
RTVSPost2010PropOp49
 70
     1
102
RTVSPost2010Prop50
 90
       50
102
RTVSPost2010PropOp50
 70
     1
102
RTVSPost2010Prop51ColorIndex
 90
      256
102
RTVSPost2010Prop51ColorRGB
 90
-16777216
102
RTVSPost2010PropOp51
 70
     0
102
RTVSPost2010Prop52
140
1.0
102
RTVSPost2010PropOp52
 70
     0
102
RTVSPost2010Prop53
 90
        2
102
RTVSPost2010PropOp53
 70
     1
102
RTVSPost2010Prop54
  1
strokes_ogs.tif
102
RTVSPost2010PropOp54
 70
     1
102
RTVSPost2010Prop55
280
     0
102
RTVSPost2010PropOp55
 70
     1
102
RTVSPost2010Prop56
140
1.0
102
RTVSPost2010PropOp56
 70
     1
102
RTVSPost2010Prop57
140
1.0
102
RTVSPost2010PropOp57
 70
     1
  0
XRECORD
  5
2A8
102
{ACAD_REACTORS
330
2A7
102
}
330
2A7
100
AcDbXrecord
280
     1
102
RTVSPropertyOp0
 70
     1
102
RTVSPropertyOp1
 70
     1
102
RTVSPropertyOp2
 70
     1
102
RTVSPropertyOp3
 70
     1
102
RTVSPropertyOp4
 70
     1
102
RTVSPropertyOp5
 70
     1
102
RTVSPropertyOp6
 70
     1
102
RTVSPropertyOp7
 70
     1
102
RTVSPropertyOp8
 70
     1
102
RTVSPropertyOp9
 70
     1
102
RTVSPropertyOp10
 70
     1
102
RTVSPropertyOp11
 70
     1
102
RTVSPropertyOp12
 70
     1
102
RTVSPropertyOp13
 70
     1
102
RTVSPropertyOp14
 70
     1
102
RTVSPropertyOp15
 70
     1
102
RTVSPropertyOp16
 70
     1
102
RTVSPropertyOp17
 70
     1
102
RTVSPropertyOp18
 70
     1
102
RTVSPropertyOp19
 70
     1
102
RTVSPropertyOp20
 70
     1
102
RTVSPropertyOp21
 70
     1
102
RTVSPropertyOp22
 70
     1
102
RTVSPropertyOp23
 70
     1
102
RTVSPropertyOp24
 70
     1
102
RTVSPropertyOp25
 70
     1
102
RTVSPropertyOp26
 70
     1
102
RTVSPropertyOp27
 70
     1
102
RTVSPropertyOp28
 70
     1
102
RTVSPropertyOp29
 70
     1
102
RTVSPropertyOp30
 70
     1
102
RTVSPropertyOp31
 70
     1
102
RTVSPropertyOp32
 70
     1
102
RTVSPropertyOp33
 70
     1
102
RTVSPropertyOp34
 70
     1
102
RTVSPropertyOp35
 70
     1
102
RTVSPropertyOp36
 70
     1
102
RTVSPropertyOp37
 70
     1
102
RTVSPropertyOp38
 70
     1
102
RTVSPropertyOp39
 70
     1
102
RTVSPropertyOp40
 70
     1
102
RTVSPropertyOp41
 70
     1
102
RTVSPropertyOp42
 70
     1
102
RTVSPropertyOp43
 70
     1
102
RTVSPropertyOp44
 70
     1
102
RTVSPropertyOp45
 70
     1
102
RTVSPropertyOp46
 70
     1
102
RTVSPropertyOp47
 70
     1
102
RTVSPropertyOp48
 70
     1
102
RTVSPropertyOp49
 70
     1
102
RTVSPropertyOp50
 70
     1
102
RTVSPropertyOp51
 70
     0
102
RTVSPropertyOp52
 70
     0
102
RTVSPropertyOp53
 70
     1
102
RTVSPropertyOp54
 70
     1
102
RTVSPropertyOp55
 70
     1
102
RTVSPropertyOp56
 70
     1
102
RTVSPropertyOp57
 70
     1
102
RTVSPost2010Prop28
280
     0
102
RTVSPost2010PropOp28
 70
     1
102
RTVSPost2010Prop29
280
     1
102
RTVSPost2010PropOp29
 70
     1
102
RTVSPost2010Prop30
280
     1
102
RTVSPost2010PropOp30
 70
     1
102
RTVSPost2010Prop31
280
     0
102
RTVSPost2010PropOp31
 70
     1
102
RTVSPost2010Prop32
280
     0
102
RTVSPost2010PropOp32
 70
     1
102
RTVSPost2010Prop33
280
     0
102
RTVSPost2010PropOp33
 70
     1
102
RTVSPost2010Prop34
280
     0
102
RTVSPost2010PropOp34
 70
     1
102
RTVSPost2010Prop35
280
     0
102
RTVSPost2010PropOp35
 70
     1
102
RTVSPost2010Prop36
280
     0
102
RTVSPost2010PropOp36
 70
     1
102
RTVSPost2010Prop37
 90
       50
102
RTVSPost2010PropOp37
 70
     1
102
RTVSPost2010Prop38
140
0.0
102
RTVSPost2010PropOp38
 70
     1
102
RTVSPost2010Prop39
140
1.0
102
RTVSPost2010PropOp39
 70
     1
102
RTVSPost2010Prop40
 90
        0
102
RTVSPost2010PropOp40
 70
     1
102
RTVSPost2010Prop41ColorIndex
 90
       18
102
RTVSPost2010Prop41ColorRGB
 90
        0
102
RTVSPost2010PropOp41
 70
     1
102
RTVSPost2010Prop42
 90
       50
102
RTVSPost2010PropOp42
 70
     1
102
RTVSPost2010Prop43
 90
        3
102
RTVSPost2010PropOp43
 70
     1
102
RTVSPost2010Prop44ColorIndex
 90
        5
102
RTVSPost2010Prop44ColorRGB
 90
      255
102
RTVSPost2010PropOp44
 70
     1
102
RTVSPost2010Prop45
280
     0
102
RTVSPost2010PropOp45
 70
     1
102
RTVSPost2010Prop46
 90
       50
102
RTVSPost2010PropOp46
 70
     1
102
RTVSPost2010Prop47
 90
       50
102
RTVSPost2010PropOp47
 70
     1
102
RTVSPost2010Prop48
 90
       50
102
RTVSPost2010PropOp48
 70
     1
102
RTVSPost2010Prop49
280
     0
102
RTVSPost2010PropOp49
 70
     1
102
RTVSPost2010Prop50
 90
       50
102
RTVSPost2010PropOp50
 70
     1
102
RTVSPost2010Prop51ColorIndex
 90
      256
102
RTVSPost2010Prop51ColorRGB
 90
-16777216
102
RTVSPost2010PropOp51
 70
     0
102
RTVSPost2010Prop52
140
1.0
102
RTVSPost2010PropOp52
 70
     0
102
RTVSPost2010Prop53
 90
        2
102
RTVSPost2010PropOp53
 70
     1
102
RTVSPost2010Prop54
  1
strokes_ogs.tif
102
RTVSPost2010PropOp54
 70
     1
102
RTVSPost2010Prop55
280
     0
102
RTVSPost2010PropOp55
 70
     1
102
RTVSPost2010Prop56
140
1.0
102
RTVSPost2010PropOp56
 70
     1
102
RTVSPost2010Prop57
140
1.0
102
RTVSPost2010PropOp57
 70
     1
  0
XRECORD
  5
2AA
102
{ACAD_REACTORS
330
2A9
102
}
330
2A9
100
AcDbXrecord
280
     1
102
RTVSPropertyOp0
 70
     1
102
RTVSPropertyOp1
 70
     1
102
RTVSPropertyOp2
 70
     1
102
RTVSPropertyOp3
 70
     1
102
RTVSPropertyOp4
 70
     1
102
RTVSPropertyOp5
 70
     1
102
RTVSPropertyOp6
 70
     1
102
RTVSPropertyOp7
 70
     1
102
RTVSPropertyOp8
 70
     1
102
RTVSPropertyOp9
 70
     1
102
RTVSPropertyOp10
 70
     1
102
RTVSPropertyOp11
 70
     1
102
RTVSPropertyOp12
 70
     1
102
RTVSPropertyOp13
 70
     1
102
RTVSPropertyOp14
 70
     1
102
RTVSPropertyOp15
 70
     1
102
RTVSPropertyOp16
 70
     1
102
RTVSPropertyOp17
 70
     1
102
RTVSPropertyOp18
 70
     1
102
RTVSPropertyOp19
 70
     1
102
RTVSPropertyOp20
 70
     1
102
RTVSPropertyOp21
 70
     1
102
RTVSPropertyOp22
 70
     1
102
RTVSPropertyOp23
 70
     1
102
RTVSPropertyOp24
 70
     1
102
RTVSPropertyOp25
 70
     1
102
RTVSPropertyOp26
 70
     1
102
RTVSPropertyOp27
 70
     1
102
RTVSPropertyOp28
 70
     1
102
RTVSPropertyOp29
 70
     1
102
RTVSPropertyOp30
 70
     1
102
RTVSPropertyOp31
 70
     1
102
RTVSPropertyOp32
 70
     1
102
RTVSPropertyOp33
 70
     1
102
RTVSPropertyOp34
 70
     1
102
RTVSPropertyOp35
 70
     1
102
RTVSPropertyOp36
 70
     1
102
RTVSPropertyOp37
 70
     1
102
RTVSPropertyOp38
 70
     1
102
RTVSPropertyOp39
 70
     1
102
RTVSPropertyOp40
 70
     1
102
RTVSPropertyOp41
 70
     1
102
RTVSPropertyOp42
 70
     1
102
RTVSPropertyOp43
 70
     1
102
RTVSPropertyOp44
 70
     1
102
RTVSPropertyOp45
 70
     1
102
RTVSPropertyOp46
 70
     1
102
RTVSPropertyOp47
 70
     1
102
RTVSPropertyOp48
 70
     1
102
RTVSPropertyOp49
 70
     1
102
RTVSPropertyOp50
 70
     1
102
RTVSPropertyOp51
 70
     0
102
RTVSPropertyOp52
 70
     0
102
RTVSPropertyOp53
 70
     1
102
RTVSPropertyOp54
 70
     1
102
RTVSPropertyOp55
 70
     1
102
RTVSPropertyOp56
 70
     1
102
RTVSPropertyOp57
 70
     1
102
RTVSPost2010Prop28
280
     0
102
RTVSPost2010PropOp28
 70
     1
102
RTVSPost2010Prop29
280
     1
102
RTVSPost2010PropOp29
 70
     1
102
RTVSPost2010Prop30
280
     1
102
RTVSPost2010PropOp30
 70
     1
102
RTVSPost2010Prop31
280
     0
102
RTVSPost2010PropOp31
 70
     1
102
RTVSPost2010Prop32
280
     0
102
RTVSPost2010PropOp32
 70
     1
102
RTVSPost2010Prop33
280
     0
102
RTVSPost2010PropOp33
 70
     1
102
RTVSPost2010Prop34
280
     0
102
RTVSPost2010PropOp34
 70
     1
102
RTVSPost2010Prop35
280
     0
102
RTVSPost2010PropOp35
 70
     1
102
RTVSPost2010Prop36
280
     0
102
RTVSPost2010PropOp36
 70
     1
102
RTVSPost2010Prop37
 90
       50
102
RTVSPost2010PropOp37
 70
     1
102
RTVSPost2010Prop38
140
0.0
102
RTVSPost2010PropOp38
 70
     1
102
RTVSPost2010Prop39
140
1.0
102
RTVSPost2010PropOp39
 70
     1
102
RTVSPost2010Prop40
 90
        0
102
RTVSPost2010PropOp40
 70
     1
102
RTVSPost2010Prop41ColorIndex
 90
       18
102
RTVSPost2010Prop41ColorRGB
 90
        0
102
RTVSPost2010PropOp41
 70
     1
102
RTVSPost2010Prop42
 90
       50
102
RTVSPost2010PropOp42
 70
     1
102
RTVSPost2010Prop43
 90
        3
102
RTVSPost2010PropOp43
 70
     1
102
RTVSPost2010Prop44ColorIndex
 90
        5
102
RTVSPost2010Prop44ColorRGB
 90
      255
102
RTVSPost2010PropOp44
 70
     1
102
RTVSPost2010Prop45
280
     0
102
RTVSPost2010PropOp45
 70
     1
102
RTVSPost2010Prop46
 90
       50
102
RTVSPost2010PropOp46
 70
     1
102
RTVSPost2010Prop47
 90
       50
102
RTVSPost2010PropOp47
 70
     1
102
RTVSPost2010Prop48
 90
       50
102
RTVSPost2010PropOp48
 70
     1
102
RTVSPost2010Prop49
280
     0
102
RTVSPost2010PropOp49
 70
     1
102
RTVSPost2010Prop50
 90
       50
102
RTVSPost2010PropOp50
 70
     1
102
RTVSPost2010Prop51ColorIndex
 90
      256
102
RTVSPost2010Prop51ColorRGB
 90
-16777216
102
RTVSPost2010PropOp51
 70
     0
102
RTVSPost2010Prop52
140
1.0
102
RTVSPost2010PropOp52
 70
     0
102
RTVSPost2010Prop53
 90
        2
102
RTVSPost2010PropOp53
 70
     1
102
RTVSPost2010Prop54
  1
strokes_ogs.tif
102
RTVSPost2010PropOp54
 70
     1
102
RTVSPost2010Prop55
280
     0
102
RTVSPost2010PropOp55
 70
     1
102
RTVSPost2010Prop56
140
1.0
102
RTVSPost2010PropOp56
 70
     1
102
RTVSPost2010Prop57
140
1.0
102
RTVSPost2010PropOp57
 70
     1
  0
XRECORD
  5
2BA
102
{ACAD_REACTORS
330
2B9
102
}
330
2B9
100
AcDbXrecord
280
     1
102
RTVSPropertyOp0
 70
     0
102
RTVSPropertyOp1
 70
     0
102
RTVSPropertyOp2
 70
     0
102
RTVSPropertyOp3
 70
     0
102
RTVSPropertyOp4
 70
     0
102
RTVSPropertyOp5
 70
     0
102
RTVSPropertyOp6
 70
     0
102
RTVSPropertyOp7
 70
     0
102
RTVSPropertyOp8
 70
     0
102
RTVSPropertyOp9
 70
     0
102
RTVSPropertyOp10
 70
     0
102
RTVSPropertyOp11
 70
     0
102
RTVSPropertyOp12
 70
     0
102
RTVSPropertyOp13
 70
     0
102
RTVSPropertyOp14
 70
     2
102
RTVSPropertyOp15
 70
     0
102
RTVSPropertyOp16
 70
     0
102
RTVSPropertyOp17
 70
     0
102
RTVSPropertyOp18
 70
     0
102
RTVSPropertyOp19
 70
     0
102
RTVSPropertyOp20
 70
     0
102
RTVSPropertyOp21
 70
     0
102
RTVSPropertyOp22
 70
     0
102
RTVSPropertyOp23
 70
     0
102
RTVSPropertyOp24
 70
     0
102
RTVSPropertyOp25
 70
     0
102
RTVSPropertyOp26
 70
     0
102
RTVSPropertyOp27
 70
     0
102
RTVSPropertyOp28
 70
     0
102
RTVSPropertyOp29
 70
     0
102
RTVSPropertyOp30
 70
     0
102
RTVSPropertyOp31
 70
     0
102
RTVSPropertyOp32
 70
     0
102
RTVSPropertyOp33
 70
     0
102
RTVSPropertyOp34
 70
     0
102
RTVSPropertyOp35
 70
     0
102
RTVSPropertyOp36
 70
     0
102
RTVSPropertyOp37
 70
     0
102
RTVSPropertyOp38
 70
     0
102
RTVSPropertyOp39
 70
     0
102
RTVSPropertyOp40
 70
     0
102
RTVSPropertyOp41
 70
     0
102
RTVSPropertyOp42
 70
     0
102
RTVSPropertyOp43
 70
     0
102
RTVSPropertyOp44
 70
     0
102
RTVSPropertyOp45
 70
     0
102
RTVSPropertyOp46
 70
     0
102
RTVSPropertyOp47
 70
     0
102
RTVSPropertyOp48
 70
     0
102
RTVSPropertyOp49
 70
     0
102
RTVSPropertyOp50
 70
     0
102
RTVSPropertyOp51
 70
     0
102
RTVSPropertyOp52
 70
     0
102
RTVSPropertyOp53
 70
     0
102
RTVSPropertyOp54
 70
     0
102
RTVSPropertyOp55
 70
     0
102
RTVSPropertyOp56
 70
     0
102
RTVSPropertyOp57
 70
     0
102
RTVSPost2010Prop28
280
     0
102
RTVSPost2010PropOp28
 70
     0
102
RTVSPost2010Prop29
280
     1
102
RTVSPost2010PropOp29
 70
     0
102
RTVSPost2010Prop30
280
     1
102
RTVSPost2010PropOp30
 70
     0
102
RTVSPost2010Prop31
280
     0
102
RTVSPost2010PropOp31
 70
     0
102
RTVSPost2010Prop32
280
     0
102
RTVSPost2010PropOp32
 70
     0
102
RTVSPost2010Prop33
280
     0
102
RTVSPost2010PropOp33
 70
     0
102
RTVSPost2010Prop34
280
     0
102
RTVSPost2010PropOp34
 70
     0
102
RTVSPost2010Prop35
280
     0
102
RTVSPost2010PropOp35
 70
     0
102
RTVSPost2010Prop36
280
     0
102
RTVSPost2010PropOp36
 70
     0
102
RTVSPost2010Prop37
 90
       50
102
RTVSPost2010PropOp37
 70
     0
102
RTVSPost2010Prop38
140
0.0
102
RTVSPost2010PropOp38
 70
     0
102
RTVSPost2010Prop39
140
1.0
102
RTVSPost2010PropOp39
 70
     0
102
RTVSPost2010Prop40
 90
        0
102
RTVSPost2010PropOp40
 70
     0
102
RTVSPost2010Prop41ColorIndex
 90
       18
102
RTVSPost2010Prop41ColorRGB
 90
        0
102
RTVSPost2010PropOp41
 70
     0
102
RTVSPost2010Prop42
 90
       50
102
RTVSPost2010PropOp42
 70
     0
102
RTVSPost2010Prop43
 90
        3
102
RTVSPost2010PropOp43
 70
     0
102
RTVSPost2010Prop44ColorIndex
 90
        5
102
RTVSPost2010Prop44ColorRGB
 90
      255
102
RTVSPost2010PropOp44
 70
     0
102
RTVSPost2010Prop45
280
     0
102
RTVSPost2010PropOp45
 70
     0
102
RTVSPost2010Prop46
 90
       50
102
RTVSPost2010PropOp46
 70
     0
102
RTVSPost2010Prop47
 90
       50
102
RTVSPost2010PropOp47
 70
     0
102
RTVSPost2010Prop48
 90
       50
102
RTVSPost2010PropOp48
 70
     0
102
RTVSPost2010Prop49
280
     0
102
RTVSPost2010PropOp49
 70
     0
102
RTVSPost2010Prop50
 90
       50
102
RTVSPost2010PropOp50
 70
     0
102
RTVSPost2010Prop51ColorIndex
 90
      256
102
RTVSPost2010Prop51ColorRGB
 90
-16777216
102
RTVSPost2010PropOp51
 70
     0
102
RTVSPost2010Prop52
140
1.0
102
RTVSPost2010PropOp52
 70
     0
102
RTVSPost2010Prop53
 90
        2
102
RTVSPost2010PropOp53
 70
     0
102
RTVSPost2010Prop54
  1
strokes_ogs.tif
102
RTVSPost2010PropOp54
 70
     0
102
RTVSPost2010Prop55
280
     0
102
RTVSPost2010PropOp55
 70
     0
102
RTVSPost2010Prop56
140
1.0
102
RTVSPost2010PropOp56
 70
     0
102
RTVSPost2010Prop57
140
1.0
102
RTVSPost2010PropOp57
 70
     0
  0
XRECORD
  5
2B2
102
{ACAD_REACTORS
330
2B1
102
}
330
2B1
100
AcDbXrecord
280
     1
102
RTVSPropertyOp0
 70
     1
102
RTVSPropertyOp1
 70
     1
102
RTVSPropertyOp2
 70
     1
102
RTVSPropertyOp3
 70
     1
102
RTVSPropertyOp4
 70
     1
102
RTVSPropertyOp5
 70
     1
102
RTVSPropertyOp6
 70
     1
102
RTVSPropertyOp7
 70
     1
102
RTVSPropertyOp8
 70
     1
102
RTVSPropertyOp9
 70
     1
102
RTVSPropertyOp10
 70
     1
102
RTVSPropertyOp11
 70
     1
102
RTVSPropertyOp12
 70
     1
102
RTVSPropertyOp13
 70
     1
102
RTVSPropertyOp14
 70
     1
102
RTVSPropertyOp15
 70
     1
102
RTVSPropertyOp16
 70
     1
102
RTVSPropertyOp17
 70
     1
102
RTVSPropertyOp18
 70
     1
102
RTVSPropertyOp19
 70
     1
102
RTVSPropertyOp20
 70
     1
102
RTVSPropertyOp21
 70
     1
102
RTVSPropertyOp22
 70
     1
102
RTVSPropertyOp23
 70
     1
102
RTVSPropertyOp24
 70
     1
102
RTVSPropertyOp25
 70
     1
102
RTVSPropertyOp26
 70
     1
102
RTVSPropertyOp27
 70
     1
102
RTVSPropertyOp28
 70
     1
102
RTVSPropertyOp29
 70
     1
102
RTVSPropertyOp30
 70
     1
102
RTVSPropertyOp31
 70
     1
102
RTVSPropertyOp32
 70
     1
102
RTVSPropertyOp33
 70
     1
102
RTVSPropertyOp34
 70
     1
102
RTVSPropertyOp35
 70
     1
102
RTVSPropertyOp36
 70
     1
102
RTVSPropertyOp37
 70
     1
102
RTVSPropertyOp38
 70
     1
102
RTVSPropertyOp39
 70
     1
102
RTVSPropertyOp40
 70
     1
102
RTVSPropertyOp41
 70
     1
102
RTVSPropertyOp42
 70
     1
102
RTVSPropertyOp43
 70
     1
102
RTVSPropertyOp44
 70
     1
102
RTVSPropertyOp45
 70
     1
102
RTVSPropertyOp46
 70
     1
102
RTVSPropertyOp47
 70
     1
102
RTVSPropertyOp48
 70
     1
102
RTVSPropertyOp49
 70
     1
102
RTVSPropertyOp50
 70
     1
102
RTVSPropertyOp51
 70
     0
102
RTVSPropertyOp52
 70
     0
102
RTVSPropertyOp53
 70
     1
102
RTVSPropertyOp54
 70
     1
102
RTVSPropertyOp55
 70
     1
102
RTVSPropertyOp56
 70
     1
102
RTVSPropertyOp57
 70
     1
102
RTVSPost2010Prop28
280
     0
102
RTVSPost2010PropOp28
 70
     1
102
RTVSPost2010Prop29
280
     1
102
RTVSPost2010PropOp29
 70
     1
102
RTVSPost2010Prop30
280
     1
102
RTVSPost2010PropOp30
 70
     1
102
RTVSPost2010Prop31
280
     0
102
RTVSPost2010PropOp31
 70
     1
102
RTVSPost2010Prop32
280
     0
102
RTVSPost2010PropOp32
 70
     1
102
RTVSPost2010Prop33
280
     0
102
RTVSPost2010PropOp33
 70
     1
102
RTVSPost2010Prop34
280
     0
102
RTVSPost2010PropOp34
 70
     1
102
RTVSPost2010Prop35
280
     0
102
RTVSPost2010PropOp35
 70
     1
102
RTVSPost2010Prop36
280
     0
102
RTVSPost2010PropOp36
 70
     1
102
RTVSPost2010Prop37
 90
       50
102
RTVSPost2010PropOp37
 70
     1
102
RTVSPost2010Prop38
140
0.0
102
RTVSPost2010PropOp38
 70
     1
102
RTVSPost2010Prop39
140
1.0
102
RTVSPost2010PropOp39
 70
     1
102
RTVSPost2010Prop40
 90
        0
102
RTVSPost2010PropOp40
 70
     1
102
RTVSPost2010Prop41ColorIndex
 90
       18
102
RTVSPost2010Prop41ColorRGB
 90
        0
102
RTVSPost2010PropOp41
 70
     1
102
RTVSPost2010Prop42
 90
       50
102
RTVSPost2010PropOp42
 70
     1
102
RTVSPost2010Prop43
 90
        3
102
RTVSPost2010PropOp43
 70
     1
102
RTVSPost2010Prop44ColorIndex
 90
        5
102
RTVSPost2010Prop44ColorRGB
 90
      255
102
RTVSPost2010PropOp44
 70
     1
102
RTVSPost2010Prop45
280
     0
102
RTVSPost2010PropOp45
 70
     1
102
RTVSPost2010Prop46
 90
       50
102
RTVSPost2010PropOp46
 70
     1
102
RTVSPost2010Prop47
 90
       50
102
RTVSPost2010PropOp47
 70
     1
102
RTVSPost2010Prop48
 90
       50
102
RTVSPost2010PropOp48
 70
     1
102
RTVSPost2010Prop49
280
     0
102
RTVSPost2010PropOp49
 70
     1
102
RTVSPost2010Prop50
 90
       50
102
RTVSPost2010PropOp50
 70
     1
102
RTVSPost2010Prop51ColorIndex
 90
      256
102
RTVSPost2010Prop51ColorRGB
 90
-16777216
102
RTVSPost2010PropOp51
 70
     0
102
RTVSPost2010Prop52
140
1.0
102
RTVSPost2010PropOp52
 70
     0
102
RTVSPost2010Prop53
 90
        2
102
RTVSPost2010PropOp53
 70
     1
102
RTVSPost2010Prop54
  1
strokes_ogs.tif
102
RTVSPost2010PropOp54
 70
     1
102
RTVSPost2010Prop55
280
     0
102
RTVSPost2010PropOp55
 70
     1
102
RTVSPost2010Prop56
140
1.0
102
RTVSPost2010PropOp56
 70
     1
102
RTVSPost2010Prop57
140
1.0
102
RTVSPost2010PropOp57
 70
     1
  0
XRECORD
  5
296
102
{ACAD_REACTORS
330
295
102
}
330
295
100
AcDbXrecord
280
     1
102
RTVSPropertyOp0
 70
     1
102
RTVSPropertyOp1
 70
     1
102
RTVSPropertyOp2
 70
     1
102
RTVSPropertyOp3
 70
     1
102
RTVSPropertyOp4
 70
     1
102
RTVSPropertyOp5
 70
     1
102
RTVSPropertyOp6
 70
     1
102
RTVSPropertyOp7
 70
     1
102
RTVSPropertyOp8
 70
     1
102
RTVSPropertyOp9
 70
     1
102
RTVSPropertyOp10
 70
     1
102
RTVSPropertyOp11
 70
     1
102
RTVSPropertyOp12
 70
     1
102
RTVSPropertyOp13
 70
     1
102
RTVSPropertyOp14
 70
     1
102
RTVSPropertyOp15
 70
     1
102
RTVSPropertyOp16
 70
     1
102
RTVSPropertyOp17
 70
     1
102
RTVSPropertyOp18
 70
     1
102
RTVSPropertyOp19
 70
     1
102
RTVSPropertyOp20
 70
     1
102
RTVSPropertyOp21
 70
     1
102
RTVSPropertyOp22
 70
     1
102
RTVSPropertyOp23
 70
     1
102
RTVSPropertyOp24
 70
     1
102
RTVSPropertyOp25
 70
     1
102
RTVSPropertyOp26
 70
     1
102
RTVSPropertyOp27
 70
     1
102
RTVSPropertyOp28
 70
     1
102
RTVSPropertyOp29
 70
     1
102
RTVSPropertyOp30
 70
     1
102
RTVSPropertyOp31
 70
     1
102
RTVSPropertyOp32
 70
     1
102
RTVSPropertyOp33
 70
     1
102
RTVSPropertyOp34
 70
     1
102
RTVSPropertyOp35
 70
     1
102
RTVSPropertyOp36
 70
     1
102
RTVSPropertyOp37
 70
     1
102
RTVSPropertyOp38
 70
     1
102
RTVSPropertyOp39
 70
     1
102
RTVSPropertyOp40
 70
     1
102
RTVSPropertyOp41
 70
     1
102
RTVSPropertyOp42
 70
     1
102
RTVSPropertyOp43
 70
     1
102
RTVSPropertyOp44
 70
     1
102
RTVSPropertyOp45
 70
     1
102
RTVSPropertyOp46
 70
     1
102
RTVSPropertyOp47
 70
     1
102
RTVSPropertyOp48
 70
     1
102
RTVSPropertyOp49
 70
     1
102
RTVSPropertyOp50
 70
     1
102
RTVSPropertyOp51
 70
     0
102
RTVSPropertyOp52
 70
     0
102
RTVSPropertyOp53
 70
     1
102
RTVSPropertyOp54
 70
     1
102
RTVSPropertyOp55
 70
     1
102
RTVSPropertyOp56
 70
     1
102
RTVSPropertyOp57
 70
     1
102
RTVSPost2010Prop28
280
     0
102
RTVSPost2010PropOp28
 70
     1
102
RTVSPost2010Prop29
280
     1
102
RTVSPost2010PropOp29
 70
     1
102
RTVSPost2010Prop30
280
     1
102
RTVSPost2010PropOp30
 70
     1
102
RTVSPost2010Prop31
280
     0
102
RTVSPost2010PropOp31
 70
     1
102
RTVSPost2010Prop32
280
     0
102
RTVSPost2010PropOp32
 70
     1
102
RTVSPost2010Prop33
280
     0
102
RTVSPost2010PropOp33
 70
     1
102
RTVSPost2010Prop34
280
     0
102
RTVSPost2010PropOp34
 70
     1
102
RTVSPost2010Prop35
280
     0
102
RTVSPost2010PropOp35
 70
     1
102
RTVSPost2010Prop36
280
     0
102
RTVSPost2010PropOp36
 70
     1
102
RTVSPost2010Prop37
 90
       50
102
RTVSPost2010PropOp37
 70
     1
102
RTVSPost2010Prop38
140
0.0
102
RTVSPost2010PropOp38
 70
     1
102
RTVSPost2010Prop39
140
1.0
102
RTVSPost2010PropOp39
 70
     1
102
RTVSPost2010Prop40
 90
        0
102
RTVSPost2010PropOp40
 70
     1
102
RTVSPost2010Prop41ColorIndex
 90
       18
102
RTVSPost2010Prop41ColorRGB
 90
        0
102
RTVSPost2010PropOp41
 70
     1
102
RTVSPost2010Prop42
 90
       50
102
RTVSPost2010PropOp42
 70
     1
102
RTVSPost2010Prop43
 90
        3
102
RTVSPost2010PropOp43
 70
     1
102
RTVSPost2010Prop44ColorIndex
 90
        5
102
RTVSPost2010Prop44ColorRGB
 90
      255
102
RTVSPost2010PropOp44
 70
     1
102
RTVSPost2010Prop45
280
     0
102
RTVSPost2010PropOp45
 70
     1
102
RTVSPost2010Prop46
 90
       50
102
RTVSPost2010PropOp46
 70
     1
102
RTVSPost2010Prop47
 90
       50
102
RTVSPost2010PropOp47
 70
     1
102
RTVSPost2010Prop48
 90
       50
102
RTVSPost2010PropOp48
 70
     1
102
RTVSPost2010Prop49
280
     0
102
RTVSPost2010PropOp49
 70
     1
102
RTVSPost2010Prop50
 90
       50
102
RTVSPost2010PropOp50
 70
     1
102
RTVSPost2010Prop51ColorIndex
 90
      256
102
RTVSPost2010Prop51ColorRGB
 90
-16777216
102
RTVSPost2010PropOp51
 70
     0
102
RTVSPost2010Prop52
140
1.0
102
RTVSPost2010PropOp52
 70
     0
102
RTVSPost2010Prop53
 90
        2
102
RTVSPost2010PropOp53
 70
     1
102
RTVSPost2010Prop54
  1
strokes_ogs.tif
102
RTVSPost2010PropOp54
 70
     1
102
RTVSPost2010Prop55
280
     0
102
RTVSPost2010PropOp55
 70
     1
102
RTVSPost2010Prop56
140
1.0
102
RTVSPost2010PropOp56
 70
     1
102
RTVSPost2010Prop57
140
1.0
102
RTVSPost2010PropOp57
 70
     1
  0
XRECORD
  5
298
102
{ACAD_REACTORS
330
297
102
}
330
297
100
AcDbXrecord
280
     1
102
RTVSPropertyOp0
 70
     1
102
RTVSPropertyOp1
 70
     1
102
RTVSPropertyOp2
 70
     1
102
RTVSPropertyOp3
 70
     1
102
RTVSPropertyOp4
 70
     1
102
RTVSPropertyOp5
 70
     1
102
RTVSPropertyOp6
 70
     1
102
RTVSPropertyOp7
 70
     1
102
RTVSPropertyOp8
 70
     1
102
RTVSPropertyOp9
 70
     1
102
RTVSPropertyOp10
 70
     1
102
RTVSPropertyOp11
 70
     1
102
RTVSPropertyOp12
 70
     1
102
RTVSPropertyOp13
 70
     1
102
RTVSPropertyOp14
 70
     1
102
RTVSPropertyOp15
 70
     1
102
RTVSPropertyOp16
 70
     1
102
RTVSPropertyOp17
 70
     1
102
RTVSPropertyOp18
 70
     1
102
RTVSPropertyOp19
 70
     1
102
RTVSPropertyOp20
 70
     1
102
RTVSPropertyOp21
 70
     1
102
RTVSPropertyOp22
 70
     1
102
RTVSPropertyOp23
 70
     1
102
RTVSPropertyOp24
 70
     1
102
RTVSPropertyOp25
 70
     1
102
RTVSPropertyOp26
 70
     1
102
RTVSPropertyOp27
 70
     1
102
RTVSPropertyOp28
 70
     1
102
RTVSPropertyOp29
 70
     1
102
RTVSPropertyOp30
 70
     1
102
RTVSPropertyOp31
 70
     1
102
RTVSPropertyOp32
 70
     1
102
RTVSPropertyOp33
 70
     1
102
RTVSPropertyOp34
 70
     1
102
RTVSPropertyOp35
 70
     1
102
RTVSPropertyOp36
 70
     1
102
RTVSPropertyOp37
 70
     1
102
RTVSPropertyOp38
 70
     1
102
RTVSPropertyOp39
 70
     1
102
RTVSPropertyOp40
 70
     1
102
RTVSPropertyOp41
 70
     1
102
RTVSPropertyOp42
 70
     1
102
RTVSPropertyOp43
 70
     1
102
RTVSPropertyOp44
 70
     1
102
RTVSPropertyOp45
 70
     1
102
RTVSPropertyOp46
 70
     1
102
RTVSPropertyOp47
 70
     1
102
RTVSPropertyOp48
 70
     1
102
RTVSPropertyOp49
 70
     1
102
RTVSPropertyOp50
 70
     1
102
RTVSPropertyOp51
 70
     0
102
RTVSPropertyOp52
 70
     0
102
RTVSPropertyOp53
 70
     1
102
RTVSPropertyOp54
 70
     1
102
RTVSPropertyOp55
 70
     1
102
RTVSPropertyOp56
 70
     1
102
RTVSPropertyOp57
 70
     1
102
RTVSPost2010Prop28
280
     0
102
RTVSPost2010PropOp28
 70
     1
102
RTVSPost2010Prop29
280
     1
102
RTVSPost2010PropOp29
 70
     1
102
RTVSPost2010Prop30
280
     1
102
RTVSPost2010PropOp30
 70
     1
102
RTVSPost2010Prop31
280
     0
102
RTVSPost2010PropOp31
 70
     1
102
RTVSPost2010Prop32
280
     0
102
RTVSPost2010PropOp32
 70
     1
102
RTVSPost2010Prop33
280
     0
102
RTVSPost2010PropOp33
 70
     1
102
RTVSPost2010Prop34
280
     0
102
RTVSPost2010PropOp34
 70
     1
102
RTVSPost2010Prop35
280
     0
102
RTVSPost2010PropOp35
 70
     1
102
RTVSPost2010Prop36
280
     0
102
RTVSPost2010PropOp36
 70
     1
102
RTVSPost2010Prop37
 90
       50
102
RTVSPost2010PropOp37
 70
     1
102
RTVSPost2010Prop38
140
0.0
102
RTVSPost2010PropOp38
 70
     1
102
RTVSPost2010Prop39
140
1.0
102
RTVSPost2010PropOp39
 70
     1
102
RTVSPost2010Prop40
 90
        0
102
RTVSPost2010PropOp40
 70
     1
102
RTVSPost2010Prop41ColorIndex
 90
       18
102
RTVSPost2010Prop41ColorRGB
 90
        0
102
RTVSPost2010PropOp41
 70
     1
102
RTVSPost2010Prop42
 90
       50
102
RTVSPost2010PropOp42
 70
     1
102
RTVSPost2010Prop43
 90
        3
102
RTVSPost2010PropOp43
 70
     1
102
RTVSPost2010Prop44ColorIndex
 90
        5
102
RTVSPost2010Prop44ColorRGB
 90
      255
102
RTVSPost2010PropOp44
 70
     1
102
RTVSPost2010Prop45
280
     0
102
RTVSPost2010PropOp45
 70
     1
102
RTVSPost2010Prop46
 90
       50
102
RTVSPost2010PropOp46
 70
     1
102
RTVSPost2010Prop47
 90
       50
102
RTVSPost2010PropOp47
 70
     1
102
RTVSPost2010Prop48
 90
       50
102
RTVSPost2010PropOp48
 70
     1
102
RTVSPost2010Prop49
280
     0
102
RTVSPost2010PropOp49
 70
     1
102
RTVSPost2010Prop50
 90
       50
102
RTVSPost2010PropOp50
 70
     1
102
RTVSPost2010Prop51ColorIndex
 90
      256
102
RTVSPost2010Prop51ColorRGB
 90
-16777216
102
RTVSPost2010PropOp51
 70
     0
102
RTVSPost2010Prop52
140
1.0
102
RTVSPost2010PropOp52
 70
     0
102
RTVSPost2010Prop53
 90
        2
102
RTVSPost2010PropOp53
 70
     1
102
RTVSPost2010Prop54
  1
strokes_ogs.tif
102
RTVSPost2010PropOp54
 70
     1
102
RTVSPost2010Prop55
280
     0
102
RTVSPost2010PropOp55
 70
     1
102
RTVSPost2010Prop56
140
1.0
102
RTVSPost2010PropOp56
 70
     1
102
RTVSPost2010Prop57
140
1.0
102
RTVSPost2010PropOp57
 70
     1
  0
XRECORD
  5
29A
102
{ACAD_REACTORS
330
299
102
}
330
299
100
AcDbXrecord
280
     1
102
RTVSPropertyOp0
 70
     1
102
RTVSPropertyOp1
 70
     1
102
RTVSPropertyOp2
 70
     1
102
RTVSPropertyOp3
 70
     1
102
RTVSPropertyOp4
 70
     1
102
RTVSPropertyOp5
 70
     1
102
RTVSPropertyOp6
 70
     1
102
RTVSPropertyOp7
 70
     1
102
RTVSPropertyOp8
 70
     1
102
RTVSPropertyOp9
 70
     1
102
RTVSPropertyOp10
 70
     1
102
RTVSPropertyOp11
 70
     1
102
RTVSPropertyOp12
 70
     1
102
RTVSPropertyOp13
 70
     1
102
RTVSPropertyOp14
 70
     1
102
RTVSPropertyOp15
 70
     1
102
RTVSPropertyOp16
 70
     1
102
RTVSPropertyOp17
 70
     1
102
RTVSPropertyOp18
 70
     1
102
RTVSPropertyOp19
 70
     1
102
RTVSPropertyOp20
 70
     1
102
RTVSPropertyOp21
 70
     1
102
RTVSPropertyOp22
 70
     1
102
RTVSPropertyOp23
 70
     1
102
RTVSPropertyOp24
 70
     1
102
RTVSPropertyOp25
 70
     1
102
RTVSPropertyOp26
 70
     1
102
RTVSPropertyOp27
 70
     1
102
RTVSPropertyOp28
 70
     1
102
RTVSPropertyOp29
 70
     1
102
RTVSPropertyOp30
 70
     1
102
RTVSPropertyOp31
 70
     1
102
RTVSPropertyOp32
 70
     1
102
RTVSPropertyOp33
 70
     1
102
RTVSPropertyOp34
 70
     1
102
RTVSPropertyOp35
 70
     1
102
RTVSPropertyOp36
 70
     1
102
RTVSPropertyOp37
 70
     1
102
RTVSPropertyOp38
 70
     1
102
RTVSPropertyOp39
 70
     1
102
RTVSPropertyOp40
 70
     1
102
RTVSPropertyOp41
 70
     1
102
RTVSPropertyOp42
 70
     1
102
RTVSPropertyOp43
 70
     1
102
RTVSPropertyOp44
 70
     1
102
RTVSPropertyOp45
 70
     1
102
RTVSPropertyOp46
 70
     1
102
RTVSPropertyOp47
 70
     1
102
RTVSPropertyOp48
 70
     1
102
RTVSPropertyOp49
 70
     1
102
RTVSPropertyOp50
 70
     1
102
RTVSPropertyOp51
 70
     0
102
RTVSPropertyOp52
 70
     0
102
RTVSPropertyOp53
 70
     1
102
RTVSPropertyOp54
 70
     1
102
RTVSPropertyOp55
 70
     1
102
RTVSPropertyOp56
 70
     1
102
RTVSPropertyOp57
 70
     1
102
RTVSPost2010Prop28
280
     0
102
RTVSPost2010PropOp28
 70
     1
102
RTVSPost2010Prop29
280
     1
102
RTVSPost2010PropOp29
 70
     1
102
RTVSPost2010Prop30
280
     1
102
RTVSPost2010PropOp30
 70
     1
102
RTVSPost2010Prop31
280
     0
102
RTVSPost2010PropOp31
 70
     1
102
RTVSPost2010Prop32
280
     0
102
RTVSPost2010PropOp32
 70
     1
102
RTVSPost2010Prop33
280
     0
102
RTVSPost2010PropOp33
 70
     1
102
RTVSPost2010Prop34
280
     0
102
RTVSPost2010PropOp34
 70
     1
102
RTVSPost2010Prop35
280
     0
102
RTVSPost2010PropOp35
 70
     1
102
RTVSPost2010Prop36
280
     0
102
RTVSPost2010PropOp36
 70
     1
102
RTVSPost2010Prop37
 90
       50
102
RTVSPost2010PropOp37
 70
     1
102
RTVSPost2010Prop38
140
0.0
102
RTVSPost2010PropOp38
 70
     1
102
RTVSPost2010Prop39
140
1.0
102
RTVSPost2010PropOp39
 70
     1
102
RTVSPost2010Prop40
 90
        0
102
RTVSPost2010PropOp40
 70
     1
102
RTVSPost2010Prop41ColorIndex
 90
       18
102
RTVSPost2010Prop41ColorRGB
 90
        0
102
RTVSPost2010PropOp41
 70
     1
102
RTVSPost2010Prop42
 90
       50
102
RTVSPost2010PropOp42
 70
     1
102
RTVSPost2010Prop43
 90
        3
102
RTVSPost2010PropOp43
 70
     1
102
RTVSPost2010Prop44ColorIndex
 90
        5
102
RTVSPost2010Prop44ColorRGB
 90
      255
102
RTVSPost2010PropOp44
 70
     1
102
RTVSPost2010Prop45
280
     0
102
RTVSPost2010PropOp45
 70
     1
102
RTVSPost2010Prop46
 90
       50
102
RTVSPost2010PropOp46
 70
     1
102
RTVSPost2010Prop47
 90
       50
102
RTVSPost2010PropOp47
 70
     1
102
RTVSPost2010Prop48
 90
       50
102
RTVSPost2010PropOp48
 70
     1
102
RTVSPost2010Prop49
280
     0
102
RTVSPost2010PropOp49
 70
     1
102
RTVSPost2010Prop50
 90
       50
102
RTVSPost2010PropOp50
 70
     1
102
RTVSPost2010Prop51ColorIndex
 90
      256
102
RTVSPost2010Prop51ColorRGB
 90
-16777216
102
RTVSPost2010PropOp51
 70
     0
102
RTVSPost2010Prop52
140
1.0
102
RTVSPost2010PropOp52
 70
     0
102
RTVSPost2010Prop53
 90
        2
102
RTVSPost2010PropOp53
 70
     1
102
RTVSPost2010Prop54
  1
strokes_ogs.tif
102
RTVSPost2010PropOp54
 70
     1
102
RTVSPost2010Prop55
280
     0
102
RTVSPost2010PropOp55
 70
     1
102
RTVSPost2010Prop56
140
1.0
102
RTVSPost2010PropOp56
 70
     1
102
RTVSPost2010Prop57
140
1.0
102
RTVSPost2010PropOp57
 70
     1
  0
XRECORD
  5
29C
102
{ACAD_REACTORS
330
29B
102
}
330
29B
100
AcDbXrecord
280
     1
102
RTVSPropertyOp0
 70
     1
102
RTVSPropertyOp1
 70
     1
102
RTVSPropertyOp2
 70
     1
102
RTVSPropertyOp3
 70
     1
102
RTVSPropertyOp4
 70
     1
102
RTVSPropertyOp5
 70
     1
102
RTVSPropertyOp6
 70
     1
102
RTVSPropertyOp7
 70
     1
102
RTVSPropertyOp8
 70
     1
102
RTVSPropertyOp9
 70
     1
102
RTVSPropertyOp10
 70
     1
102
RTVSPropertyOp11
 70
     1
102
RTVSPropertyOp12
 70
     1
102
RTVSPropertyOp13
 70
     1
102
RTVSPropertyOp14
 70
     1
102
RTVSPropertyOp15
 70
     1
102
RTVSPropertyOp16
 70
     1
102
RTVSPropertyOp17
 70
     1
102
RTVSPropertyOp18
 70
     1
102
RTVSPropertyOp19
 70
     1
102
RTVSPropertyOp20
 70
     1
102
RTVSPropertyOp21
 70
     1
102
RTVSPropertyOp22
 70
     1
102
RTVSPropertyOp23
 70
     1
102
RTVSPropertyOp24
 70
     1
102
RTVSPropertyOp25
 70
     1
102
RTVSPropertyOp26
 70
     1
102
RTVSPropertyOp27
 70
     1
102
RTVSPropertyOp28
 70
     1
102
RTVSPropertyOp29
 70
     1
102
RTVSPropertyOp30
 70
     1
102
RTVSPropertyOp31
 70
     1
102
RTVSPropertyOp32
 70
     1
102
RTVSPropertyOp33
 70
     1
102
RTVSPropertyOp34
 70
     1
102
RTVSPropertyOp35
 70
     1
102
RTVSPropertyOp36
 70
     1
102
RTVSPropertyOp37
 70
     1
102
RTVSPropertyOp38
 70
     1
102
RTVSPropertyOp39
 70
     1
102
RTVSPropertyOp40
 70
     1
102
RTVSPropertyOp41
 70
     1
102
RTVSPropertyOp42
 70
     1
102
RTVSPropertyOp43
 70
     1
102
RTVSPropertyOp44
 70
     1
102
RTVSPropertyOp45
 70
     1
102
RTVSPropertyOp46
 70
     1
102
RTVSPropertyOp47
 70
     1
102
RTVSPropertyOp48
 70
     1
102
RTVSPropertyOp49
 70
     1
102
RTVSPropertyOp50
 70
     1
102
RTVSPropertyOp51
 70
     0
102
RTVSPropertyOp52
 70
     0
102
RTVSPropertyOp53
 70
     1
102
RTVSPropertyOp54
 70
     1
102
RTVSPropertyOp55
 70
     1
102
RTVSPropertyOp56
 70
     1
102
RTVSPropertyOp57
 70
     1
102
RTVSPost2010Prop28
280
     0
102
RTVSPost2010PropOp28
 70
     1
102
RTVSPost2010Prop29
280
     1
102
RTVSPost2010PropOp29
 70
     1
102
RTVSPost2010Prop30
280
     1
102
RTVSPost2010PropOp30
 70
     1
102
RTVSPost2010Prop31
280
     0
102
RTVSPost2010PropOp31
 70
     1
102
RTVSPost2010Prop32
280
     0
102
RTVSPost2010PropOp32
 70
     1
102
RTVSPost2010Prop33
280
     0
102
RTVSPost2010PropOp33
 70
     1
102
RTVSPost2010Prop34
280
     0
102
RTVSPost2010PropOp34
 70
     1
102
RTVSPost2010Prop35
280
     0
102
RTVSPost2010PropOp35
 70
     1
102
RTVSPost2010Prop36
280
     0
102
RTVSPost2010PropOp36
 70
     1
102
RTVSPost2010Prop37
 90
       50
102
RTVSPost2010PropOp37
 70
     1
102
RTVSPost2010Prop38
140
0.0
102
RTVSPost2010PropOp38
 70
     1
102
RTVSPost2010Prop39
140
1.0
102
RTVSPost2010PropOp39
 70
     1
102
RTVSPost2010Prop40
 90
        0
102
RTVSPost2010PropOp40
 70
     1
102
RTVSPost2010Prop41ColorIndex
 90
       18
102
RTVSPost2010Prop41ColorRGB
 90
        0
102
RTVSPost2010PropOp41
 70
     1
102
RTVSPost2010Prop42
 90
       50
102
RTVSPost2010PropOp42
 70
     1
102
RTVSPost2010Prop43
 90
        3
102
RTVSPost2010PropOp43
 70
     1
102
RTVSPost2010Prop44ColorIndex
 90
        5
102
RTVSPost2010Prop44ColorRGB
 90
      255
102
RTVSPost2010PropOp44
 70
     1
102
RTVSPost2010Prop45
280
     0
102
RTVSPost2010PropOp45
 70
     1
102
RTVSPost2010Prop46
 90
       50
102
RTVSPost2010PropOp46
 70
     1
102
RTVSPost2010Prop47
 90
       50
102
RTVSPost2010PropOp47
 70
     1
102
RTVSPost2010Prop48
 90
       50
102
RTVSPost2010PropOp48
 70
     1
102
RTVSPost2010Prop49
280
     0
102
RTVSPost2010PropOp49
 70
     1
102
RTVSPost2010Prop50
 90
       50
102
RTVSPost2010PropOp50
 70
     1
102
RTVSPost2010Prop51ColorIndex
 90
      256
102
RTVSPost2010Prop51ColorRGB
 90
-16777216
102
RTVSPost2010PropOp51
 70
     0
102
RTVSPost2010Prop52
140
1.0
102
RTVSPost2010PropOp52
 70
     0
102
RTVSPost2010Prop53
 90
        2
102
RTVSPost2010PropOp53
 70
     1
102
RTVSPost2010Prop54
  1
strokes_ogs.tif
102
RTVSPost2010PropOp54
 70
     1
102
RTVSPost2010Prop55
280
     0
102
RTVSPost2010PropOp55
 70
     1
102
RTVSPost2010Prop56
140
1.0
102
RTVSPost2010PropOp56
 70
     1
102
RTVSPost2010Prop57
140
1.0
102
RTVSPost2010PropOp57
 70
     1
  0
XRECORD
  5
2A2
102
{ACAD_REACTORS
330
2A1
102
}
330
2A1
100
AcDbXrecord
280
     1
102
RTVSPropertyOp0
 70
     1
102
RTVSPropertyOp1
 70
     1
102
RTVSPropertyOp2
 70
     1
102
RTVSPropertyOp3
 70
     1
102
RTVSPropertyOp4
 70
     1
102
RTVSPropertyOp5
 70
     1
102
RTVSPropertyOp6
 70
     1
102
RTVSPropertyOp7
 70
     1
102
RTVSPropertyOp8
 70
     1
102
RTVSPropertyOp9
 70
     1
102
RTVSPropertyOp10
 70
     1
102
RTVSPropertyOp11
 70
     1
102
RTVSPropertyOp12
 70
     1
102
RTVSPropertyOp13
 70
     1
102
RTVSPropertyOp14
 70
     1
102
RTVSPropertyOp15
 70
     1
102
RTVSPropertyOp16
 70
     1
102
RTVSPropertyOp17
 70
     1
102
RTVSPropertyOp18
 70
     1
102
RTVSPropertyOp19
 70
     1
102
RTVSPropertyOp20
 70
     1
102
RTVSPropertyOp21
 70
     1
102
RTVSPropertyOp22
 70
     1
102
RTVSPropertyOp23
 70
     1
102
RTVSPropertyOp24
 70
     1
102
RTVSPropertyOp25
 70
     1
102
RTVSPropertyOp26
 70
     1
102
RTVSPropertyOp27
 70
     1
102
RTVSPropertyOp28
 70
     1
102
RTVSPropertyOp29
 70
     1
102
RTVSPropertyOp30
 70
     1
102
RTVSPropertyOp31
 70
     1
102
RTVSPropertyOp32
 70
     1
102
RTVSPropertyOp33
 70
     1
102
RTVSPropertyOp34
 70
     1
102
RTVSPropertyOp35
 70
     1
102
RTVSPropertyOp36
 70
     1
102
RTVSPropertyOp37
 70
     1
102
RTVSPropertyOp38
 70
     1
102
RTVSPropertyOp39
 70
     1
102
RTVSPropertyOp40
 70
     1
102
RTVSPropertyOp41
 70
     1
102
RTVSPropertyOp42
 70
     1
102
RTVSPropertyOp43
 70
     1
102
RTVSPropertyOp44
 70
     1
102
RTVSPropertyOp45
 70
     1
102
RTVSPropertyOp46
 70
     1
102
RTVSPropertyOp47
 70
     1
102
RTVSPropertyOp48
 70
     1
102
RTVSPropertyOp49
 70
     1
102
RTVSPropertyOp50
 70
     1
102
RTVSPropertyOp51
 70
     0
102
RTVSPropertyOp52
 70
     0
102
RTVSPropertyOp53
 70
     1
102
RTVSPropertyOp54
 70
     1
102
RTVSPropertyOp55
 70
     1
102
RTVSPropertyOp56
 70
     1
102
RTVSPropertyOp57
 70
     1
102
RTVSPost2010Prop28
280
     0
102
RTVSPost2010PropOp28
 70
     1
102
RTVSPost2010Prop29
280
     1
102
RTVSPost2010PropOp29
 70
     1
102
RTVSPost2010Prop30
280
     1
102
RTVSPost2010PropOp30
 70
     1
102
RTVSPost2010Prop31
280
     0
102
RTVSPost2010PropOp31
 70
     1
102
RTVSPost2010Prop32
280
     0
102
RTVSPost2010PropOp32
 70
     1
102
RTVSPost2010Prop33
280
     0
102
RTVSPost2010PropOp33
 70
     1
102
RTVSPost2010Prop34
280
     0
102
RTVSPost2010PropOp34
 70
     1
102
RTVSPost2010Prop35
280
     0
102
RTVSPost2010PropOp35
 70
     1
102
RTVSPost2010Prop36
280
     0
102
RTVSPost2010PropOp36
 70
     1
102
RTVSPost2010Prop37
 90
       50
102
RTVSPost2010PropOp37
 70
     1
102
RTVSPost2010Prop38
140
0.0
102
RTVSPost2010PropOp38
 70
     1
102
RTVSPost2010Prop39
140
1.0
102
RTVSPost2010PropOp39
 70
     1
102
RTVSPost2010Prop40
 90
        0
102
RTVSPost2010PropOp40
 70
     1
102
RTVSPost2010Prop41ColorIndex
 90
       18
102
RTVSPost2010Prop41ColorRGB
 90
        0
102
RTVSPost2010PropOp41
 70
     1
102
RTVSPost2010Prop42
 90
       50
102
RTVSPost2010PropOp42
 70
     1
102
RTVSPost2010Prop43
 90
        3
102
RTVSPost2010PropOp43
 70
     1
102
RTVSPost2010Prop44ColorIndex
 90
        5
102
RTVSPost2010Prop44ColorRGB
 90
      255
102
RTVSPost2010PropOp44
 70
     1
102
RTVSPost2010Prop45
280
     0
102
RTVSPost2010PropOp45
 70
     1
102
RTVSPost2010Prop46
 90
       50
102
RTVSPost2010PropOp46
 70
     1
102
RTVSPost2010Prop47
 90
       50
102
RTVSPost2010PropOp47
 70
     1
102
RTVSPost2010Prop48
 90
       50
102
RTVSPost2010PropOp48
 70
     1
102
RTVSPost2010Prop49
280
     0
102
RTVSPost2010PropOp49
 70
     1
102
RTVSPost2010Prop50
 90
       50
102
RTVSPost2010PropOp50
 70
     1
102
RTVSPost2010Prop51ColorIndex
 90
      256
102
RTVSPost2010Prop51ColorRGB
 90
-16777216
102
RTVSPost2010PropOp51
 70
     0
102
RTVSPost2010Prop52
140
1.0
102
RTVSPost2010PropOp52
 70
     0
102
RTVSPost2010Prop53
 90
        2
102
RTVSPost2010PropOp53
 70
     1
102
RTVSPost2010Prop54
  1
strokes_ogs.tif
102
RTVSPost2010PropOp54
 70
     1
102
RTVSPost2010Prop55
280
     0
102
RTVSPost2010PropOp55
 70
     1
102
RTVSPost2010Prop56
140
1.0
102
RTVSPost2010PropOp56
 70
     1
102
RTVSPost2010Prop57
140
1.0
102
RTVSPost2010PropOp57
 70
     1
  0
XRECORD
  5
2B6
102
{ACAD_REACTORS
330
2B5
102
}
330
2B5
100
AcDbXrecord
280
     1
102
RTVSPropertyOp0
 70
     0
102
RTVSPropertyOp1
 70
     0
102
RTVSPropertyOp2
 70
     0
102
RTVSPropertyOp3
 70
     0
102
RTVSPropertyOp4
 70
     0
102
RTVSPropertyOp5
 70
     0
102
RTVSPropertyOp6
 70
     0
102
RTVSPropertyOp7
 70
     0
102
RTVSPropertyOp8
 70
     0
102
RTVSPropertyOp9
 70
     0
102
RTVSPropertyOp10
 70
     0
102
RTVSPropertyOp11
 70
     0
102
RTVSPropertyOp12
 70
     0
102
RTVSPropertyOp13
 70
     0
102
RTVSPropertyOp14
 70
     2
102
RTVSPropertyOp15
 70
     0
102
RTVSPropertyOp16
 70
     0
102
RTVSPropertyOp17
 70
     0
102
RTVSPropertyOp18
 70
     0
102
RTVSPropertyOp19
 70
     0
102
RTVSPropertyOp20
 70
     0
102
RTVSPropertyOp21
 70
     0
102
RTVSPropertyOp22
 70
     0
102
RTVSPropertyOp23
 70
     0
102
RTVSPropertyOp24
 70
     0
102
RTVSPropertyOp25
 70
     0
102
RTVSPropertyOp26
 70
     0
102
RTVSPropertyOp27
 70
     0
102
RTVSPropertyOp28
 70
     0
102
RTVSPropertyOp29
 70
     0
102
RTVSPropertyOp30
 70
     0
102
RTVSPropertyOp31
 70
     0
102
RTVSPropertyOp32
 70
     0
102
RTVSPropertyOp33
 70
     0
102
RTVSPropertyOp34
 70
     0
102
RTVSPropertyOp35
 70
     0
102
RTVSPropertyOp36
 70
     0
102
RTVSPropertyOp37
 70
     0
102
RTVSPropertyOp38
 70
     0
102
RTVSPropertyOp39
 70
     0
102
RTVSPropertyOp40
 70
     0
102
RTVSPropertyOp41
 70
     0
102
RTVSPropertyOp42
 70
     0
102
RTVSPropertyOp43
 70
     0
102
RTVSPropertyOp44
 70
     0
102
RTVSPropertyOp45
 70
     0
102
RTVSPropertyOp46
 70
     0
102
RTVSPropertyOp47
 70
     0
102
RTVSPropertyOp48
 70
     0
102
RTVSPropertyOp49
 70
     0
102
RTVSPropertyOp50
 70
     0
102
RTVSPropertyOp51
 70
     0
102
RTVSPropertyOp52
 70
     0
102
RTVSPropertyOp53
 70
     0
102
RTVSPropertyOp54
 70
     0
102
RTVSPropertyOp55
 70
     0
102
RTVSPropertyOp56
 70
     0
102
RTVSPropertyOp57
 70
     0
102
RTVSPost2010Prop28
280
     0
102
RTVSPost2010PropOp28
 70
     0
102
RTVSPost2010Prop29
280
     1
102
RTVSPost2010PropOp29
 70
     0
102
RTVSPost2010Prop30
280
     1
102
RTVSPost2010PropOp30
 70
     0
102
RTVSPost2010Prop31
280
     0
102
RTVSPost2010PropOp31
 70
     0
102
RTVSPost2010Prop32
280
     0
102
RTVSPost2010PropOp32
 70
     0
102
RTVSPost2010Prop33
280
     0
102
RTVSPost2010PropOp33
 70
     0
102
RTVSPost2010Prop34
280
     0
102
RTVSPost2010PropOp34
 70
     0
102
RTVSPost2010Prop35
280
     0
102
RTVSPost2010PropOp35
 70
     0
102
RTVSPost2010Prop36
280
     0
102
RTVSPost2010PropOp36
 70
     0
102
RTVSPost2010Prop37
 90
       50
102
RTVSPost2010PropOp37
 70
     0
102
RTVSPost2010Prop38
140
0.0
102
RTVSPost2010PropOp38
 70
     0
102
RTVSPost2010Prop39
140
1.0
102
RTVSPost2010PropOp39
 70
     0
102
RTVSPost2010Prop40
 90
        0
102
RTVSPost2010PropOp40
 70
     0
102
RTVSPost2010Prop41ColorIndex
 90
       18
102
RTVSPost2010Prop41ColorRGB
 90
        0
102
RTVSPost2010PropOp41
 70
     0
102
RTVSPost2010Prop42
 90
       50
102
RTVSPost2010PropOp42
 70
     0
102
RTVSPost2010Prop43
 90
        3
102
RTVSPost2010PropOp43
 70
     0
102
RTVSPost2010Prop44ColorIndex
 90
        5
102
RTVSPost2010Prop44ColorRGB
 90
      255
102
RTVSPost2010PropOp44
 70
     0
102
RTVSPost2010Prop45
280
     0
102
RTVSPost2010PropOp45
 70
     0
102
RTVSPost2010Prop46
 90
       50
102
RTVSPost2010PropOp46
 70
     0
102
RTVSPost2010Prop47
 90
       50
102
RTVSPost2010PropOp47
 70
     0
102
RTVSPost2010Prop48
 90
       50
102
RTVSPost2010PropOp48
 70
     0
102
RTVSPost2010Prop49
280
     0
102
RTVSPost2010PropOp49
 70
     0
102
RTVSPost2010Prop50
 90
       50
102
RTVSPost2010PropOp50
 70
     0
102
RTVSPost2010Prop51ColorIndex
 90
      256
102
RTVSPost2010Prop51ColorRGB
 90
-16777216
102
RTVSPost2010PropOp51
 70
     0
102
RTVSPost2010Prop52
140
1.0
102
RTVSPost2010PropOp52
 70
     0
102
RTVSPost2010Prop53
 90
        2
102
RTVSPost2010PropOp53
 70
     0
102
RTVSPost2010Prop54
  1
strokes_ogs.tif
102
RTVSPost2010PropOp54
 70
     0
102
RTVSPost2010Prop55
280
     0
102
RTVSPost2010PropOp55
 70
     0
102
RTVSPost2010Prop56
140
1.0
102
RTVSPost2010PropOp56
 70
     0
102
RTVSPost2010Prop57
140
1.0
102
RTVSPost2010PropOp57
 70
     0
  0
XRECORD
  5
2B0
102
{ACAD_REACTORS
330
2AF
102
}
330
2AF
100
AcDbXrecord
280
     1
102
RTVSPropertyOp0
 70
     1
102
RTVSPropertyOp1
 70
     1
102
RTVSPropertyOp2
 70
     1
102
RTVSPropertyOp3
 70
     1
102
RTVSPropertyOp4
 70
     1
102
RTVSPropertyOp5
 70
     1
102
RTVSPropertyOp6
 70
     1
102
RTVSPropertyOp7
 70
     1
102
RTVSPropertyOp8
 70
     1
102
RTVSPropertyOp9
 70
     1
102
RTVSPropertyOp10
 70
     1
102
RTVSPropertyOp11
 70
     1
102
RTVSPropertyOp12
 70
     1
102
RTVSPropertyOp13
 70
     1
102
RTVSPropertyOp14
 70
     1
102
RTVSPropertyOp15
 70
     1
102
RTVSPropertyOp16
 70
     1
102
RTVSPropertyOp17
 70
     1
102
RTVSPropertyOp18
 70
     1
102
RTVSPropertyOp19
 70
     1
102
RTVSPropertyOp20
 70
     1
102
RTVSPropertyOp21
 70
     1
102
RTVSPropertyOp22
 70
     1
102
RTVSPropertyOp23
 70
     1
102
RTVSPropertyOp24
 70
     1
102
RTVSPropertyOp25
 70
     1
102
RTVSPropertyOp26
 70
     1
102
RTVSPropertyOp27
 70
     1
102
RTVSPropertyOp28
 70
     1
102
RTVSPropertyOp29
 70
     1
102
RTVSPropertyOp30
 70
     1
102
RTVSPropertyOp31
 70
     1
102
RTVSPropertyOp32
 70
     1
102
RTVSPropertyOp33
 70
     1
102
RTVSPropertyOp34
 70
     1
102
RTVSPropertyOp35
 70
     1
102
RTVSPropertyOp36
 70
     1
102
RTVSPropertyOp37
 70
     1
102
RTVSPropertyOp38
 70
     1
102
RTVSPropertyOp39
 70
     1
102
RTVSPropertyOp40
 70
     1
102
RTVSPropertyOp41
 70
     1
102
RTVSPropertyOp42
 70
     1
102
RTVSPropertyOp43
 70
     1
102
RTVSPropertyOp44
 70
     1
102
RTVSPropertyOp45
 70
     1
102
RTVSPropertyOp46
 70
     1
102
RTVSPropertyOp47
 70
     1
102
RTVSPropertyOp48
 70
     1
102
RTVSPropertyOp49
 70
     1
102
RTVSPropertyOp50
 70
     1
102
RTVSPropertyOp51
 70
     0
102
RTVSPropertyOp52
 70
     0
102
RTVSPropertyOp53
 70
     1
102
RTVSPropertyOp54
 70
     1
102
RTVSPropertyOp55
 70
     1
102
RTVSPropertyOp56
 70
     1
102
RTVSPropertyOp57
 70
     1
102
RTVSPost2010Prop28
280
     0
102
RTVSPost2010PropOp28
 70
     1
102
RTVSPost2010Prop29
280
     1
102
RTVSPost2010PropOp29
 70
     1
102
RTVSPost2010Prop30
280
     1
102
RTVSPost2010PropOp30
 70
     1
102
RTVSPost2010Prop31
280
     0
102
RTVSPost2010PropOp31
 70
     1
102
RTVSPost2010Prop32
280
     0
102
RTVSPost2010PropOp32
 70
     1
102
RTVSPost2010Prop33
280
     0
102
RTVSPost2010PropOp33
 70
     1
102
RTVSPost2010Prop34
280
     0
102
RTVSPost2010PropOp34
 70
     1
102
RTVSPost2010Prop35
280
     0
102
RTVSPost2010PropOp35
 70
     1
102
RTVSPost2010Prop36
280
     0
102
RTVSPost2010PropOp36
 70
     1
102
RTVSPost2010Prop37
 90
       50
102
RTVSPost2010PropOp37
 70
     1
102
RTVSPost2010Prop38
140
0.0
102
RTVSPost2010PropOp38
 70
     1
102
RTVSPost2010Prop39
140
1.0
102
RTVSPost2010PropOp39
 70
     1
102
RTVSPost2010Prop40
 90
        0
102
RTVSPost2010PropOp40
 70
     1
102
RTVSPost2010Prop41ColorIndex
 90
       18
102
RTVSPost2010Prop41ColorRGB
 90
        0
102
RTVSPost2010PropOp41
 70
     1
102
RTVSPost2010Prop42
 90
       50
102
RTVSPost2010PropOp42
 70
     1
102
RTVSPost2010Prop43
 90
        3
102
RTVSPost2010PropOp43
 70
     1
102
RTVSPost2010Prop44ColorIndex
 90
        5
102
RTVSPost2010Prop44ColorRGB
 90
      255
102
RTVSPost2010PropOp44
 70
     1
102
RTVSPost2010Prop45
280
     0
102
RTVSPost2010PropOp45
 70
     1
102
RTVSPost2010Prop46
 90
       50
102
RTVSPost2010PropOp46
 70
     1
102
RTVSPost2010Prop47
 90
       50
102
RTVSPost2010PropOp47
 70
     1
102
RTVSPost2010Prop48
 90
       50
102
RTVSPost2010PropOp48
 70
     1
102
RTVSPost2010Prop49
280
     0
102
RTVSPost2010PropOp49
 70
     1
102
RTVSPost2010Prop50
 90
       50
102
RTVSPost2010PropOp50
 70
     1
102
RTVSPost2010Prop51ColorIndex
 90
      256
102
RTVSPost2010Prop51ColorRGB
 90
-16777216
102
RTVSPost2010PropOp51
 70
     0
102
RTVSPost2010Prop52
140
1.0
102
RTVSPost2010PropOp52
 70
     0
102
RTVSPost2010Prop53
 90
        2
102
RTVSPost2010PropOp53
 70
     1
102
RTVSPost2010Prop54
  1
strokes_ogs.tif
102
RTVSPost2010PropOp54
 70
     1
102
RTVSPost2010Prop55
280
     0
102
RTVSPost2010PropOp55
 70
     1
102
RTVSPost2010Prop56
140
1.0
102
RTVSPost2010PropOp56
 70
     1
102
RTVSPost2010Prop57
140
1.0
102
RTVSPost2010PropOp57
 70
     1
  0
XRECORD
  5
2B8
102
{ACAD_REACTORS
330
2B7
102
}
330
2B7
100
AcDbXrecord
280
     1
102
RTVSPropertyOp0
 70
     0
102
RTVSPropertyOp1
 70
     0
102
RTVSPropertyOp2
 70
     0
102
RTVSPropertyOp3
 70
     0
102
RTVSPropertyOp4
 70
     0
102
RTVSPropertyOp5
 70
     0
102
RTVSPropertyOp6
 70
     0
102
RTVSPropertyOp7
 70
     0
102
RTVSPropertyOp8
 70
     0
102
RTVSPropertyOp9
 70
     0
102
RTVSPropertyOp10
 70
     0
102
RTVSPropertyOp11
 70
     0
102
RTVSPropertyOp12
 70
     0
102
RTVSPropertyOp13
 70
     0
102
RTVSPropertyOp14
 70
     2
102
RTVSPropertyOp15
 70
     0
102
RTVSPropertyOp16
 70
     0
102
RTVSPropertyOp17
 70
     0
102
RTVSPropertyOp18
 70
     0
102
RTVSPropertyOp19
 70
     0
102
RTVSPropertyOp20
 70
     0
102
RTVSPropertyOp21
 70
     0
102
RTVSPropertyOp22
 70
     0
102
RTVSPropertyOp23
 70
     0
102
RTVSPropertyOp24
 70
     0
102
RTVSPropertyOp25
 70
     0
102
RTVSPropertyOp26
 70
     0
102
RTVSPropertyOp27
 70
     0
102
RTVSPropertyOp28
 70
     0
102
RTVSPropertyOp29
 70
     0
102
RTVSPropertyOp30
 70
     0
102
RTVSPropertyOp31
 70
     0
102
RTVSPropertyOp32
 70
     0
102
RTVSPropertyOp33
 70
     0
102
RTVSPropertyOp34
 70
     0
102
RTVSPropertyOp35
 70
     0
102
RTVSPropertyOp36
 70
     0
102
RTVSPropertyOp37
 70
     0
102
RTVSPropertyOp38
 70
     0
102
RTVSPropertyOp39
 70
     0
102
RTVSPropertyOp40
 70
     0
102
RTVSPropertyOp41
 70
     0
102
RTVSPropertyOp42
 70
     0
102
RTVSPropertyOp43
 70
     0
102
RTVSPropertyOp44
 70
     0
102
RTVSPropertyOp45
 70
     0
102
RTVSPropertyOp46
 70
     0
102
RTVSPropertyOp47
 70
     0
102
RTVSPropertyOp48
 70
     0
102
RTVSPropertyOp49
 70
     0
102
RTVSPropertyOp50
 70
     0
102
RTVSPropertyOp51
 70
     0
102
RTVSPropertyOp52
 70
     0
102
RTVSPropertyOp53
 70
     0
102
RTVSPropertyOp54
 70
     0
102
RTVSPropertyOp55
 70
     0
102
RTVSPropertyOp56
 70
     0
102
RTVSPropertyOp57
 70
     0
102
RTVSPost2010Prop28
280
     0
102
RTVSPost2010PropOp28
 70
     0
102
RTVSPost2010Prop29
280
     1
102
RTVSPost2010PropOp29
 70
     0
102
RTVSPost2010Prop30
280
     1
102
RTVSPost2010PropOp30
 70
     0
102
RTVSPost2010Prop31
280
     0
102
RTVSPost2010PropOp31
 70
     0
102
RTVSPost2010Prop32
280
     0
102
RTVSPost2010PropOp32
 70
     0
102
RTVSPost2010Prop33
280
     0
102
RTVSPost2010PropOp33
 70
     0
102
RTVSPost2010Prop34
280
     0
102
RTVSPost2010PropOp34
 70
     0
102
RTVSPost2010Prop35
280
     0
102
RTVSPost2010PropOp35
 70
     0
102
RTVSPost2010Prop36
280
     0
102
RTVSPost2010PropOp36
 70
     0
102
RTVSPost2010Prop37
 90
       50
102
RTVSPost2010PropOp37
 70
     0
102
RTVSPost2010Prop38
140
0.0
102
RTVSPost2010PropOp38
 70
     0
102
RTVSPost2010Prop39
140
1.0
102
RTVSPost2010PropOp39
 70
     0
102
RTVSPost2010Prop40
 90
        0
102
RTVSPost2010PropOp40
 70
     0
102
RTVSPost2010Prop41ColorIndex
 90
       18
102
RTVSPost2010Prop41ColorRGB
 90
        0
102
RTVSPost2010PropOp41
 70
     0
102
RTVSPost2010Prop42
 90
       50
102
RTVSPost2010PropOp42
 70
     0
102
RTVSPost2010Prop43
 90
        3
102
RTVSPost2010PropOp43
 70
     0
102
RTVSPost2010Prop44ColorIndex
 90
        5
102
RTVSPost2010Prop44ColorRGB
 90
      255
102
RTVSPost2010PropOp44
 70
     0
102
RTVSPost2010Prop45
280
     0
102
RTVSPost2010PropOp45
 70
     0
102
RTVSPost2010Prop46
 90
       50
102
RTVSPost2010PropOp46
 70
     0
102
RTVSPost2010Prop47
 90
       50
102
RTVSPost2010PropOp47
 70
     0
102
RTVSPost2010Prop48
 90
       50
102
RTVSPost2010PropOp48
 70
     0
102
RTVSPost2010Prop49
280
     0
102
RTVSPost2010PropOp49
 70
     0
102
RTVSPost2010Prop50
 90
       50
102
RTVSPost2010PropOp50
 70
     0
102
RTVSPost2010Prop51ColorIndex
 90
      256
102
RTVSPost2010Prop51ColorRGB
 90
-16777216
102
RTVSPost2010PropOp51
 70
     0
102
RTVSPost2010Prop52
140
1.0
102
RTVSPost2010PropOp52
 70
     0
102
RTVSPost2010Prop53
 90
        2
102
RTVSPost2010PropOp53
 70
     0
102
RTVSPost2010Prop54
  1
strokes_ogs.tif
102
RTVSPost2010PropOp54
 70
     0
102
RTVSPost2010Prop55
280
     0
102
RTVSPost2010PropOp55
 70
     0
102
RTVSPost2010Prop56
140
1.0
102
RTVSPost2010PropOp56
 70
     0
102
RTVSPost2010Prop57
140
1.0
102
RTVSPost2010PropOp57
 70
     0
  0
XRECORD
  5
2A6
102
{ACAD_REACTORS
330
2A5
102
}
330
2A5
100
AcDbXrecord
280
     1
102
RTVSPropertyOp0
 70
     1
102
RTVSPropertyOp1
 70
     1
102
RTVSPropertyOp2
 70
     1
102
RTVSPropertyOp3
 70
     1
102
RTVSPropertyOp4
 70
     1
102
RTVSPropertyOp5
 70
     1
102
RTVSPropertyOp6
 70
     1
102
RTVSPropertyOp7
 70
     1
102
RTVSPropertyOp8
 70
     1
102
RTVSPropertyOp9
 70
     1
102
RTVSPropertyOp10
 70
     1
102
RTVSPropertyOp11
 70
     1
102
RTVSPropertyOp12
 70
     1
102
RTVSPropertyOp13
 70
     1
102
RTVSPropertyOp14
 70
     1
102
RTVSPropertyOp15
 70
     1
102
RTVSPropertyOp16
 70
     1
102
RTVSPropertyOp17
 70
     1
102
RTVSPropertyOp18
 70
     1
102
RTVSPropertyOp19
 70
     1
102
RTVSPropertyOp20
 70
     1
102
RTVSPropertyOp21
 70
     1
102
RTVSPropertyOp22
 70
     1
102
RTVSPropertyOp23
 70
     1
102
RTVSPropertyOp24
 70
     1
102
RTVSPropertyOp25
 70
     1
102
RTVSPropertyOp26
 70
     1
102
RTVSPropertyOp27
 70
     1
102
RTVSPropertyOp28
 70
     1
102
RTVSPropertyOp29
 70
     1
102
RTVSPropertyOp30
 70
     1
102
RTVSPropertyOp31
 70
     1
102
RTVSPropertyOp32
 70
     1
102
RTVSPropertyOp33
 70
     1
102
RTVSPropertyOp34
 70
     1
102
RTVSPropertyOp35
 70
     1
102
RTVSPropertyOp36
 70
     1
102
RTVSPropertyOp37
 70
     1
102
RTVSPropertyOp38
 70
     1
102
RTVSPropertyOp39
 70
     1
102
RTVSPropertyOp40
 70
     1
102
RTVSPropertyOp41
 70
     1
102
RTVSPropertyOp42
 70
     1
102
RTVSPropertyOp43
 70
     1
102
RTVSPropertyOp44
 70
     1
102
RTVSPropertyOp45
 70
     1
102
RTVSPropertyOp46
 70
     1
102
RTVSPropertyOp47
 70
     1
102
RTVSPropertyOp48
 70
     1
102
RTVSPropertyOp49
 70
     1
102
RTVSPropertyOp50
 70
     1
102
RTVSPropertyOp51
 70
     0
102
RTVSPropertyOp52
 70
     0
102
RTVSPropertyOp53
 70
     1
102
RTVSPropertyOp54
 70
     1
102
RTVSPropertyOp55
 70
     1
102
RTVSPropertyOp56
 70
     1
102
RTVSPropertyOp57
 70
     1
102
RTVSPost2010Prop28
280
     0
102
RTVSPost2010PropOp28
 70
     1
102
RTVSPost2010Prop29
280
     1
102
RTVSPost2010PropOp29
 70
     1
102
RTVSPost2010Prop30
280
     1
102
RTVSPost2010PropOp30
 70
     1
102
RTVSPost2010Prop31
280
     0
102
RTVSPost2010PropOp31
 70
     1
102
RTVSPost2010Prop32
280
     0
102
RTVSPost2010PropOp32
 70
     1
102
RTVSPost2010Prop33
280
     0
102
RTVSPost2010PropOp33
 70
     1
102
RTVSPost2010Prop34
280
     0
102
RTVSPost2010PropOp34
 70
     1
102
RTVSPost2010Prop35
280
     0
102
RTVSPost2010PropOp35
 70
     1
102
RTVSPost2010Prop36
280
     0
102
RTVSPost2010PropOp36
 70
     1
102
RTVSPost2010Prop37
 90
       50
102
RTVSPost2010PropOp37
 70
     1
102
RTVSPost2010Prop38
140
0.0
102
RTVSPost2010PropOp38
 70
     1
102
RTVSPost2010Prop39
140
1.0
102
RTVSPost2010PropOp39
 70
     1
102
RTVSPost2010Prop40
 90
        0
102
RTVSPost2010PropOp40
 70
     1
102
RTVSPost2010Prop41ColorIndex
 90
       18
102
RTVSPost2010Prop41ColorRGB
 90
        0
102
RTVSPost2010PropOp41
 70
     1
102
RTVSPost2010Prop42
 90
       50
102
RTVSPost2010PropOp42
 70
     1
102
RTVSPost2010Prop43
 90
        3
102
RTVSPost2010PropOp43
 70
     1
102
RTVSPost2010Prop44ColorIndex
 90
        5
102
RTVSPost2010Prop44ColorRGB
 90
      255
102
RTVSPost2010PropOp44
 70
     1
102
RTVSPost2010Prop45
280
     0
102
RTVSPost2010PropOp45
 70
     1
102
RTVSPost2010Prop46
 90
       50
102
RTVSPost2010PropOp46
 70
     1
102
RTVSPost2010Prop47
 90
       50
102
RTVSPost2010PropOp47
 70
     1
102
RTVSPost2010Prop48
 90
       50
102
RTVSPost2010PropOp48
 70
     1
102
RTVSPost2010Prop49
280
     0
102
RTVSPost2010PropOp49
 70
     1
102
RTVSPost2010Prop50
 90
       50
102
RTVSPost2010PropOp50
 70
     1
102
RTVSPost2010Prop51ColorIndex
 90
      256
102
RTVSPost2010Prop51ColorRGB
 90
-16777216
102
RTVSPost2010PropOp51
 70
     0
102
RTVSPost2010Prop52
140
1.0
102
RTVSPost2010PropOp52
 70
     0
102
RTVSPost2010Prop53
 90
        2
102
RTVSPost2010PropOp53
 70
     1
102
RTVSPost2010Prop54
  1
strokes_ogs.tif
102
RTVSPost2010PropOp54
 70
     1
102
RTVSPost2010Prop55
280
     0
102
RTVSPost2010PropOp55
 70
     1
102
RTVSPost2010Prop56
140
1.0
102
RTVSPost2010PropOp56
 70
     1
102
RTVSPost2010Prop57
140
1.0
102
RTVSPost2010PropOp57
 70
     1
  0
XRECORD
  5
2C4
102
{ACAD_REACTORS
330
2C3
102
}
330
2C3
100
AcDbXrecord
280
     1
102
RTVSPropertyOp0
 70
     1
102
RTVSPropertyOp1
 70
     1
102
RTVSPropertyOp2
 70
     1
102
RTVSPropertyOp3
 70
     1
102
RTVSPropertyOp4
 70
     1
102
RTVSPropertyOp5
 70
     1
102
RTVSPropertyOp6
 70
     1
102
RTVSPropertyOp7
 70
     1
102
RTVSPropertyOp8
 70
     1
102
RTVSPropertyOp9
 70
     1
102
RTVSPropertyOp10
 70
     1
102
RTVSPropertyOp11
 70
     1
102
RTVSPropertyOp12
 70
     1
102
RTVSPropertyOp13
 70
     1
102
RTVSPropertyOp14
 70
     1
102
RTVSPropertyOp15
 70
     1
102
RTVSPropertyOp16
 70
     1
102
RTVSPropertyOp17
 70
     1
102
RTVSPropertyOp18
 70
     1
102
RTVSPropertyOp19
 70
     1
102
RTVSPropertyOp20
 70
     1
102
RTVSPropertyOp21
 70
     1
102
RTVSPropertyOp22
 70
     1
102
RTVSPropertyOp23
 70
     1
102
RTVSPropertyOp24
 70
     1
102
RTVSPropertyOp25
 70
     1
102
RTVSPropertyOp26
 70
     1
102
RTVSPropertyOp27
 70
     1
102
RTVSPropertyOp28
 70
     1
102
RTVSPropertyOp29
 70
     1
102
RTVSPropertyOp30
 70
     1
102
RTVSPropertyOp31
 70
     1
102
RTVSPropertyOp32
 70
     1
102
RTVSPropertyOp33
 70
     1
102
RTVSPropertyOp34
 70
     1
102
RTVSPropertyOp35
 70
     1
102
RTVSPropertyOp36
 70
     1
102
RTVSPropertyOp37
 70
     1
102
RTVSPropertyOp38
 70
     1
102
RTVSPropertyOp39
 70
     1
102
RTVSPropertyOp40
 70
     1
102
RTVSPropertyOp41
 70
     1
102
RTVSPropertyOp42
 70
     1
102
RTVSPropertyOp43
 70
     1
102
RTVSPropertyOp44
 70
     1
102
RTVSPropertyOp45
 70
     1
102
RTVSPropertyOp46
 70
     1
102
RTVSPropertyOp47
 70
     1
102
RTVSPropertyOp48
 70
     1
102
RTVSPropertyOp49
 70
     1
102
RTVSPropertyOp50
 70
     1
102
RTVSPropertyOp51
 70
     0
102
RTVSPropertyOp52
 70
     0
102
RTVSPropertyOp53
 70
     1
102
RTVSPropertyOp54
 70
     1
102
RTVSPropertyOp55
 70
     1
102
RTVSPropertyOp56
 70
     1
102
RTVSPropertyOp57
 70
     1
102
RTVSPost2010Prop28
280
     0
102
RTVSPost2010PropOp28
 70
     1
102
RTVSPost2010Prop29
280
     1
102
RTVSPost2010PropOp29
 70
     1
102
RTVSPost2010Prop30
280
     1
102
RTVSPost2010PropOp30
 70
     1
102
RTVSPost2010Prop31
280
     0
102
RTVSPost2010PropOp31
 70
     1
102
RTVSPost2010Prop32
280
     0
102
RTVSPost2010PropOp32
 70
     1
102
RTVSPost2010Prop33
280
     0
102
RTVSPost2010PropOp33
 70
     1
102
RTVSPost2010Prop34
280
     0
102
RTVSPost2010PropOp34
 70
     1
102
RTVSPost2010Prop35
280
     0
102
RTVSPost2010PropOp35
 70
     1
102
RTVSPost2010Prop36
280
     0
102
RTVSPost2010PropOp36
 70
     1
102
RTVSPost2010Prop37
 90
       50
102
RTVSPost2010PropOp37
 70
     1
102
RTVSPost2010Prop38
140
0.0
102
RTVSPost2010PropOp38
 70
     1
102
RTVSPost2010Prop39
140
1.0
102
RTVSPost2010PropOp39
 70
     1
102
RTVSPost2010Prop40
 90
        0
102
RTVSPost2010PropOp40
 70
     1
102
RTVSPost2010Prop41ColorIndex
 90
       18
102
RTVSPost2010Prop41ColorRGB
 90
        0
102
RTVSPost2010PropOp41
 70
     1
102
RTVSPost2010Prop42
 90
       50
102
RTVSPost2010PropOp42
 70
     1
102
RTVSPost2010Prop43
 90
        3
102
RTVSPost2010PropOp43
 70
     1
102
RTVSPost2010Prop44ColorIndex
 90
        5
102
RTVSPost2010Prop44ColorRGB
 90
      255
102
RTVSPost2010PropOp44
 70
     1
102
RTVSPost2010Prop45
280
     0
102
RTVSPost2010PropOp45
 70
     1
102
RTVSPost2010Prop46
 90
       50
102
RTVSPost2010PropOp46
 70
     1
102
RTVSPost2010Prop47
 90
       50
102
RTVSPost2010PropOp47
 70
     1
102
RTVSPost2010Prop48
 90
       50
102
RTVSPost2010PropOp48
 70
     1
102
RTVSPost2010Prop49
280
     0
102
RTVSPost2010PropOp49
 70
     1
102
RTVSPost2010Prop50
 90
       50
102
RTVSPost2010PropOp50
 70
     1
102
RTVSPost2010Prop51ColorIndex
 90
      256
102
RTVSPost2010Prop51ColorRGB
 90
-16777216
102
RTVSPost2010PropOp51
 70
     0
102
RTVSPost2010Prop52
140
1.0
102
RTVSPost2010PropOp52
 70
     0
102
RTVSPost2010Prop53
 90
        2
102
RTVSPost2010PropOp53
 70
     1
102
RTVSPost2010Prop54
  1
strokes_ogs.tif
102
RTVSPost2010PropOp54
 70
     1
102
RTVSPost2010Prop55
280
     0
102
RTVSPost2010PropOp55
 70
     1
102
RTVSPost2010Prop56
140
1.0
102
RTVSPost2010PropOp56
 70
     1
102
RTVSPost2010Prop57
140
1.0
102
RTVSPost2010PropOp57
 70
     1
  0
XRECORD
  5
2C2
102
{ACAD_REACTORS
330
2C1
102
}
330
2C1
100
AcDbXrecord
280
     1
102
RTVSPropertyOp0
 70
     1
102
RTVSPropertyOp1
 70
     1
102
RTVSPropertyOp2
 70
     1
102
RTVSPropertyOp3
 70
     1
102
RTVSPropertyOp4
 70
     1
102
RTVSPropertyOp5
 70
     1
102
RTVSPropertyOp6
 70
     1
102
RTVSPropertyOp7
 70
     1
102
RTVSPropertyOp8
 70
     1
102
RTVSPropertyOp9
 70
     1
102
RTVSPropertyOp10
 70
     1
102
RTVSPropertyOp11
 70
     1
102
RTVSPropertyOp12
 70
     1
102
RTVSPropertyOp13
 70
     1
102
RTVSPropertyOp14
 70
     1
102
RTVSPropertyOp15
 70
     1
102
RTVSPropertyOp16
 70
     1
102
RTVSPropertyOp17
 70
     1
102
RTVSPropertyOp18
 70
     1
102
RTVSPropertyOp19
 70
     1
102
RTVSPropertyOp20
 70
     1
102
RTVSPropertyOp21
 70
     1
102
RTVSPropertyOp22
 70
     1
102
RTVSPropertyOp23
 70
     1
102
RTVSPropertyOp24
 70
     1
102
RTVSPropertyOp25
 70
     1
102
RTVSPropertyOp26
 70
     1
102
RTVSPropertyOp27
 70
     1
102
RTVSPropertyOp28
 70
     1
102
RTVSPropertyOp29
 70
     1
102
RTVSPropertyOp30
 70
     1
102
RTVSPropertyOp31
 70
     1
102
RTVSPropertyOp32
 70
     1
102
RTVSPropertyOp33
 70
     1
102
RTVSPropertyOp34
 70
     1
102
RTVSPropertyOp35
 70
     1
102
RTVSPropertyOp36
 70
     1
102
RTVSPropertyOp37
 70
     1
102
RTVSPropertyOp38
 70
     1
102
RTVSPropertyOp39
 70
     1
102
RTVSPropertyOp40
 70
     1
102
RTVSPropertyOp41
 70
     1
102
RTVSPropertyOp42
 70
     1
102
RTVSPropertyOp43
 70
     1
102
RTVSPropertyOp44
 70
     1
102
RTVSPropertyOp45
 70
     1
102
RTVSPropertyOp46
 70
     1
102
RTVSPropertyOp47
 70
     1
102
RTVSPropertyOp48
 70
     1
102
RTVSPropertyOp49
 70
     1
102
RTVSPropertyOp50
 70
     1
102
RTVSPropertyOp51
 70
     0
102
RTVSPropertyOp52
 70
     0
102
RTVSPropertyOp53
 70
     1
102
RTVSPropertyOp54
 70
     1
102
RTVSPropertyOp55
 70
     1
102
RTVSPropertyOp56
 70
     1
102
RTVSPropertyOp57
 70
     1
102
RTVSPost2010Prop28
280
     0
102
RTVSPost2010PropOp28
 70
     1
102
RTVSPost2010Prop29
280
     1
102
RTVSPost2010PropOp29
 70
     1
102
RTVSPost2010Prop30
280
     1
102
RTVSPost2010PropOp30
 70
     1
102
RTVSPost2010Prop31
280
     0
102
RTVSPost2010PropOp31
 70
     1
102
RTVSPost2010Prop32
280
     0
102
RTVSPost2010PropOp32
 70
     1
102
RTVSPost2010Prop33
280
     0
102
RTVSPost2010PropOp33
 70
     1
102
RTVSPost2010Prop34
280
     0
102
RTVSPost2010PropOp34
 70
     1
102
RTVSPost2010Prop35
280
     0
102
RTVSPost2010PropOp35
 70
     1
102
RTVSPost2010Prop36
280
     0
102
RTVSPost2010PropOp36
 70
     1
102
RTVSPost2010Prop37
 90
       50
102
RTVSPost2010PropOp37
 70
     1
102
RTVSPost2010Prop38
140
0.0
102
RTVSPost2010PropOp38
 70
     1
102
RTVSPost2010Prop39
140
1.0
102
RTVSPost2010PropOp39
 70
     1
102
RTVSPost2010Prop40
 90
        0
102
RTVSPost2010PropOp40
 70
     1
102
RTVSPost2010Prop41ColorIndex
 90
       18
102
RTVSPost2010Prop41ColorRGB
 90
        0
102
RTVSPost2010PropOp41
 70
     1
102
RTVSPost2010Prop42
 90
       50
102
RTVSPost2010PropOp42
 70
     1
102
RTVSPost2010Prop43
 90
        3
102
RTVSPost2010PropOp43
 70
     1
102
RTVSPost2010Prop44ColorIndex
 90
        5
102
RTVSPost2010Prop44ColorRGB
 90
      255
102
RTVSPost2010PropOp44
 70
     1
102
RTVSPost2010Prop45
280
     0
102
RTVSPost2010PropOp45
 70
     1
102
RTVSPost2010Prop46
 90
       50
102
RTVSPost2010PropOp46
 70
     1
102
RTVSPost2010Prop47
 90
       50
102
RTVSPost2010PropOp47
 70
     1
102
RTVSPost2010Prop48
 90
       50
102
RTVSPost2010PropOp48
 70
     1
102
RTVSPost2010Prop49
280
     0
102
RTVSPost2010PropOp49
 70
     1
102
RTVSPost2010Prop50
 90
       50
102
RTVSPost2010PropOp50
 70
     1
102
RTVSPost2010Prop51ColorIndex
 90
      256
102
RTVSPost2010Prop51ColorRGB
 90
-16777216
102
RTVSPost2010PropOp51
 70
     0
102
RTVSPost2010Prop52
140
1.0
102
RTVSPost2010PropOp52
 70
     0
102
RTVSPost2010Prop53
 90
        2
102
RTVSPost2010PropOp53
 70
     1
102
RTVSPost2010Prop54
  1
strokes_ogs.tif
102
RTVSPost2010PropOp54
 70
     1
102
RTVSPost2010Prop55
280
     0
102
RTVSPost2010PropOp55
 70
     1
102
RTVSPost2010Prop56
140
1.0
102
RTVSPost2010PropOp56
 70
     1
102
RTVSPost2010Prop57
140
1.0
102
RTVSPost2010PropOp57
 70
     1
  0
XRECORD
  5
2BC
102
{ACAD_REACTORS
330
2BB
102
}
330
2BB
100
AcDbXrecord
280
     1
102
RTVSPropertyOp0
 70
     1
102
RTVSPropertyOp1
 70
     1
102
RTVSPropertyOp2
 70
     1
102
RTVSPropertyOp3
 70
     1
102
RTVSPropertyOp4
 70
     1
102
RTVSPropertyOp5
 70
     1
102
RTVSPropertyOp6
 70
     1
102
RTVSPropertyOp7
 70
     1
102
RTVSPropertyOp8
 70
     1
102
RTVSPropertyOp9
 70
     1
102
RTVSPropertyOp10
 70
     1
102
RTVSPropertyOp11
 70
     1
102
RTVSPropertyOp12
 70
     1
102
RTVSPropertyOp13
 70
     1
102
RTVSPropertyOp14
 70
     1
102
RTVSPropertyOp15
 70
     1
102
RTVSPropertyOp16
 70
     1
102
RTVSPropertyOp17
 70
     1
102
RTVSPropertyOp18
 70
     1
102
RTVSPropertyOp19
 70
     1
102
RTVSPropertyOp20
 70
     1
102
RTVSPropertyOp21
 70
     1
102
RTVSPropertyOp22
 70
     1
102
RTVSPropertyOp23
 70
     1
102
RTVSPropertyOp24
 70
     1
102
RTVSPropertyOp25
 70
     1
102
RTVSPropertyOp26
 70
     1
102
RTVSPropertyOp27
 70
     1
102
RTVSPropertyOp28
 70
     1
102
RTVSPropertyOp29
 70
     1
102
RTVSPropertyOp30
 70
     1
102
RTVSPropertyOp31
 70
     1
102
RTVSPropertyOp32
 70
     1
102
RTVSPropertyOp33
 70
     1
102
RTVSPropertyOp34
 70
     1
102
RTVSPropertyOp35
 70
     1
102
RTVSPropertyOp36
 70
     1
102
RTVSPropertyOp37
 70
     1
102
RTVSPropertyOp38
 70
     1
102
RTVSPropertyOp39
 70
     1
102
RTVSPropertyOp40
 70
     1
102
RTVSPropertyOp41
 70
     1
102
RTVSPropertyOp42
 70
     1
102
RTVSPropertyOp43
 70
     1
102
RTVSPropertyOp44
 70
     1
102
RTVSPropertyOp45
 70
     1
102
RTVSPropertyOp46
 70
     1
102
RTVSPropertyOp47
 70
     1
102
RTVSPropertyOp48
 70
     1
102
RTVSPropertyOp49
 70
     1
102
RTVSPropertyOp50
 70
     1
102
RTVSPropertyOp51
 70
     0
102
RTVSPropertyOp52
 70
     0
102
RTVSPropertyOp53
 70
     1
102
RTVSPropertyOp54
 70
     1
102
RTVSPropertyOp55
 70
     1
102
RTVSPropertyOp56
 70
     1
102
RTVSPropertyOp57
 70
     1
102
RTVSPost2010Prop28
280
     0
102
RTVSPost2010PropOp28
 70
     1
102
RTVSPost2010Prop29
280
     1
102
RTVSPost2010PropOp29
 70
     1
102
RTVSPost2010Prop30
280
     1
102
RTVSPost2010PropOp30
 70
     1
102
RTVSPost2010Prop31
280
     0
102
RTVSPost2010PropOp31
 70
     1
102
RTVSPost2010Prop32
280
     0
102
RTVSPost2010PropOp32
 70
     1
102
RTVSPost2010Prop33
280
     0
102
RTVSPost2010PropOp33
 70
     1
102
RTVSPost2010Prop34
280
     0
102
RTVSPost2010PropOp34
 70
     1
102
RTVSPost2010Prop35
280
     0
102
RTVSPost2010PropOp35
 70
     1
102
RTVSPost2010Prop36
280
     0
102
RTVSPost2010PropOp36
 70
     1
102
RTVSPost2010Prop37
 90
       50
102
RTVSPost2010PropOp37
 70
     1
102
RTVSPost2010Prop38
140
0.0
102
RTVSPost2010PropOp38
 70
     1
102
RTVSPost2010Prop39
140
1.0
102
RTVSPost2010PropOp39
 70
     1
102
RTVSPost2010Prop40
 90
        0
102
RTVSPost2010PropOp40
 70
     1
102
RTVSPost2010Prop41ColorIndex
 90
       18
102
RTVSPost2010Prop41ColorRGB
 90
        0
102
RTVSPost2010PropOp41
 70
     1
102
RTVSPost2010Prop42
 90
       50
102
RTVSPost2010PropOp42
 70
     1
102
RTVSPost2010Prop43
 90
        3
102
RTVSPost2010PropOp43
 70
     1
102
RTVSPost2010Prop44ColorIndex
 90
        5
102
RTVSPost2010Prop44ColorRGB
 90
      255
102
RTVSPost2010PropOp44
 70
     1
102
RTVSPost2010Prop45
280
     0
102
RTVSPost2010PropOp45
 70
     1
102
RTVSPost2010Prop46
 90
       50
102
RTVSPost2010PropOp46
 70
     1
102
RTVSPost2010Prop47
 90
       50
102
RTVSPost2010PropOp47
 70
     1
102
RTVSPost2010Prop48
 90
       50
102
RTVSPost2010PropOp48
 70
     1
102
RTVSPost2010Prop49
280
     0
102
RTVSPost2010PropOp49
 70
     1
102
RTVSPost2010Prop50
 90
       50
102
RTVSPost2010PropOp50
 70
     1
102
RTVSPost2010Prop51ColorIndex
 90
      256
102
RTVSPost2010Prop51ColorRGB
 90
-16777216
102
RTVSPost2010PropOp51
 70
     0
102
RTVSPost2010Prop52
140
1.0
102
RTVSPost2010PropOp52
 70
     0
102
RTVSPost2010Prop53
 90
        2
102
RTVSPost2010PropOp53
 70
     1
102
RTVSPost2010Prop54
  1
strokes_ogs.tif
102
RTVSPost2010PropOp54
 70
     1
102
RTVSPost2010Prop55
280
     0
102
RTVSPost2010PropOp55
 70
     1
102
RTVSPost2010Prop56
140
1.0
102
RTVSPost2010PropOp56
 70
     1
102
RTVSPost2010Prop57
140
1.0
102
RTVSPost2010PropOp57
 70
     1
  0
XRECORD
  5
2BE
102
{ACAD_REACTORS
330
2BD
102
}
330
2BD
100
AcDbXrecord
280
     1
102
RTVSPropertyOp0
 70
     1
102
RTVSPropertyOp1
 70
     1
102
RTVSPropertyOp2
 70
     1
102
RTVSPropertyOp3
 70
     1
102
RTVSPropertyOp4
 70
     1
102
RTVSPropertyOp5
 70
     1
102
RTVSPropertyOp6
 70
     1
102
RTVSPropertyOp7
 70
     1
102
RTVSPropertyOp8
 70
     1
102
RTVSPropertyOp9
 70
     1
102
RTVSPropertyOp10
 70
     1
102
RTVSPropertyOp11
 70
     1
102
RTVSPropertyOp12
 70
     1
102
RTVSPropertyOp13
 70
     1
102
RTVSPropertyOp14
 70
     1
102
RTVSPropertyOp15
 70
     1
102
RTVSPropertyOp16
 70
     1
102
RTVSPropertyOp17
 70
     1
102
RTVSPropertyOp18
 70
     1
102
RTVSPropertyOp19
 70
     1
102
RTVSPropertyOp20
 70
     1
102
RTVSPropertyOp21
 70
     1
102
RTVSPropertyOp22
 70
     1
102
RTVSPropertyOp23
 70
     1
102
RTVSPropertyOp24
 70
     1
102
RTVSPropertyOp25
 70
     1
102
RTVSPropertyOp26
 70
     1
102
RTVSPropertyOp27
 70
     1
102
RTVSPropertyOp28
 70
     1
102
RTVSPropertyOp29
 70
     1
102
RTVSPropertyOp30
 70
     1
102
RTVSPropertyOp31
 70
     1
102
RTVSPropertyOp32
 70
     1
102
RTVSPropertyOp33
 70
     1
102
RTVSPropertyOp34
 70
     1
102
RTVSPropertyOp35
 70
     1
102
RTVSPropertyOp36
 70
     1
102
RTVSPropertyOp37
 70
     1
102
RTVSPropertyOp38
 70
     1
102
RTVSPropertyOp39
 70
     1
102
RTVSPropertyOp40
 70
     1
102
RTVSPropertyOp41
 70
     1
102
RTVSPropertyOp42
 70
     1
102
RTVSPropertyOp43
 70
     1
102
RTVSPropertyOp44
 70
     1
102
RTVSPropertyOp45
 70
     1
102
RTVSPropertyOp46
 70
     1
102
RTVSPropertyOp47
 70
     1
102
RTVSPropertyOp48
 70
     1
102
RTVSPropertyOp49
 70
     1
102
RTVSPropertyOp50
 70
     1
102
RTVSPropertyOp51
 70
     0
102
RTVSPropertyOp52
 70
     0
102
RTVSPropertyOp53
 70
     1
102
RTVSPropertyOp54
 70
     1
102
RTVSPropertyOp55
 70
     1
102
RTVSPropertyOp56
 70
     1
102
RTVSPropertyOp57
 70
     1
102
RTVSPost2010Prop28
280
     0
102
RTVSPost2010PropOp28
 70
     1
102
RTVSPost2010Prop29
280
     1
102
RTVSPost2010PropOp29
 70
     1
102
RTVSPost2010Prop30
280
     1
102
RTVSPost2010PropOp30
 70
     1
102
RTVSPost2010Prop31
280
     0
102
RTVSPost2010PropOp31
 70
     1
102
RTVSPost2010Prop32
280
     0
102
RTVSPost2010PropOp32
 70
     1
102
RTVSPost2010Prop33
280
     0
102
RTVSPost2010PropOp33
 70
     1
102
RTVSPost2010Prop34
280
     0
102
RTVSPost2010PropOp34
 70
     1
102
RTVSPost2010Prop35
280
     0
102
RTVSPost2010PropOp35
 70
     1
102
RTVSPost2010Prop36
280
     0
102
RTVSPost2010PropOp36
 70
     1
102
RTVSPost2010Prop37
 90
       50
102
RTVSPost2010PropOp37
 70
     1
102
RTVSPost2010Prop38
140
0.0
102
RTVSPost2010PropOp38
 70
     1
102
RTVSPost2010Prop39
140
1.0
102
RTVSPost2010PropOp39
 70
     1
102
RTVSPost2010Prop40
 90
        0
102
RTVSPost2010PropOp40
 70
     1
102
RTVSPost2010Prop41ColorIndex
 90
       18
102
RTVSPost2010Prop41ColorRGB
 90
        0
102
RTVSPost2010PropOp41
 70
     1
102
RTVSPost2010Prop42
 90
       50
102
RTVSPost2010PropOp42
 70
     1
102
RTVSPost2010Prop43
 90
        3
102
RTVSPost2010PropOp43
 70
     1
102
RTVSPost2010Prop44ColorIndex
 90
        5
102
RTVSPost2010Prop44ColorRGB
 90
      255
102
RTVSPost2010PropOp44
 70
     1
102
RTVSPost2010Prop45
280
     0
102
RTVSPost2010PropOp45
 70
     1
102
RTVSPost2010Prop46
 90
       50
102
RTVSPost2010PropOp46
 70
     1
102
RTVSPost2010Prop47
 90
       50
102
RTVSPost2010PropOp47
 70
     1
102
RTVSPost2010Prop48
 90
       50
102
RTVSPost2010PropOp48
 70
     1
102
RTVSPost2010Prop49
280
     0
102
RTVSPost2010PropOp49
 70
     1
102
RTVSPost2010Prop50
 90
       50
102
RTVSPost2010PropOp50
 70
     1
102
RTVSPost2010Prop51ColorIndex
 90
      256
102
RTVSPost2010Prop51ColorRGB
 90
-16777216
102
RTVSPost2010PropOp51
 70
     0
102
RTVSPost2010Prop52
140
1.0
102
RTVSPost2010PropOp52
 70
     0
102
RTVSPost2010Prop53
 90
        2
102
RTVSPost2010PropOp53
 70
     1
102
RTVSPost2010Prop54
  1
strokes_ogs.tif
102
RTVSPost2010PropOp54
 70
     1
102
RTVSPost2010Prop55
280
     0
102
RTVSPost2010PropOp55
 70
     1
102
RTVSPost2010Prop56
140
1.0
102
RTVSPost2010PropOp56
 70
     1
102
RTVSPost2010Prop57
140
1.0
102
RTVSPost2010PropOp57
 70
     1
  0
XRECORD
  5
2AE
102
{ACAD_REACTORS
330
2AD
102
}
330
2AD
100
AcDbXrecord
280
     1
102
RTVSPropertyOp0
 70
     1
102
RTVSPropertyOp1
 70
     1
102
RTVSPropertyOp2
 70
     1
102
RTVSPropertyOp3
 70
     1
102
RTVSPropertyOp4
 70
     1
102
RTVSPropertyOp5
 70
     1
102
RTVSPropertyOp6
 70
     1
102
RTVSPropertyOp7
 70
     1
102
RTVSPropertyOp8
 70
     1
102
RTVSPropertyOp9
 70
     1
102
RTVSPropertyOp10
 70
     1
102
RTVSPropertyOp11
 70
     1
102
RTVSPropertyOp12
 70
     1
102
RTVSPropertyOp13
 70
     1
102
RTVSPropertyOp14
 70
     1
102
RTVSPropertyOp15
 70
     1
102
RTVSPropertyOp16
 70
     1
102
RTVSPropertyOp17
 70
     1
102
RTVSPropertyOp18
 70
     1
102
RTVSPropertyOp19
 70
     1
102
RTVSPropertyOp20
 70
     1
102
RTVSPropertyOp21
 70
     1
102
RTVSPropertyOp22
 70
     1
102
RTVSPropertyOp23
 70
     1
102
RTVSPropertyOp24
 70
     1
102
RTVSPropertyOp25
 70
     1
102
RTVSPropertyOp26
 70
     1
102
RTVSPropertyOp27
 70
     1
102
RTVSPropertyOp28
 70
     1
102
RTVSPropertyOp29
 70
     1
102
RTVSPropertyOp30
 70
     1
102
RTVSPropertyOp31
 70
     1
102
RTVSPropertyOp32
 70
     1
102
RTVSPropertyOp33
 70
     1
102
RTVSPropertyOp34
 70
     1
102
RTVSPropertyOp35
 70
     1
102
RTVSPropertyOp36
 70
     1
102
RTVSPropertyOp37
 70
     1
102
RTVSPropertyOp38
 70
     1
102
RTVSPropertyOp39
 70
     1
102
RTVSPropertyOp40
 70
     1
102
RTVSPropertyOp41
 70
     1
102
RTVSPropertyOp42
 70
     1
102
RTVSPropertyOp43
 70
     1
102
RTVSPropertyOp44
 70
     1
102
RTVSPropertyOp45
 70
     1
102
RTVSPropertyOp46
 70
     1
102
RTVSPropertyOp47
 70
     1
102
RTVSPropertyOp48
 70
     1
102
RTVSPropertyOp49
 70
     1
102
RTVSPropertyOp50
 70
     1
102
RTVSPropertyOp51
 70
     0
102
RTVSPropertyOp52
 70
     0
102
RTVSPropertyOp53
 70
     1
102
RTVSPropertyOp54
 70
     1
102
RTVSPropertyOp55
 70
     1
102
RTVSPropertyOp56
 70
     1
102
RTVSPropertyOp57
 70
     1
102
RTVSPost2010Prop28
280
     0
102
RTVSPost2010PropOp28
 70
     1
102
RTVSPost2010Prop29
280
     1
102
RTVSPost2010PropOp29
 70
     1
102
RTVSPost2010Prop30
280
     1
102
RTVSPost2010PropOp30
 70
     1
102
RTVSPost2010Prop31
280
     0
102
RTVSPost2010PropOp31
 70
     1
102
RTVSPost2010Prop32
280
     0
102
RTVSPost2010PropOp32
 70
     1
102
RTVSPost2010Prop33
280
     0
102
RTVSPost2010PropOp33
 70
     1
102
RTVSPost2010Prop34
280
     0
102
RTVSPost2010PropOp34
 70
     1
102
RTVSPost2010Prop35
280
     0
102
RTVSPost2010PropOp35
 70
     1
102
RTVSPost2010Prop36
280
     0
102
RTVSPost2010PropOp36
 70
     1
102
RTVSPost2010Prop37
 90
       50
102
RTVSPost2010PropOp37
 70
     1
102
RTVSPost2010Prop38
140
0.0
102
RTVSPost2010PropOp38
 70
     1
102
RTVSPost2010Prop39
140
1.0
102
RTVSPost2010PropOp39
 70
     1
102
RTVSPost2010Prop40
 90
        0
102
RTVSPost2010PropOp40
 70
     1
102
RTVSPost2010Prop41ColorIndex
 90
       18
102
RTVSPost2010Prop41ColorRGB
 90
        0
102
RTVSPost2010PropOp41
 70
     1
102
RTVSPost2010Prop42
 90
       50
102
RTVSPost2010PropOp42
 70
     1
102
RTVSPost2010Prop43
 90
        3
102
RTVSPost2010PropOp43
 70
     1
102
RTVSPost2010Prop44ColorIndex
 90
        5
102
RTVSPost2010Prop44ColorRGB
 90
      255
102
RTVSPost2010PropOp44
 70
     1
102
RTVSPost2010Prop45
280
     0
102
RTVSPost2010PropOp45
 70
     1
102
RTVSPost2010Prop46
 90
       50
102
RTVSPost2010PropOp46
 70
     1
102
RTVSPost2010Prop47
 90
       50
102
RTVSPost2010PropOp47
 70
     1
102
RTVSPost2010Prop48
 90
       50
102
RTVSPost2010PropOp48
 70
     1
102
RTVSPost2010Prop49
280
     0
102
RTVSPost2010PropOp49
 70
     1
102
RTVSPost2010Prop50
 90
       50
102
RTVSPost2010PropOp50
 70
     1
102
RTVSPost2010Prop51ColorIndex
 90
      256
102
RTVSPost2010Prop51ColorRGB
 90
-16777216
102
RTVSPost2010PropOp51
 70
     0
102
RTVSPost2010Prop52
140
1.0
102
RTVSPost2010PropOp52
 70
     0
102
RTVSPost2010Prop53
 90
        2
102
RTVSPost2010PropOp53
 70
     1
102
RTVSPost2010Prop54
  1
strokes_ogs.tif
102
RTVSPost2010PropOp54
 70
     1
102
RTVSPost2010Prop55
280
     0
102
RTVSPost2010PropOp55
 70
     1
102
RTVSPost2010Prop56
140
1.0
102
RTVSPost2010PropOp56
 70
     1
102
RTVSPost2010Prop57
140
1.0
102
RTVSPost2010PropOp57
 70
     1
  0
XRECORD
  5
2A0
102
{ACAD_REACTORS
330
29F
102
}
330
29F
100
AcDbXrecord
280
     1
102
RTVSPropertyOp0
 70
     1
102
RTVSPropertyOp1
 70
     1
102
RTVSPropertyOp2
 70
     1
102
RTVSPropertyOp3
 70
     1
102
RTVSPropertyOp4
 70
     1
102
RTVSPropertyOp5
 70
     1
102
RTVSPropertyOp6
 70
     1
102
RTVSPropertyOp7
 70
     1
102
RTVSPropertyOp8
 70
     1
102
RTVSPropertyOp9
 70
     1
102
RTVSPropertyOp10
 70
     1
102
RTVSPropertyOp11
 70
     1
102
RTVSPropertyOp12
 70
     1
102
RTVSPropertyOp13
 70
     1
102
RTVSPropertyOp14
 70
     1
102
RTVSPropertyOp15
 70
     1
102
RTVSPropertyOp16
 70
     1
102
RTVSPropertyOp17
 70
     1
102
RTVSPropertyOp18
 70
     1
102
RTVSPropertyOp19
 70
     1
102
RTVSPropertyOp20
 70
     1
102
RTVSPropertyOp21
 70
     1
102
RTVSPropertyOp22
 70
     1
102
RTVSPropertyOp23
 70
     1
102
RTVSPropertyOp24
 70
     1
102
RTVSPropertyOp25
 70
     1
102
RTVSPropertyOp26
 70
     1
102
RTVSPropertyOp27
 70
     1
102
RTVSPropertyOp28
 70
     1
102
RTVSPropertyOp29
 70
     1
102
RTVSPropertyOp30
 70
     1
102
RTVSPropertyOp31
 70
     1
102
RTVSPropertyOp32
 70
     1
102
RTVSPropertyOp33
 70
     1
102
RTVSPropertyOp34
 70
     1
102
RTVSPropertyOp35
 70
     1
102
RTVSPropertyOp36
 70
     1
102
RTVSPropertyOp37
 70
     1
102
RTVSPropertyOp38
 70
     1
102
RTVSPropertyOp39
 70
     1
102
RTVSPropertyOp40
 70
     1
102
RTVSPropertyOp41
 70
     1
102
RTVSPropertyOp42
 70
     1
102
RTVSPropertyOp43
 70
     1
102
RTVSPropertyOp44
 70
     1
102
RTVSPropertyOp45
 70
     1
102
RTVSPropertyOp46
 70
     1
102
RTVSPropertyOp47
 70
     1
102
RTVSPropertyOp48
 70
     1
102
RTVSPropertyOp49
 70
     1
102
RTVSPropertyOp50
 70
     1
102
RTVSPropertyOp51
 70
     0
102
RTVSPropertyOp52
 70
     0
102
RTVSPropertyOp53
 70
     1
102
RTVSPropertyOp54
 70
     1
102
RTVSPropertyOp55
 70
     1
102
RTVSPropertyOp56
 70
     1
102
RTVSPropertyOp57
 70
     1
102
RTVSPost2010Prop28
280
     0
102
RTVSPost2010PropOp28
 70
     1
102
RTVSPost2010Prop29
280
     1
102
RTVSPost2010PropOp29
 70
     1
102
RTVSPost2010Prop30
280
     1
102
RTVSPost2010PropOp30
 70
     1
102
RTVSPost2010Prop31
280
     0
102
RTVSPost2010PropOp31
 70
     1
102
RTVSPost2010Prop32
280
     0
102
RTVSPost2010PropOp32
 70
     1
102
RTVSPost2010Prop33
280
     0
102
RTVSPost2010PropOp33
 70
     1
102
RTVSPost2010Prop34
280
     0
102
RTVSPost2010PropOp34
 70
     1
102
RTVSPost2010Prop35
280
     0
102
RTVSPost2010PropOp35
 70
     1
102
RTVSPost2010Prop36
280
     0
102
RTVSPost2010PropOp36
 70
     1
102
RTVSPost2010Prop37
 90
       50
102
RTVSPost2010PropOp37
 70
     1
102
RTVSPost2010Prop38
140
0.0
102
RTVSPost2010PropOp38
 70
     1
102
RTVSPost2010Prop39
140
1.0
102
RTVSPost2010PropOp39
 70
     1
102
RTVSPost2010Prop40
 90
        0
102
RTVSPost2010PropOp40
 70
     1
102
RTVSPost2010Prop41ColorIndex
 90
       18
102
RTVSPost2010Prop41ColorRGB
 90
        0
102
RTVSPost2010PropOp41
 70
     1
102
RTVSPost2010Prop42
 90
       50
102
RTVSPost2010PropOp42
 70
     1
102
RTVSPost2010Prop43
 90
        3
102
RTVSPost2010PropOp43
 70
     1
102
RTVSPost2010Prop44ColorIndex
 90
        5
102
RTVSPost2010Prop44ColorRGB
 90
      255
102
RTVSPost2010PropOp44
 70
     1
102
RTVSPost2010Prop45
280
     0
102
RTVSPost2010PropOp45
 70
     1
102
RTVSPost2010Prop46
 90
       50
102
RTVSPost2010PropOp46
 70
     1
102
RTVSPost2010Prop47
 90
       50
102
RTVSPost2010PropOp47
 70
     1
102
RTVSPost2010Prop48
 90
       50
102
RTVSPost2010PropOp48
 70
     1
102
RTVSPost2010Prop49
280
     0
102
RTVSPost2010PropOp49
 70
     1
102
RTVSPost2010Prop50
 90
       50
102
RTVSPost2010PropOp50
 70
     1
102
RTVSPost2010Prop51ColorIndex
 90
      256
102
RTVSPost2010Prop51ColorRGB
 90
-16777216
102
RTVSPost2010PropOp51
 70
     0
102
RTVSPost2010Prop52
140
1.0
102
RTVSPost2010PropOp52
 70
     0
102
RTVSPost2010Prop53
 90
        2
102
RTVSPost2010PropOp53
 70
     1
102
RTVSPost2010Prop54
  1
strokes_ogs.tif
102
RTVSPost2010PropOp54
 70
     1
102
RTVSPost2010Prop55
280
     0
102
RTVSPost2010PropOp55
 70
     1
102
RTVSPost2010Prop56
140
1.0
102
RTVSPost2010PropOp56
 70
     1
102
RTVSPost2010Prop57
140
1.0
102
RTVSPost2010PropOp57
 70
     1
  0
XRECORD
  5
2C0
102
{ACAD_REACTORS
330
2BF
102
}
330
2BF
100
AcDbXrecord
280
     1
102
RTVSPropertyOp0
 70
     1
102
RTVSPropertyOp1
 70
     1
102
RTVSPropertyOp2
 70
     1
102
RTVSPropertyOp3
 70
     1
102
RTVSPropertyOp4
 70
     1
102
RTVSPropertyOp5
 70
     1
102
RTVSPropertyOp6
 70
     1
102
RTVSPropertyOp7
 70
     1
102
RTVSPropertyOp8
 70
     1
102
RTVSPropertyOp9
 70
     1
102
RTVSPropertyOp10
 70
     1
102
RTVSPropertyOp11
 70
     1
102
RTVSPropertyOp12
 70
     1
102
RTVSPropertyOp13
 70
     1
102
RTVSPropertyOp14
 70
     1
102
RTVSPropertyOp15
 70
     1
102
RTVSPropertyOp16
 70
     1
102
RTVSPropertyOp17
 70
     1
102
RTVSPropertyOp18
 70
     1
102
RTVSPropertyOp19
 70
     1
102
RTVSPropertyOp20
 70
     1
102
RTVSPropertyOp21
 70
     1
102
RTVSPropertyOp22
 70
     1
102
RTVSPropertyOp23
 70
     1
102
RTVSPropertyOp24
 70
     1
102
RTVSPropertyOp25
 70
     1
102
RTVSPropertyOp26
 70
     1
102
RTVSPropertyOp27
 70
     1
102
RTVSPropertyOp28
 70
     1
102
RTVSPropertyOp29
 70
     1
102
RTVSPropertyOp30
 70
     1
102
RTVSPropertyOp31
 70
     1
102
RTVSPropertyOp32
 70
     1
102
RTVSPropertyOp33
 70
     1
102
RTVSPropertyOp34
 70
     1
102
RTVSPropertyOp35
 70
     1
102
RTVSPropertyOp36
 70
     1
102
RTVSPropertyOp37
 70
     1
102
RTVSPropertyOp38
 70
     1
102
RTVSPropertyOp39
 70
     1
102
RTVSPropertyOp40
 70
     1
102
RTVSPropertyOp41
 70
     1
102
RTVSPropertyOp42
 70
     1
102
RTVSPropertyOp43
 70
     1
102
RTVSPropertyOp44
 70
     1
102
RTVSPropertyOp45
 70
     1
102
RTVSPropertyOp46
 70
     1
102
RTVSPropertyOp47
 70
     1
102
RTVSPropertyOp48
 70
     1
102
RTVSPropertyOp49
 70
     1
102
RTVSPropertyOp50
 70
     1
102
RTVSPropertyOp51
 70
     0
102
RTVSPropertyOp52
 70
     0
102
RTVSPropertyOp53
 70
     1
102
RTVSPropertyOp54
 70
     1
102
RTVSPropertyOp55
 70
     1
102
RTVSPropertyOp56
 70
     1
102
RTVSPropertyOp57
 70
     1
102
RTVSPost2010Prop28
280
     0
102
RTVSPost2010PropOp28
 70
     1
102
RTVSPost2010Prop29
280
     1
102
RTVSPost2010PropOp29
 70
     1
102
RTVSPost2010Prop30
280
     1
102
RTVSPost2010PropOp30
 70
     1
102
RTVSPost2010Prop31
280
     0
102
RTVSPost2010PropOp31
 70
     1
102
RTVSPost2010Prop32
280
     0
102
RTVSPost2010PropOp32
 70
     1
102
RTVSPost2010Prop33
280
     0
102
RTVSPost2010PropOp33
 70
     1
102
RTVSPost2010Prop34
280
     0
102
RTVSPost2010PropOp34
 70
     1
102
RTVSPost2010Prop35
280
     0
102
RTVSPost2010PropOp35
 70
     1
102
RTVSPost2010Prop36
280
     0
102
RTVSPost2010PropOp36
 70
     1
102
RTVSPost2010Prop37
 90
       50
102
RTVSPost2010PropOp37
 70
     1
102
RTVSPost2010Prop38
140
0.0
102
RTVSPost2010PropOp38
 70
     1
102
RTVSPost2010Prop39
140
1.0
102
RTVSPost2010PropOp39
 70
     1
102
RTVSPost2010Prop40
 90
        0
102
RTVSPost2010PropOp40
 70
     1
102
RTVSPost2010Prop41ColorIndex
 90
       18
102
RTVSPost2010Prop41ColorRGB
 90
        0
102
RTVSPost2010PropOp41
 70
     1
102
RTVSPost2010Prop42
 90
       50
102
RTVSPost2010PropOp42
 70
     1
102
RTVSPost2010Prop43
 90
        3
102
RTVSPost2010PropOp43
 70
     1
102
RTVSPost2010Prop44ColorIndex
 90
        5
102
RTVSPost2010Prop44ColorRGB
 90
      255
102
RTVSPost2010PropOp44
 70
     1
102
RTVSPost2010Prop45
280
     0
102
RTVSPost2010PropOp45
 70
     1
102
RTVSPost2010Prop46
 90
       50
102
RTVSPost2010PropOp46
 70
     1
102
RTVSPost2010Prop47
 90
       50
102
RTVSPost2010PropOp47
 70
     1
102
RTVSPost2010Prop48
 90
       50
102
RTVSPost2010PropOp48
 70
     1
102
RTVSPost2010Prop49
280
     0
102
RTVSPost2010PropOp49
 70
     1
102
RTVSPost2010Prop50
 90
       50
102
RTVSPost2010PropOp50
 70
     1
102
RTVSPost2010Prop51ColorIndex
 90
      256
102
RTVSPost2010Prop51ColorRGB
 90
-16777216
102
RTVSPost2010PropOp51
 70
     0
102
RTVSPost2010Prop52
140
1.0
102
RTVSPost2010PropOp52
 70
     0
102
RTVSPost2010Prop53
 90
        2
102
RTVSPost2010PropOp53
 70
     1
102
RTVSPost2010Prop54
  1
strokes_ogs.tif
102
RTVSPost2010PropOp54
 70
     1
102
RTVSPost2010Prop55
280
     0
102
RTVSPost2010PropOp55
 70
     1
102
RTVSPost2010Prop56
140
1.0
102
RTVSPost2010PropOp56
 70
     1
102
RTVSPost2010Prop57
140
1.0
102
RTVSPost2010PropOp57
 70
     1
  0
ENDSEC
  0
EOF
