  0
SECTION
  2
HEADER
  9
$ACADVER
  1
AC1021
  9
$ACADMAINTVER
 70
    25
  9
$DWGCODEPAGE
  3
ANSI_1252
  9
$INSBASE
 10
0.0
 20
0.0
 30
0.0
  9
$EXTMIN
 10
0.0
 20
0.0
 30
0.0
  9
$EXTMAX
 10
550.0
 20
511.0
 30
0.0
  9
$LIMMIN
 10
0.0
 20
0.0
  9
$LIMMAX
 10
550.0
 20
511.0
  9
$ORTHOMODE
 70
     0
  9
$REGENMODE
 70
     1
  9
$FILLMODE
 70
     1
  9
$QTEXTMODE
 70
     0
  9
$MIRRTEXT
 70
     1
  9
$LTSCALE
 40
1.0
  9
$ATTMODE
 70
     1
  9
$TEXTSIZE
 40
2.5
  9
$TRACEWID
 40
1.0
  9
$TEXTSTYLE
  7
Standard
  9
$CLAYER
  8
0
  9
$CELTYPE
  6
ByLayer
  9
$CECOLOR
 62
   256
  9
$CELTSCALE
 40
1.0
  9
$DISPSILH
 70
     0
  9
$DIMSCALE
 40
1.0
  9
$DIMASZ
 40
2.5
  9
$DIMEXO
 40
0.625
  9
$DIMDLI
 40
3.75
  9
$DIMRND
 40
0.0
  9
$DIMDLE
 40
0.0
  9
$DIMEXE
 40
1.25
  9
$DIMTP
 40
0.0
  9
$DIMTM
 40
0.0
  9
$DIMTXT
 40
2.5
  9
$DIMCEN
 40
2.5
  9
$DIMTSZ
 40
0.0
  9
$DIMTOL
 70
     0
  9
$DIMLIM
 70
     0
  9
$DIMTIH
 70
     0
  9
$DIMTOH
 70
     0
  9
$DIMSE1
 70
     0
  9
$DIMSE2
 70
     0
  9
$DIMTAD
 70
     1
  9
$DIMZIN
 70
     8
  9
$DIMBLK
  1

  9
$DIMASO
 70
     1
  9
$DIMSHO
 70
     1
  9
$DIMPOST
  1

  9
$DIMAPOST
  1

  9
$DIMALT
 70
     0
  9
$DIMALTD
 70
     3
  9
$DIMALTF
 40
0.0393700787
  9
$DIMLFAC
 40
1.0
  9
$DIMTOFL
 70
     1
  9
$DIMTVP
 40
0.0
  9
$DIMTIX
 70
     0
  9
$DIMSOXD
 70
     0
  9
$DIMSAH
 70
     0
  9
$DIMBLK1
  1

  9
$DIMBLK2
  1

  9
$DIMSTYLE
  2
ISO-25
  9
$DIMCLRD
 70
     0
  9
$DIMCLRE
 70
     0
  9
$DIMCLRT
 70
     0
  9
$DIMTFAC
 40
1.0
  9
$DIMGAP
 40
0.625
  9
$DIMJUST
 70
     0
  9
$DIMSD1
 70
     0
  9
$DIMSD2
 70
     0
  9
$DIMTOLJ
 70
     0
  9
$DIMTZIN
 70
     8
  9
$DIMALTZ
 70
     0
  9
$DIMALTTZ
 70
     0
  9
$DIMUPT
 70
     0
  9
$DIMDEC
 70
     2
  9
$DIMTDEC
 70
     2
  9
$DIMALTU
 70
     2
  9
$DIMALTTD
 70
     3
  9
$DIMTXSTY
  7
Standard
  9
$DIMAUNIT
 70
     0
  9
$DIMADEC
 70
     0
  9
$DIMALTRND
 40
0.0
  9
$DIMAZIN
 70
     0
  9
$DIMDSEP
 70
    44
  9
$DIMATFIT
 70
     3
  9
$DIMFRAC
 70
     0
  9
$DIMLDRBLK
  1

  9
$DIMLUNIT
 70
     2
  9
$DIMLWD
 70
    -2
  9
$DIMLWE
 70
    -2
  9
$DIMTMOVE
 70
     0
  9
$DIMFXL
 40
1.0
  9
$DIMFXLON
 70
     0
  9
$DIMJOGANG
 40
0.7853981634
  9
$DIMTFILL
 70
     0
  9
$DIMTFILLCLR
 70
     0
  9
$DIMARCSYM
 70
     0
  9
$DIMLTYPE
  6

  9
$DIMLTEX1
  6

  9
$DIMLTEX2
  6

  9
$LUNITS
 70
     2
  9
$LUPREC
 70
     4
  9
$SKETCHINC
 40
1.0
  9
$FILLETRAD
 40
10.0
  9
$AUNITS
 70
     0
  9
$AUPREC
 70
     0
  9
$MENU
  1
.
  9
$ELEVATION
 40
0.0
  9
$PELEVATION
 40
0.0
  9
$THICKNESS
 40
0.0
  9
$LIMCHECK
 70
     0
  9
$CHAMFERA
 40
0.0
  9
$CHAMFERB
 40
0.0
  9
$CHAMFERC
 40
0.0
  9
$CHAMFERD
 40
0.0
  9
$SKPOLY
 70
     0
  9
$TDCREATE
 40
2458037.40873279
  9
$TDUCREATE
 40
2458037.325399456
  9
$TDUPDATE
 40
2458037.408734699
  9
$TDUUPDATE
 40
2458037.325401366
  9
$TDINDWG
 40
0.0000000116
  9
$TDUSRTIMER
 40
0.0000000116
  9
$USRTIMER
 70
     1
  9
$ANGBASE
 50
0.0
  9
$ANGDIR
 70
     0
  9
$PDMODE
 70
     0
  9
$PDSIZE
 40
0.0
  9
$PLINEWID
 40
0.0
  9
$SPLFRAME
 70
     0
  9
$SPLINETYPE
 70
     6
  9
$SPLINESEGS
 70
     8
  9
$HANDSEED
  5
27C
  9
$SURFTAB1
 70
     6
  9
$SURFTAB2
 70
     6
  9
$SURFTYPE
 70
     6
  9
$SURFU
 70
     6
  9
$SURFV
 70
     6
  9
$UCSBASE
  2

  9
$UCSNAME
  2

  9
$UCSORG
 10
0.0
 20
0.0
 30
0.0
  9
$UCSXDIR
 10
1.0
 20
0.0
 30
0.0
  9
$UCSYDIR
 10
0.0
 20
1.0
 30
0.0
  9
$UCSORTHOREF
  2

  9
$UCSORTHOVIEW
 70
     0
  9
$UCSORGTOP
 10
0.0
 20
0.0
 30
0.0
  9
$UCSORGBOTTOM
 10
0.0
 20
0.0
 30
0.0
  9
$UCSORGLEFT
 10
0.0
 20
0.0
 30
0.0
  9
$UCSORGRIGHT
 10
0.0
 20
0.0
 30
0.0
  9
$UCSORGFRONT
 10
0.0
 20
0.0
 30
0.0
  9
$UCSORGBACK
 10
0.0
 20
0.0
 30
0.0
  9
$PUCSBASE
  2

  9
$PUCSNAME
  2

  9
$PUCSORG
 10
0.0
 20
0.0
 30
0.0
  9
$PUCSXDIR
 10
1.0
 20
0.0
 30
0.0
  9
$PUCSYDIR
 10
0.0
 20
1.0
 30
0.0
  9
$PUCSORTHOREF
  2

  9
$PUCSORTHOVIEW
 70
     0
  9
$PUCSORGTOP
 10
0.0
 20
0.0
 30
0.0
  9
$PUCSORGBOTTOM
 10
0.0
 20
0.0
 30
0.0
  9
$PUCSORGLEFT
 10
0.0
 20
0.0
 30
0.0
  9
$PUCSORGRIGHT
 10
0.0
 20
0.0
 30
0.0
  9
$PUCSORGFRONT
 10
0.0
 20
0.0
 30
0.0
  9
$PUCSORGBACK
 10
0.0
 20
0.0
 30
0.0
  9
$USERI1
 70
     0
  9
$USERI2
 70
     0
  9
$USERI3
 70
     0
  9
$USERI4
 70
     0
  9
$USERI5
 70
     0
  9
$USERR1
 40
0.0
  9
$USERR2
 40
0.0
  9
$USERR3
 40
0.0
  9
$USERR4
 40
0.0
  9
$USERR5
 40
0.0
  9
$WORLDVIEW
 70
     1
  9
$SHADEDGE
 70
     3
  9
$SHADEDIF
 70
    70
  9
$TILEMODE
 70
     1
  9
$MAXACTVP
 70
    64
  9
$PINSBASE
 10
0.0
 20
0.0
 30
0.0
  9
$PLIMCHECK
 70
     0
  9
$PEXTMIN
 10
0.0
 20
0.0
 30
0.0
  9
$PEXTMAX
 10
550.0
 20
511.0
 30
0.0
  9
$PLIMMIN
 10
0.0
 20
0.0
  9
$PLIMMAX
 10
550.0
 20
511.0
  9
$UNITMODE
 70
     0
  9
$VISRETAIN
 70
     1
  9
$PLINEGEN
 70
     0
  9
$PSLTSCALE
 70
     1
  9
$TREEDEPTH
 70
  3020
  9
$CMLSTYLE
  2
Standard
  9
$CMLJUST
 70
     0
  9
$CMLSCALE
 40
20.0
  9
$PROXYGRAPHICS
 70
     1
  9
$MEASUREMENT
 70
     1
  9
$CELWEIGHT
370
    -1
  9
$ENDCAPS
280
     0
  9
$JOINSTYLE
280
     0
  9
$LWDISPLAY
290
     0
  9
$INSUNITS
 70
     4
  9
$HYPERLINKBASE
  1

  9
$STYLESHEET
  1

  9
$XEDIT
290
     1
  9
$CEPSNTYPE
380
     0
  9
$PSTYLEMODE
290
     1
  9
$FINGERPRINTGUID
  2
{75D1847F-A8AF-47CC-9478-C584CFE60B81}
  9
$VERSIONGUID
  2
{FAEB1C32-E019-11D5-929B-00C0DF256EC4}
  9
$EXTNAMES
290
     1
  9
$PSVPSCALE
 40
0.0
  9
$OLESTARTUP
290
     0
  9
$SORTENTS
280
   127
  9
$INDEXCTL
280
     0
  9
$HIDETEXT
280
     1
  9
$XCLIPFRAME
290
     0
  9
$HALOGAP
280
     0
  9
$OBSCOLOR
 70
   257
  9
$OBSLTYPE
280
     0
  9
$INTERSECTIONDISPLAY
280
     0
  9
$INTERSECTIONCOLOR
 70
   257
  9
$DIMASSOC
280
     2
  9
$PROJECTNAME
  1

  9
$CAMERADISPLAY
290
     0
  9
$LENSLENGTH
 40
50.0
  9
$CAMERAHEIGHT
 40
0.0
  9
$STEPSPERSEC
 40
2.0
  9
$STEPSIZE
 40
6.0
  9
$3DDWFPREC
 40
2.0
  9
$PSOLWIDTH
 40
5.0
  9
$PSOLHEIGHT
 40
80.0
  9
$LOFTANG1
 40
1.5707963268
  9
$LOFTANG2
 40
1.5707963268
  9
$LOFTMAG1
 40
0.0
  9
$LOFTMAG2
 40
0.0
  9
$LOFTPARAM
 70
     7
  9
$LOFTNORMALS
280
     1
  9
$LATITUDE
 40
37.795
  9
$LONGITUDE
 40
-122.394
  9
$NORTHDIRECTION
 40
0.0
  9
$TIMEZONE
 70
 -8000
  9
$LIGHTGLYPHDISPLAY
280
     1
  9
$TILEMODELIGHTSYNCH
280
     1
  9
$CMATERIAL
347
44
  9
$SOLIDHIST
280
     0
  9
$SHOWHIST
280
     1
  9
$DWFFRAME
280
     2
  9
$DGNFRAME
280
     2
  9
$REALWORLDSCALE
290
     1
  9
$INTERFERECOLOR
 62
   256
  9
$CSHADOW
280
     0
  9
$SHADOWPLANELOCATION
 40
0.0
  0
ENDSEC
  0
SECTION
  2
CLASSES
  0
CLASS
  1
ACDBDICTIONARYWDFLT
  2
AcDbDictionaryWithDefault
  3
ObjectDBX Classes
 90
        0
 91
        4
280
     0
281
     0
  0
CLASS
  1
VISUALSTYLE
  2
AcDbVisualStyle
  3
ObjectDBX Classes
 90
     4095
 91
        4
280
     0
281
     0
  0
CLASS
  1
MATERIAL
  2
AcDbMaterial
  3
ObjectDBX Classes
 90
     1153
 91
        4
280
     0
281
     0
  0
CLASS
  1
SCALE
  2
AcDbScale
  3
ObjectDBX Classes
 90
     1153
 91
        4
280
     0
281
     0
  0
CLASS
  1
TABLESTYLE
  2
AcDbTableStyle
  3
ObjectDBX Classes
 90
     4095
 91
        4
280
     0
281
     0
  0
CLASS
  1
MLEADERSTYLE
  2
AcDbMLeaderStyle
  3
ACDB_MLEADERSTYLE_CLASS
 90
     4095
 91
        4
280
     0
281
     0
  0
CLASS
  1
SUN
  2
AcDbSun
  3
SCENEOE
 90
     1153
 91
        4
280
     0
281
     0
  0
CLASS
  1
MULTILEADER
  2
AcDbMLeader
  3
ACDB_MLEADER_CLASS
 90
     1025
 91
        4
280
     0
281
     1
  0
CLASS
  1
DICTIONARYVAR
  2
AcDbDictionaryVar
  3
ObjectDBX Classes
 90
        0
 91
        4
280
     0
281
     0
  0
CLASS
  1
CELLSTYLEMAP
  2
AcDbCellStyleMap
  3
ObjectDBX Classes
 90
     1152
 91
        4
280
     0
281
     0
  0
ENDSEC
  0
SECTION
  2
TABLES
  0
TABLE
  2
VPORT
  5
8
330
0
100
AcDbSymbolTable
 70
     1
  0
VPORT
  5
29
330
8
100
AcDbSymbolTableRecord
100
AcDbViewportTableRecord
  2
*Active
 70
     0
 10
0.0
 20
0.0
 11
1.0
 21
1.0
 12
344.1869158879
 22
148.5
 13
0.0
 23
0.0
 14
10.0
 24
10.0
 15
10.0
 25
10.0
 16
0.0
 26
0.0
 36
1.0
 17
0.0
 27
0.0
 37
0.0
 40
297.0
 41
1.9729729729
 42
50.0
 43
0.0
 44
0.0
 50
0.0
 51
0.0
 71
     0
 72
   100
 73
     1
 74
     3
 75
     0
 76
     0
 77
     0
 78
     0
281
     0
 65
     1
110
0.0
120
0.0
130
0.0
111
1.0
121
0.0
131
0.0
112
0.0
122
1.0
132
0.0
 79
     0
146
0.0
348
2F
 60
     3
 61
     5
292
     1
282
     1
141
0.0
142
0.0
 63
   250
361
6D
  0
ENDTAB
  0
TABLE
  2
LTYPE
  5
5
330
0
100
AcDbSymbolTable
 70
     1
  0
LTYPE
  5
14
330
5
100
AcDbSymbolTableRecord
100
AcDbLinetypeTableRecord
  2
ByBlock
 70
     0
  3

 72
    65
 73
     0
 40
0.0
  0
LTYPE
  5
15
330
5
100
AcDbSymbolTableRecord
100
AcDbLinetypeTableRecord
  2
ByLayer
 70
     0
  3

 72
    65
 73
     0
 40
0.0
  0
LTYPE
  5
16
330
5
100
AcDbSymbolTableRecord
100
AcDbLinetypeTableRecord
  2
Continuous
 70
     0
  3
Solid line
 72
    65
 73
     0
 40
0.0
  0
ENDTAB
  0
TABLE
  2
LAYER
  5
2
330
0
100
AcDbSymbolTable
 70
     4
  0
LAYER
  5
10
330
2
100
AcDbSymbolTableRecord
100
AcDbLayerTableRecord
  2
0
 70
     0
 62
     7
  6
Continuous
370
    -3
390
F
347
46
  0
LAYER
  5
6E
330
2
100
AcDbSymbolTableRecord
100
AcDbLayerTableRecord
  2
encadrement
 70
     1
 62
    -7
  6
Continuous
370
    -3
390
F
347
46
  0
LAYER
  5
74
330
2
100
AcDbSymbolTableRecord
100
AcDbLayerTableRecord
  2
Cartouche
 70
     0
 62
     7
  6
Continuous
370
    -3
390
F
347
46
  0
LAYER
  5
81
330
2
100
AcDbSymbolTableRecord
100
AcDbLayerTableRecord
  2
H755
 70
     0
 62
     7
  6
Continuous
370
    -3
390
F
347
46
  0
ENDTAB
  0
TABLE
  2
STYLE
  5
3
330
0
100
AcDbSymbolTable
 70
     3
  0
STYLE
  5
11
330
3
100
AcDbSymbolTableRecord
100
AcDbTextStyleTableRecord
  2
Standard
 70
     0
 40
0.0
 41
1.0
 50
0.0
 71
     0
 42
2.5
  3
txt
  4

  0
STYLE
  5
147
330
3
100
AcDbSymbolTableRecord
100
AcDbTextStyleTableRecord
  2
SEACAD_Arial
 70
     0
 40
0.0
 41
1.0
 50
0.0
 71
     0
 42
2.5
  3

  4

1001
ACAD
1000
Arial
1071
        0
  0
STYLE
  5
14A
330
3
100
AcDbSymbolTableRecord
100
AcDbTextStyleTableRecord
  2
SEACAD_ArialB
 70
     0
 40
0.0
 41
1.0
 50
0.0
 71
     0
 42
2.5
  3
arialbd.ttf
  4

1001
ACAD
1000
Arial
1071
 33554432
  0
ENDTAB
  0
TABLE
  2
VIEW
  5
6
330
0
100
AcDbSymbolTable
 70
     0
  0
ENDTAB
  0
TABLE
  2
UCS
  5
7
330
0
100
AcDbSymbolTable
 70
     0
  0
ENDTAB
  0
TABLE
  2
APPID
  5
9
330
0
100
AcDbSymbolTable
 70
     2
  0
APPID
  5
12
330
9
100
AcDbSymbolTableRecord
100
AcDbRegAppTableRecord
  2
ACAD
 70
     0
  0
APPID
  5
23E
330
9
100
AcDbSymbolTableRecord
100
AcDbRegAppTableRecord
  2
ACAD_MLEADERVER
 70
     0
  0
ENDTAB
  0
TABLE
  2
DIMSTYLE
  5
A
330
0
100
AcDbSymbolTable
 70
     3
100
AcDbDimStyleTable
  0
DIMSTYLE
105
27
330
A
100
AcDbSymbolTableRecord
100
AcDbDimStyleTableRecord
  2
ISO-25
 70
     0
 41
2.5
 42
0.625
 43
3.75
 44
1.25
 73
     0
 74
     0
 77
     1
 78
     8
140
2.5
141
2.5
143
0.0393700787
147
0.625
171
     3
172
     1
178
     0
271
     2
272
     2
274
     3
278
    44
283
     0
284
     8
340
11
  0
DIMSTYLE
105
13A
330
A
100
AcDbSymbolTableRecord
100
AcDbDimStyleTableRecord
  2
Standard
 70
     0
178
     0
340
11
  0
DIMSTYLE
105
148
102
{ACAD_REACTORS
330
149
330
155
330
160
102
}
330
A
100
AcDbSymbolTableRecord
100
AcDbDimStyleTableRecord
  2
ISO
 70
     0
 41
24.0
 42
0.0
 44
8.0
 78
     8
140
16.0
141
0.0
143
0.0393700787
146
0.7
147
4.0
172
     1
173
     1
178
     0
271
     0
272
     3
278
    44
284
     8
340
147
343
79
344
79
  0
ENDTAB
  0
TABLE
  2
BLOCK_RECORD
  5
1
330
0
100
AcDbSymbolTable
 70
    14
  0
BLOCK_RECORD
  5
1F
330
1
100
AcDbSymbolTableRecord
100
AcDbBlockTableRecord
  2
*Model_Space
340
22
 70
     0
280
     1
281
     0
  0
BLOCK_RECORD
  5
1B
330
1
100
AcDbSymbolTableRecord
100
AcDbBlockTableRecord
  2
*Paper_Space
340
1E
 70
     0
280
     1
281
     0
  0
BLOCK_RECORD
  5
75
330
1
100
AcDbSymbolTableRecord
100
AcDbBlockTableRecord
  2
SEANNOT_GROUP
340
0
102
{BLKREFS
331
76
102
}
 70
     0
280
     1
281
     0
  0
BLOCK_RECORD
  5
79
330
1
100
AcDbSymbolTableRecord
100
AcDbBlockTableRecord
  2
_SE_FILLED
340
0
 70
     0
280
     1
281
     0
  0
BLOCK_RECORD
  5
7F
330
1
100
AcDbSymbolTableRecord
100
AcDbBlockTableRecord
  2
SE
340
0
102
{BLKREFS
331
80
102
}
 70
     0
280
     1
281
     0
  0
BLOCK_RECORD
  5
A7
330
1
100
AcDbSymbolTableRecord
100
AcDbBlockTableRecord
  2
SE1
340
0
102
{BLKREFS
331
A8
102
}
 70
     0
280
     1
281
     0
  0
BLOCK_RECORD
  5
E1
330
1
100
AcDbSymbolTableRecord
100
AcDbBlockTableRecord
  2
SE2
340
0
102
{BLKREFS
331
E2
102
}
 70
     0
280
     1
281
     0
  0
BLOCK_RECORD
  5
13B
330
1
100
AcDbSymbolTableRecord
100
AcDbBlockTableRecord
  2
_OBLIQUE
340
0
 70
     0
280
     1
281
     0
  0
BLOCK_RECORD
  5
13F
330
1
100
AcDbSymbolTableRecord
100
AcDbBlockTableRecord
  2
_DOT
340
0
 70
     0
280
     1
281
     0
  0
BLOCK_RECORD
  5
14B
330
1
100
AcDbSymbolTableRecord
100
AcDbBlockTableRecord
  2
DMBLK68
340
0
 70
     0
280
     1
281
     0
  0
BLOCK_RECORD
  5
156
330
1
100
AcDbSymbolTableRecord
100
AcDbBlockTableRecord
  2
DMBLK69
340
0
 70
     0
280
     1
281
     0
  0
BLOCK_RECORD
  5
161
330
1
100
AcDbSymbolTableRecord
100
AcDbBlockTableRecord
  2
DMBLK70
340
0
 70
     0
280
     1
281
     0
  0
BLOCK_RECORD
  5
16B
330
1
100
AcDbSymbolTableRecord
100
AcDbBlockTableRecord
  2
SE3
340
0
102
{BLKREFS
331
16C
102
}
 70
     0
280
     1
281
     0
  0
BLOCK_RECORD
  5
1A0
330
1
100
AcDbSymbolTableRecord
100
AcDbBlockTableRecord
  2
SE4
340
0
102
{BLKREFS
331
1A1
102
}
 70
     0
280
     1
281
     0
  0
BLOCK_RECORD
  5
1FE
330
1
100
AcDbSymbolTableRecord
100
AcDbBlockTableRecord
  2
SE5
340
0
102
{BLKREFS
331
1FF
102
}
 70
     0
280
     1
281
     0
  0
ENDTAB
  0
ENDSEC
  0
SECTION
  2
BLOCKS
  0
BLOCK
  5
20
330
1F
100
AcDbEntity
  8
0
100
AcDbBlockBegin
  2
*Model_Space
 70
     0
 10
0.0
 20
0.0
 30
0.0
  3
*Model_Space
  1

  0
ENDBLK
  5
21
330
1F
100
AcDbEntity
  8
0
100
AcDbBlockEnd
  0
BLOCK
  5
1C
330
1B
100
AcDbEntity
 67
     1
  8
0
100
AcDbBlockBegin
  2
*Paper_Space
 70
     0
 10
0.0
 20
0.0
 30
0.0
  3
*Paper_Space
  1

  0
ENDBLK
  5
1D
330
1B
100
AcDbEntity
 67
     1
  8
0
100
AcDbBlockEnd
  0
BLOCK
  5
77
330
75
100
AcDbEntity
  8
0
100
AcDbBlockBegin
  2
SEANNOT_GROUP
 70
     0
 10
0.0
 20
0.0
 30
0.0
  3
SEANNOT_GROUP
  1

  0
ENDBLK
  5
78
330
75
100
AcDbEntity
  8
0
100
AcDbBlockEnd
  0
BLOCK
  5
7C
330
79
100
AcDbEntity
  8
0
100
AcDbBlockBegin
  2
_SE_FILLED
 70
     0
 10
0.0
 20
0.0
 30
0.0
  3
_SE_FILLED
  1

  0
SOLID
  5
7A
330
79
100
AcDbEntity
  8
0
 62
     0
100
AcDbTrace
 10
0.0
 20
0.0
 30
0.0
 11
-1.0
 21
-0.1665
 31
0.0
 12
-1.0
 22
0.1665
 32
0.0
 13
0.0
 23
0.0
 33
0.0
  0
LINE
  5
7B
330
79
100
AcDbEntity
  8
0
 62
     0
100
AcDbLine
 10
0.0
 20
0.0
 30
0.0
 11
-1.0
 21
0.0
 31
0.0
  0
ENDBLK
  5
7D
330
79
100
AcDbEntity
  8
0
100
AcDbBlockEnd
  0
BLOCK
  5
A5
330
7F
100
AcDbEntity
  8
0
100
AcDbBlockBegin
  2
SE
 70
     0
 10
0.0
 20
0.0
 30
0.0
  3
SE
  1

  0
ARC
  5
82
330
7F
100
AcDbEntity
  8
H755
  6
Continuous
 62
     7
100
AcDbCircle
 10
627.8847477811
 20
402.6993122088
 30
0.0
 40
17.0
100
AcDbArc
 50
0.0
 51
180.0
  0
ARC
  5
83
330
7F
100
AcDbEntity
  8
H755
  6
Continuous
 62
     7
100
AcDbCircle
 10
627.8847477811
 20
282.6993122088
 30
0.0
 40
17.0
100
AcDbArc
 50
180.0
 51
0.0
  0
ARC
  5
84
330
7F
100
AcDbEntity
  8
H755
  6
Continuous
 62
     7
100
AcDbCircle
 10
729.8847477811
 20
402.6993122088
 30
0.0
 40
17.0
100
AcDbArc
 50
0.0
 51
90.0
  0
ARC
  5
85
330
7F
100
AcDbEntity
  8
H755
  6
Continuous
 62
     7
100
AcDbCircle
 10
729.8847477811
 20
402.6993122088
 30
0.0
 40
17.0
100
AcDbArc
 50
270.0
 51
0.0
  0
LINE
  5
86
330
7F
100
AcDbEntity
  8
H755
  6
Continuous
 62
     7
100
AcDbLine
 10
699.8847477811
 20
385.6993122088
 30
0.0
 11
699.8847477811
 21
419.6993122088
 31
0.0
  0
ARC
  5
87
330
7F
100
AcDbEntity
  8
H755
  6
Continuous
 62
     7
100
AcDbCircle
 10
729.8847477811
 20
402.6993122088
 30
0.0
 40
24.00000000000001
100
AcDbArc
 50
225.0994720393
 51
0.0
  0
ARC
  5
88
330
7F
100
AcDbEntity
  8
H755
  6
Continuous
 62
     7
100
AcDbCircle
 10
729.8847477811
 20
402.6993122088
 30
0.0
 40
24.00000000000001
100
AcDbArc
 50
0.0
 51
134.9005279607
  0
ARC
  5
89
330
7F
100
AcDbEntity
  8
H755
  6
Continuous
 62
     7
100
AcDbCircle
 10
627.8847477811
 20
402.6993122088
 30
0.0
 40
24.0
100
AcDbArc
 50
45.0994720393
 51
224.9005279607
  0
ARC
  5
8A
330
7F
100
AcDbEntity
  8
H755
  6
Continuous
 62
     7
100
AcDbCircle
 10
627.8847477811
 20
282.6993122088
 30
0.0
 40
24.0
100
AcDbArc
 50
135.0994720393
 51
0.0
  0
ARC
  5
8B
330
7F
100
AcDbEntity
  8
H755
  6
Continuous
 62
     7
100
AcDbCircle
 10
627.8847477811
 20
282.6993122088
 30
0.0
 40
24.0
100
AcDbArc
 50
0.0
 51
44.9005279607
  0
ARC
  5
8C
330
7F
100
AcDbEntity
  8
H755
  6
Continuous
 62
     7
100
AcDbCircle
 10
729.8847477811
 20
402.6993122088
 30
0.0
 40
39.99999999999999
100
AcDbArc
 50
205.1506634125
 51
0.0
  0
ARC
  5
8D
330
7F
100
AcDbEntity
  8
H755
  6
Continuous
 62
     7
100
AcDbCircle
 10
729.8847477811
 20
402.6993122088
 30
0.0
 40
39.99999999999999
100
AcDbArc
 50
0.0
 51
154.8493365875
  0
ARC
  5
8E
330
7F
100
AcDbEntity
  8
H755
  6
Continuous
 62
     7
100
AcDbCircle
 10
729.8847477811
 20
402.6993122088
 30
0.0
 40
38.8
100
AcDbArc
 50
0.0
 51
154.0144580966
  0
ARC
  5
8F
330
7F
100
AcDbEntity
  8
H755
  6
Continuous
 62
     7
100
AcDbCircle
 10
729.8847477811
 20
402.6993122088
 30
0.0
 40
38.8
100
AcDbArc
 50
205.9855419034
 51
0.0
  0
ARC
  5
90
330
7F
100
AcDbEntity
  8
H755
  6
Continuous
 62
     7
100
AcDbCircle
 10
627.8847477811
 20
402.6993122088
 30
0.0
 40
26.00000000000001
100
AcDbArc
 50
310.8322170275
 51
319.1677829725
  0
ARC
  5
91
330
7F
100
AcDbEntity
  8
H755
  6
Continuous
 62
     7
100
AcDbCircle
 10
627.8847477811
 20
402.6993122088
 30
0.0
 40
26.00000000000001
100
AcDbArc
 50
40.8322170275
 51
229.1677829725
  0
ARC
  5
92
330
7F
100
AcDbEntity
  8
H755
  6
Continuous
 62
     7
100
AcDbCircle
 10
627.8847477811
 20
282.6993122088
 30
0.0
 40
26.0
100
AcDbArc
 50
130.8322170275
 51
0.0
  0
ARC
  5
93
330
7F
100
AcDbEntity
  8
H755
  6
Continuous
 62
     7
100
AcDbCircle
 10
627.8847477811
 20
282.6993122088
 30
0.0
 40
26.0
100
AcDbArc
 50
0.0
 51
49.1677829725
  0
ARC
  5
94
330
7F
100
AcDbEntity
  8
H755
  6
Continuous
 62
     7
100
AcDbCircle
 10
729.8847477811
 20
402.6993122088
 30
0.0
 40
26.00000000000001
100
AcDbArc
 50
220.8322170275
 51
0.0
  0
ARC
  5
95
330
7F
100
AcDbEntity
  8
H755
  6
Continuous
 62
     7
100
AcDbCircle
 10
729.8847477811
 20
402.6993122088
 30
0.0
 40
26.00000000000001
100
AcDbArc
 50
0.0
 51
139.1677829725
  0
ARC
  5
96
330
7F
100
AcDbEntity
  8
H755
  6
Continuous
 62
     7
100
AcDbCircle
 10
627.8847477811
 20
402.6993122088
 30
0.0
 40
39.99999999999999
100
AcDbArc
 50
295.1506634125
 51
334.8493365875
  0
ARC
  5
97
330
7F
100
AcDbEntity
  8
H755
  6
Continuous
 62
     7
100
AcDbCircle
 10
627.8847477811
 20
402.6993122088
 30
0.0
 40
39.99999999999999
100
AcDbArc
 50
25.1506634125
 51
244.8493365875
  0
ARC
  5
98
330
7F
100
AcDbEntity
  8
H755
  6
Continuous
 62
     7
100
AcDbCircle
 10
627.8847477811
 20
402.6993122088
 30
0.0
 40
38.8
100
AcDbArc
 50
25.9855419034
 51
244.0144580966
  0
ARC
  5
99
330
7F
100
AcDbEntity
  8
H755
  6
Continuous
 62
     7
100
AcDbCircle
 10
627.8847477811
 20
402.6993122088
 30
0.0
 40
38.8
100
AcDbArc
 50
295.9855419034
 51
334.0144580966
  0
ARC
  5
9A
330
7F
100
AcDbEntity
  8
H755
  6
Continuous
 62
     7
100
AcDbCircle
 10
627.8847477811
 20
282.6993122088
 30
0.0
 40
39.99999999999999
100
AcDbArc
 50
115.1506634125
 51
0.0
  0
ARC
  5
9B
330
7F
100
AcDbEntity
  8
H755
  6
Continuous
 62
     7
100
AcDbCircle
 10
627.8847477811
 20
282.6993122088
 30
0.0
 40
39.99999999999999
100
AcDbArc
 50
0.0
 51
64.8493365875
  0
ARC
  5
9C
330
7F
100
AcDbEntity
  8
H755
  6
Continuous
 62
     7
100
AcDbCircle
 10
627.8847477811
 20
282.6993122088
 30
0.0
 40
38.79999999999998
100
AcDbArc
 50
0.0
 51
64.0144580966
  0
ARC
  5
9D
330
7F
100
AcDbEntity
  8
H755
  6
Continuous
 62
     7
100
AcDbCircle
 10
627.8847477811
 20
282.6993122088
 30
0.0
 40
38.79999999999998
100
AcDbArc
 50
115.9855419034
 51
0.0
  0
ELLIPSE
  5
9E
330
7F
100
AcDbEntity
  8
H755
  6
Continuous
 62
     7
100
AcDbEllipse
 10
627.8847477811
 20
402.6993122088
 30
0.0
 11
-22.00000000000003
 21
5.425773790371321E-14
 31
0.0
210
0.0
220
0.0
230
1.0
 40
0.7727272727
 41
2.453923001678679
 42
4.712388980384686
  0
LINE
  5
9F
330
7F
100
AcDbEntity
  8
H755
  6
Continuous
 62
     7
100
AcDbLine
 10
610.8847477811
 20
402.6993122088
 30
0.0
 11
610.8847477811
 21
282.6993122088
 31
0.0
  0
LINE
  5
A0
330
7F
100
AcDbEntity
  8
H755
  6
Continuous
 62
     7
100
AcDbLine
 10
644.8847477811
 20
282.6993122088
 30
0.0
 11
644.8847477811
 21
402.6993122088
 31
0.0
  0
LINE
  5
A1
330
7F
100
AcDbEntity
  8
H755
  6
Continuous
 62
     7
100
AcDbLine
 10
729.8847477811
 20
419.6993122088
 30
0.0
 11
699.8847477811
 21
419.6993122088
 31
0.0
  0
LINE
  5
A2
330
7F
100
AcDbEntity
  8
H755
  6
Continuous
 62
     7
100
AcDbLine
 10
699.8847477811
 20
385.6993122088
 30
0.0
 11
729.8847477811
 21
385.6993122088
 31
0.0
  0
LINE
  5
A3
330
7F
100
AcDbEntity
  8
H755
  6
Continuous
 62
     7
100
AcDbLine
 10
644.8847477811
 20
385.6993122088
 30
0.0
 11
699.8847477811
 21
385.6993122088
 31
0.0
  0
LINE
  5
A4
330
7F
100
AcDbEntity
  8
H755
  6
Continuous
 62
     7
100
AcDbLine
 10
699.8847477811
 20
419.6993122088
 30
0.0
 11
627.8847477811
 21
419.6993122088
 31
0.0
  0
ENDBLK
  5
A6
330
7F
100
AcDbEntity
  8
0
100
AcDbBlockEnd
  0
BLOCK
  5
DF
330
A7
100
AcDbEntity
  8
0
100
AcDbBlockBegin
  2
SE1
 70
     0
 10
0.0
 20
0.0
 30
0.0
  3
SE1
  1

  0
LINE
  5
A9
330
A7
100
AcDbEntity
  8
H755
  6
Continuous
 62
     7
100
AcDbLine
 10
-19.2801528995
 20
385.6993122088
 30
0.0
 11
-19.2801528995
 21
419.6993122088
 31
0.0
  0
LINE
  5
AA
330
A7
100
AcDbEntity
  8
H755
  6
Continuous
 62
     7
100
AcDbLine
 10
-19.2801528995
 20
299.6993122088
 30
0.0
 11
-19.2801528995
 21
265.6993122088
 31
0.0
  0
LINE
  5
AB
330
A7
100
AcDbEntity
  8
H755
  6
Continuous
 62
     7
100
AcDbLine
 10
283.7198471005
 20
419.6993122088
 30
0.0
 11
283.7198471005
 21
385.6993122088
 31
0.0
  0
ARC
  5
AC
330
A7
100
AcDbEntity
  8
H755
  6
Continuous
 62
     7
100
AcDbCircle
 10
253.7198471005
 20
402.6993122088
 30
0.0
 40
17.0
100
AcDbArc
 50
90.0
 51
270.0
  0
LINE
  5
AD
330
A7
100
AcDbEntity
  8
H755
  6
Continuous
 62
     7
100
AcDbLine
 10
428.7198471005
 20
419.6993122088
 30
0.0
 11
428.7198471005
 21
385.6993122088
 31
0.0
  0
LINE
  5
AE
330
A7
100
AcDbEntity
  8
H755
  6
Continuous
 62
     7
100
AcDbLine
 10
428.7198471005
 20
299.6993122088
 30
0.0
 11
428.7198471005
 21
265.6993122088
 31
0.0
  0
LINE
  5
AF
330
A7
100
AcDbEntity
  8
H755
  6
Continuous
 62
     7
100
AcDbLine
 10
503.7198471005
 20
322.6993122088
 30
0.0
 11
503.7198471005
 21
242.6993122088
 31
0.0
  0
LINE
  5
B0
330
A7
100
AcDbEntity
  8
H755
  6
Continuous
 62
     7
100
AcDbLine
 10
428.7198471005
 20
385.6993122088
 30
0.0
 11
428.7198471005
 21
419.6993122088
 31
0.0
  0
LINE
  5
B1
330
A7
100
AcDbEntity
  8
H755
  6
Continuous
 62
     7
100
AcDbLine
 10
503.7198471005
 20
362.6993122088
 30
0.0
 11
503.7198471005
 21
442.6993122088
 31
0.0
  0
LINE
  5
B2
330
A7
100
AcDbEntity
  8
H755
  6
Continuous
 62
     7
100
AcDbLine
 10
435.7198471005
 20
378.6993122088
 30
0.0
 11
435.7198471005
 21
426.6993122088
 31
0.0
  0
LINE
  5
B3
330
A7
100
AcDbEntity
  8
H755
  6
Continuous
 62
     7
100
AcDbLine
 10
435.7198471005
 20
306.6993122088
 30
0.0
 11
435.7198471005
 21
258.6993122088
 31
0.0
  0
LINE
  5
B4
330
A7
100
AcDbEntity
  8
H755
  6
Continuous
 62
     7
100
AcDbLine
 10
495.2198471005
 20
362.6993122088
 30
0.0
 11
495.2198471005
 21
442.6993122088
 31
0.0
  0
LINE
  5
B5
330
A7
100
AcDbEntity
  8
H755
  6
Continuous
 62
     7
100
AcDbLine
 10
492.8198471005
 20
441.4993122088
 30
0.0
 11
492.8198471005
 21
363.8993122088
 31
0.0
  0
LINE
  5
B6
330
A7
100
AcDbEntity
  8
H755
  6
Continuous
 62
     7
100
AcDbLine
 10
483.2198471005
 20
308.6993122088
 30
0.0
 11
483.2198471005
 21
256.6993122088
 31
0.0
  0
LINE
  5
B7
330
A7
100
AcDbEntity
  8
H755
  6
Continuous
 62
     7
100
AcDbLine
 10
479.2198471005
 20
258.6993122088
 30
0.0
 11
479.2198471005
 21
306.6993122088
 31
0.0
  0
LINE
  5
B8
330
A7
100
AcDbEntity
  8
H755
  6
Continuous
 62
     7
100
AcDbLine
 10
483.2198471005
 20
376.6993122088
 30
0.0
 11
483.2198471005
 21
428.6993122088
 31
0.0
  0
LINE
  5
B9
330
A7
100
AcDbEntity
  8
H755
  6
Continuous
 62
     7
100
AcDbLine
 10
479.2198471005
 20
426.6993122088
 30
0.0
 11
479.2198471005
 21
378.6993122088
 31
0.0
  0
LINE
  5
BA
330
A7
100
AcDbEntity
  8
H755
  6
Continuous
 62
     7
100
AcDbLine
 10
495.2198471005
 20
322.6993122088
 30
0.0
 11
495.2198471005
 21
242.6993122088
 31
0.0
  0
LINE
  5
BB
330
A7
100
AcDbEntity
  8
H755
  6
Continuous
 62
     7
100
AcDbLine
 10
492.8198471005
 20
243.8993122088
 30
0.0
 11
492.8198471005
 21
321.4993122088
 31
0.0
  0
ELLIPSE
  5
BC
330
A7
100
AcDbEntity
  8
H755
  6
Continuous
 62
     7
100
AcDbEllipse
 10
253.7198471005
 20
402.6993122088
 30
0.0
 11
22.00000000000005
 21
-4.760351657022256E-14
 31
0.0
210
0.0
220
0.0
230
1.0
 40
0.7727272727
 41
1.570796326794898
 42
4.712388980384691
  0
ARC
  5
BD
330
A7
100
AcDbEntity
  8
H755
  6
Continuous
 62
     7
100
AcDbCircle
 10
-19.2801528995
 20
342.6993122088
 30
0.0
 40
42.99999999999999
100
AcDbArc
 50
90.0
 51
270.0
  0
ARC
  5
BE
330
A7
100
AcDbEntity
  8
H755
  6
Continuous
 62
     7
100
AcDbCircle
 10
-19.2801528995
 20
342.6993122088
 30
0.0
 40
76.99999999999996
100
AcDbArc
 50
90.0
 51
270.0
  0
LINE
  5
BF
330
A7
100
AcDbEntity
  8
H755
  6
Continuous
 62
     7
100
AcDbLine
 10
283.7198471005
 20
419.6993122088
 30
0.0
 11
253.7198471005
 21
419.6993122088
 31
0.0
  0
LINE
  5
C0
330
A7
100
AcDbEntity
  8
H755
  6
Continuous
 62
     7
100
AcDbLine
 10
253.7198471005
 20
385.6993122088
 30
0.0
 11
283.7198471005
 21
385.6993122088
 31
0.0
  0
LINE
  5
C1
330
A7
100
AcDbEntity
  8
H755
  6
Continuous
 62
     7
100
AcDbLine
 10
-19.2801528995
 20
385.6993122088
 30
0.0
 11
253.7198471005
 21
385.6993122088
 31
0.0
  0
LINE
  5
C2
330
A7
100
AcDbEntity
  8
H755
  6
Continuous
 62
     7
100
AcDbLine
 10
253.7198471005
 20
419.6993122088
 30
0.0
 11
-19.2801528995
 21
419.6993122088
 31
0.0
  0
LINE
  5
C3
330
A7
100
AcDbEntity
  8
H755
  6
Continuous
 62
     7
100
AcDbLine
 10
428.7198471005
 20
299.6993122088
 30
0.0
 11
-19.2801528995
 21
299.6993122088
 31
0.0
  0
LINE
  5
C4
330
A7
100
AcDbEntity
  8
H755
  6
Continuous
 62
     7
100
AcDbLine
 10
-19.2801528995
 20
265.6993122088
 30
0.0
 11
428.7198471005
 21
265.6993122088
 31
0.0
  0
LINE
  5
C5
330
A7
100
AcDbEntity
  8
H755
  6
Continuous
 62
     7
100
AcDbLine
 10
479.2198471005
 20
306.6993122088
 30
0.0
 11
435.7198471005
 21
306.6993122088
 31
0.0
  0
LINE
  5
C6
330
A7
100
AcDbEntity
  8
H755
  6
Continuous
 62
     7
100
AcDbLine
 10
435.7198471005
 20
258.6993122088
 30
0.0
 11
479.2198471005
 21
258.6993122088
 31
0.0
  0
LINE
  5
C7
330
A7
100
AcDbEntity
  8
H755
  6
Continuous
 62
     7
100
AcDbLine
 10
492.8198471005
 20
321.4993122088
 30
0.0
 11
483.2198471005
 21
308.6993122088
 31
0.0
  0
LINE
  5
C8
330
A7
100
AcDbEntity
  8
H755
  6
Continuous
 62
     7
100
AcDbLine
 10
483.2198471005
 20
256.6993122088
 30
0.0
 11
492.8198471005
 21
243.8993122088
 31
0.0
  0
LINE
  5
C9
330
A7
100
AcDbEntity
  8
H755
  6
Continuous
 62
     7
100
AcDbLine
 10
503.7198471005
 20
322.6993122088
 30
0.0
 11
495.2198471005
 21
322.6993122088
 31
0.0
  0
LINE
  5
CA
330
A7
100
AcDbEntity
  8
H755
  6
Continuous
 62
     7
100
AcDbLine
 10
495.2198471005
 20
242.6993122088
 30
0.0
 11
503.7198471005
 21
242.6993122088
 31
0.0
  0
LINE
  5
CB
330
A7
100
AcDbEntity
  8
H755
  6
Continuous
 62
     7
100
AcDbLine
 10
283.7198471005
 20
385.6993122088
 30
0.0
 11
428.7198471005
 21
385.6993122088
 31
0.0
  0
LINE
  5
CC
330
A7
100
AcDbEntity
  8
H755
  6
Continuous
 62
     7
100
AcDbLine
 10
428.7198471005
 20
419.6993122088
 30
0.0
 11
283.7198471005
 21
419.6993122088
 31
0.0
  0
LINE
  5
CD
330
A7
100
AcDbEntity
  8
H755
  6
Continuous
 62
     7
100
AcDbLine
 10
479.2198471005
 20
426.6993122088
 30
0.0
 11
435.7198471005
 21
426.6993122088
 31
0.0
  0
LINE
  5
CE
330
A7
100
AcDbEntity
  8
H755
  6
Continuous
 62
     7
100
AcDbLine
 10
435.7198471005
 20
378.6993122088
 30
0.0
 11
479.2198471005
 21
378.6993122088
 31
0.0
  0
LINE
  5
CF
330
A7
100
AcDbEntity
  8
H755
  6
Continuous
 62
     7
100
AcDbLine
 10
492.8198471005
 20
441.4993122088
 30
0.0
 11
483.2198471005
 21
428.6993122088
 31
0.0
  0
LINE
  5
D0
330
A7
100
AcDbEntity
  8
H755
  6
Continuous
 62
     7
100
AcDbLine
 10
483.2198471005
 20
376.6993122088
 30
0.0
 11
492.8198471005
 21
363.8993122088
 31
0.0
  0
LINE
  5
D1
330
A7
100
AcDbEntity
  8
H755
  6
Continuous
 62
     7
100
AcDbLine
 10
503.7198471005
 20
442.6993122088
 30
0.0
 11
495.2198471005
 21
442.6993122088
 31
0.0
  0
LINE
  5
D2
330
A7
100
AcDbEntity
  8
H755
  6
Continuous
 62
     7
100
AcDbLine
 10
495.2198471005
 20
362.6993122088
 30
0.0
 11
503.7198471005
 21
362.6993122088
 31
0.0
  0
ARC
  5
D3
330
A7
100
AcDbEntity
  8
H755
  6
Continuous
 62
     7
100
AcDbCircle
 10
435.7198471005
 20
419.6993122088
 30
0.0
 40
6.999999999999999
100
AcDbArc
 50
90.0
 51
180.0
  0
ARC
  5
D4
330
A7
100
AcDbEntity
  8
H755
  6
Continuous
 62
     7
100
AcDbCircle
 10
435.7198471005
 20
385.6993122088
 30
0.0
 40
7.000000000000006
100
AcDbArc
 50
180.0
 51
270.0
  0
ARC
  5
D5
330
A7
100
AcDbEntity
  8
H755
  6
Continuous
 62
     7
100
AcDbCircle
 10
435.7198471005
 20
299.6993122088
 30
0.0
 40
7.000000000000006
100
AcDbArc
 50
90.0
 51
180.0
  0
ARC
  5
D6
330
A7
100
AcDbEntity
  8
H755
  6
Continuous
 62
     7
100
AcDbCircle
 10
435.7198471005
 20
265.6993122088
 30
0.0
 40
7.000000000000006
100
AcDbArc
 50
180.0
 51
270.0
  0
ARC
  5
D7
330
A7
100
AcDbEntity
  8
H755
  6
Continuous
 62
     7
100
AcDbCircle
 10
495.2198471005
 20
365.6993122088
 30
0.0
 40
3.000000000000001
100
AcDbArc
 50
216.8698976458
 51
270.0
  0
ARC
  5
D8
330
A7
100
AcDbEntity
  8
H755
  6
Continuous
 62
     7
100
AcDbCircle
 10
495.2198471005
 20
439.6993122088
 30
0.0
 40
3.000000000000003
100
AcDbArc
 50
90.0
 51
143.1301023542
  0
ARC
  5
D9
330
A7
100
AcDbEntity
  8
H755
  6
Continuous
 62
     7
100
AcDbCircle
 10
479.2198471005
 20
311.6993122088
 30
0.0
 40
5.000000000000004
100
AcDbArc
 50
270.0
 51
323.1301023542
  0
ARC
  5
DA
330
A7
100
AcDbEntity
  8
H755
  6
Continuous
 62
     7
100
AcDbCircle
 10
479.2198471005
 20
253.6993122088
 30
0.0
 40
5.000000000000004
100
AcDbArc
 50
36.8698976458
 51
90.0
  0
ARC
  5
DB
330
A7
100
AcDbEntity
  8
H755
  6
Continuous
 62
     7
100
AcDbCircle
 10
479.2198471005
 20
431.6993122088
 30
0.0
 40
5.000000000000001
100
AcDbArc
 50
270.0
 51
323.1301023542
  0
ARC
  5
DC
330
A7
100
AcDbEntity
  8
H755
  6
Continuous
 62
     7
100
AcDbCircle
 10
479.2198471005
 20
373.6993122088
 30
0.0
 40
5.000000000000001
100
AcDbArc
 50
36.8698976458
 51
90.0
  0
ARC
  5
DD
330
A7
100
AcDbEntity
  8
H755
  6
Continuous
 62
     7
100
AcDbCircle
 10
495.2198471005
 20
245.6993122088
 30
0.0
 40
3.000000000000008
100
AcDbArc
 50
216.8698976458
 51
270.0
  0
ARC
  5
DE
330
A7
100
AcDbEntity
  8
H755
  6
Continuous
 62
     7
100
AcDbCircle
 10
495.2198471005
 20
319.6993122088
 30
0.0
 40
3.000000000000003
100
AcDbArc
 50
90.0
 51
143.1301023542
  0
ENDBLK
  5
E0
330
A7
100
AcDbEntity
  8
0
100
AcDbBlockEnd
  0
BLOCK
  5
138
330
E1
100
AcDbEntity
  8
0
100
AcDbBlockBegin
  2
SE2
 70
     0
 10
0.0
 20
0.0
 30
0.0
  3
SE2
  1

  0
ELLIPSE
  5
E3
330
E1
100
AcDbEntity
  8
H755
  6
Continuous
 62
     7
100
AcDbEllipse
 10
1292.0999590445
 20
-90.3191178637
 30
0.0
 11
-8.500000000000009
 21
-14.72243186433545
 31
0.0
210
0.0
220
0.0
230
1.0
 40
0.5773502692
 41
3.141701330438075
 42
6.283003348819937
  0
ELLIPSE
  5
E4
330
E1
100
AcDbEntity
  8
H755
  6
Continuous
 62
     7
100
AcDbEllipse
 10
1292.0999590445
 20
-188.298707575
 30
0.0
 11
8.500000000000009
 21
14.72243186433545
 31
0.0
210
0.0
220
0.0
230
1.0
 40
0.5773502692
 41
0.0001469211574223
 42
3.141407500400315
  0
ELLIPSE
  5
E5
330
E1
100
AcDbEntity
  8
H755
  6
Continuous
 62
     7
100
AcDbEllipse
 10
1149.971496026
 20
75.0214397742
 30
0.0
 11
-8.5
 21
-14.72243186433546
 31
0.0
210
0.0
220
0.0
230
1.0
 40
0.5773502692
 41
3.141656881566917
 42
5.855883860993184
  0
ELLIPSE
  5
E6
330
E1
100
AcDbEntity
  8
H755
  6
Continuous
 62
     7
100
AcDbEllipse
 10
1149.971496026
 20
50.5265423464
 30
0.0
 11
-8.49999999999998
 21
14.72243186433545
 31
0.0
210
0.0
220
0.0
230
1.0
 40
0.5773502692
 41
3.141592653589794
 42
6.283185307179586
  0
ELLIPSE
  5
E7
330
E1
100
AcDbEntity
  8
H755
  6
Continuous
 62
     7
100
AcDbEllipse
 10
975.316121073
 20
92.5761162641
 30
0.0
 11
-8.500000000000014
 21
-14.72243186433545
 31
0.0
210
0.0
220
0.0
230
1.0
 40
0.5773502692
 41
3.141592653589793
 42
6.283185307179577
  0
ELLIPSE
  5
E8
330
E1
100
AcDbEntity
  8
H755
  6
Continuous
 62
     7
100
AcDbEllipse
 10
922.283112484
 20
123.1947380489
 30
0.0
 11
-19.99999999999999
 21
-34.64101615137753
 31
0.0
210
0.0
220
0.0
230
1.0
 40
0.5773502692
 41
3.141592653589793
 42
6.283185307179581
  0
ELLIPSE
  5
E9
330
E1
100
AcDbEntity
  8
H755
  6
Continuous
 62
     7
100
AcDbEllipse
 10
975.316121073
 20
-5.4034734472
 30
0.0
 11
-8.5
 21
-14.72243186433547
 31
0.0
210
0.0
220
0.0
230
1.0
 40
0.5773502692
 41
3.141592653589793
 42
6.283185307179586
  0
ELLIPSE
  5
EA
330
E1
100
AcDbEntity
  8
H755
  6
Continuous
 62
     7
100
AcDbEllipse
 10
922.283112484
 20
25.2151483376
 30
0.0
 11
-19.99999999999998
 21
-34.64101615137753
 31
0.0
210
0.0
220
0.0
230
1.0
 40
0.5773502692
 41
3.141592653589793
 42
6.283185307179581
  0
ELLIPSE
  5
EB
330
E1
100
AcDbEntity
  8
H755
  6
Continuous
 62
     7
100
AcDbEllipse
 10
1047.441012754
 20
134.2174418914
 30
0.0
 11
-8.500000000000007
 21
-14.72243186433547
 31
0.0
210
0.0
220
0.0
230
1.0
 40
0.5773502692
 41
3.141592653589794
 42
6.283185307179586
  0
ELLIPSE
  5
EC
330
E1
100
AcDbEntity
  8
H755
  6
Continuous
 62
     7
100
AcDbEllipse
 10
994.408004165
 20
164.8360636762
 30
0.0
 11
-19.99999999999998
 21
-34.64101615137755
 31
0.0
210
0.0
220
0.0
230
1.0
 40
0.5773502692
 41
3.141592653589793
 42
6.283185307179581
  0
ELLIPSE
  5
ED
330
E1
100
AcDbEntity
  8
H755
  6
Continuous
 62
     7
100
AcDbEllipse
 10
1042.4912652857
 20
137.0751799247
 30
0.0
 11
-12.00000000000001
 21
-20.78460969082654
 31
0.0
210
0.0
220
0.0
230
1.0
 40
0.5773502692
 41
3.142874223051505
 42
6.283185307179586
  0
ELLIPSE
  5
EE
330
E1
100
AcDbEntity
  8
H755
  6
Continuous
 62
     7
100
AcDbEllipse
 10
1042.4912652857
 20
137.0751799247
 30
0.0
 11
-12.00000000000001
 21
-20.78460969082654
 31
0.0
210
0.0
220
0.0
230
1.0
 40
0.5773502692
 41
0.0000000000000012
 42
0.0012660182994976
  0
ELLIPSE
  5
EF
330
E1
100
AcDbEntity
  8
H755
  6
Continuous
 62
     7
100
AcDbEllipse
 10
970.3663736047
 20
95.4338542974
 30
0.0
 11
-12.0
 21
-20.78460969082654
 31
0.0
210
0.0
220
0.0
230
1.0
 40
0.5773502692
 41
3.142874223054537
 42
6.283185307179578
  0
ELLIPSE
  5
F0
330
E1
100
AcDbEntity
  8
H755
  6
Continuous
 62
     7
100
AcDbEllipse
 10
970.3663736047
 20
95.4338542974
 30
0.0
 11
-12.0
 21
-20.78460969082654
 31
0.0
210
0.0
220
0.0
230
1.0
 40
0.5773502692
 41
0.0
 42
0.0012660183035316
  0
ELLIPSE
  5
F1
330
E1
100
AcDbEntity
  8
H755
  6
Continuous
 62
     7
100
AcDbEllipse
 10
970.3663736047
 20
-2.5457354139
 30
0.0
 11
-12.00000000000002
 21
-20.78460969082655
 31
0.0
210
0.0
220
0.0
230
1.0
 40
0.5773502692
 41
3.142874223059042
 42
6.28318530717958
  0
ELLIPSE
  5
F2
330
E1
100
AcDbEntity
  8
H755
  6
Continuous
 62
     7
100
AcDbEllipse
 10
970.3663736047
 20
-2.5457354139
 30
0.0
 11
-12.00000000000002
 21
-20.78460969082655
 31
0.0
210
0.0
220
0.0
230
1.0
 40
0.5773502692
 41
0.0
 42
0.0012660183010761
  0
ELLIPSE
  5
F3
330
E1
100
AcDbEntity
  8
H755
  6
Continuous
 62
     7
100
AcDbEllipse
 10
1000.4184118051
 20
161.3659532073
 30
0.0
 11
-19.99999999999998
 21
-34.64101615137756
 31
0.0
210
0.0
220
0.0
230
1.0
 40
0.5773502692
 41
3.14676934839923
 42
6.283185307179581
  0
ELLIPSE
  5
F4
330
E1
100
AcDbEntity
  8
H755
  6
Continuous
 62
     7
100
AcDbEllipse
 10
1000.4184118051
 20
161.3659532073
 30
0.0
 11
-19.99999999999998
 21
-34.64101615137756
 31
0.0
210
0.0
220
0.0
230
1.0
 40
0.5773502692
 41
3.141592653589793
 42
3.14676934839923
  0
ELLIPSE
  5
F5
330
E1
100
AcDbEntity
  8
H755
  6
Continuous
 62
     7
100
AcDbEllipse
 10
1000.4184118051
 20
161.3659532073
 30
0.0
 11
-19.99999999999998
 21
-34.64101615137756
 31
0.0
210
0.0
220
0.0
230
1.0
 40
0.5773502692
 41
0.0
 42
0.0009638058649271
  0
ELLIPSE
  5
F6
330
E1
100
AcDbEntity
  8
H755
  6
Continuous
 62
     7
100
AcDbEllipse
 10
1002.1154680799
 20
160.3861573102
 30
0.0
 11
19.39999999999998
 21
33.6017856668362
 31
0.0
210
0.0
220
0.0
230
1.0
 40
0.5773502692
 41
0.0
 42
4.045484473683937
  0
ELLIPSE
  5
F7
330
E1
100
AcDbEntity
  8
H755
  6
Continuous
 62
     7
100
AcDbEllipse
 10
1002.1154680799
 20
160.3861573102
 30
0.0
 11
19.39999999999998
 21
33.6017856668362
 31
0.0
210
0.0
220
0.0
230
1.0
 40
0.5773502692
 41
5.379701690692722
 42
6.283185307179582
  0
ELLIPSE
  5
F8
330
E1
100
AcDbEntity
  8
H755
  6
Continuous
 62
     7
100
AcDbEllipse
 10
936.7788014983
 20
114.8256480944
 30
0.0
 11
-13.00000000000002
 21
-22.51666049839543
 31
0.0
210
0.0
220
0.0
230
1.0
 40
0.5773502692
 41
2.746801533890025
 42
6.283185307179586
  0
ELLIPSE
  5
F9
330
E1
100
AcDbEntity
  8
H755
  6
Continuous
 62
     7
100
AcDbEllipse
 10
936.7788014983
 20
114.8256480944
 30
0.0
 11
-13.00000000000002
 21
-22.51666049839543
 31
0.0
210
0.0
220
0.0
230
1.0
 40
0.5773502692
 41
0.0
 42
0.3947911196997628
  0
ELLIPSE
  5
FA
330
E1
100
AcDbEntity
  8
H755
  6
Continuous
 62
     7
100
AcDbEllipse
 10
939.607228623
 20
113.1926549326
 30
0.0
 11
12.0
 21
20.78460969082653
 31
0.0
210
0.0
220
0.0
230
1.0
 40
0.5773502692
 41
0.0
 42
3.141592653589793
  0
ELLIPSE
  5
FB
330
E1
100
AcDbEntity
  8
H755
  6
Continuous
 62
     7
100
AcDbEllipse
 10
936.7788014983
 20
16.8460583831
 30
0.0
 11
-12.99999999999999
 21
-22.51666049839541
 31
0.0
210
0.0
220
0.0
230
1.0
 40
0.5773502692
 41
2.746801533890032
 42
6.283185307179586
  0
ELLIPSE
  5
FC
330
E1
100
AcDbEntity
  8
H755
  6
Continuous
 62
     7
100
AcDbEllipse
 10
936.7788014983
 20
16.8460583831
 30
0.0
 11
-12.99999999999999
 21
-22.51666049839541
 31
0.0
210
0.0
220
0.0
230
1.0
 40
0.5773502692
 41
0.0
 42
0.3947911196997623
  0
ELLIPSE
  5
FD
330
E1
100
AcDbEntity
  8
H755
  6
Continuous
 62
     7
100
AcDbEllipse
 10
939.607228623
 20
15.2130652212
 30
0.0
 11
12.00000000000001
 21
20.78460969082654
 31
0.0
210
0.0
220
0.0
230
1.0
 40
0.5773502692
 41
0.0
 42
3.141592653589793
  0
ELLIPSE
  5
FE
330
E1
100
AcDbEntity
  8
H755
  6
Continuous
 62
     7
100
AcDbEllipse
 10
1008.9036931793
 20
156.4669737217
 30
0.0
 11
-13.0
 21
-22.5166604983954
 31
0.0
210
0.0
220
0.0
230
1.0
 40
0.5773502692
 41
2.746801533890025
 42
6.283185307179586
  0
ELLIPSE
  5
FF
330
E1
100
AcDbEntity
  8
H755
  6
Continuous
 62
     7
100
AcDbEllipse
 10
1008.9036931793
 20
156.4669737217
 30
0.0
 11
-13.0
 21
-22.5166604983954
 31
0.0
210
0.0
220
0.0
230
1.0
 40
0.5773502692
 41
0.0
 42
0.394791119699753
  0
ELLIPSE
  5
100
330
E1
100
AcDbEntity
  8
H755
  6
Continuous
 62
     7
100
AcDbEllipse
 10
1011.7321203041
 20
154.8339805599
 30
0.0
 11
12.00000000000002
 21
20.78460969082655
 31
0.0
210
0.0
220
0.0
230
1.0
 40
0.5773502692
 41
0.0
 42
3.141592653589793
  0
ELLIPSE
  5
101
330
E1
100
AcDbEntity
  8
H755
  6
Continuous
 62
     7
100
AcDbEllipse
 10
928.2935201241
 20
119.72462758
 30
0.0
 11
-19.99999999999999
 21
-34.64101615137753
 31
0.0
210
0.0
220
0.0
230
1.0
 40
0.5773502692
 41
3.146769348398694
 42
6.283185307179582
  0
ELLIPSE
  5
102
330
E1
100
AcDbEntity
  8
H755
  6
Continuous
 62
     7
100
AcDbEllipse
 10
928.2935201241
 20
119.72462758
 30
0.0
 11
-19.99999999999999
 21
-34.64101615137753
 31
0.0
210
0.0
220
0.0
230
1.0
 40
0.5773502692
 41
3.141592653589793
 42
3.146769348398694
  0
ELLIPSE
  5
103
330
E1
100
AcDbEntity
  8
H755
  6
Continuous
 62
     7
100
AcDbEllipse
 10
928.2935201241
 20
119.72462758
 30
0.0
 11
-19.99999999999999
 21
-34.64101615137753
 31
0.0
210
0.0
220
0.0
230
1.0
 40
0.5773502692
 41
0.0
 42
0.0009638058638904
  0
ELLIPSE
  5
104
330
E1
100
AcDbEntity
  8
H755
  6
Continuous
 62
     7
100
AcDbEllipse
 10
929.9905763989
 20
118.7448316829
 30
0.0
 11
19.39999999999997
 21
33.60178566683622
 31
0.0
210
0.0
220
0.0
230
1.0
 40
0.5773502692
 41
0.0
 42
4.04548447368394
  0
ELLIPSE
  5
105
330
E1
100
AcDbEntity
  8
H755
  6
Continuous
 62
     7
100
AcDbEllipse
 10
929.9905763989
 20
118.7448316829
 30
0.0
 11
19.39999999999997
 21
33.60178566683622
 31
0.0
210
0.0
220
0.0
230
1.0
 40
0.5773502692
 41
5.379701690692721
 42
6.283185307179586
  0
ELLIPSE
  5
106
330
E1
100
AcDbEntity
  8
H755
  6
Continuous
 62
     7
100
AcDbEllipse
 10
928.2935201241
 20
21.7450378687
 30
0.0
 11
-20.0
 21
-34.64101615137753
 31
0.0
210
0.0
220
0.0
230
1.0
 40
0.5773502692
 41
3.14676934839953
 42
6.283185307179582
  0
ELLIPSE
  5
107
330
E1
100
AcDbEntity
  8
H755
  6
Continuous
 62
     7
100
AcDbEllipse
 10
928.2935201241
 20
21.7450378687
 30
0.0
 11
-20.0
 21
-34.64101615137753
 31
0.0
210
0.0
220
0.0
230
1.0
 40
0.5773502692
 41
3.141592653589793
 42
3.14676934839953
  0
ELLIPSE
  5
108
330
E1
100
AcDbEntity
  8
H755
  6
Continuous
 62
     7
100
AcDbEllipse
 10
928.2935201241
 20
21.7450378687
 30
0.0
 11
-20.0
 21
-34.64101615137753
 31
0.0
210
0.0
220
0.0
230
1.0
 40
0.5773502692
 41
0.0
 42
0.0009638058633144
  0
ELLIPSE
  5
109
330
E1
100
AcDbEntity
  8
H755
  6
Continuous
 62
     7
100
AcDbEllipse
 10
929.9905763989
 20
20.7652419715
 30
0.0
 11
19.40000000000001
 21
33.60178566683619
 31
0.0
210
0.0
220
0.0
230
1.0
 40
0.5773502692
 41
0.0
 42
4.04548447368394
  0
ELLIPSE
  5
10A
330
E1
100
AcDbEntity
  8
H755
  6
Continuous
 62
     7
100
AcDbEllipse
 10
929.9905763989
 20
20.7652419715
 30
0.0
 11
19.40000000000001
 21
33.60178566683619
 31
0.0
210
0.0
220
0.0
230
1.0
 40
0.5773502692
 41
5.379701690692718
 42
6.283185307179586
  0
ELLIPSE
  5
10B
330
E1
100
AcDbEntity
  8
H755
  6
Continuous
 62
     7
100
AcDbEllipse
 10
1099.0598077806
 20
21.132665433
 30
0.0
 11
-27.54355937107067
 21
-2.723790514633156
 31
0.0
210
0.0
220
0.0
230
1.0
 40
0.4996735006
 41
3.223899571311073
 42
4.663016281243953
  0
ELLIPSE
  5
10C
330
E1
100
AcDbEntity
  8
H755
  6
Continuous
 62
     7
100
AcDbEllipse
 10
1099.0598077806
 20
21.132665433
 30
0.0
 11
-2.696844305081353
 21
-21.12064024798412
 31
0.0
210
0.0
220
0.0
230
1.0
 40
0.1082481418
 41
3.223800064770032
 42
4.009198228167461
  0
ELLIPSE
  5
10D
330
E1
100
AcDbEntity
  8
H755
  6
Continuous
 62
     7
100
AcDbEllipse
 10
1099.0598077806
 20
21.132665433
 30
0.0
 11
-27.54355937107063
 21
2.723790514633214
 31
0.0
210
0.0
220
0.0
230
1.0
 40
0.4996735006
 41
3.97636351612798
 42
4.761761679525427
  0
ELLIPSE
  5
10E
330
E1
100
AcDbEntity
  8
H755
  6
Continuous
 62
     7
100
AcDbEllipse
 10
1099.0598077806
 20
21.132665433
 30
0.0
 11
2.696844305081318
 21
-21.12064024798412
 31
0.0
210
0.0
220
0.0
230
1.0
 40
0.1082481418
 41
2.273987079012129
 42
3.059385242409569
  0
SPLINE
  5
10F
330
E1
100
AcDbEntity
  8
H755
  6
Continuous
 62
     7
100
AcDbSpline
210
0.0
220
0.0
230
1.0
 70
     8
 71
     3
 72
    48
 73
    44
 74
     0
 42
0.000000001
 43
0.0000000001
 40
0.0
 40
0.0
 40
0.0
 40
0.0
 40
0.0125770588597761
 40
0.0365620193392168
 40
0.060716837698072
 40
0.0850764071712935
 40
0.1096338651356934
 40
0.1343722666614122
 40
0.1592684221465101
 40
0.1842954648523044
 40
0.2094244950284981
 40
0.2346255862502466
 40
0.2598683599850212
 40
0.285122282910953
 40
0.3103488893872982
 40
0.3355154872438346
 40
0.3605919322386858
 40
0.3855487085214543
 40
0.4103575677286632
 40
0.4349926354504032
 40
0.4594321913730421
 40
0.4836613950624828
 40
0.5076763142621646
 40
0.5314897326976213
 40
0.5551394096230199
 40
0.5786998418556486
 40
0.6022804555613619
 40
0.6260321456927359
 40
0.6502380276232829
 40
0.6753521965145618
 40
0.7021454717182845
 40
0.7321057581553424
 40
0.768945435324694
 40
0.8001117785908257
 40
0.8277931250394809
 40
0.8529837475941086
 40
0.8767146962636516
 40
0.9017859579601134
 40
0.9259834276491454
 40
0.9497875490663885
 40
0.9734866502097267
 40
0.99597957697004
 40
1.0
 40
1.0
 40
1.0
 40
1.0
 10
1283.599959044543
 20
-105.0415497280109
 30
0.0
 10
1284.035774612753
 20
-105.2980378567095
 30
0.0
 10
1285.113973457925
 20
-105.9375647612895
 30
0.0
 10
1287.141465534449
 20
-107.2901443863982
 30
0.0
 10
1289.533877959548
 20
-109.0979949462038
 30
0.0
 10
1291.985332791152
 20
-111.1721168328029
 30
0.0
 10
1294.441868565161
 20
-113.4843761271739
 30
0.0
 10
1296.882913516638
 20
-116.0253941350938
 30
0.0
 10
1299.279660985322
 20
-118.7759281411941
 30
0.0
 10
1301.607036403087
 20
-121.7153574801105
 30
0.0
 10
1303.840816532643
 20
-124.8199073950085
 30
0.0
 10
1305.958705841665
 20
-128.0636114982692
 30
0.0
 10
1307.940299626968
 20
-131.4184882695186
 30
0.0
 10
1309.767134754899
 20
-134.8545296098113
 30
0.0
 10
1311.423073360316
 20
-138.340199490022
 30
0.0
 10
1312.894591208695
 20
-141.8428498972938
 30
0.0
 10
1314.171105147944
 20
-145.3294026373715
 30
0.0
 10
1315.245042505357
 20
-148.7663937254295
 30
0.0
 10
1316.112056907586
 20
-152.1201979725346
 30
0.0
 10
1316.771325282907
 20
-155.3574166602614
 30
0.0
 10
1317.225869466767
 20
-158.4453491007883
 30
0.0
 10
1317.482886122686
 20
-161.3525746602447
 30
0.0
 10
1317.554055786932
 20
-164.0496717590693
 30
0.0
 10
1317.455784702283
 20
-166.5100968186603
 30
0.0
 10
1317.209311667534
 20
-168.7112379046112
 30
0.0
 10
1316.840684025638
 20
-170.6351303635884
 30
0.0
 10
1316.380663783141
 20
-172.2693884619988
 30
0.0
 10
1315.86374510536
 20
-173.6103147049904
 30
0.0
 10
1315.325831604693
 20
-174.6653689408014
 30
0.0
 10
1314.800082982601
 20
-175.4554153115879
 30
0.0
 10
1314.309621614301
 20
-176.0171100249948
 30
0.0
 10
1313.848046971195
 20
-176.4083042487368
 30
0.0
 10
1313.416267150772
 20
-176.6638892711838
 30
0.0
 10
1312.863279763804
 20
-176.8756447867084
 30
0.0
 10
1312.14239092678
 20
-177.0294413976125
 30
0.0
 10
1311.216829698318
 20
-177.0996011080467
 30
0.0
 10
1310.050069497669
 20
-177.0527247375879
 30
0.0
 10
1308.625299689005
 20
-176.8432774666214
 30
0.0
 10
1306.943255906007
 20
-176.4245775919061
 30
0.0
 10
1305.070820219084
 20
-175.7795584446213
 30
0.0
 10
1303.094069672192
 20
-174.9226884090599
 30
0.0
 10
1301.519167015614
 20
-174.10232341662
 30
0.0
 10
1300.738196371502
 20
-173.6555631760138
 30
0.0
 10
1300.599959044543
 20
-173.5762757106671
 30
0.0
  0
SPLINE
  5
110
330
E1
100
AcDbEntity
  8
H755
  6
Continuous
 62
     7
100
AcDbSpline
210
0.0
220
0.0
230
1.0
 70
     8
 71
     3
 72
    54
 73
    50
 74
     0
 42
0.000000001
 43
0.0000000001
 40
0.0
 40
0.0
 40
0.0
 40
0.0
 40
0.0124743212699887
 40
0.0352800348669074
 40
0.0580762623100495
 40
0.0807186547471374
 40
0.1031018413848162
 40
0.125127142065173
 40
0.1467214166069172
 40
0.1678499013034525
 40
0.1885185522847882
 40
0.2087677533372919
 40
0.2286623982720229
 40
0.2482825752461989
 40
0.267716723897527
 40
0.2870572817972982
 40
0.3063717854653484
 40
0.3257505381655817
 40
0.3452850069350066
 40
0.3650607437984298
 40
0.38515300682568
 40
0.4056207341011944
 40
0.4264993820934895
 40
0.4477942620629393
 40
0.4694771456945188
 40
0.4914890195187902
 40
0.5137499144787651
 40
0.5361732511171792
 40
0.5586796834829962
 40
0.5811954731239403
 40
0.603677548173602
 40
0.6261052604367707
 40
0.6484707385237072
 40
0.6707750833813644
 40
0.6930253136451983
 40
0.7152321768923131
 40
0.7374086925758268
 40
0.759569233319612
 40
0.7817289660763093
 40
0.8039011220490802
 40
0.8260987128909638
 40
0.8483376115979682
 40
0.8706334032087657
 40
0.893000866516717
 40
0.9154531049530006
 40
0.938000125802636
 40
0.960646623561099
 40
0.983388725396031
 40
1.0
 40
1.0
 40
1.0
 40
1.0
 10
1283.599959044543
 20
-203.0211394393381
 30
0.0
 10
1284.408065881977
 20
-203.4785212826425
 30
0.0
 10
1286.350760651839
 20
-204.5695886978091
 30
0.0
 10
1289.909527548636
 20
-206.309652051099
 30
0.0
 10
1294.017402316137
 20
-207.9751375712018
 30
0.0
 10
1298.180565443009
 20
-209.3128751801176
 30
0.0
 10
1302.322235674627
 20
-210.2876416708593
 30
0.0
 10
1306.422575153559
 20
-210.8966175372193
 30
0.0
 10
1310.447967633806
 20
-211.1370034410842
 30
0.0
 10
1314.371638547284
 20
-211.0139758578652
 30
0.0
 10
1318.169836719468
 20
-210.5370409592613
 30
0.0
 10
1321.823033134632
 20
-209.7188859456287
 30
0.0
 10
1325.314894629973
 20
-208.5737558534655
 30
0.0
 10
1328.631585255653
 20
-207.1164460184654
 30
0.0
 10
1331.761168369701
 20
-205.3615740809653
 30
0.0
 10
1334.691945310994
 20
-203.3239447917298
 30
0.0
 10
1337.413823304171
 20
-201.0178037963141
 30
0.0
 10
1339.918403512794
 20
-198.456159027344
 30
0.0
 10
1342.199460461154
 20
-195.6489597765001
 30
0.0
 10
1344.251102116573
 20
-192.6038871732786
 30
0.0
 10
1346.066970660022
 20
-189.3270513827627
 30
0.0
 10
1347.639755338273
 20
-185.824088933659
 30
0.0
 10
1348.961034242694
 20
-182.1017848989573
 30
0.0
 10
1350.021640754531
 20
-178.1699467136502
 30
0.0
 10
1350.812613514096
 20
-174.0430029510445
 30
0.0
 10
1351.326537212531
 20
-169.7407055924812
 30
0.0
 10
1351.558839281287
 20
-165.2875542931501
 30
0.0
 10
1351.508566125442
 20
-160.7110968675304
 30
0.0
 10
1351.178450372711
 20
-156.0405045457547
 30
0.0
 10
1350.574420514387
 20
-151.30398459487
 30
0.0
 10
1349.704594009362
 20
-146.527352575454
 30
0.0
 10
1348.578070302221
 20
-141.7330636699805
 30
0.0
 10
1347.204323406439
 20
-136.9413698097818
 30
0.0
 10
1345.592963514472
 20
-132.1712233539104
 30
0.0
 10
1343.753618568156
 20
-127.4407216456405
 30
0.0
 10
1341.695910294316
 20
-122.7674330934408
 30
0.0
 10
1339.429468510308
 20
-118.168604413389
 30
0.0
 10
1336.96394932832
 20
-113.6612742924435
 30
0.0
 10
1334.309138136128
 20
-109.2624841897424
 30
0.0
 10
1331.474985581658
 20
-104.9892946715456
 30
0.0
 10
1328.4715028796
 20
-100.8585863258297
 30
0.0
 10
1325.308505807979
 20
-96.88686268235868
 30
0.0
 10
1321.995814723857
 20
-93.09052048007244
 30
0.0
 10
1318.542236108896
 20
-89.48527364324579
 30
0.0
 10
1314.959810610203
 20
-86.08946913284221
 30
0.0
 10
1311.248144314778
 20
-82.91238367037978
 30
0.0
 10
1307.4540603852
 20
-79.999201485073
 30
0.0
 10
1303.813802722943
 20
-77.51239559445052
 30
0.0
 10
1301.670116069001
 20
-76.23110581588455
 30
0.0
 10
1300.599959044543
 20
-75.59668599934002
 30
0.0
  0
SPLINE
  5
111
330
E1
100
AcDbEntity
  8
H755
  6
Continuous
 62
     7
100
AcDbSpline
210
0.0
220
0.0
230
1.0
 70
     8
 71
     3
 72
    11
 73
     7
 74
     0
 42
0.000000001
 43
0.0000000001
 40
0.8270231021452108
 40
0.8270231021452108
 40
0.8270231021452108
 40
0.8270231021452108
 40
0.842821306461224
 40
0.8989593448668179
 40
0.9533448377188458
 40
1.0
 40
1.0
 40
1.0
 40
1.0
 10
1142.742897801428
 20
66.15995174579142
 30
0.0
 10
1142.743034493335
 20
66.1601282289051
 30
0.0
 10
1142.731003584673
 20
66.1469157793812
 30
0.0
 10
1142.59744220417
 20
66.01371715508215
 30
0.0
 10
1142.158914669993
 20
65.66768708121299
 30
0.0
 10
1141.717371412512
 20
65.39891654281165
 30
0.0
 10
1141.471496026047
 20
65.2489742106926
 30
0.0
  0
SPLINE
  5
112
330
E1
100
AcDbEntity
  8
H755
  6
Continuous
 62
     7
100
AcDbSpline
210
0.0
220
0.0
230
1.0
 70
     8
 71
     3
 72
    28
 73
    24
 74
     0
 42
0.000000001
 43
0.0000000001
 40
0.0
 40
0.0
 40
0.0
 40
0.0
 40
0.0320788650897788
 40
0.0874733294070633
 40
0.1425935896241227
 40
0.1908640942085915
 40
0.2378717416608014
 40
0.2837257634111373
 40
0.333494773671402
 40
0.3819917608274853
 40
0.4293151401034656
 40
0.475715618869459
 40
0.5214525070793072
 40
0.5667865726551146
 40
0.6119052102322995
 40
0.6570793046659434
 40
0.7025873764999571
 40
0.7487107817883347
 40
0.7957237076620862
 40
0.843870676767498
 40
0.8933283361920028
 40
0.9441551473447563
 40
1.0
 40
1.0
 40
1.0
 40
1.0
 10
1158.471496026047
 20
35.80411048202168
 30
0.0
 10
1159.16913051917
 20
36.21816593515297
 30
0.0
 10
1160.778082257449
 20
37.18356182493021
 30
0.0
 10
1163.481828361375
 20
39.11020460439842
 30
0.0
 10
1166.163489669053
 20
41.43368407756552
 30
0.0
 10
1168.485090211579
 20
43.87143287872051
 30
0.0
 10
1170.425915005597
 20
46.34278256158879
 30
0.0
 10
1172.132925228347
 20
49.01855413661836
 30
0.0
 10
1173.56260233366
 20
51.89189660869734
 30
0.0
 10
1174.668653360276
 20
54.94413573854821
 30
0.0
 10
1175.400952380788
 20
58.03446348918112
 30
0.0
 10
1175.767132828699
 20
61.13036723502275
 30
0.0
 10
1175.777916712731
 20
64.20444284711874
 30
0.0
 10
1175.445463050307
 20
67.2304661186632
 30
0.0
 10
1174.783111481821
 20
70.18564309474401
 30
0.0
 10
1173.804180171961
 20
73.05118360474803
 30
0.0
 10
1172.519915129744
 20
75.8135701165039
 30
0.0
 10
1170.938242624943
 20
78.46265539860293
 30
0.0
 10
1169.06542484051
 20
80.98851431276383
 30
0.0
 10
1166.898851334598
 20
83.38717408154493
 30
0.0
 10
1164.459268089562
 20
85.62991699586809
 30
0.0
 10
1161.608818910661
 20
87.82593490303442
 30
0.0
 10
1159.677478987661
 20
89.01343583546343
 30
0.0
 10
1158.471496026047
 20
89.74387163852433
 30
0.0
  0
LINE
  5
113
330
E1
100
AcDbEntity
  8
H755
  6
Continuous
 62
     7
100
AcDbLine
 10
1133.0598077806
 20
21.132665433
 30
0.0
 11
1158.471496026
 21
35.804110482
 31
0.0
  0
LINE
  5
114
330
E1
100
AcDbEntity
  8
H755
  6
Continuous
 62
     7
100
AcDbLine
 10
1141.471496026
 20
65.2489742107
 30
0.0
 11
1101.5598077806
 21
42.2059502584
 31
0.0
  0
LINE
  5
115
330
E1
100
AcDbEntity
  8
H755
  6
Continuous
 62
     7
100
AcDbLine
 10
1096.5598077806
 20
42.2059502584
 30
0.0
 11
983.816121073
 21
107.2985481285
 31
0.0
  0
LINE
  5
116
330
E1
100
AcDbEntity
  8
H755
  6
Continuous
 62
     7
100
AcDbLine
 10
1300.5999590445
 20
-75.5966859993
 30
0.0
 11
1118.5598077806
 21
29.5042443362
 31
0.0
  0
LINE
  5
117
330
E1
100
AcDbEntity
  8
H755
  6
Continuous
 62
     7
100
AcDbLine
 10
966.816121073
 20
77.8536843998
 30
0.0
 11
1283.5999590445
 21
-105.041549728
 31
0.0
  0
LINE
  5
118
330
E1
100
AcDbEntity
  8
H755
  6
Continuous
 62
     7
100
AcDbLine
 10
927.607228623
 20
92.4080452417
 30
0.0
 11
958.3663736047
 21
74.6492446066
 31
0.0
  0
LINE
  5
119
330
E1
100
AcDbEntity
  8
H755
  6
Continuous
 62
     7
100
AcDbLine
 10
982.3663736047
 20
116.2184639882
 30
0.0
 11
951.607228623
 21
133.9772646234
 31
0.0
  0
LINE
  5
11A
330
E1
100
AcDbEntity
  8
H755
  6
Continuous
 62
     7
100
AcDbLine
 10
902.283112484
 20
88.5537218975
 30
0.0
 11
908.2935201241
 21
85.0836114286
 31
0.0
  0
LINE
  5
11B
330
E1
100
AcDbEntity
  8
H755
  6
Continuous
 62
     7
100
AcDbLine
 10
948.2935201241
 20
154.3656437314
 30
0.0
 11
942.283112484
 21
157.8357542003
 31
0.0
  0
LINE
  5
11C
330
E1
100
AcDbEntity
  8
H755
  6
Continuous
 62
     7
100
AcDbLine
 10
966.816121073
 20
-20.1259053115
 30
0.0
 11
1283.5999590445
 21
-203.0211394393
 31
0.0
  0
LINE
  5
11D
330
E1
100
AcDbEntity
  8
H755
  6
Continuous
 62
     7
100
AcDbLine
 10
1300.5999590445
 20
-173.5762757107
 30
0.0
 11
983.816121073
 21
9.3189584171
 31
0.0
  0
LINE
  5
11E
330
E1
100
AcDbEntity
  8
H755
  6
Continuous
 62
     7
100
AcDbLine
 10
927.607228623
 20
-5.5715444696
 30
0.0
 11
958.3663736047
 21
-23.3303451048
 31
0.0
  0
LINE
  5
11F
330
E1
100
AcDbEntity
  8
H755
  6
Continuous
 62
     7
100
AcDbLine
 10
982.3663736047
 20
18.2388742769
 30
0.0
 11
951.607228623
 21
35.9976749121
 31
0.0
  0
LINE
  5
120
330
E1
100
AcDbEntity
  8
H755
  6
Continuous
 62
     7
100
AcDbLine
 10
902.283112484
 20
-9.4258678138
 30
0.0
 11
908.2935201241
 21
-12.8959782827
 31
0.0
  0
LINE
  5
121
330
E1
100
AcDbEntity
  8
H755
  6
Continuous
 62
     7
100
AcDbLine
 10
948.2935201241
 20
56.38605402
 30
0.0
 11
942.283112484
 21
59.856164489
 31
0.0
  0
LINE
  5
122
330
E1
100
AcDbEntity
  8
H755
  6
Continuous
 62
     7
100
AcDbLine
 10
1158.471496026
 20
89.7438716385
 30
0.0
 11
1055.941012754
 21
148.9398737558
 31
0.0
  0
LINE
  5
123
330
E1
100
AcDbEntity
  8
H755
  6
Continuous
 62
     7
100
AcDbLine
 10
1038.941012754
 20
119.4950100271
 30
0.0
 11
1137.1846994616
 21
62.7739910603
 31
0.0
  0
LINE
  5
124
330
E1
100
AcDbEntity
  8
H755
  6
Continuous
 62
     7
100
AcDbLine
 10
999.7321203041
 20
134.049370869
 30
0.0
 11
1030.4912652857
 21
116.2905702339
 31
0.0
  0
LINE
  5
125
330
E1
100
AcDbEntity
  8
H755
  6
Continuous
 62
     7
100
AcDbLine
 10
1054.4912652857
 20
157.8597896155
 30
0.0
 11
1023.7321203041
 21
175.6185902507
 31
0.0
  0
LINE
  5
126
330
E1
100
AcDbEntity
  8
H755
  6
Continuous
 62
     7
100
AcDbLine
 10
974.408004165
 20
130.1950475249
 30
0.0
 11
980.4184118051
 21
126.7249370559
 31
0.0
  0
LINE
  5
127
330
E1
100
AcDbEntity
  8
H755
  6
Continuous
 62
     7
100
AcDbLine
 10
1020.4184118051
 20
196.0069693587
 30
0.0
 11
1014.408004165
 21
199.4770798276
 31
0.0
  0
SPLINE
  5
128
330
E1
100
AcDbEntity
  8
H755
  6
Continuous
 62
     7
100
AcDbSpline
210
0.0
220
0.0
230
1.0
 70
     8
 71
     3
 72
    14
 73
    10
 74
     0
 42
0.000000001
 43
0.0000000001
 40
0.0
 40
0.0
 40
0.0
 40
0.0
 40
0.0291958047297044
 40
0.0633559043582499
 40
0.0975157495985572
 40
0.1321752011187505
 40
0.1677867411445091
 40
0.2046881264687987
 40
0.2371604174915445
 40
0.2371604174915445
 40
0.2371604174915445
 40
0.2371604174915445
 10
1030.526903532175
 20
116.296212761588
 30
0.0
 10
1031.095356380366
 20
115.9843410306411
 30
0.0
 10
1032.144323188888
 20
115.4221930573131
 30
0.0
 10
1034.077027092696
 20
114.8381767163894
 30
0.0
 10
1036.124579123491
 20
114.5384699416816
 30
0.0
 10
1038.242223145521
 20
114.549243364894
 30
0.0
 10
1040.398012863922
 20
114.8670585211608
 30
0.0
 10
1042.473349186418
 20
115.4619010093685
 30
0.0
 10
1043.811257970946
 20
116.017910631399
 30
0.0
 10
1044.429074195094
 20
116.3112160163349
 30
0.0
  0
SPLINE
  5
129
330
E1
100
AcDbEntity
  8
H755
  6
Continuous
 62
     7
100
AcDbSpline
210
0.0
220
0.0
230
1.0
 70
     8
 71
     3
 72
    15
 73
    11
 74
     0
 42
0.000000001
 43
0.0000000001
 40
0.7619875838420798
 40
0.7619875838420798
 40
0.7619875838420798
 40
0.7619875838420798
 40
0.7697742228394525
 40
0.8117215588601272
 40
0.8481715073018246
 40
0.8833069220000627
 40
0.9173181026916637
 40
0.9541479051600107
 40
0.9897309919602492
 40
1.0
 40
1.0
 40
1.0
 40
1.0
 10
1061.44177707681
 20
145.7853450286293
 30
0.0
 10
1061.428557228412
 20
145.9488116275289
 30
0.0
 10
1061.332052943811
 20
146.9895097066048
 30
0.0
 10
1061.029751780116
 20
148.7535179787056
 30
0.0
 10
1060.33145505897
 20
150.9672602804428
 30
0.0
 10
1059.413992676358
 20
152.9006931599515
 30
0.0
 10
1058.225166003582
 20
154.6915787909011
 30
0.0
 10
1056.769055583748
 20
156.2483503172216
 30
0.0
 10
1055.426578987736
 20
157.3435283452877
 30
0.0
 10
1054.651715715849
 20
157.7396967871938
 30
0.0
 10
1054.448399302238
 20
157.8426839935167
 30
0.0
  0
SPLINE
  5
12A
330
E1
100
AcDbEntity
  8
H755
  6
Continuous
 62
     7
100
AcDbSpline
210
0.0
220
0.0
230
1.0
 70
     8
 71
     3
 72
    14
 73
    10
 74
     0
 42
0.000000001
 43
0.0000000001
 40
0.0
 40
0.0
 40
0.0
 40
0.0
 40
0.0291958047297029
 40
0.0633559043582489
 40
0.0975157495985572
 40
0.1321752011187494
 40
0.1677867411445073
 40
0.2046881264687978
 40
0.2371604174915444
 40
0.2371604174915444
 40
0.2371604174915444
 40
0.2371604174915444
 10
958.4020118511473
 20
74.654887134274
 30
0.0
 10
958.9704646993382
 20
74.34301540332717
 30
0.0
 10
960.0194315078605
 20
73.7808674299992
 30
0.0
 10
961.9521354116685
 20
73.19685108907544
 30
0.0
 10
963.9996874424637
 20
72.89714431436752
 30
0.0
 10
966.1173314644935
 20
72.90791773758002
 30
0.0
 10
968.2731211828939
 20
73.22573289384677
 30
0.0
 10
970.3484575053898
 20
73.82057538205446
 30
0.0
 10
971.6863662899182
 20
74.37658500408496
 30
0.0
 10
972.3041825140667
 20
74.66989038902085
 30
0.0
  0
SPLINE
  5
12B
330
E1
100
AcDbEntity
  8
H755
  6
Continuous
 62
     7
100
AcDbSpline
210
0.0
220
0.0
230
1.0
 70
     8
 71
     3
 72
    15
 73
    11
 74
     0
 42
0.000000001
 43
0.0000000001
 40
0.7619875838420802
 40
0.7619875838420802
 40
0.7619875838420802
 40
0.7619875838420802
 40
0.7697742228394489
 40
0.8117215588601236
 40
0.8481715073018207
 40
0.8833069220000583
 40
0.9173181026916598
 40
0.9541479051600081
 40
0.989730991960246
 40
1.0
 40
1.0
 40
1.0
 40
1.0
 10
989.3168853957818
 20
104.1440194013153
 30
0.0
 10
989.303665547384
 20
104.3074860002148
 30
0.0
 10
989.2071612627828
 20
105.3481840792907
 30
0.0
 10
988.9048600990884
 20
107.1121923513914
 30
0.0
 10
988.2065633779417
 20
109.3259346531285
 30
0.0
 10
987.2891009953303
 20
111.2593675326372
 30
0.0
 10
986.1002743225542
 20
113.0502531635869
 30
0.0
 10
984.6441639027205
 20
114.6070246899075
 30
0.0
 10
983.3016873067081
 20
115.7022027179736
 30
0.0
 10
982.5268240348217
 20
116.0983711598797
 30
0.0
 10
982.32350762121
 20
116.2013583662026
 30
0.0
  0
SPLINE
  5
12C
330
E1
100
AcDbEntity
  8
H755
  6
Continuous
 62
     7
100
AcDbSpline
210
0.0
220
0.0
230
1.0
 70
     8
 71
     3
 72
    14
 73
    10
 74
     0
 42
0.000000001
 43
0.0000000001
 40
0.0
 40
0.0
 40
0.0
 40
0.0
 40
0.0291958047297047
 40
0.0633559043582519
 40
0.0975157495985593
 40
0.1321752011187516
 40
0.1677867411445111
 40
0.2046881264687994
 40
0.2371604174915443
 40
0.2371604174915443
 40
0.2371604174915443
 40
0.2371604174915443
 10
958.4020118511473
 20
-23.32470257705316
 30
0.0
 10
958.9704646993382
 20
-23.63657430799998
 30
0.0
 10
960.0194315078608
 20
-24.19872228132813
 30
0.0
 10
961.9521354116685
 20
-24.78273862225153
 30
0.0
 10
963.9996874424639
 20
-25.08244539695972
 30
0.0
 10
966.1173314644936
 20
-25.0716719737471
 30
0.0
 10
968.273121182894
 20
-24.7538568174803
 30
0.0
 10
970.34845750539
 20
-24.15901432927269
 30
0.0
 10
971.6863662899182
 20
-23.60300470724214
 30
0.0
 10
972.3041825140666
 20
-23.30969932230625
 30
0.0
  0
SPLINE
  5
12D
330
E1
100
AcDbEntity
  8
H755
  6
Continuous
 62
     7
100
AcDbSpline
210
0.0
220
0.0
230
1.0
 70
     8
 71
     3
 72
    15
 73
    11
 74
     0
 42
0.000000001
 43
0.0000000001
 40
0.7619875838420801
 40
0.7619875838420801
 40
0.7619875838420801
 40
0.7619875838420801
 40
0.7697742228394487
 40
0.8117215588601226
 40
0.8481715073018204
 40
0.8833069220000581
 40
0.9173181026916608
 40
0.9541479051600107
 40
0.9897309919602479
 40
1.0
 40
1.0
 40
1.0
 40
1.0
 10
989.3168853957818
 20
6.164429689988149
 30
0.0
 10
989.303665547384
 20
6.327896288887705
 30
0.0
 10
989.207161262783
 20
7.368594367963547
 30
0.0
 10
988.9048600990884
 20
9.132602640064185
 30
0.0
 10
988.2065633779417
 20
11.34634494180149
 30
0.0
 10
987.2891009953302
 20
13.27977782131011
 30
0.0
 10
986.1002743225542
 20
15.07066345225983
 30
0.0
 10
984.6441639027204
 20
16.62743497858039
 30
0.0
 10
983.301687306708
 20
17.72261300664657
 30
0.0
 10
982.5268240348217
 20
18.11878144855264
 30
0.0
 10
982.32350762121
 20
18.2217686548755
 30
0.0
  0
SPLINE
  5
12E
330
E1
100
AcDbEntity
  8
H755
  6
Continuous
 62
     7
100
AcDbSpline
210
0.0
220
0.0
230
1.0
 70
     8
 71
     3
 72
    16
 73
    12
 74
     0
 42
0.000000001
 43
0.0000000001
 40
0.0
 40
0.0
 40
0.0
 40
0.0
 40
0.102446508067182
 40
0.2138380658585946
 40
0.3257388353087554
 40
0.4388728824795765
 40
0.5536486148225086
 40
0.670102834951394
 40
0.7879631648897841
 40
0.9067984183476941
 40
1.0
 40
1.0
 40
1.0
 40
1.0
 10
980.447336966881
 20
126.7231883896301
 30
0.0
 10
981.1278568959278
 20
126.3559117679738
 30
0.0
 10
982.3335281453266
 20
125.7204394398739
 30
0.0
 10
984.5313746627895
 20
125.025770787319
 30
0.0
 10
986.848006234821
 20
124.6292966342117
 30
0.0
 10
989.2914948569378
 20
124.5459353832348
 30
0.0
 10
991.8243232512007
 20
124.7791003432732
 30
0.0
 10
994.4421590900188
 20
125.3325655944184
 30
0.0
 10
997.0963929890881
 20
126.1964161960209
 30
0.0
 10
999.6543403117639
 20
127.308991037187
 30
0.0
 10
1001.144517131232
 20
128.1271383607107
 30
0.0
 10
1001.918411805093
 20
128.5575035016168
 30
0.0
  0
SPLINE
  5
12F
330
E1
100
AcDbEntity
  8
H755
  6
Continuous
 62
     7
100
AcDbSpline
210
0.0
220
0.0
230
1.0
 70
     8
 71
     3
 72
    18
 73
    14
 74
     0
 42
0.000000001
 43
0.0000000001
 40
0.0
 40
0.0
 40
0.0
 40
0.0
 40
0.0344654309200087
 40
0.1382630187987601
 40
0.2422578487078601
 40
0.3463359614176951
 40
0.4502329740645214
 40
0.5535910906842479
 40
0.6559592411885902
 40
0.7569108333191261
 40
0.856222882273418
 40
0.9540169998519158
 40
1.0
 40
1.0
 40
1.0
 40
1.0
 10
1029.357662662258
 20
172.5127002741664
 30
0.0
 10
1029.40516997091
 20
172.913478870606
 30
0.0
 10
1029.56508226766
 20
174.2855629304301
 30
0.0
 10
1029.6149766962
 20
176.8214147081634
 30
0.0
 10
1029.469534350186
 20
179.8646444988697
 30
0.0
 10
1029.046427126106
 20
182.785070448678
 30
0.0
 10
1028.361738844659
 20
185.5209461952648
 30
0.0
 10
1027.413615959598
 20
188.051366180949
 30
0.0
 10
1026.212883712947
 20
190.3415917041809
 30
0.0
 10
1024.771472004856
 20
192.3741150942995
 30
0.0
 10
1023.122582375325
 20
194.0933406255955
 30
0.0
 10
1021.571871213593
 20
195.3460879818825
 30
0.0
 10
1020.631430923141
 20
195.8505745129615
 30
0.0
 10
1020.27689705759
 20
196.0382348498887
 30
0.0
  0
ARC
  5
130
330
E1
100
AcDbEntity
  8
H755
  6
Continuous
 62
     7
100
AcDbCircle
 10
982.8721751269
 20
161.4904844614
 30
0.0
 40
38.0439268017727
100
AcDbArc
 50
300.0422209027
 51
306.2188603832
  0
SPLINE
  5
131
330
E1
100
AcDbEntity
  8
H755
  6
Continuous
 62
     7
100
AcDbSpline
210
0.0
220
0.0
230
1.0
 70
     8
 71
     3
 72
    16
 73
    12
 74
     0
 42
0.000000001
 43
0.0000000001
 40
0.0
 40
0.0
 40
0.0
 40
0.0
 40
0.102446508067183
 40
0.2138380658585953
 40
0.3257388353087572
 40
0.4388728824795756
 40
0.5536486148225092
 40
0.6701028349513951
 40
0.7879631648897855
 40
0.906798418347695
 40
1.0
 40
1.0
 40
1.0
 40
1.0
 10
908.3224452858532
 20
85.08186276231605
 30
0.0
 10
909.0029652149
 20
84.7145861406598
 30
0.0
 10
910.2086364642987
 20
84.07911381255981
 30
0.0
 10
912.4064829817618
 20
83.38444516000509
 30
0.0
 10
914.7231145537933
 20
82.98797100689772
 30
0.0
 10
917.1666031759098
 20
82.90460975592077
 30
0.0
 10
919.6994315701728
 20
83.13777471595927
 30
0.0
 10
922.317267408991
 20
83.69123996710428
 30
0.0
 10
924.9715013080604
 20
84.55509056870703
 30
0.0
 10
927.5294486307362
 20
85.66766540987295
 30
0.0
 10
929.0196254502039
 20
86.4858127333967
 30
0.0
 10
929.7935201240647
 20
86.91617787430278
 30
0.0
  0
SPLINE
  5
132
330
E1
100
AcDbEntity
  8
H755
  6
Continuous
 62
     7
100
AcDbSpline
210
0.0
220
0.0
230
1.0
 70
     8
 71
     3
 72
    18
 73
    14
 74
     0
 42
0.000000001
 43
0.0000000001
 40
0.0
 40
0.0
 40
0.0
 40
0.0
 40
0.0344654309200052
 40
0.1382630187987554
 40
0.24225784870785
 40
0.3463359614176901
 40
0.4502329740645149
 40
0.5535910906842385
 40
0.6559592411885824
 40
0.7569108333191137
 40
0.8562228822734045
 40
0.9540169998519017
 40
1.0
 40
1.0
 40
1.0
 40
1.0
 10
957.2327709812307
 20
130.8713746468524
 30
0.0
 10
957.2802782898816
 20
131.2721532432919
 30
0.0
 10
957.4401905866318
 20
132.644237303116
 30
0.0
 10
957.4900850151723
 20
135.1800890808492
 30
0.0
 10
957.3446426691585
 20
138.2233188715555
 30
0.0
 10
956.9215354450786
 20
141.1437448213638
 30
0.0
 10
956.2368471636308
 20
143.8796205679506
 30
0.0
 10
955.2887242785703
 20
146.4100405536348
 30
0.0
 10
954.0879920319194
 20
148.7002660768666
 30
0.0
 10
952.6465803238289
 20
150.7327894669853
 30
0.0
 10
950.9976906942975
 20
152.4520149982812
 30
0.0
 10
949.4469795325653
 20
153.7047623545683
 30
0.0
 10
948.5065392421133
 20
154.2092488856474
 30
0.0
 10
948.1520053765626
 20
154.3969092225746
 30
0.0
  0
ARC
  5
133
330
E1
100
AcDbEntity
  8
H755
  6
Continuous
 62
     7
100
AcDbCircle
 10
910.7472834459
 20
119.8491588341
 30
0.0
 40
38.04392680177638
100
AcDbArc
 50
300.0422209027
 51
306.2188603832
  0
SPLINE
  5
134
330
E1
100
AcDbEntity
  8
H755
  6
Continuous
 62
     7
100
AcDbSpline
210
0.0
220
0.0
230
1.0
 70
     8
 71
     3
 72
    16
 73
    12
 74
     0
 42
0.000000001
 43
0.0000000001
 40
0.0
 40
0.0
 40
0.0
 40
0.0
 40
0.1024465080671426
 40
0.2138380658585501
 40
0.3257388353087043
 40
0.4388728824795196
 40
0.5536486148224541
 40
0.6701028349513347
 40
0.7879631648897306
 40
0.9067984183476402
 40
1.0
 40
1.0
 40
1.0
 40
1.0
 10
908.3224452858531
 20
-12.8977269490109
 30
0.0
 10
909.0029652148995
 20
-13.26500357066707
 30
0.0
 10
910.208636464298
 20
-13.90047589876711
 30
0.0
 10
912.4064829817605
 20
-14.5951445513216
 30
0.0
 10
914.723114553792
 20
-14.99161870442933
 30
0.0
 10
917.1666031759084
 20
-15.07497995540635
 30
0.0
 10
919.6994315701714
 20
-14.84181499536819
 30
0.0
 10
922.3172674089897
 20
-14.28834974422302
 30
0.0
 10
924.971501308059
 20
-13.42449914262073
 30
0.0
 10
927.5294486307353
 20
-12.31192430145461
 30
0.0
 10
929.0196254502034
 20
-11.49377697793064
 30
0.0
 10
929.7935201240647
 20
-11.06341183702436
 30
0.0
  0
SPLINE
  5
135
330
E1
100
AcDbEntity
  8
H755
  6
Continuous
 62
     7
100
AcDbSpline
210
0.0
220
0.0
230
1.0
 70
     8
 71
     3
 72
    18
 73
    14
 74
     0
 42
0.000000001
 43
0.0000000001
 40
0.0
 40
0.0
 40
0.0
 40
0.0
 40
0.0344654309199773
 40
0.1382630187987284
 40
0.2422578487078236
 40
0.3463359614176629
 40
0.4502329740644891
 40
0.5535910906842127
 40
0.6559592411885569
 40
0.7569108333190887
 40
0.8562228822733822
 40
0.954016999851878
 40
1.0
 40
1.0
 40
1.0
 40
1.0
 10
957.2327709812307
 20
32.89178493552518
 30
0.0
 10
957.2802782898815
 20
33.29256353196438
 30
0.0
 10
957.4401905866317
 20
34.66464759178815
 30
0.0
 10
957.4900850151724
 20
37.20049936952113
 30
0.0
 10
957.3446426691585
 20
40.24372916022743
 30
0.0
 10
956.9215354450786
 20
43.16415511003591
 30
0.0
 10
956.2368471636312
 20
45.90003085662267
 30
0.0
 10
955.2887242785705
 20
48.43045084230697
 30
0.0
 10
954.0879920319198
 20
50.72067636553877
 30
0.0
 10
952.6465803238293
 20
52.75319975565773
 30
0.0
 10
950.9976906942981
 20
54.47242528695352
 30
0.0
 10
949.4469795325657
 20
55.7251726432409
 30
0.0
 10
948.5065392421135
 20
56.22965917432009
 30
0.0
 10
948.1520053765627
 20
56.41731951124744
 30
0.0
  0
ARC
  5
136
330
E1
100
AcDbEntity
  8
H755
  6
Continuous
 62
     7
100
AcDbCircle
 10
910.7472834459
 20
21.8695691228
 30
0.0
 40
38.04392680178871
100
AcDbArc
 50
300.0422209027
 51
306.2188603832
  0
ARC
  5
137
330
E1
100
AcDbEntity
  8
H755
  6
Continuous
 62
     7
100
AcDbCircle
 10
1099.0598077806
 20
46.5360772773
 30
0.0
 40
4.999999999999999
100
AcDbArc
 50
240.9286794662
 51
299.7191278616
  0
ENDBLK
  5
139
330
E1
100
AcDbEntity
  8
0
100
AcDbBlockEnd
  0
BLOCK
  5
13C
330
13B
100
AcDbEntity
  8
0
100
AcDbBlockBegin
  2
_OBLIQUE
 70
     0
 10
0.0
 20
0.0
 30
0.0
  3
_OBLIQUE
  1

  0
LINE
  5
13E
330
13B
100
AcDbEntity
  8
0
  6
ByBlock
 62
     0
370
    -2
100
AcDbLine
 10
-0.5
 20
-0.5
 30
0.0
 11
0.5
 21
0.5
 31
0.0
  0
ENDBLK
  5
13D
330
13B
100
AcDbEntity
  8
0
100
AcDbBlockEnd
  0
BLOCK
  5
140
330
13F
100
AcDbEntity
  8
0
100
AcDbBlockBegin
  2
_DOT
 70
     0
 10
0.0
 20
0.0
 30
0.0
  3
_DOT
  1

  0
POLYLINE
  5
142
330
13F
100
AcDbEntity
  8
0
  6
ByBlock
 62
     0
100
AcDb2dPolyline
 66
     1
 10
0.0
 20
0.0
 30
0.0
 70
     1
 40
0.5
 41
0.5
  0
VERTEX
  5
144
330
142
100
AcDbEntity
  8
0
  6
ByBlock
 62
     0
100
AcDbVertex
100
AcDb2dVertex
 10
-0.25
 20
0.0
 30
0.0
 42
1.0
  0
VERTEX
  5
145
330
142
100
AcDbEntity
  8
0
  6
ByBlock
 62
     0
100
AcDbVertex
100
AcDb2dVertex
 10
0.25
 20
0.0
 30
0.0
 42
1.0
  0
SEQEND
  5
146
330
142
100
AcDbEntity
  8
0
  6
ByBlock
 62
     0
  0
LINE
  5
143
330
13F
100
AcDbEntity
  8
0
  6
ByBlock
 62
     0
370
    -2
100
AcDbLine
 10
-0.5
 20
0.0
 30
0.0
 11
-1.0
 21
0.0
 31
0.0
  0
ENDBLK
  5
141
330
13F
100
AcDbEntity
  8
0
100
AcDbBlockEnd
  0
BLOCK
  5
153
330
14B
100
AcDbEntity
  8
0
100
AcDbBlockBegin
  2
DMBLK68
 70
     0
 10
0.0
 20
0.0
 30
0.0
  3
DMBLK68
  1

  0
HATCH
  5
14C
330
14B
100
AcDbEntity
  8
Cartouche
  6
Continuous
 62
     7
100
AcDbHatch
 10
0.0
 20
0.0
 30
0.0
210
0.0
220
0.0
230
1.0
  2
SOLID
 70
     1
 71
     0
 91
        1
 92
        1
 93
        3
 72
     1
 10
479.7198468918475
 20
470.3555875159063
 11
479.7198468918475
 21
462.3555874463676
 72
     1
 10
479.7198468918475
 20
462.3555874463676
 11
503.7198471004637
 21
466.355587481137
 72
     1
 10
503.7198471004637
 20
466.355587481137
 11
479.7198468918475
 21
470.3555875159063
 97
        0
 75
     0
 76
     1
 98
        0
  0
HATCH
  5
14D
330
14B
100
AcDbEntity
  8
Cartouche
  6
Continuous
 62
     7
100
AcDbHatch
 10
0.0
 20
0.0
 30
0.0
210
0.0
220
0.0
230
1.0
  2
SOLID
 70
     1
 71
     0
 91
        1
 92
        1
 93
        3
 72
     1
 10
277.7198473090799
 20
470.3555875159063
 11
253.7198471004636
 21
466.355587481137
 72
     1
 10
253.7198471004636
 20
466.355587481137
 11
277.7198473090798
 21
462.3555874463676
 72
     1
 10
277.7198473090799
 20
462.3555874463676
 11
277.7198473090799
 21
470.3555875159063
 97
        0
 75
     0
 76
     1
 98
        0
  0
LINE
  5
14E
330
14B
100
AcDbEntity
  8
Cartouche
  6
Continuous
 62
     7
100
AcDbLine
 10
503.7198471005
 20
282.6993122088
 30
0.0
 11
503.7198471005
 21
474.3555878611
 31
0.0
  0
LINE
  5
14F
330
14B
100
AcDbEntity
  8
Cartouche
  6
Continuous
 62
     7
100
AcDbLine
 10
253.7198471005
 20
402.6993122088
 30
0.0
 11
253.7198471005
 21
474.3555878611
 31
0.0
  0
LINE
  5
150
330
14B
100
AcDbEntity
  8
Cartouche
  6
Continuous
 62
     7
100
AcDbLine
 10
503.7198471005
 20
466.3555874811
 30
0.0
 11
402.4531798536
 21
466.3555874811
 31
0.0
  0
LINE
  5
151
330
14B
100
AcDbEntity
  8
Cartouche
  6
Continuous
 62
     7
100
AcDbLine
 10
354.9865143473
 20
466.3555874811
 30
0.0
 11
253.7198471005
 21
466.3555874811
 31
0.0
  0
TEXT
  5
152
330
14B
100
AcDbEntity
  8
Cartouche
  6
Continuous
 62
     7
100
AcDbText
 10
360.5865137671
 20
458.3555874811
 30
0.0
 40
16.0
  1
250
  7
SEACAD_ArialB
 11
360.5865137671
 21
474.3555874811
 31
0.0
100
AcDbText
 73
     3
  0
ENDBLK
  5
154
330
14B
100
AcDbEntity
  8
0
100
AcDbBlockEnd
  0
BLOCK
  5
15E
330
156
100
AcDbEntity
  8
0
100
AcDbBlockBegin
  2
DMBLK69
 70
     0
 10
0.0
 20
0.0
 30
0.0
  3
DMBLK69
  1

  0
HATCH
  5
157
330
156
100
AcDbEntity
  8
Cartouche
  6
Continuous
 62
     7
100
AcDbHatch
 10
0.0
 20
0.0
 30
0.0
210
0.0
220
0.0
230
1.0
  2
SOLID
 70
     1
 71
     0
 91
        1
 92
        1
 93
        3
 72
     1
 10
479.7198468918475
 20
502.6926671601095
 11
479.7198468918475
 21
494.6926670905708
 72
     1
 10
479.7198468918475
 20
494.6926670905708
 11
503.7198471004637
 21
498.6926671253402
 72
     1
 10
503.7198471004637
 20
498.6926671253402
 11
479.7198468918475
 21
502.6926671601095
 97
        0
 75
     0
 76
     1
 98
        0
  0
HATCH
  5
158
330
156
100
AcDbEntity
  8
Cartouche
  6
Continuous
 62
     7
100
AcDbHatch
 10
0.0
 20
0.0
 30
0.0
210
0.0
220
0.0
230
1.0
  2
SOLID
 70
     1
 71
     0
 91
        1
 92
        1
 93
        3
 72
     1
 10
-72.28015269091992
 20
502.6926671601095
 11
-96.28015289953618
 21
498.6926671253402
 72
     1
 10
-96.28015289953618
 20
498.6926671253402
 11
-72.28015269091992
 21
494.6926670905708
 72
     1
 10
-72.28015269091992
 20
494.6926670905708
 11
-72.28015269091992
 21
502.6926671601095
 97
        0
 75
     0
 76
     1
 98
        0
  0
LINE
  5
159
330
156
100
AcDbEntity
  8
Cartouche
  6
Continuous
 62
     7
100
AcDbLine
 10
503.7198471005
 20
402.6993122088
 30
0.0
 11
503.7198471005
 21
506.6926675053
 31
0.0
  0
LINE
  5
15A
330
156
100
AcDbEntity
  8
Cartouche
  6
Continuous
 62
     7
100
AcDbLine
 10
-96.2801528995
 20
342.6993122088
 30
0.0
 11
-96.2801528995
 21
506.6926675053
 31
0.0
  0
LINE
  5
15B
330
156
100
AcDbEntity
  8
Cartouche
  6
Continuous
 62
     7
100
AcDbLine
 10
503.7198471005
 20
498.6926671253
 30
0.0
 11
227.4531828339
 21
498.6926671253
 31
0.0
  0
LINE
  5
15C
330
156
100
AcDbEntity
  8
Cartouche
  6
Continuous
 62
     7
100
AcDbLine
 10
179.9865113671
 20
498.6926671253
 30
0.0
 11
-96.2801528995
 21
498.6926671253
 31
0.0
  0
TEXT
  5
15D
330
156
100
AcDbEntity
  8
Cartouche
  6
Continuous
 62
     7
100
AcDbText
 10
185.5865018462
 20
490.6926671253
 30
0.0
 40
16.0
  1
600
  7
SEACAD_ArialB
 11
185.5865018462
 21
506.6926671253
 31
0.0
100
AcDbText
 73
     3
  0
ENDBLK
  5
15F
330
156
100
AcDbEntity
  8
0
100
AcDbBlockEnd
  0
BLOCK
  5
169
330
161
100
AcDbEntity
  8
0
100
AcDbBlockBegin
  2
DMBLK70
 70
     0
 10
0.0
 20
0.0
 30
0.0
  3
DMBLK70
  1

  0
HATCH
  5
162
330
161
100
AcDbEntity
  8
Cartouche
  6
Continuous
 62
     7
100
AcDbHatch
 10
0.0
 20
0.0
 30
0.0
210
0.0
220
0.0
230
1.0
  2
SOLID
 70
     1
 71
     0
 91
        1
 92
        1
 93
        3
 72
     1
 10
603.8847475724401
 20
501.3476138449469
 11
603.8847475724401
 21
493.3476137754081
 72
     1
 10
603.8847475724401
 20
493.3476137754081
 11
627.8847477810564
 21
497.3476138101775
 72
     1
 10
627.8847477810564
 20
497.3476138101775
 11
603.8847475724401
 21
501.3476138449469
 97
        0
 75
     0
 76
     1
 98
        0
  0
HATCH
  5
163
330
161
100
AcDbEntity
  8
Cartouche
  6
Continuous
 62
     7
100
AcDbHatch
 10
0.0
 20
0.0
 30
0.0
210
0.0
220
0.0
230
1.0
  2
SOLID
 70
     1
 71
     0
 91
        1
 92
        1
 93
        3
 72
     1
 10
753.8847479896725
 20
501.3476138449469
 11
729.8847477810563
 21
497.3476138101775
 72
     1
 10
729.8847477810563
 20
497.3476138101775
 11
753.8847479896725
 21
493.3476137754081
 72
     1
 10
753.8847479896725
 20
493.3476137754081
 11
753.8847479896725
 21
501.3476138449469
 97
        0
 75
     0
 76
     1
 98
        0
  0
LINE
  5
164
330
161
100
AcDbEntity
  8
Cartouche
  6
Continuous
 62
     7
100
AcDbLine
 10
627.8847477811
 20
402.6993122088
 30
0.0
 11
627.8847477811
 21
505.3476141902
 31
0.0
  0
LINE
  5
165
330
161
100
AcDbEntity
  8
Cartouche
  6
Continuous
 62
     7
100
AcDbLine
 10
729.8847477811
 20
402.6993122088
 30
0.0
 11
729.8847477811
 21
505.3476141902
 31
0.0
  0
LINE
  5
166
330
161
100
AcDbEntity
  8
Cartouche
  6
Continuous
 62
     7
100
AcDbLine
 10
579.8847473638
 20
497.3476138102
 30
0.0
 11
655.1514140742
 21
497.3476138102
 31
0.0
  0
LINE
  5
167
330
161
100
AcDbEntity
  8
Cartouche
  6
Continuous
 62
     7
100
AcDbLine
 10
702.6180796253
 20
497.3476138102
 30
0.0
 11
777.8847481983
 21
497.3476138102
 31
0.0
  0
TEXT
  5
168
330
161
100
AcDbEntity
  8
Cartouche
  6
Continuous
 62
     7
100
AcDbText
 10
660.751413494
 20
489.3476138102
 30
0.0
 40
16.0
  1
102
  7
SEACAD_ArialB
 11
660.751413494
 21
505.3476138102
 31
0.0
100
AcDbText
 73
     3
  0
ENDBLK
  5
16A
330
161
100
AcDbEntity
  8
0
100
AcDbBlockEnd
  0
BLOCK
  5
19E
330
16B
100
AcDbEntity
  8
0
100
AcDbBlockBegin
  2
SE3
 70
     0
 10
0.0
 20
0.0
 30
0.0
  3
SE3
  1

  0
LINE
  5
16D
330
16B
100
AcDbEntity
  8
H755
  6
Continuous
 62
     7
100
AcDbLine
 10
1378.8211553487
 20
385.6993122088
 30
0.0
 11
1378.8211553487
 21
419.6993122088
 31
0.0
  0
LINE
  5
16E
330
16B
100
AcDbEntity
  8
H755
  6
Continuous
 62
     7
100
AcDbLine
 10
1378.8211553487
 20
299.6993122088
 30
0.0
 11
1378.8211553487
 21
265.6993122088
 31
0.0
  0
LINE
  5
16F
330
16B
100
AcDbEntity
  8
H755
  6
Continuous
 62
     7
100
AcDbLine
 10
930.8211553487
 20
419.6993122088
 30
0.0
 11
930.8211553487
 21
385.6993122088
 31
0.0
  0
LINE
  5
170
330
16B
100
AcDbEntity
  8
H755
  6
Continuous
 62
     7
100
AcDbLine
 10
855.8211553487
 20
442.6993122088
 30
0.0
 11
855.8211553487
 21
362.6993122088
 31
0.0
  0
LINE
  5
171
330
16B
100
AcDbEntity
  8
H755
  6
Continuous
 62
     7
100
AcDbLine
 10
930.8211553487
 20
299.6993122088
 30
0.0
 11
930.8211553487
 21
265.6993122088
 31
0.0
  0
LINE
  5
172
330
16B
100
AcDbEntity
  8
H755
  6
Continuous
 62
     7
100
AcDbLine
 10
855.8211553487
 20
322.6993122088
 30
0.0
 11
855.8211553487
 21
242.6993122088
 31
0.0
  0
LINE
  5
173
330
16B
100
AcDbEntity
  8
H755
  6
Continuous
 62
     7
100
AcDbLine
 10
930.8211553487
 20
385.6993122088
 30
0.0
 11
930.8211553487
 21
419.6993122088
 31
0.0
  0
LINE
  5
174
330
16B
100
AcDbEntity
  8
H755
  6
Continuous
 62
     7
100
AcDbLine
 10
923.8211553487
 20
426.6993122088
 30
0.0
 11
923.8211553487
 21
378.6993122088
 31
0.0
  0
LINE
  5
175
330
16B
100
AcDbEntity
  8
H755
  6
Continuous
 62
     7
100
AcDbLine
 10
923.8211553487
 20
306.6993122088
 30
0.0
 11
923.8211553487
 21
258.6993122088
 31
0.0
  0
LINE
  5
176
330
16B
100
AcDbEntity
  8
H755
  6
Continuous
 62
     7
100
AcDbLine
 10
876.3211553487
 20
428.6993122088
 30
0.0
 11
876.3211553487
 21
376.6993122088
 31
0.0
  0
LINE
  5
177
330
16B
100
AcDbEntity
  8
H755
  6
Continuous
 62
     7
100
AcDbLine
 10
880.3211553487
 20
378.6993122088
 30
0.0
 11
880.3211553487
 21
426.6993122088
 31
0.0
  0
LINE
  5
178
330
16B
100
AcDbEntity
  8
H755
  6
Continuous
 62
     7
100
AcDbLine
 10
876.3211553487
 20
308.6993122088
 30
0.0
 11
876.3211553487
 21
256.6993122088
 31
0.0
  0
LINE
  5
179
330
16B
100
AcDbEntity
  8
H755
  6
Continuous
 62
     7
100
AcDbLine
 10
880.3211553487
 20
258.6993122088
 30
0.0
 11
880.3211553487
 21
306.6993122088
 31
0.0
  0
LINE
  5
17A
330
16B
100
AcDbEntity
  8
H755
  6
Continuous
 62
     7
100
AcDbLine
 10
864.3211553487
 20
442.6993122088
 30
0.0
 11
864.3211553487
 21
362.6993122088
 31
0.0
  0
LINE
  5
17B
330
16B
100
AcDbEntity
  8
H755
  6
Continuous
 62
     7
100
AcDbLine
 10
866.7211553487
 20
363.8993122088
 30
0.0
 11
866.7211553487
 21
441.4993122088
 31
0.0
  0
LINE
  5
17C
330
16B
100
AcDbEntity
  8
H755
  6
Continuous
 62
     7
100
AcDbLine
 10
864.3211553487
 20
322.6993122088
 30
0.0
 11
864.3211553487
 21
242.6993122088
 31
0.0
  0
LINE
  5
17D
330
16B
100
AcDbEntity
  8
H755
  6
Continuous
 62
     7
100
AcDbLine
 10
866.7211553487
 20
243.8993122088
 30
0.0
 11
866.7211553487
 21
321.4993122088
 31
0.0
  0
ARC
  5
17E
330
16B
100
AcDbEntity
  8
H755
  6
Continuous
 62
     7
100
AcDbCircle
 10
1378.8211553487
 20
342.6993122088
 30
0.0
 40
42.99999999999996
100
AcDbArc
 50
270.0
 51
90.0
  0
ARC
  5
17F
330
16B
100
AcDbEntity
  8
H755
  6
Continuous
 62
     7
100
AcDbCircle
 10
1378.8211553487
 20
342.6993122088
 30
0.0
 40
76.99999999999999
100
AcDbArc
 50
270.0
 51
90.0
  0
LINE
  5
180
330
16B
100
AcDbEntity
  8
H755
  6
Continuous
 62
     7
100
AcDbLine
 10
1105.8211553487
 20
419.6993122088
 30
0.0
 11
930.8211553487
 21
419.6993122088
 31
0.0
  0
LINE
  5
181
330
16B
100
AcDbEntity
  8
H755
  6
Continuous
 62
     7
100
AcDbLine
 10
1378.8211553487
 20
419.6993122088
 30
0.0
 11
1105.8211553487
 21
419.6993122088
 31
0.0
  0
LINE
  5
182
330
16B
100
AcDbEntity
  8
H755
  6
Continuous
 62
     7
100
AcDbLine
 10
1105.8211553487
 20
385.6993122088
 30
0.0
 11
1378.8211553487
 21
385.6993122088
 31
0.0
  0
LINE
  5
183
330
16B
100
AcDbEntity
  8
H755
  6
Continuous
 62
     7
100
AcDbLine
 10
930.8211553487
 20
385.6993122088
 30
0.0
 11
1105.8211553487
 21
385.6993122088
 31
0.0
  0
LINE
  5
184
330
16B
100
AcDbEntity
  8
H755
  6
Continuous
 62
     7
100
AcDbLine
 10
880.3211553487
 20
378.6993122088
 30
0.0
 11
923.8211553487
 21
378.6993122088
 31
0.0
  0
LINE
  5
185
330
16B
100
AcDbEntity
  8
H755
  6
Continuous
 62
     7
100
AcDbLine
 10
923.8211553487
 20
426.6993122088
 30
0.0
 11
880.3211553487
 21
426.6993122088
 31
0.0
  0
LINE
  5
186
330
16B
100
AcDbEntity
  8
H755
  6
Continuous
 62
     7
100
AcDbLine
 10
866.7211553487
 20
363.8993122088
 30
0.0
 11
876.3211553487
 21
376.6993122088
 31
0.0
  0
LINE
  5
187
330
16B
100
AcDbEntity
  8
H755
  6
Continuous
 62
     7
100
AcDbLine
 10
876.3211553487
 20
428.6993122088
 30
0.0
 11
866.7211553487
 21
441.4993122088
 31
0.0
  0
LINE
  5
188
330
16B
100
AcDbEntity
  8
H755
  6
Continuous
 62
     7
100
AcDbLine
 10
855.8211553487
 20
362.6993122088
 30
0.0
 11
864.3211553487
 21
362.6993122088
 31
0.0
  0
LINE
  5
189
330
16B
100
AcDbEntity
  8
H755
  6
Continuous
 62
     7
100
AcDbLine
 10
864.3211553487
 20
442.6993122088
 30
0.0
 11
855.8211553487
 21
442.6993122088
 31
0.0
  0
LINE
  5
18A
330
16B
100
AcDbEntity
  8
H755
  6
Continuous
 62
     7
100
AcDbLine
 10
930.8211553487
 20
265.6993122088
 30
0.0
 11
1378.8211553487
 21
265.6993122088
 31
0.0
  0
LINE
  5
18B
330
16B
100
AcDbEntity
  8
H755
  6
Continuous
 62
     7
100
AcDbLine
 10
1378.8211553487
 20
299.6993122088
 30
0.0
 11
930.8211553487
 21
299.6993122088
 31
0.0
  0
LINE
  5
18C
330
16B
100
AcDbEntity
  8
H755
  6
Continuous
 62
     7
100
AcDbLine
 10
880.3211553487
 20
258.6993122088
 30
0.0
 11
923.8211553487
 21
258.6993122088
 31
0.0
  0
LINE
  5
18D
330
16B
100
AcDbEntity
  8
H755
  6
Continuous
 62
     7
100
AcDbLine
 10
923.8211553487
 20
306.6993122088
 30
0.0
 11
880.3211553487
 21
306.6993122088
 31
0.0
  0
LINE
  5
18E
330
16B
100
AcDbEntity
  8
H755
  6
Continuous
 62
     7
100
AcDbLine
 10
866.7211553487
 20
243.8993122088
 30
0.0
 11
876.3211553487
 21
256.6993122088
 31
0.0
  0
LINE
  5
18F
330
16B
100
AcDbEntity
  8
H755
  6
Continuous
 62
     7
100
AcDbLine
 10
876.3211553487
 20
308.6993122088
 30
0.0
 11
866.7211553487
 21
321.4993122088
 31
0.0
  0
LINE
  5
190
330
16B
100
AcDbEntity
  8
H755
  6
Continuous
 62
     7
100
AcDbLine
 10
855.8211553487
 20
242.6993122088
 30
0.0
 11
864.3211553487
 21
242.6993122088
 31
0.0
  0
LINE
  5
191
330
16B
100
AcDbEntity
  8
H755
  6
Continuous
 62
     7
100
AcDbLine
 10
864.3211553487
 20
322.6993122088
 30
0.0
 11
855.8211553487
 21
322.6993122088
 31
0.0
  0
ARC
  5
192
330
16B
100
AcDbEntity
  8
H755
  6
Continuous
 62
     7
100
AcDbCircle
 10
923.8211553487
 20
385.6993122088
 30
0.0
 40
6.999999999999999
100
AcDbArc
 50
270.0
 51
0.0
  0
ARC
  5
193
330
16B
100
AcDbEntity
  8
H755
  6
Continuous
 62
     7
100
AcDbCircle
 10
923.8211553487
 20
419.6993122088
 30
0.0
 40
7.000000000000006
100
AcDbArc
 50
0.0
 51
90.0
  0
ARC
  5
194
330
16B
100
AcDbEntity
  8
H755
  6
Continuous
 62
     7
100
AcDbCircle
 10
923.8211553487
 20
265.6993122088
 30
0.0
 40
7.000000000000006
100
AcDbArc
 50
270.0
 51
0.0
  0
ARC
  5
195
330
16B
100
AcDbEntity
  8
H755
  6
Continuous
 62
     7
100
AcDbCircle
 10
923.8211553487
 20
299.6993122088
 30
0.0
 40
7.000000000000006
100
AcDbArc
 50
0.0
 51
90.0
  0
ARC
  5
196
330
16B
100
AcDbEntity
  8
H755
  6
Continuous
 62
     7
100
AcDbCircle
 10
880.3211553487
 20
373.6993122088
 30
0.0
 40
4.999999999999993
100
AcDbArc
 50
90.0
 51
143.1301023542
  0
ARC
  5
197
330
16B
100
AcDbEntity
  8
H755
  6
Continuous
 62
     7
100
AcDbCircle
 10
880.3211553487
 20
431.6993122088
 30
0.0
 40
5.000000000000001
100
AcDbArc
 50
216.8698976458
 51
270.0
  0
ARC
  5
198
330
16B
100
AcDbEntity
  8
H755
  6
Continuous
 62
     7
100
AcDbCircle
 10
880.3211553487
 20
253.6993122088
 30
0.0
 40
5.000000000000004
100
AcDbArc
 50
90.0
 51
143.1301023542
  0
ARC
  5
199
330
16B
100
AcDbEntity
  8
H755
  6
Continuous
 62
     7
100
AcDbCircle
 10
880.3211553487
 20
311.6993122088
 30
0.0
 40
5.000000000000004
100
AcDbArc
 50
216.8698976458
 51
270.0
  0
ARC
  5
19A
330
16B
100
AcDbEntity
  8
H755
  6
Continuous
 62
     7
100
AcDbCircle
 10
864.3211553487
 20
439.6993122088
 30
0.0
 40
3.000000000000001
100
AcDbArc
 50
36.8698976458
 51
90.0
  0
ARC
  5
19B
330
16B
100
AcDbEntity
  8
H755
  6
Continuous
 62
     7
100
AcDbCircle
 10
864.3211553487
 20
365.6993122088
 30
0.0
 40
3.000000000000003
100
AcDbArc
 50
270.0
 51
323.1301023542
  0
ARC
  5
19C
330
16B
100
AcDbEntity
  8
H755
  6
Continuous
 62
     7
100
AcDbCircle
 10
864.3211553487
 20
319.6993122088
 30
0.0
 40
2.999999999999992
100
AcDbArc
 50
36.8698976458
 51
90.0
  0
ARC
  5
19D
330
16B
100
AcDbEntity
  8
H755
  6
Continuous
 62
     7
100
AcDbCircle
 10
864.3211553487
 20
245.6993122088
 30
0.0
 40
3.000000000000003
100
AcDbArc
 50
270.0
 51
323.1301023542
  0
ENDBLK
  5
19F
330
16B
100
AcDbEntity
  8
0
100
AcDbBlockEnd
  0
BLOCK
  5
1FC
330
1A0
100
AcDbEntity
  8
0
100
AcDbBlockBegin
  2
SE4
 70
     0
 10
0.0
 20
0.0
 30
0.0
  3
SE4
  1

  0
ELLIPSE
  5
1A2
330
1A0
100
AcDbEntity
  8
H755
  6
Continuous
 62
     7
100
AcDbEllipse
 10
-37.6652125345
 20
-48.6777922364
 30
0.0
 11
-8.500000000000009
 21
14.72243186433545
 31
0.0
210
0.0
220
0.0
230
1.0
 40
0.5773502692
 41
0.0
 42
0.0002054158551528
  0
ELLIPSE
  5
1A3
330
1A0
100
AcDbEntity
  8
H755
  6
Continuous
 62
     7
100
AcDbEllipse
 10
-37.6652125345
 20
-48.6777922364
 30
0.0
 11
-8.500000000000009
 21
14.72243186433545
 31
0.0
210
0.0
220
0.0
230
1.0
 40
0.5773502692
 41
3.142828407683524
 42
6.283185307179585
  0
ELLIPSE
  5
1A4
330
1A0
100
AcDbEntity
  8
H755
  6
Continuous
 62
     7
100
AcDbEllipse
 10
-37.6652125345
 20
-146.6573819477
 30
0.0
 11
8.499999999999961
 21
-14.72243186433549
 31
0.0
210
0.0
220
0.0
230
1.0
 40
0.5773502692
 41
6.283029220681118
 42
6.283185307179584
  0
ELLIPSE
  5
1A5
330
1A0
100
AcDbEntity
  8
H755
  6
Continuous
 62
     7
100
AcDbEllipse
 10
-37.6652125345
 20
-146.6573819477
 30
0.0
 11
8.499999999999961
 21
-14.72243186433549
 31
0.0
210
0.0
220
0.0
230
1.0
 40
0.5773502692
 41
0.0
 42
3.139628456340541
  0
ELLIPSE
  5
1A6
330
1A0
100
AcDbEntity
  8
H755
  6
Continuous
 62
     7
100
AcDbEllipse
 10
248.7130338461
 20
33.3801141469
 30
0.0
 11
-8.5
 21
14.72243186433546
 31
0.0
210
0.0
220
0.0
230
1.0
 40
0.5773502692
 41
3.141419566032623
 42
6.278902580169021
  0
ELLIPSE
  5
1A7
330
1A0
100
AcDbEntity
  8
H755
  6
Continuous
 62
     7
100
AcDbEllipse
 10
206.2866269749
 20
33.3801141469
 30
0.0
 11
8.499999999999998
 21
14.72243186433547
 31
0.0
210
0.0
220
0.0
230
1.0
 40
0.5773502692
 41
0.0038725395194179
 42
3.14180101261719
  0
ELLIPSE
  5
1A8
330
1A0
100
AcDbEntity
  8
H755
  6
Continuous
 62
     7
100
AcDbEllipse
 10
279.1186254371
 20
134.2174418914
 30
0.0
 11
8.499999999999982
 21
-14.72243186433547
 31
0.0
210
0.0
220
0.0
230
1.0
 40
0.5773502692
 41
0.0000000000000062
 42
3.141592653589793
  0
ELLIPSE
  5
1A9
330
1A0
100
AcDbEntity
  8
H755
  6
Continuous
 62
     7
100
AcDbEllipse
 10
332.1516340261
 20
164.8360636762
 30
0.0
 11
20.0
 21
-34.64101615137755
 31
0.0
210
0.0
220
0.0
230
1.0
 40
0.5773502692
 41
0.0
 42
3.141592653589793
  0
ELLIPSE
  5
1AA
330
1A0
100
AcDbEntity
  8
H755
  6
Continuous
 62
     7
100
AcDbEllipse
 10
279.1186254371
 20
36.2378521801
 30
0.0
 11
8.49999999999998
 21
-14.72243186433546
 31
0.0
210
0.0
220
0.0
230
1.0
 40
0.5773502692
 41
0.0000000000000063
 42
1.316774544970918
  0
ELLIPSE
  5
1AB
330
1A0
100
AcDbEntity
  8
H755
  6
Continuous
 62
     7
100
AcDbEllipse
 10
332.1516340261
 20
66.8564739649
 30
0.0
 11
19.99999999999997
 21
-34.64101615137754
 31
0.0
210
0.0
220
0.0
230
1.0
 40
0.5773502692
 41
2.408633916359589
 42
3.141592653589793
  0
ELLIPSE
  5
1AC
330
1A0
100
AcDbEntity
  8
H755
  6
Continuous
 62
     7
100
AcDbEllipse
 10
332.1516340261
 20
66.8564739649
 30
0.0
 11
19.99999999999997
 21
-34.64101615137754
 31
0.0
210
0.0
220
0.0
230
1.0
 40
0.5773502692
 41
0.0
 42
1.463790286798032
  0
ELLIPSE
  5
1AD
330
1A0
100
AcDbEntity
  8
H755
  6
Continuous
 62
     7
100
AcDbEllipse
 10
351.2435171181
 20
92.5761162641
 30
0.0
 11
8.499999999999989
 21
-14.72243186433546
 31
0.0
210
0.0
220
0.0
230
1.0
 40
0.5773502692
 41
0.0000000000000006
 42
3.141592653589799
  0
ELLIPSE
  5
1AE
330
1A0
100
AcDbEntity
  8
H755
  6
Continuous
 62
     7
100
AcDbEllipse
 10
404.2765257071
 20
123.1947380489
 30
0.0
 11
19.99999999999997
 21
-34.64101615137754
 31
0.0
210
0.0
220
0.0
230
1.0
 40
0.5773502692
 41
0.0
 42
3.141592653589793
  0
ELLIPSE
  5
1AF
330
1A0
100
AcDbEntity
  8
H755
  6
Continuous
 62
     7
100
AcDbEllipse
 10
356.1932645864
 20
95.4338542974
 30
0.0
 11
12.00000000000004
 21
-20.78460969082656
 31
0.0
210
0.0
220
0.0
230
1.0
 40
0.5773502692
 41
6.282034142901151
 42
6.283185307179586
  0
ELLIPSE
  5
1B0
330
1A0
100
AcDbEntity
  8
H755
  6
Continuous
 62
     7
100
AcDbEllipse
 10
356.1932645864
 20
95.4338542974
 30
0.0
 11
12.00000000000004
 21
-20.78460969082656
 31
0.0
210
0.0
220
0.0
230
1.0
 40
0.5773502692
 41
0.0
 42
3.139753634686684
  0
ELLIPSE
  5
1B1
330
1A0
100
AcDbEntity
  8
H755
  6
Continuous
 62
     7
100
AcDbEllipse
 10
284.0683729054
 20
137.0751799247
 30
0.0
 11
12.00000000000001
 21
-20.78460969082653
 31
0.0
210
0.0
220
0.0
230
1.0
 40
0.5773502692
 41
6.282034142898257
 42
6.283185307179585
  0
ELLIPSE
  5
1B2
330
1A0
100
AcDbEntity
  8
H755
  6
Continuous
 62
     7
100
AcDbEllipse
 10
284.0683729054
 20
137.0751799247
 30
0.0
 11
12.00000000000001
 21
-20.78460969082653
 31
0.0
210
0.0
220
0.0
230
1.0
 40
0.5773502692
 41
0.0
 42
3.139753634687892
  0
ELLIPSE
  5
1B3
330
1A0
100
AcDbEntity
  8
H755
  6
Continuous
 62
     7
100
AcDbEllipse
 10
284.0683729054
 20
39.0955902134
 30
0.0
 11
12.0
 21
-20.78460969082653
 31
0.0
210
0.0
220
0.0
230
1.0
 40
0.5773502692
 41
6.282034142900282
 42
6.283185307179586
  0
ELLIPSE
  5
1B4
330
1A0
100
AcDbEntity
  8
H755
  6
Continuous
 62
     7
100
AcDbEllipse
 10
284.0683729054
 20
39.0955902134
 30
0.0
 11
12.0
 21
-20.78460969082653
 31
0.0
210
0.0
220
0.0
230
1.0
 40
0.5773502692
 41
0.0000000000000004
 42
1.391839407908602
  0
ELLIPSE
  5
1B5
330
1A0
100
AcDbEntity
  8
H755
  6
Continuous
 62
     7
100
AcDbEllipse
 10
398.266118067
 20
119.72462758
 30
0.0
 11
19.99999999999999
 21
-34.64101615137753
 31
0.0
210
0.0
220
0.0
230
1.0
 40
0.5773502692
 41
0.0139510877675013
 42
3.143240048974493
  0
ELLIPSE
  5
1B6
330
1A0
100
AcDbEntity
  8
H755
  6
Continuous
 62
     7
100
AcDbEllipse
 10
398.266118067
 20
119.72462758
 30
0.0
 11
19.99999999999999
 21
-34.64101615137753
 31
0.0
210
0.0
220
0.0
230
1.0
 40
0.5773502692
 41
0.0
 42
0.0139510877675011
  0
ELLIPSE
  5
1B7
330
1A0
100
AcDbEntity
  8
H755
  6
Continuous
 62
     7
100
AcDbEllipse
 10
396.5690617922
 20
118.7448316829
 30
0.0
 11
-19.40000000000001
 21
33.60178566683623
 31
0.0
210
0.0
220
0.0
230
1.0
 40
0.5773502692
 41
0.0000000000000012
 42
0.9038918200941476
  0
ELLIPSE
  5
1B8
330
1A0
100
AcDbEntity
  8
H755
  6
Continuous
 62
     7
100
AcDbEllipse
 10
396.5690617922
 20
118.7448316829
 30
0.0
 11
-19.40000000000001
 21
33.60178566683623
 31
0.0
210
0.0
220
0.0
230
1.0
 40
0.5773502692
 41
-4.04548447368394
 42
-4.00998988580465
  0
ELLIPSE
  5
1B9
330
1A0
100
AcDbEntity
  8
H755
  6
Continuous
 62
     7
100
AcDbEllipse
 10
396.5690617922
 20
118.7448316829
 30
0.0
 11
-19.40000000000001
 21
33.60178566683623
 31
0.0
210
0.0
220
0.0
230
1.0
 40
0.5773502692
 41
2.273195421374936
 42
6.283185307179586
  0
ELLIPSE
  5
1BA
330
1A0
100
AcDbEntity
  8
H755
  6
Continuous
 62
     7
100
AcDbEllipse
 10
317.6559450118
 20
156.4669737217
 30
0.0
 11
13.00000000000001
 21
-22.51666049839542
 31
0.0
210
0.0
220
0.0
230
1.0
 40
0.5773502692
 41
5.888394187479824
 42
6.283185307179586
  0
ELLIPSE
  5
1BB
330
1A0
100
AcDbEntity
  8
H755
  6
Continuous
 62
     7
100
AcDbEllipse
 10
317.6559450118
 20
156.4669737217
 30
0.0
 11
13.00000000000001
 21
-22.51666049839542
 31
0.0
210
0.0
220
0.0
230
1.0
 40
0.5773502692
 41
0.0
 42
3.53638377328955
  0
ELLIPSE
  5
1BC
330
1A0
100
AcDbEntity
  8
H755
  6
Continuous
 62
     7
100
AcDbEllipse
 10
314.827517887
 20
154.8339805599
 30
0.0
 11
-12.00000000000001
 21
20.78460969082653
 31
0.0
210
0.0
220
0.0
230
1.0
 40
0.5773502692
 41
3.141592653589793
 42
6.283185307179586
  0
ELLIPSE
  5
1BD
330
1A0
100
AcDbEntity
  8
H755
  6
Continuous
 62
     7
100
AcDbEllipse
 10
317.6559450118
 20
58.4873840104
 30
0.0
 11
13.00000000000003
 21
-22.51666049839541
 31
0.0
210
0.0
220
0.0
230
1.0
 40
0.5773502692
 41
5.888394187479824
 42
6.283185307179586
  0
ELLIPSE
  5
1BE
330
1A0
100
AcDbEntity
  8
H755
  6
Continuous
 62
     7
100
AcDbEllipse
 10
317.6559450118
 20
58.4873840104
 30
0.0
 11
13.00000000000003
 21
-22.51666049839541
 31
0.0
210
0.0
220
0.0
230
1.0
 40
0.5773502692
 41
0.0
 42
1.405737164022353
  0
ELLIPSE
  5
1BF
330
1A0
100
AcDbEntity
  8
H755
  6
Continuous
 62
     7
100
AcDbEllipse
 10
314.827517887
 20
56.8543908485
 30
0.0
 11
-11.99999999999999
 21
20.78460969082657
 31
0.0
210
0.0
220
0.0
230
1.0
 40
0.5773502692
 41
3.141592653589794
 42
4.533432061498399
  0
ELLIPSE
  5
1C0
330
1A0
100
AcDbEntity
  8
H755
  6
Continuous
 62
     7
100
AcDbEllipse
 10
389.7808366928
 20
114.8256480944
 30
0.0
 11
13.00000000000002
 21
-22.51666049839542
 31
0.0
210
0.0
220
0.0
230
1.0
 40
0.5773502692
 41
5.888394187479824
 42
6.283185307179586
  0
ELLIPSE
  5
1C1
330
1A0
100
AcDbEntity
  8
H755
  6
Continuous
 62
     7
100
AcDbEllipse
 10
389.7808366928
 20
114.8256480944
 30
0.0
 11
13.00000000000002
 21
-22.51666049839542
 31
0.0
210
0.0
220
0.0
230
1.0
 40
0.5773502692
 41
0.0
 42
3.536383773289559
  0
ELLIPSE
  5
1C2
330
1A0
100
AcDbEntity
  8
H755
  6
Continuous
 62
     7
100
AcDbEllipse
 10
386.952409568
 20
113.1926549326
 30
0.0
 11
-12.00000000000002
 21
20.78460969082655
 31
0.0
210
0.0
220
0.0
230
1.0
 40
0.5773502692
 41
3.141592653589795
 42
6.283185307179586
  0
ELLIPSE
  5
1C3
330
1A0
100
AcDbEntity
  8
H755
  6
Continuous
 62
     7
100
AcDbEllipse
 10
326.141226386
 20
161.3659532073
 30
0.0
 11
19.99999999999998
 21
-34.64101615137755
 31
0.0
210
0.0
220
0.0
230
1.0
 40
0.5773502692
 41
0.0139510877675963
 42
3.143240048974493
  0
ELLIPSE
  5
1C4
330
1A0
100
AcDbEntity
  8
H755
  6
Continuous
 62
     7
100
AcDbEllipse
 10
326.141226386
 20
161.3659532073
 30
0.0
 11
19.99999999999998
 21
-34.64101615137755
 31
0.0
210
0.0
220
0.0
230
1.0
 40
0.5773502692
 41
0.0
 42
0.0139510877675966
  0
ELLIPSE
  5
1C5
330
1A0
100
AcDbEntity
  8
H755
  6
Continuous
 62
     7
100
AcDbEllipse
 10
324.4441701112
 20
160.3861573102
 30
0.0
 11
-19.40000000000001
 21
33.60178566683622
 31
0.0
210
0.0
220
0.0
230
1.0
 40
0.5773502692
 41
0.0000000000000007
 42
0.9038918200941461
  0
ELLIPSE
  5
1C6
330
1A0
100
AcDbEntity
  8
H755
  6
Continuous
 62
     7
100
AcDbEllipse
 10
324.4441701112
 20
160.3861573102
 30
0.0
 11
-19.40000000000001
 21
33.60178566683622
 31
0.0
210
0.0
220
0.0
230
1.0
 40
0.5773502692
 41
-4.045484473683941
 42
-4.009989885804654
  0
ELLIPSE
  5
1C7
330
1A0
100
AcDbEntity
  8
H755
  6
Continuous
 62
     7
100
AcDbEllipse
 10
324.4441701112
 20
160.3861573102
 30
0.0
 11
-19.40000000000001
 21
33.60178566683622
 31
0.0
210
0.0
220
0.0
230
1.0
 40
0.5773502692
 41
2.273195421374932
 42
6.283185307179586
  0
ELLIPSE
  5
1C8
330
1A0
100
AcDbEntity
  8
H755
  6
Continuous
 62
     7
100
AcDbEllipse
 10
326.141226386
 20
63.386363496
 30
0.0
 11
20.00000000000001
 21
-34.64101615137754
 31
0.0
210
0.0
220
0.0
230
1.0
 40
0.5773502692
 41
2.408633916359586
 42
3.143240048975774
  0
ELLIPSE
  5
1C9
330
1A0
100
AcDbEntity
  8
H755
  6
Continuous
 62
     7
100
AcDbEllipse
 10
326.141226386
 20
63.386363496
 30
0.0
 11
20.00000000000001
 21
-34.64101615137754
 31
0.0
210
0.0
220
0.0
230
1.0
 40
0.5773502692
 41
0.0139510877675013
 42
1.463790286798031
  0
ELLIPSE
  5
1CA
330
1A0
100
AcDbEntity
  8
H755
  6
Continuous
 62
     7
100
AcDbEllipse
 10
326.141226386
 20
63.386363496
 30
0.0
 11
20.00000000000001
 21
-34.64101615137754
 31
0.0
210
0.0
220
0.0
230
1.0
 40
0.5773502692
 41
0.0
 42
0.0139510877675011
  0
ELLIPSE
  5
1CB
330
1A0
100
AcDbEntity
  8
H755
  6
Continuous
 62
     7
100
AcDbEllipse
 10
324.4441701112
 20
62.4065675989
 30
0.0
 11
-19.4
 21
33.60178566683621
 31
0.0
210
0.0
220
0.0
230
1.0
 40
0.5773502692
 41
0.0
 42
0.6979152481037172
  0
ELLIPSE
  5
1CC
330
1A0
100
AcDbEntity
  8
H755
  6
Continuous
 62
     7
100
AcDbEllipse
 10
324.4441701112
 20
62.4065675989
 30
0.0
 11
-19.4
 21
33.60178566683621
 31
0.0
210
0.0
220
0.0
230
1.0
 40
0.5773502692
 41
-4.045484473683939
 42
-4.009989885804637
  0
ELLIPSE
  5
1CD
330
1A0
100
AcDbEntity
  8
H755
  6
Continuous
 62
     7
100
AcDbEllipse
 10
324.4441701112
 20
62.4065675989
 30
0.0
 11
-19.4
 21
33.60178566683621
 31
0.0
210
0.0
220
0.0
230
1.0
 40
0.5773502692
 41
2.273195421374949
 42
4.60206018657318
  0
ELLIPSE
  5
1CE
330
1A0
100
AcDbEntity
  8
H755
  6
Continuous
 62
     7
100
AcDbEllipse
 10
324.4441701112
 20
62.4065675989
 30
0.0
 11
-19.4
 21
33.60178566683621
 31
0.0
210
0.0
220
0.0
230
1.0
 40
0.5773502692
 41
5.585270059075865
 42
6.283185307179586
  0
ELLIPSE
  5
1CF
330
1A0
100
AcDbEntity
  8
H755
  6
Continuous
 62
     7
100
AcDbEllipse
 10
155.3749387295
 20
62.7739910603
 30
0.0
 11
-2.696844305081317
 21
21.12064024798415
 31
0.0
210
0.0
220
0.0
230
1.0
 40
0.1082481418
 41
3.059385242409538
 42
5.415579732601905
  0
ELLIPSE
  5
1D0
330
1A0
100
AcDbEntity
  8
H755
  6
Continuous
 62
     7
100
AcDbEllipse
 10
155.3749387295
 20
62.7739910603
 30
0.0
 11
-27.54355937107062
 21
2.723790514633222
 31
0.0
210
0.0
220
0.0
230
1.0
 40
0.4996735006
 41
3.976363516127977
 42
4.761761679525425
  0
ELLIPSE
  5
1D1
330
1A0
100
AcDbEntity
  8
H755
  6
Continuous
 62
     7
100
AcDbEllipse
 10
155.3749387295
 20
62.7739910603
 30
0.0
 11
2.69684430508133
 21
21.12064024798414
 31
0.0
210
0.0
220
0.0
230
1.0
 40
0.1082481418
 41
0.8676055745776718
 42
3.223800064770018
  0
ELLIPSE
  5
1D2
330
1A0
100
AcDbEntity
  8
H755
  6
Continuous
 62
     7
100
AcDbEllipse
 10
155.3749387295
 20
62.7739910603
 30
0.0
 11
-27.5435593710706
 21
-2.723790514633198
 31
0.0
210
0.0
220
0.0
230
1.0
 40
0.4996735006
 41
3.223899571311076
 42
4.663016281243952
  0
SPLINE
  5
1D3
330
1A0
100
AcDbEntity
  8
H755
  6
Continuous
 62
     7
100
AcDbSpline
210
0.0
220
0.0
230
1.0
 70
     8
 71
     3
 72
    54
 73
    50
 74
     0
 42
0.000000001
 43
0.0000000001
 40
0.0
 40
0.0
 40
0.0
 40
0.0
 40
0.0124199761708085
 40
0.0349650290188889
 40
0.0574825886858079
 40
0.079970045489137
 40
0.1024048447560716
 40
0.1247778066282286
 40
0.1470891432571612
 40
0.1693453009357422
 40
0.1915566730235494
 40
0.2137360658991267
 40
0.2358977262359546
 40
0.2580567476623629
 40
0.2802269416629088
 40
0.3024206819080597
 40
0.3246538517112261
 40
0.346942092398024
 40
0.3693003155389832
 40
0.3917418851081158
 40
0.4142772743327219
 40
0.4369119571310645
 40
0.4596432868212927
 40
0.4824562370817014
 40
0.5053158507848955
 40
0.528146108823688
 40
0.5508609100716441
 40
0.5733578495514711
 40
0.5955333884540559
 40
0.6173023826073111
 40
0.6386142078797746
 40
0.659459292696669
 40
0.67986567465629
 40
0.6998898865091351
 40
0.7196070496066753
 40
0.7391029844852065
 40
0.7584689575369791
 40
0.7777839113301679
 40
0.7971264704525438
 40
0.8165895383448909
 40
0.836261407808483
 40
0.8562219855614372
 40
0.8765373960056232
 40
0.8972531383972038
 40
0.9183869525162343
 40
0.9399237726354942
 40
0.9618158117906963
 40
0.9839897296704369
 40
1.0
 40
1.0
 40
1.0
 40
1.0
 10
-46.16521253447428
 20
-33.95536037202596
 30
0.0
 10
-46.96603372353728
 20
-34.42697746395101
 30
0.0
 10
-48.87888154803674
 20
-35.56117820889915
 30
0.0
 10
-52.27507777336951
 20
-37.82483202084067
 30
0.0
 10
-56.06234283742387
 20
-40.66884807229187
 30
0.0
 10
-59.78347809935872
 20
-43.78660383203359
 30
0.0
 10
-63.38448961414176
 20
-47.13155883447076
 30
0.0
 10
-66.86341343945992
 20
-50.69311023052872
 30
0.0
 10
-70.20558286831537
 20
-54.45131833277217
 30
0.0
 10
-73.40085368268105
 20
-58.38931090288641
 30
0.0
 10
-76.43856941950224
 20
-62.48979747670491
 30
0.0
 10
-79.30863724389006
 20
-66.73584113367897
 30
0.0
 10
-82.00109415403203
 20
-71.11054197972034
 30
0.0
 10
-84.50608449794747
 20
-75.5969457277921
 30
0.0
 10
-86.81378397820413
 20
-80.177895776045
 30
0.0
 10
-88.91455978077504
 20
-84.83628871346754
 30
0.0
 10
-90.79898874634554
 20
-89.55525056064984
 30
0.0
 10
-92.45780946155038
 20
-94.31829310489725
 30
0.0
 10
-93.88172105411644
 20
-99.10905295040878
 30
0.0
 10
-95.06127966896798
 20
-103.9111983728379
 30
0.0
 10
-95.98678810771838
 20
-108.7082250365791
 30
0.0
 10
-96.6482142335327
 20
-113.4830924112702
 30
0.0
 10
-97.03520512616343
 20
-118.2176588519076
 30
0.0
 10
-97.1373005756872
 20
-122.8917429492905
 30
0.0
 10
-96.94460402790645
 20
-127.4809937291911
 30
0.0
 10
-96.4492295189237
 20
-131.9572486634706
 30
0.0
 10
-95.64692145182369
 20
-136.2888787980183
 30
0.0
 10
-94.53826402649828
 20
-140.4432298700668
 30
0.0
 10
-93.12965335098292
 20
-144.3880974663625
 30
0.0
 10
-91.43319250623097
 20
-148.0944448774067
 30
0.0
 10
-89.46552489792528
 20
-151.5384749441344
 30
0.0
 10
-87.24610466586138
 20
-154.7023641766996
 30
0.0
 10
-84.79556721031997
 20
-157.5736995501362
 30
0.0
 10
-82.1345929422703
 20
-160.1442193437904
 30
0.0
 10
-79.28325897084224
 20
-162.4085122971973
 30
0.0
 10
-76.26066009722079
 20
-164.3630222156417
 30
0.0
 10
-73.08539329156002
 20
-166.0049680272394
 30
0.0
 10
-69.77546793477072
 20
-167.3322789146538
 30
0.0
 10
-66.3471357770268
 20
-168.3439145603087
 30
0.0
 10
-62.81367056167272
 20
-169.0394129063634
 30
0.0
 10
-59.18535582412446
 20
-169.417925799624
 30
0.0
 10
-55.47093699330311
 20
-169.4774576483476
 30
0.0
 10
-51.67893459235037
 20
-169.2149368889915
 30
0.0
 10
-47.81797295542653
 20
-168.6262110698995
 30
0.0
 10
-43.90240131782689
 20
-167.7088176639697
 30
0.0
 10
-39.93767808745244
 20
-166.4568485987299
 30
0.0
 10
-35.98125286298256
 20
-164.8880893546234
 30
0.0
 10
-32.30043706957533
 20
-163.1335231304781
 30
0.0
 10
-30.20302040351183
 20
-161.963873517506
 30
0.0
 10
-29.16521253447432
 20
-161.3798138120241
 30
0.0
  0
SPLINE
  5
1D4
330
1A0
100
AcDbEntity
  8
H755
  6
Continuous
 62
     7
100
AcDbSpline
210
0.0
220
0.0
230
1.0
 70
     8
 71
     3
 72
    47
 73
    43
 74
     0
 42
0.000000001
 43
0.0000000001
 40
0.0
 40
0.0
 40
0.0
 40
0.0
 40
0.0125468448995833
 40
0.0362716110182287
 40
0.059870065299844
 40
0.0834279754453212
 40
0.1070569728887529
 40
0.1309660703668536
 40
0.155502735891633
 40
0.1812344819231
 40
0.2091695512962524
 40
0.2414418145735131
 40
0.2844235061053884
 40
0.3129365643762452
 40
0.3388539909189816
 40
0.3629953244362502
 40
0.38851575401033
 40
0.412925676217488
 40
0.4368121858909876
 40
0.4605219270479426
 40
0.4842341252479287
 40
0.5080386577108491
 40
0.5320066859751549
 40
0.5561710524478108
 40
0.5805400879932883
 40
0.605106414816536
 40
0.62985272411192
 40
0.6547556073733642
 40
0.6797880730247536
 40
0.7049211554118449
 40
0.7301248970440883
 40
0.7553689072038097
 40
0.7806226495493312
 40
0.8058471883752711
 40
0.8310103119259113
 40
0.856081896072665
 40
0.8810324666031834
 40
0.9058338564134318
 40
0.9304603381925218
 40
0.954890441849034
 40
0.9791097320579206
 40
1.0
 40
1.0
 40
1.0
 40
1.0
 10
-46.16521253447434
 20
-131.9349500833531
 30
0.0
 10
-46.59499371414697
 20
-132.1779558258083
 30
0.0
 10
-47.64761187193592
 20
-132.7693872996545
 30
0.0
 10
-49.47089633213395
 20
-133.6543327976839
 30
0.0
 10
-51.41060587137428
 20
-134.4253518013773
 30
0.0
 10
-53.17730885554786
 20
-134.9679562476001
 30
0.0
 10
-54.72422236996902
 20
-135.2959400813752
 30
0.0
 10
-56.04037345716598
 20
-135.4431616154133
 30
0.0
 10
-57.11796133290945
 20
-135.4460742478801
 30
0.0
 10
-57.96606749472225
 20
-135.3445416098508
 30
0.0
 10
-58.61676249306
 20
-135.1731482187824
 30
0.0
 10
-59.1502630377965
 20
-134.9366528764584
 30
0.0
 10
-59.60242940664814
 20
-134.6305892755624
 30
0.0
 10
-60.13829919309413
 20
-134.0947464329091
 30
0.0
 10
-60.65242406669078
 20
-133.4085463170618
 30
0.0
 10
-61.19845513000829
 20
-132.4583195041743
 30
0.0
 10
-61.74427184502731
 20
-131.2059797662902
 30
0.0
 10
-62.24888932235259
 20
-129.6216435782999
 30
0.0
 10
-62.66020643996487
 20
-127.7659654431021
 30
0.0
 10
-62.95292659735699
 20
-125.6453748805175
 30
0.0
 10
-63.10372696006475
 20
-123.2729395905023
 30
0.0
 10
-63.09258813240889
 20
-120.6673246589183
 30
0.0
 10
-62.90327765001377
 20
-117.85083712522
 30
0.0
 10
-62.5232653431608
 20
-114.848110785986
 30
0.0
 10
-61.94380647345346
 20
-111.686711767991
 30
0.0
 10
-61.15994336271805
 20
-108.3963988102606
 30
0.0
 10
-60.17039678704203
 20
-105.0084599041033
 30
0.0
 10
-58.9773915536386
 20
-101.5551297104559
 30
0.0
 10
-57.58644917761793
 20
-98.06908482047794
 30
0.0
 10
-56.0061714953258
 20
-94.58300897393701
 30
0.0
 10
-54.24803065811115
 20
-91.12921565656912
 30
0.0
 10
-52.32617679348908
 20
-87.7393149336399
 30
0.0
 10
-50.25749014295741
 20
-84.44426849805814
 30
0.0
 10
-48.06133090943429
 20
-81.27375507553263
 30
0.0
 10
-45.75927908705494
 20
-78.25569833633664
 30
0.0
 10
-43.37489121199331
 20
-75.41577745652519
 30
0.0
 10
-40.93298798074793
 20
-72.77681595264418
 30
0.0
 10
-38.46229028940132
 20
-70.36054898776761
 30
0.0
 10
-35.98510894116239
 20
-68.17944585177304
 30
0.0
 10
-33.5544577073639
 20
-66.26470681347001
 30
0.0
 10
-31.22048237013622
 20
-64.63360560299644
 30
0.0
 10
-29.89187164214588
 20
-63.83323586303052
 30
0.0
 10
-29.16521253447427
 20
-63.4002241006969
 30
0.0
  0
ARC
  5
1D5
330
1A0
100
AcDbEntity
  8
H755
  6
Continuous
 62
     7
100
AcDbCircle
 10
227.4998304105
 20
75.7357452799
 30
0.0
 40
30.41741677753116
100
AcDbArc
 50
245.2942639725
 51
294.7057360275
  0
ARC
  5
1D6
330
1A0
100
AcDbEntity
  8
H755
  6
Continuous
 62
     7
100
AcDbCircle
 10
227.4998304105
 20
75.0958023171
 30
0.0
 40
63.7819398532051
100
AcDbArc
 50
242.2343608998
 51
297.7656391002
  0
LINE
  5
1D7
330
1A0
100
AcDbEntity
  8
H755
  6
Continuous
 62
     7
100
AcDbLine
 10
157.8749387295
 20
41.7007062349
 30
0.0
 11
197.7866269749
 21
18.6576822825
 31
0.0
  0
LINE
  5
1D8
330
1A0
100
AcDbEntity
  8
H755
  6
Continuous
 62
     7
100
AcDbLine
 10
214.7866269749
 20
48.1025460112
 30
0.0
 11
174.8749387295
 21
71.1455699635
 31
0.0
  0
LINE
  5
1D9
330
1A0
100
AcDbEntity
  8
H755
  6
Continuous
 62
     7
100
AcDbLine
 10
189.3749387295
 20
62.7739910603
 30
0.0
 11
287.6186254371
 21
119.4950100271
 31
0.0
  0
LINE
  5
1DA
330
1A0
100
AcDbEntity
  8
H755
  6
Continuous
 62
     7
100
AcDbLine
 10
-29.1652125345
 20
-63.4002241007
 30
0.0
 11
152.8749387295
 21
41.7007062349
 31
0.0
  0
LINE
  5
1DB
330
1A0
100
AcDbEntity
  8
H755
  6
Continuous
 62
     7
100
AcDbLine
 10
270.6186254371
 20
148.9398737558
 30
0.0
 11
-46.1652125345
 21
-33.955360372
 31
0.0
  0
LINE
  5
1DC
330
1A0
100
AcDbEntity
  8
H755
  6
Continuous
 62
     7
100
AcDbLine
 10
302.827517887
 20
175.6185902507
 30
0.0
 11
272.0683729054
 21
157.8597896155
 31
0.0
  0
LINE
  5
1DD
330
1A0
100
AcDbEntity
  8
H755
  6
Continuous
 62
     7
100
AcDbLine
 10
296.0683729054
 20
116.2905702339
 30
0.0
 11
326.827517887
 21
134.049370869
 31
0.0
  0
LINE
  5
1DE
330
1A0
100
AcDbEntity
  8
H755
  6
Continuous
 62
     7
100
AcDbLine
 10
312.1516340261
 20
199.4770798276
 30
0.0
 11
306.141226386
 21
196.0069693587
 31
0.0
  0
LINE
  5
1DF
330
1A0
100
AcDbEntity
  8
H755
  6
Continuous
 62
     7
100
AcDbLine
 10
346.141226386
 20
126.7249370559
 30
0.0
 11
352.1516340261
 21
130.1950475249
 31
0.0
  0
LINE
  5
1E0
330
1A0
100
AcDbEntity
  8
H755
  6
Continuous
 62
     7
100
AcDbLine
 10
207.3634855691
 20
14.439912014
 30
0.0
 11
-46.1652125345
 21
-131.9349500834
 31
0.0
  0
LINE
  5
1E1
330
1A0
100
AcDbEntity
  8
H755
  6
Continuous
 62
     7
100
AcDbLine
 10
-29.1652125345
 20
-161.379813812
 30
0.0
 11
287.6186254371
 21
21.5154203158
 31
0.0
  0
LINE
  5
1E2
330
1A0
100
AcDbEntity
  8
H755
  6
Continuous
 62
     7
100
AcDbLine
 10
296.0683729054
 20
18.3109805225
 30
0.0
 11
326.827517887
 21
36.0697811577
 31
0.0
  0
LINE
  5
1E3
330
1A0
100
AcDbEntity
  8
H755
  6
Continuous
 62
     7
100
AcDbLine
 10
312.1516340261
 20
101.4974901163
 30
0.0
 11
306.141226386
 21
98.0273796473
 31
0.0
  0
LINE
  5
1E4
330
1A0
100
AcDbEntity
  8
H755
  6
Continuous
 62
     7
100
AcDbLine
 10
346.141226386
 20
28.7453473446
 30
0.0
 11
352.1516340261
 21
32.2154578135
 31
0.0
  0
LINE
  5
1E5
330
1A0
100
AcDbEntity
  8
H755
  6
Continuous
 62
     7
100
AcDbLine
 10
257.2130338461
 20
18.6576822825
 30
0.0
 11
359.7435171181
 21
77.8536843998
 31
0.0
  0
LINE
  5
1E6
330
1A0
100
AcDbEntity
  8
H755
  6
Continuous
 62
     7
100
AcDbLine
 10
342.7435171181
 20
107.2985481285
 30
0.0
 11
240.2130338461
 21
48.1025460112
 31
0.0
  0
LINE
  5
1E7
330
1A0
100
AcDbEntity
  8
H755
  6
Continuous
 62
     7
100
AcDbLine
 10
374.952409568
 20
133.9772646234
 30
0.0
 11
344.1932645864
 21
116.2184639882
 31
0.0
  0
LINE
  5
1E8
330
1A0
100
AcDbEntity
  8
H755
  6
Continuous
 62
     7
100
AcDbLine
 10
368.1932645864
 20
74.6492446066
 30
0.0
 11
398.952409568
 21
92.4080452417
 31
0.0
  0
LINE
  5
1E9
330
1A0
100
AcDbEntity
  8
H755
  6
Continuous
 62
     7
100
AcDbLine
 10
384.2765257071
 20
157.8357542003
 30
0.0
 11
378.266118067
 21
154.3656437314
 31
0.0
  0
LINE
  5
1EA
330
1A0
100
AcDbEntity
  8
H755
  6
Continuous
 62
     7
100
AcDbLine
 10
418.266118067
 20
85.0836114286
 30
0.0
 11
424.2765257071
 21
88.5537218975
 31
0.0
  0
SPLINE
  5
1EB
330
1A0
100
AcDbEntity
  8
H755
  6
Continuous
 62
     7
100
AcDbSpline
210
0.0
220
0.0
230
1.0
 70
     8
 71
     3
 72
    15
 73
    11
 74
     0
 42
0.000000001
 43
0.0000000001
 40
0.0
 40
0.0
 40
0.0
 40
0.0
 40
0.0115890234928244
 40
0.0459287878003269
 40
0.0800176367917001
 40
0.1143370242334538
 40
0.1493706959720792
 40
0.1855300900632498
 40
0.2230658358366311
 40
0.2380378769974298
 40
0.2380378769974298
 40
0.2380378769974298
 40
0.2380378769974298
 10
344.2476657851522
 20
116.2045395136386
 30
0.0
 10
344.0184483336991
 20
116.0876935322236
 30
0.0
 10
343.2442391038556
 20
115.6889686243227
 30
0.0
 10
341.9473330650761
 20
114.6294930369957
 30
0.0
 10
340.5314164454816
 20
113.1348388237927
 30
0.0
 10
339.3504117672652
 20
111.4001013133849
 30
0.0
 10
338.4138651170192
 20
109.4780396025815
 30
0.0
 10
337.7240355767609
 20
107.366057785627
 30
0.0
 10
337.3829791977393
 20
105.5615326778702
 30
0.0
 10
337.2689137177408
 20
104.4660981797056
 30
0.0
 10
337.2433797881354
 20
104.1517782844901
 30
0.0
  0
SPLINE
  5
1EC
330
1A0
100
AcDbEntity
  8
H755
  6
Continuous
 62
     7
100
AcDbSpline
210
0.0
220
0.0
230
1.0
 70
     8
 71
     3
 72
    14
 73
    10
 74
     0
 42
0.000000001
 43
0.0000000001
 40
0.7631624803453889
 40
0.7631624803453889
 40
0.7631624803453889
 40
0.7631624803453889
 40
0.7898963963587106
 40
0.8271308021344839
 40
0.8630504069502567
 40
0.8977046764394322
 40
0.9313513836859876
 40
0.9676646132952073
 40
1.0
 40
1.0
 40
1.0
 40
1.0
 10
354.2722624420905
 20
74.66190808273493
 30
0.0
 10
354.7811971557568
 20
74.4208483390801
 30
0.0
 10
356.0126303899402
 20
73.89776420278048
 30
0.0
 10
357.9810385718691
 20
73.29459556288093
 30
0.0
 10
360.146190676087
 20
72.93345760450451
 30
0.0
 10
362.2599912759082
 20
72.88089244625895
 30
0.0
 10
364.3474813499892
 20
73.13780254968414
 30
0.0
 10
366.386523936082
 20
73.71385884851851
 30
0.0
 10
367.5301658086534
 20
74.30913394469282
 30
0.0
 10
368.163736668687
 20
74.64766273896159
 30
0.0
  0
SPLINE
  5
1ED
330
1A0
100
AcDbEntity
  8
H755
  6
Continuous
 62
     7
100
AcDbSpline
210
0.0
220
0.0
230
1.0
 70
     8
 71
     3
 72
    15
 73
    11
 74
     0
 42
0.000000001
 43
0.0000000001
 40
0.0
 40
0.0
 40
0.0
 40
0.0
 40
0.0115890234928231
 40
0.0459287878003268
 40
0.0800176367917005
 40
0.1143370242334537
 40
0.1493706959720797
 40
0.1855300900632503
 40
0.2230658358366327
 40
0.23803787699743
 40
0.23803787699743
 40
0.23803787699743
 40
0.23803787699743
 10
272.1227741041243
 20
157.8458651409527
 30
0.0
 10
271.8935566526714
 20
157.7290191595376
 30
0.0
 10
271.1193474228279
 20
157.3302942516368
 30
0.0
 10
269.8224413840483
 20
156.2708186643098
 30
0.0
 10
268.4065247644539
 20
154.7761644511067
 30
0.0
 10
267.2255200862373
 20
153.0414269406989
 30
0.0
 10
266.2889734359914
 20
151.1193652298955
 30
0.0
 10
265.5991438957331
 20
149.007383412941
 30
0.0
 10
265.2580875167114
 20
147.2028583051842
 30
0.0
 10
265.144022036713
 20
146.1074238070196
 30
0.0
 10
265.1184881071076
 20
145.7931039118042
 30
0.0
  0
SPLINE
  5
1EE
330
1A0
100
AcDbEntity
  8
H755
  6
Continuous
 62
     7
100
AcDbSpline
210
0.0
220
0.0
230
1.0
 70
     8
 71
     3
 72
    14
 73
    10
 74
     0
 42
0.000000001
 43
0.0000000001
 40
0.7631624803453892
 40
0.7631624803453892
 40
0.7631624803453892
 40
0.7631624803453892
 40
0.7898963963587112
 40
0.8271308021344844
 40
0.8630504069502571
 40
0.8977046764394319
 40
0.9313513836859876
 40
0.9676646132952071
 40
1.0
 40
1.0
 40
1.0
 40
1.0
 10
282.1473707610627
 20
116.303233710049
 30
0.0
 10
282.656305474729
 20
116.0621739663942
 30
0.0
 10
283.8877387089124
 20
115.5390898300945
 30
0.0
 10
285.8561468908414
 20
114.935921190195
 30
0.0
 10
288.0212989950591
 20
114.5747832318185
 30
0.0
 10
290.1350995948804
 20
114.5222180735729
 30
0.0
 10
292.2225896689613
 20
114.7791281769982
 30
0.0
 10
294.2616322550542
 20
115.3551844758325
 30
0.0
 10
295.4052741276255
 20
115.9504595720068
 30
0.0
 10
296.0388449876592
 20
116.2889883662756
 30
0.0
  0
SPLINE
  5
1EF
330
1A0
100
AcDbEntity
  8
H755
  6
Continuous
 62
     7
100
AcDbSpline
210
0.0
220
0.0
230
1.0
 70
     8
 71
     3
 72
    14
 73
    10
 74
     0
 42
0.000000001
 43
0.0000000001
 40
0.7631624803453895
 40
0.7631624803453895
 40
0.7631624803453895
 40
0.7631624803453895
 40
0.7898963963587134
 40
0.827130802134487
 40
0.8630504069502578
 40
0.8977046764394325
 40
0.9313513836859864
 40
0.9676646132952057
 40
1.0
 40
1.0
 40
1.0
 40
1.0
 10
282.1473707610627
 20
18.32364399872183
 30
0.0
 10
282.656305474729
 20
18.08258425506693
 30
0.0
 10
283.8877387089125
 20
17.55950011876714
 30
0.0
 10
285.8561468908416
 20
16.95633147886805
 30
0.0
 10
288.0212989950592
 20
16.59519352049113
 30
0.0
 10
290.1350995948805
 20
16.54262836224596
 30
0.0
 10
292.2225896689612
 20
16.79953846567101
 30
0.0
 10
294.2616322550542
 20
17.37559476450529
 30
0.0
 10
295.4052741276255
 20
17.97086986067975
 30
0.0
 10
296.0388449876592
 20
18.30939865494849
 30
0.0
  0
LINE
  5
1F0
330
1A0
100
AcDbEntity
  8
H755
  6
Continuous
 62
     7
100
AcDbLine
 10
396.5298361866
 20
87.0628110844
 30
0.0
 11
396.766118067
 21
86.9161778743
 31
0.0
  0
ARC
  5
1F1
330
1A0
100
AcDbEntity
  8
H755
  6
Continuous
 62
     7
100
AcDbCircle
 10
393.9982383554
 20
133.3859635603
 30
0.0
 40
24.8484425862819
100
AcDbArc
 50
180.0039576089
 51
186.0742363752
  0
SPLINE
  5
1F2
330
1A0
100
AcDbEntity
  8
H755
  6
Continuous
 62
     7
100
AcDbSpline
210
0.0
220
0.0
230
1.0
 70
     8
 71
     3
 72
    17
 73
    13
 74
     0
 42
0.000000001
 43
0.0000000001
 40
0.0
 40
0.0
 40
0.0
 40
0.0
 40
0.0359876415915811
 40
0.1417692476092724
 40
0.2476020650163717
 40
0.3542422309449042
 40
0.4622616305478087
 40
0.5718964843297815
 40
0.6830422295236613
 40
0.7953557643547354
 40
0.9084115500710669
 40
1.0
 40
1.0
 40
1.0
 40
1.0
 10
378.2465272177317
 20
154.309459736183
 30
0.0
 10
377.9931407799827
 20
154.1764900139715
 30
0.0
 10
377.142874924895
 20
153.726023608133
 30
0.0
 10
375.6953551732306
 20
152.5650098015902
 30
0.0
 10
374.0712902541233
 20
150.9176489837086
 30
0.0
 10
372.6526688222752
 20
148.9824574706924
 30
0.0
 10
371.4573351074205
 20
146.8080527737473
 30
0.0
 10
370.4925979600794
 20
144.3970124289141
 30
0.0
 10
369.7674473266936
 20
141.7618368825705
 30
0.0
 10
369.2983293592193
 20
138.9485440465875
 30
0.0
 10
369.0767893083805
 20
136.0879996521089
 30
0.0
 10
369.1214263720503
 20
134.3211017324007
 30
0.0
 10
369.1497958283458
 20
133.3842471961927
 30
0.0
  0
SPLINE
  5
1F3
330
1A0
100
AcDbEntity
  8
H755
  6
Continuous
 62
     7
100
AcDbSpline
210
0.0
220
0.0
230
1.0
 70
     8
 71
     3
 72
    17
 73
    13
 74
     0
 42
0.000000001
 43
0.0000000001
 40
0.0
 40
0.0
 40
0.0
 40
0.0
 40
0.0624345669888965
 40
0.1803417120593498
 40
0.2983170563593655
 40
0.4159303560107415
 40
0.5327204829169566
 40
0.6481656994265891
 40
0.7618558317414292
 40
0.8736934654499826
 40
0.9839975013894945
 40
1.0
 40
1.0
 40
1.0
 40
1.0
 10
396.7661180670322
 20
86.91617787430279
 30
0.0
 10
397.2943214010434
 20
86.61888864400073
 30
0.0
 10
398.5911728440057
 20
85.89611031026706
 30
0.0
 10
400.9560802851225
 20
84.80212457638123
 30
0.0
 10
403.6655634905514
 20
83.8515473742061
 30
0.0
 10
406.3663510080514
 20
83.21531980642385
 30
0.0
 10
409.0001349450977
 20
82.91641943032185
 30
0.0
 10
411.540018049367
 20
82.95737961065336
 30
0.0
 10
413.9666470852046
 20
83.33117840381985
 30
0.0
 10
416.2025335120116
 20
84.044189449316
 30
0.0
 10
417.7873271318697
 20
84.74308469296903
 30
0.0
 10
418.4724610034236
 20
85.22033856676015
 30
0.0
 10
418.5734356464939
 20
85.29092408314531
 30
0.0
  0
LINE
  5
1F4
330
1A0
100
AcDbEntity
  8
H755
  6
Continuous
 62
     7
100
AcDbLine
 10
324.4049445055
 20
128.7041367117
 30
0.0
 11
324.641226386
 21
128.5575035016
 31
0.0
  0
ARC
  5
1F5
330
1A0
100
AcDbEntity
  8
H755
  6
Continuous
 62
     7
100
AcDbCircle
 10
321.8733466743
 20
175.0272891876
 30
0.0
 40
24.8484425862869
100
AcDbArc
 50
180.0039576089
 51
186.0742363752
  0
SPLINE
  5
1F6
330
1A0
100
AcDbEntity
  8
H755
  6
Continuous
 62
     7
100
AcDbSpline
210
0.0
220
0.0
230
1.0
 70
     8
 71
     3
 72
    17
 73
    13
 74
     0
 42
0.000000001
 43
0.0000000001
 40
0.0
 40
0.0
 40
0.0
 40
0.0
 40
0.0359876415915848
 40
0.141769247609273
 40
0.2476020650163709
 40
0.3542422309448968
 40
0.4622616305478024
 40
0.5718964843297741
 40
0.683042229523654
 40
0.7953557643547291
 40
0.9084115500710637
 40
1.0
 40
1.0
 40
1.0
 40
1.0
 10
306.1216355367039
 20
195.950785363497
 30
0.0
 10
305.8682490989548
 20
195.8178156412855
 30
0.0
 10
305.0179832438671
 20
195.367349235447
 30
0.0
 10
303.5704634922029
 20
194.2063354289042
 30
0.0
 10
301.9463985730955
 20
192.5589746110226
 30
0.0
 10
300.5277771412474
 20
190.6237830980065
 30
0.0
 10
299.3324434263927
 20
188.4493784010615
 30
0.0
 10
298.3677062790517
 20
186.0383380562283
 30
0.0
 10
297.6425556456659
 20
183.4031625098847
 30
0.0
 10
297.1734376781915
 20
180.5898696739016
 30
0.0
 10
296.9518976273527
 20
177.729325279423
 30
0.0
 10
296.9965346910225
 20
175.9624273597147
 30
0.0
 10
297.0249041473179
 20
175.0255728235067
 30
0.0
  0
SPLINE
  5
1F7
330
1A0
100
AcDbEntity
  8
H755
  6
Continuous
 62
     7
100
AcDbSpline
210
0.0
220
0.0
230
1.0
 70
     8
 71
     3
 72
    17
 73
    13
 74
     0
 42
0.000000001
 43
0.0000000001
 40
0.0
 40
0.0
 40
0.0
 40
0.0
 40
0.0624345669888966
 40
0.1803417120593498
 40
0.2983170563593645
 40
0.4159303560107428
 40
0.5327204829169555
 40
0.6481656994265876
 40
0.7618558317414267
 40
0.8736934654499836
 40
0.983997501389496
 40
1.0
 40
1.0
 40
1.0
 40
1.0
 10
324.6412263860043
 20
128.5575035016168
 30
0.0
 10
325.1694297200156
 20
128.2602142713147
 30
0.0
 10
326.4662811629779
 20
127.5374359375812
 30
0.0
 10
328.8311886040948
 20
126.4434502036951
 30
0.0
 10
331.5406718095234
 20
125.4928730015202
 30
0.0
 10
334.2414593270237
 20
124.8566454337378
 30
0.0
 10
336.8752432640699
 20
124.5577450576359
 30
0.0
 10
339.4151263683391
 20
124.5987052379674
 30
0.0
 10
341.8417554041768
 20
124.9725040311338
 30
0.0
 10
344.0776418309837
 20
125.6855150766301
 30
0.0
 10
345.6624354508418
 20
126.3844103202831
 30
0.0
 10
346.3475693223958
 20
126.8616641940742
 30
0.0
 10
346.4485439654661
 20
126.9322497104593
 30
0.0
  0
LINE
  5
1F8
330
1A0
100
AcDbEntity
  8
H755
  6
Continuous
 62
     7
100
AcDbLine
 10
324.4049445055
 20
30.7245470004
 30
0.0
 11
324.641226386
 21
30.5779137903
 31
0.0
  0
SPLINE
  5
1F9
330
1A0
100
AcDbEntity
  8
H755
  6
Continuous
 62
     7
100
AcDbSpline
210
0.0
220
0.0
230
1.0
 70
     8
 71
     3
 72
    16
 73
    12
 74
     0
 42
0.000000001
 43
0.0000000001
 40
0.0
 40
0.0
 40
0.0
 40
0.0
 40
0.0359876415916371
 40
0.1417692476093248
 40
0.2476020650164249
 40
0.3542422309449492
 40
0.4622616305478531
 40
0.5718964843298234
 40
0.6830422295237025
 40
0.7953557643547785
 40
0.8564971843520897
 40
0.8564971843520897
 40
0.8564971843520897
 40
0.8564971843520897
 10
306.121635536704
 20
97.97119565216985
 30
0.0
 10
305.8682490989545
 20
97.83822592995817
 30
0.0
 10
305.0179832438665
 20
97.38775952411943
 30
0.0
 10
303.570463492202
 20
96.22674571757636
 30
0.0
 10
301.9463985730948
 20
94.57938489969467
 30
0.0
 10
300.5277771412468
 20
92.64419338667828
 30
0.0
 10
299.3324434263922
 20
90.4697886897332
 30
0.0
 10
298.3677062790513
 20
88.0587483449
 30
0.0
 10
297.6425556456655
 20
85.42357279855628
 30
0.0
 10
297.2458087670612
 20
83.04428820776175
 30
0.0
 10
297.0967982570692
 20
81.50542441556438
 30
0.0
 10
297.0586274799663
 20
80.96178598537534
 30
0.0
  0
SPLINE
  5
1FA
330
1A0
100
AcDbEntity
  8
H755
  6
Continuous
 62
     7
100
AcDbSpline
210
0.0
220
0.0
230
1.0
 70
     8
 71
     3
 72
    17
 73
    13
 74
     0
 42
0.000000001
 43
0.0000000001
 40
0.0
 40
0.0
 40
0.0
 40
0.0
 40
0.0624345669888959
 40
0.1803417120593902
 40
0.2983170563594146
 40
0.4159303560107853
 40
0.5327204829169992
 40
0.6481656994266333
 40
0.7618558317414711
 40
0.8736934654500265
 40
0.9839975013895421
 40
1.0
 40
1.0
 40
1.0
 40
1.0
 10
324.6412263860043
 20
30.57791379028971
 30
0.0
 10
325.1694297200156
 20
30.28062455998759
 30
0.0
 10
326.4662811629781
 20
29.55784622625385
 30
0.0
 10
328.8311886040955
 20
28.46386049236779
 30
0.0
 10
331.5406718095245
 20
27.51328329019276
 30
0.0
 10
334.2414593270248
 20
26.87705572241045
 30
0.0
 10
336.875243264071
 20
26.57815534630881
 30
0.0
 10
339.4151263683402
 20
26.61911552664042
 30
0.0
 10
341.8417554041778
 20
26.99291431980694
 30
0.0
 10
344.0776418309847
 20
27.70592536530342
 30
0.0
 10
345.6624354508426
 20
28.40482060895624
 30
0.0
 10
346.3475693223962
 20
28.88207448274735
 30
0.0
 10
346.4485439654663
 20
28.95265999913227
 30
0.0
  0
ARC
  5
1FB
330
1A0
100
AcDbEntity
  8
H755
  6
Continuous
 62
     7
100
AcDbCircle
 10
155.3749387295
 20
37.3705792159
 30
0.0
 40
4.999999999999993
100
AcDbArc
 50
60.2423794995
 51
118.9831557617
  0
ENDBLK
  5
1FD
330
1A0
100
AcDbEntity
  8
0
100
AcDbBlockEnd
  0
BLOCK
  5
23C
330
1FE
100
AcDbEntity
  8
0
100
AcDbBlockBegin
  2
SE5
 70
     0
 10
0.0
 20
0.0
 30
0.0
  3
SE5
  1

  0
LINE
  5
200
330
1FE
100
AcDbEntity
  8
H755
  6
Continuous
 62
     7
100
AcDbLine
 10
610.8847477811
 20
-374.1862525979
 30
0.0
 11
644.8847477811
 21
-374.1862525979
 31
0.0
  0
LINE
  5
201
330
1FE
100
AcDbEntity
  8
H755
  6
Continuous
 62
     7
100
AcDbLine
 10
712.8847477811
 20
-71.1862525979
 30
0.0
 11
746.8847477811
 21
-71.1862525979
 31
0.0
  0
LINE
  5
202
330
1FE
100
AcDbEntity
  8
H755
  6
Continuous
 62
     7
100
AcDbLine
 10
699.8847477811
 20
-84.1862525979
 30
0.0
 11
699.8847477811
 21
-118.1862525979
 31
0.0
  0
LINE
  5
203
330
1FE
100
AcDbEntity
  8
H755
  6
Continuous
 62
     7
100
AcDbLine
 10
644.8847477811
 20
73.8137474021
 30
0.0
 11
610.8847477811
 21
73.8137474021
 31
0.0
  0
LINE
  5
204
330
1FE
100
AcDbEntity
  8
H755
  6
Continuous
 62
     7
100
AcDbLine
 10
667.8847477811
 20
148.8137474021
 30
0.0
 11
587.8847477811
 21
148.8137474021
 31
0.0
  0
LINE
  5
205
330
1FE
100
AcDbEntity
  8
H755
  6
Continuous
 62
     7
100
AcDbLine
 10
610.8847477811
 20
73.8137474021
 30
0.0
 11
644.8847477811
 21
73.8137474021
 31
0.0
  0
LINE
  5
206
330
1FE
100
AcDbEntity
  8
H755
  6
Continuous
 62
     7
100
AcDbLine
 10
746.8847477811
 20
73.8137474021
 30
0.0
 11
712.8847477811
 21
73.8137474021
 31
0.0
  0
LINE
  5
207
330
1FE
100
AcDbEntity
  8
H755
  6
Continuous
 62
     7
100
AcDbLine
 10
769.8847477811
 20
148.8137474021
 30
0.0
 11
689.8847477811
 21
148.8137474021
 31
0.0
  0
LINE
  5
208
330
1FE
100
AcDbEntity
  8
H755
  6
Continuous
 62
     7
100
AcDbLine
 10
753.8847477811
 20
80.8137474021
 30
0.0
 11
705.8847477811
 21
80.8137474021
 31
0.0
  0
LINE
  5
209
330
1FE
100
AcDbEntity
  8
H755
  6
Continuous
 62
     7
100
AcDbLine
 10
651.8847477811
 20
80.8137474021
 30
0.0
 11
603.8847477811
 21
80.8137474021
 31
0.0
  0
LINE
  5
20A
330
1FE
100
AcDbEntity
  8
H755
  6
Continuous
 62
     7
100
AcDbLine
 10
769.8847477811
 20
140.3137474021
 30
0.0
 11
689.8847477811
 21
140.3137474021
 31
0.0
  0
LINE
  5
20B
330
1FE
100
AcDbEntity
  8
H755
  6
Continuous
 62
     7
100
AcDbLine
 10
691.0847477811
 20
137.9137474021
 30
0.0
 11
768.6847477811
 21
137.9137474021
 31
0.0
  0
LINE
  5
20C
330
1FE
100
AcDbEntity
  8
H755
  6
Continuous
 62
     7
100
AcDbLine
 10
653.8847477811
 20
128.3137474021
 30
0.0
 11
601.8847477811
 21
128.3137474021
 31
0.0
  0
LINE
  5
20D
330
1FE
100
AcDbEntity
  8
H755
  6
Continuous
 62
     7
100
AcDbLine
 10
603.8847477811
 20
124.3137474021
 30
0.0
 11
651.8847477811
 21
124.3137474021
 31
0.0
  0
LINE
  5
20E
330
1FE
100
AcDbEntity
  8
H755
  6
Continuous
 62
     7
100
AcDbLine
 10
755.8847477811
 20
128.3137474021
 30
0.0
 11
703.8847477811
 21
128.3137474021
 31
0.0
  0
LINE
  5
20F
330
1FE
100
AcDbEntity
  8
H755
  6
Continuous
 62
     7
100
AcDbLine
 10
705.8847477811
 20
124.3137474021
 30
0.0
 11
753.8847477811
 21
124.3137474021
 31
0.0
  0
LINE
  5
210
330
1FE
100
AcDbEntity
  8
H755
  6
Continuous
 62
     7
100
AcDbLine
 10
667.8847477811
 20
140.3137474021
 30
0.0
 11
587.8847477811
 21
140.3137474021
 31
0.0
  0
LINE
  5
211
330
1FE
100
AcDbEntity
  8
H755
  6
Continuous
 62
     7
100
AcDbLine
 10
589.0847477811
 20
137.9137474021
 30
0.0
 11
666.6847477811
 21
137.9137474021
 31
0.0
  0
LINE
  5
212
330
1FE
100
AcDbEntity
  8
H755
  6
Continuous
 62
     7
100
AcDbLine
 10
627.8847477811
 20
-101.1862525979
 30
0.0
 11
649.8847477811
 21
-118.1862525979
 31
0.0
  0
LINE
  5
213
330
1FE
100
AcDbEntity
  8
H755
  6
Continuous
 62
     7
100
AcDbLine
 10
627.8847477811
 20
-101.1862525979
 30
0.0
 11
649.8847477811
 21
-84.1862525979
 31
0.0
  0
LINE
  5
214
330
1FE
100
AcDbEntity
  8
H755
  6
Continuous
 62
     7
100
AcDbLine
 10
627.8847477811
 20
-101.1862525979
 30
0.0
 11
644.8847477811
 21
-123.1862525979
 31
0.0
  0
LINE
  5
215
330
1FE
100
AcDbEntity
  8
H755
  6
Continuous
 62
     7
100
AcDbLine
 10
627.8847477811
 20
-101.1862525979
 30
0.0
 11
644.8847477811
 21
-79.1862525979
 31
0.0
  0
ARC
  5
216
330
1FE
100
AcDbEntity
  8
H755
  6
Continuous
 62
     7
100
AcDbCircle
 10
627.8847477811
 20
-434.1862525979
 30
0.0
 40
17.0
100
AcDbArc
 50
180.0
 51
0.0
  0
LINE
  5
217
330
1FE
100
AcDbEntity
  8
H755
  6
Continuous
 62
     7
100
AcDbLine
 10
610.8847477811
 20
-374.1862525979
 30
0.0
 11
610.8847477811
 21
-434.1862525979
 31
0.0
  0
LINE
  5
218
330
1FE
100
AcDbEntity
  8
H755
  6
Continuous
 62
     7
100
AcDbLine
 10
644.8847477811
 20
-434.1862525979
 30
0.0
 11
644.8847477811
 21
-374.1862525979
 31
0.0
  0
ARC
  5
219
330
1FE
100
AcDbEntity
  8
H755
  6
Continuous
 62
     7
100
AcDbCircle
 10
699.8847477811
 20
-71.1862525979
 30
0.0
 40
13.0
100
AcDbArc
 50
270.0
 51
360.0
  0
ARC
  5
21A
330
1FE
100
AcDbEntity
  8
H755
  6
Continuous
 62
     7
100
AcDbCircle
 10
699.8847477811
 20
-71.1862525979
 30
0.0
 40
47.00000000000004
100
AcDbArc
 50
270.0
 51
360.0
  0
LINE
  5
21B
330
1FE
100
AcDbEntity
  8
H755
  6
Continuous
 62
     7
100
AcDbLine
 10
649.8847477811
 20
-118.1862525979
 30
0.0
 11
699.8847477811
 21
-118.1862525979
 31
0.0
  0
LINE
  5
21C
330
1FE
100
AcDbEntity
  8
H755
  6
Continuous
 62
     7
100
AcDbLine
 10
699.8847477811
 20
-84.1862525979
 30
0.0
 11
649.8847477811
 21
-84.1862525979
 31
0.0
  0
LINE
  5
21D
330
1FE
100
AcDbEntity
  8
H755
  6
Continuous
 62
     7
100
AcDbLine
 10
644.8847477811
 20
-79.1862525979
 30
0.0
 11
644.8847477811
 21
73.8137474021
 31
0.0
  0
LINE
  5
21E
330
1FE
100
AcDbEntity
  8
H755
  6
Continuous
 62
     7
100
AcDbLine
 10
644.8847477811
 20
-374.1862525979
 30
0.0
 11
644.8847477811
 21
-123.1862525979
 31
0.0
  0
LINE
  5
21F
330
1FE
100
AcDbEntity
  8
H755
  6
Continuous
 62
     7
100
AcDbLine
 10
610.8847477811
 20
73.8137474021
 30
0.0
 11
610.8847477811
 21
-374.1862525979
 31
0.0
  0
LINE
  5
220
330
1FE
100
AcDbEntity
  8
H755
  6
Continuous
 62
     7
100
AcDbLine
 10
603.8847477811
 20
124.3137474021
 30
0.0
 11
603.8847477811
 21
80.8137474021
 31
0.0
  0
LINE
  5
221
330
1FE
100
AcDbEntity
  8
H755
  6
Continuous
 62
     7
100
AcDbLine
 10
651.8847477811
 20
80.8137474021
 30
0.0
 11
651.8847477811
 21
124.3137474021
 31
0.0
  0
LINE
  5
222
330
1FE
100
AcDbEntity
  8
H755
  6
Continuous
 62
     7
100
AcDbLine
 10
589.0847477811
 20
137.9137474021
 30
0.0
 11
601.8847477811
 21
128.3137474021
 31
0.0
  0
LINE
  5
223
330
1FE
100
AcDbEntity
  8
H755
  6
Continuous
 62
     7
100
AcDbLine
 10
653.8847477811
 20
128.3137474021
 30
0.0
 11
666.6847477811
 21
137.9137474021
 31
0.0
  0
LINE
  5
224
330
1FE
100
AcDbEntity
  8
H755
  6
Continuous
 62
     7
100
AcDbLine
 10
587.8847477811
 20
148.8137474021
 30
0.0
 11
587.8847477811
 21
140.3137474021
 31
0.0
  0
LINE
  5
225
330
1FE
100
AcDbEntity
  8
H755
  6
Continuous
 62
     7
100
AcDbLine
 10
667.8847477811
 20
140.3137474021
 30
0.0
 11
667.8847477811
 21
148.8137474021
 31
0.0
  0
LINE
  5
226
330
1FE
100
AcDbEntity
  8
H755
  6
Continuous
 62
     7
100
AcDbLine
 10
746.8847477811
 20
-71.1862525979
 30
0.0
 11
746.8847477811
 21
73.8137474021
 31
0.0
  0
LINE
  5
227
330
1FE
100
AcDbEntity
  8
H755
  6
Continuous
 62
     7
100
AcDbLine
 10
712.8847477811
 20
73.8137474021
 30
0.0
 11
712.8847477811
 21
-71.1862525979
 31
0.0
  0
LINE
  5
228
330
1FE
100
AcDbEntity
  8
H755
  6
Continuous
 62
     7
100
AcDbLine
 10
705.8847477811
 20
124.3137474021
 30
0.0
 11
705.8847477811
 21
80.8137474021
 31
0.0
  0
LINE
  5
229
330
1FE
100
AcDbEntity
  8
H755
  6
Continuous
 62
     7
100
AcDbLine
 10
753.8847477811
 20
80.8137474021
 30
0.0
 11
753.8847477811
 21
124.3137474021
 31
0.0
  0
LINE
  5
22A
330
1FE
100
AcDbEntity
  8
H755
  6
Continuous
 62
     7
100
AcDbLine
 10
691.0847477811
 20
137.9137474021
 30
0.0
 11
703.8847477811
 21
128.3137474021
 31
0.0
  0
LINE
  5
22B
330
1FE
100
AcDbEntity
  8
H755
  6
Continuous
 62
     7
100
AcDbLine
 10
755.8847477811
 20
128.3137474021
 30
0.0
 11
768.6847477811
 21
137.9137474021
 31
0.0
  0
LINE
  5
22C
330
1FE
100
AcDbEntity
  8
H755
  6
Continuous
 62
     7
100
AcDbLine
 10
689.8847477811
 20
148.8137474021
 30
0.0
 11
689.8847477811
 21
140.3137474021
 31
0.0
  0
LINE
  5
22D
330
1FE
100
AcDbEntity
  8
H755
  6
Continuous
 62
     7
100
AcDbLine
 10
769.8847477811
 20
140.3137474021
 30
0.0
 11
769.8847477811
 21
148.8137474021
 31
0.0
  0
ARC
  5
22E
330
1FE
100
AcDbEntity
  8
H755
  6
Continuous
 62
     7
100
AcDbCircle
 10
712.8847477811
 20
80.8137474021
 30
0.0
 40
6.999999999999992
100
AcDbArc
 50
180.0
 51
270.0
  0
ARC
  5
22F
330
1FE
100
AcDbEntity
  8
H755
  6
Continuous
 62
     7
100
AcDbCircle
 10
746.8847477811
 20
80.8137474021
 30
0.0
 40
7.000000000000006
100
AcDbArc
 50
270.0
 51
0.0
  0
ARC
  5
230
330
1FE
100
AcDbEntity
  8
H755
  6
Continuous
 62
     7
100
AcDbCircle
 10
610.8847477811
 20
80.8137474021
 30
0.0
 40
6.999999999999999
100
AcDbArc
 50
180.0
 51
270.0
  0
ARC
  5
231
330
1FE
100
AcDbEntity
  8
H755
  6
Continuous
 62
     7
100
AcDbCircle
 10
644.8847477811
 20
80.8137474021
 30
0.0
 40
7.000000000000006
100
AcDbArc
 50
270.0
 51
0.0
  0
ARC
  5
232
330
1FE
100
AcDbEntity
  8
H755
  6
Continuous
 62
     7
100
AcDbCircle
 10
766.8847477811
 20
140.3137474021
 30
0.0
 40
2.999999999999997
100
AcDbArc
 50
306.8698976458
 51
0.0
  0
ARC
  5
233
330
1FE
100
AcDbEntity
  8
H755
  6
Continuous
 62
     7
100
AcDbCircle
 10
692.8847477811
 20
140.3137474021
 30
0.0
 40
3.000000000000003
100
AcDbArc
 50
180.0
 51
233.1301023542
  0
ARC
  5
234
330
1FE
100
AcDbEntity
  8
H755
  6
Continuous
 62
     7
100
AcDbCircle
 10
598.8847477811
 20
124.3137474021
 30
0.0
 40
4.999999999999993
100
AcDbArc
 50
0.0
 51
53.1301023542
  0
ARC
  5
235
330
1FE
100
AcDbEntity
  8
H755
  6
Continuous
 62
     7
100
AcDbCircle
 10
656.8847477811
 20
124.3137474021
 30
0.0
 40
5.000000000000001
100
AcDbArc
 50
126.8698976458
 51
180.0
  0
ARC
  5
236
330
1FE
100
AcDbEntity
  8
H755
  6
Continuous
 62
     7
100
AcDbCircle
 10
700.8847477811
 20
124.3137474021
 30
0.0
 40
4.999999999999998
100
AcDbArc
 50
0.0
 51
53.1301023542
  0
ARC
  5
237
330
1FE
100
AcDbEntity
  8
H755
  6
Continuous
 62
     7
100
AcDbCircle
 10
758.8847477811
 20
124.3137474021
 30
0.0
 40
5.000000000000004
100
AcDbArc
 50
126.8698976458
 51
180.0
  0
ARC
  5
238
330
1FE
100
AcDbEntity
  8
H755
  6
Continuous
 62
     7
100
AcDbCircle
 10
664.8847477811
 20
140.3137474021
 30
0.0
 40
3.000000000000001
100
AcDbArc
 50
306.8698976458
 51
0.0
  0
ARC
  5
239
330
1FE
100
AcDbEntity
  8
H755
  6
Continuous
 62
     7
100
AcDbCircle
 10
590.8847477811
 20
140.3137474021
 30
0.0
 40
3.000000000000003
100
AcDbArc
 50
180.0
 51
233.1301023542
  0
ARC
  5
23A
330
1FE
100
AcDbEntity
  8
H755
  6
Continuous
 62
     7
100
AcDbCircle
 10
649.8847477811
 20
-79.1862525979
 30
0.0
 40
4.999999999999999
100
AcDbArc
 50
180.2990591984
 51
269.717158053
  0
ARC
  5
23B
330
1FE
100
AcDbEntity
  8
H755
  6
Continuous
 62
     7
100
AcDbCircle
 10
649.8847477811
 20
-123.1862525979
 30
0.0
 40
5.000000000000013
100
AcDbArc
 50
90.2990591984
 51
179.717158053
  0
ENDBLK
  5
23D
330
1FE
100
AcDbEntity
  8
0
100
AcDbBlockEnd
  0
ENDSEC
  0
SECTION
  2
ENTITIES
  0
LINE
  5
6F
330
1F
100
AcDbEntity
  8
encadrement
  6
Continuous
 62
     7
100
AcDbLine
 10
10.0
 20
80.035459542
 30
0.0
 11
200.0
 21
80.035459542
 31
0.0
  0
LINE
  5
70
330
1F
100
AcDbEntity
  8
encadrement
  6
Continuous
 62
     7
100
AcDbLine
 10
10.0
 20
65.035459542
 30
0.0
 11
200.0
 21
65.035459542
 31
0.0
  0
LINE
  5
71
330
1F
100
AcDbEntity
  8
encadrement
  6
Continuous
 62
     7
100
AcDbLine
 10
10.0
 20
55.035459542
 30
0.0
 11
200.0
 21
55.035459542
 31
0.0
  0
LINE
  5
72
330
1F
100
AcDbEntity
  8
encadrement
  6
Continuous
 62
     7
100
AcDbLine
 10
10.0
 20
45.035459542
 30
0.0
 11
200.0
 21
45.035459542
 31
0.0
  0
LINE
  5
73
330
1F
100
AcDbEntity
  8
encadrement
  6
Continuous
 62
     7
100
AcDbLine
 10
10.0
 20
35.035459542
 30
0.0
 11
200.0
 21
35.035459542
 31
0.0
  0
INSERT
  5
76
330
1F
100
AcDbEntity
  8
Cartouche
100
AcDbBlockReference
  2
SEANNOT_GROUP
 10
0.0
 20
0.0
 30
0.0
  0
MULTILEADER
  5
7E
330
1F
100
AcDbEntity
  8
Cartouche
  6
Continuous
 62
     7
 92
      816
310
300300000F0000000C00000013000000993A0000B800000026000000F4C526D1C9ED4A409B0C877117947C40000000000000000000000000000000000000000000000000000000000000F03F000000000000F03F00000000000000000000000000000000D80033003400000003000000010000000000000000003040000000
310
000000F03F0000000000000000000000000000F03F00000000000000000000000000000000000000000100000000000000000000002200000041007200690061006C00000000000000000000000C00000013000000112700000C0000001300000001000000880000001D000000875FBC5AC5290640276A146E6D6523400000
310
0000000000008B3763E023486240276A146E6D6523C0875FBC5AC529064000000000000000009AA5FF61303B7A40000000000000000000000000000000006C881EB90D2C24400000000000000000000000000000000000000000000000000000000000000000000000000000F03F0C00000012000000FF7F00005400000020
310
00000002000000000000000000000000000000000000000000000000000000000000000000F0BF0000000000000000000000000000000000000000000000000000000000000000000000000000F03F080000001F000000880000001D000000000000000000F03F000000000000000000000000000000000000000000000000
310
0000000000000000000000000000F03F0000000000000000000000000000000000000000000000000000000000000000000000000000F03F0000000000000000000000000000000000000000000000000000000000000000000000000000F03F080000001F0000000C00000013000000891300000C00000012000000000000
310
005400000020000000020000000D46F8CA7CEF6140EB4870CD5BD67A40000000000000000033A54749EBA460405AACA1A0F4187D40000000000000000000000000000000000000000000000000000000000000F03F0C000000130000001127000054000000200000000200000033A54749EBA460405AACA1A0F4187D400000
310
000000000000664A8F92D64959405AACA1A0F4187D40000000000000000000000000000000000000000000000000000000000000F03F
100
AcDbMLeader
300
CONTEXT_DATA{
 40
1.0
 10
52.513721466
 20
459.5597235027
 30
0.0
 41
16.0
140
10.0860421991
145
5.6
174
     1
175
     1
176
     0
177
     0
290
     1
304
{\pxsm0.9;\fArial|b1||i0||c0|p34;\W1.;%%c34\P}
 11
0.0
 21
0.0
 31
1.0
340
11
 12
54.513721466
 22
474.0077235027
 32
0.0
 13
1.0
 23
0.0
 33
0.0
 42
0.0
 43
0.0
 44
0.0
 45
1.0
170
     1
 90
-1073741824
171
     1
172
     1
 91
-939524096
141
1.5
 92
        0
291
     0
292
     0
173
     0
293
     0
142
0.0
143
0.0
294
     0
295
     0
296
     0
110
0.0
120
0.0
130
0.0
111
1.0
121
0.0
131
0.0
112
0.0
122
1.0
132
0.0
297
     0
302
LEADER{
290
     1
291
     1
 10
133.153721466
 20
465.5597235027
 30
0.0
 11
-1.0
 21
0.0
 31
0.0
 90
        0
 40
32.0
304
LEADER_LINE{
 10
146.2543794573
 20
419.6993122088
 30
0.0
 91
        0
305
}
303
}
301
}
340
6C
 90
 35052448
170
     1
 91
-1056964608
341
14
171
    -2
290
     1
291
     1
 41
32.0
342
79
 42
4.0
172
     2
343
11
173
     1
 95
        1
174
     1
175
     0
 92
-1073741824
292
     0
 93
-1023410169
 10
1.0
 20
1.0
 30
1.0
 43
0.0
176
     0
293
     0
294
     0
178
     0
179
     1
 45
1.0
1001
ACAD_MLEADERVER
1070
     2
  0
INSERT
  5
80
330
1F
100
AcDbEntity
  8
Cartouche
100
AcDbBlockReference
  2
SE
 10
0.0
 20
0.0
 30
0.0
  0
INSERT
  5
A8
330
1F
100
AcDbEntity
  8
Cartouche
100
AcDbBlockReference
  2
SE1
 10
0.0
 20
0.0
 30
0.0
  0
INSERT
  5
E2
330
1F
100
AcDbEntity
  8
Cartouche
100
AcDbBlockReference
  2
SE2
 10
0.0
 20
0.0
 30
0.0
  0
DIMENSION
  5
149
330
1F
100
AcDbEntity
  8
Cartouche
  6
Continuous
 62
     7
100
AcDbDimension
  2
DMBLK68
 10
253.7198471005
 20
466.3555874811
 30
0.0
 11
378.7198471005
 21
466.3555874811
 31
0.0
 70
   160
  1
\A1;<>
 71
     5
 42
-1.0
 73
     0
 74
     0
 75
     0
  3
ISO
100
AcDbAlignedDimension
 13
503.7198471005
 23
282.6993122088
 33
0.0
 14
253.7198471005
 24
402.6993122088
 34
0.0
100
AcDbRotatedDimension
  0
DIMENSION
  5
155
330
1F
100
AcDbEntity
  8
Cartouche
  6
Continuous
 62
     7
100
AcDbDimension
  2
DMBLK69
 10
-96.2801528995
 20
498.6926671253
 30
0.0
 11
203.7198351795
 21
498.6926671253
 31
0.0
 70
   160
  1
\A1;<>
 71
     5
 42
-1.0
 73
     0
 74
     0
 75
     0
  3
ISO
100
AcDbAlignedDimension
 13
503.7198471005
 23
402.6993122088
 33
0.0
 14
-96.2801528995
 24
342.6993122088
 34
0.0
100
AcDbRotatedDimension
  0
DIMENSION
  5
160
330
1F
100
AcDbEntity
  8
Cartouche
  6
Continuous
 62
     7
100
AcDbDimension
  2
DMBLK70
 10
627.8847477811
 20
497.3476138102
 30
0.0
 11
678.8847468274
 21
497.3476138102
 31
0.0
 70
   161
  1
\A1;<>
 71
     5
 42
-1.0
 73
     0
 74
     0
 75
     0
  3
ISO
100
AcDbAlignedDimension
 13
627.8847477811
 23
402.6993122088
 33
0.0
 14
729.8847477811
 24
402.6993122088
 34
0.0
  0
INSERT
  5
16C
330
1F
100
AcDbEntity
  8
Cartouche
100
AcDbBlockReference
  2
SE3
 10
0.0
 20
0.0
 30
0.0
  0
INSERT
  5
1A1
330
1F
100
AcDbEntity
  8
Cartouche
100
AcDbBlockReference
  2
SE4
 10
0.0
 20
0.0
 30
0.0
  0
INSERT
  5
1FF
330
1F
100
AcDbEntity
  8
Cartouche
100
AcDbBlockReference
  2
SE5
 10
0.0
 20
0.0
 30
0.0
  0
ENDSEC
  0
SECTION
  2
OBJECTS
  0
DICTIONARY
  5
C
330
0
100
AcDbDictionary
281
     1
  3
ACAD_DETAILVIEWSTYLE
350
279
  3
ACAD_GROUP
350
D
  3
ACAD_LAYOUT
350
1A
  3
ACAD_MATERIAL
350
43
  3
ACAD_MLEADERSTYLE
350
6B
  3
ACAD_MLINESTYLE
350
17
  3
ACAD_PLOTSETTINGS
350
19
  3
ACAD_PLOTSTYLENAME
350
E
  3
ACAD_SCALELIST
350
47
  3
ACAD_SECTIONVIEWSTYLE
350
27A
  3
ACAD_TABLESTYLE
350
69
  3
ACAD_VISUALSTYLE
350
2A
  3
ACDB_RECOMPOSE_DATA
350
276
  3
AcDbVariableDictionary
350
23F
  0
SUN
  5
6D
330
29
100
AcDbSun
 90
        1
290
     0
 63
     7
421
 16777215
 40
1.0
291
     1
 91
  2455826
 92
 54000000
292
     0
 70
     2
 71
   256
280
     1
  0
DICTIONARY
  5
279
102
{ACAD_REACTORS
330
C
102
}
330
C
100
AcDbDictionary
281
     1
  0
DICTIONARY
  5
D
102
{ACAD_REACTORS
330
C
102
}
330
C
100
AcDbDictionary
281
     1
  0
DICTIONARY
  5
1A
102
{ACAD_REACTORS
330
C
102
}
330
C
100
AcDbDictionary
281
     1
  3
Layout1
350
1E
  3
Model
350
22
  0
DICTIONARY
  5
43
102
{ACAD_REACTORS
330
C
102
}
330
C
100
AcDbDictionary
281
     1
  3
ByBlock
350
45
  3
ByLayer
350
44
  3
Global
350
46
  0
DICTIONARY
  5
6B
102
{ACAD_REACTORS
330
C
102
}
330
C
100
AcDbDictionary
281
     1
  3
Standard
350
6C
  0
DICTIONARY
  5
17
102
{ACAD_REACTORS
330
C
102
}
330
C
100
AcDbDictionary
281
     1
  3
Standard
350
18
  0
DICTIONARY
  5
19
102
{ACAD_REACTORS
330
C
102
}
330
C
100
AcDbDictionary
281
     1
  0
ACDBDICTIONARYWDFLT
  5
E
102
{ACAD_REACTORS
330
C
102
}
330
C
100
AcDbDictionary
281
     1
  3
Normal
350
F
100
AcDbDictionaryWithDefault
340
F
  0
DICTIONARY
  5
47
102
{ACAD_REACTORS
330
C
102
}
330
C
100
AcDbDictionary
281
     1
  3
A0
350
48
  3
A1
350
49
  3
A2
350
4A
  3
A3
350
4B
  3
A4
350
4C
  3
A5
350
4D
  3
A6
350
4E
  3
A7
350
4F
  3
A8
350
50
  3
A9
350
51
  3
B0
350
52
  3
B1
350
53
  3
B2
350
54
  3
B3
350
55
  3
B4
350
56
  3
B5
350
57
  3
B6
350
58
  3
B7
350
59
  3
B8
350
5A
  3
B9
350
5B
  3
C0
350
5C
  3
C1
350
5D
  3
C2
350
5E
  3
C3
350
5F
  3
C4
350
60
  3
C5
350
61
  3
C6
350
62
  3
C7
350
63
  3
C8
350
64
  3
C9
350
65
  3
D0
350
66
  3
D1
350
67
  3
D2
350
68
  0
DICTIONARY
  5
27A
102
{ACAD_REACTORS
330
C
102
}
330
C
100
AcDbDictionary
281
     1
  0
DICTIONARY
  5
69
102
{ACAD_REACTORS
330
C
102
}
330
C
100
AcDbDictionary
281
     1
  3
Standard
350
6A
  0
DICTIONARY
  5
2A
102
{ACAD_REACTORS
330
C
102
}
330
C
100
AcDbDictionary
281
     1
  3
2dWireframe
350
2F
  3
Basic
350
32
  3
Brighten
350
36
  3
ColorChange
350
3A
  3
Conceptual
350
34
  3
Dim
350
35
  3
EdgeColorOff
350
3D
  3
Facepattern
350
39
  3
Flat
350
2B
  3
FlatWithEdges
350
2C
  3
Gouraud
350
2D
  3
GouraudWithEdges
350
2E
  3
Hidden
350
31
  3
JitterOff
350
3B
  3
Linepattern
350
38
  3
OverhangOff
350
3C
  3
Realistic
350
33
  3
Shaded
350
42
  3
Shaded with edges
350
41
  3
Shades of Gray
350
3E
  3
Sketchy
350
3F
  3
Thicken
350
37
  3
Wireframe
350
30
  3
X-Ray
350
40
  0
XRECORD
  5
276
102
{ACAD_REACTORS
330
C
102
}
330
C
100
AcDbXrecord
280
     1
 90
        1
330
6A
  0
DICTIONARY
  5
23F
102
{ACAD_REACTORS
330
C
102
}
330
C
100
AcDbDictionary
281
     1
  3
CANNOSCALE
350
240
  3
CMLEADERSTYLE
350
278
  3
CTABLESTYLE
350
277
  3
SECTIONTHICKNESSINC
350
27B
  3
XCLIPFRAME
350
241
  0
LAYOUT
  5
1E
102
{ACAD_REACTORS
330
1A
102
}
330
1A
100
AcDbPlotSettings
  1

  2
none_device
  4

  6

 40
0.0
 41
0.0
 42
0.0
 43
0.0
 44
0.0
 45
0.0
 46
0.0
 47
0.0
 48
0.0
 49
0.0
140
0.0
141
0.0
142
1.0
143
1.0
 70
   688
 72
     1
 73
     0
 74
     5
  7

 75
    16
 76
     0
 77
     2
 78
   300
147
1.0
148
0.0
149
0.0
100
AcDbLayout
  1
Layout1
 70
     1
 71
     1
 10
0.0
 20
0.0
 11
550.0
 21
511.0
 12
0.0
 22
0.0
 32
0.0
 14
0.0
 24
0.0
 34
0.0
 15
550.0
 25
511.0
 35
0.0
146
0.0
 13
0.0
 23
0.0
 33
0.0
 16
1.0
 26
0.0
 36
0.0
 17
0.0
 27
1.0
 37
0.0
 76
     0
330
1B
  0
LAYOUT
  5
22
102
{ACAD_REACTORS
330
1A
102
}
330
1A
100
AcDbPlotSettings
  1

  2
none_device
  4
Letter_(8.50_x_11.00_Inches)
  6

 40
6.35
 41
6.35
 42
6.35000508
 43
6.35000508
 44
215.9
 45
279.4
 46
0.0
 47
0.0
 48
0.0
 49
0.0
140
0.0
141
0.0
142
1.0
143
1.0
 70
  1712
 72
     1
 73
     0
 74
     0
  7

 75
     0
 76
     0
 77
     2
 78
   300
147
1.0
148
0.0
149
0.0
100
AcDbLayout
  1
Model
 70
     1
 71
     0
 10
0.0
 20
0.0
 11
550.0
 21
511.0
 12
0.0
 22
0.0
 32
0.0
 14
0.0
 24
0.0
 34
0.0
 15
550.0
 25
511.0
 35
0.0
146
0.0
 13
0.0
 23
0.0
 33
0.0
 16
1.0
 26
0.0
 36
0.0
 17
0.0
 27
1.0
 37
0.0
 76
     0
330
1F
331
29
  0
MATERIAL
  5
45
102
{ACAD_REACTORS
330
43
102
}
330
43
100
AcDbMaterial
  1
ByBlock
 72
     1
 94
      127
  0
MATERIAL
  5
44
102
{ACAD_REACTORS
330
43
102
}
330
43
100
AcDbMaterial
  1
ByLayer
 72
     1
 94
      127
  0
MATERIAL
  5
46
102
{ACAD_REACTORS
330
43
102
}
330
43
100
AcDbMaterial
  1
Global
 72
     1
 94
      127
  0
MLEADERSTYLE
  5
6C
102
{ACAD_REACTORS
330
6B
102
}
102
{ACAD_XDICTIONARY
360
274
102
}
330
6B
100
AcDbMLeaderStyle
170
     2
171
     1
172
     0
 90
        2
 40
0.0
 41
0.0
173
     1
 91
-1056964608
340
14
 92
       -2
290
     1
 42
2.0
291
     1
 43
8.0
  3
Standard
341
0
 44
4.0
300

342
11
174
     1
178
     6
175
     1
176
     0
 93
-1056964608
 45
4.0
292
     0
297
     0
 46
4.0
343
0
 94
-1056964608
 47
1.0
 49
1.0
140
1.0
293
     1
141
0.0
294
     1
177
     0
142
1.0
295
     0
296
     0
143
3.75
1001
ACAD_MLEADERVER
1070
     2
  0
MLINESTYLE
  5
18
102
{ACAD_REACTORS
330
17
102
}
330
17
100
AcDbMlineStyle
  2
Standard
 70
     0
  3

 62
   256
 51
90.0
 52
90.0
 71
     2
 49
0.5
 62
   256
  6
BYLAYER
 49
-0.5
 62
   256
  6
BYLAYER
  0
ACDBPLACEHOLDER
  5
F
102
{ACAD_REACTORS
330
E
102
}
330
E
  0
SCALE
  5
48
102
{ACAD_REACTORS
330
47
102
}
330
47
100
AcDbScale
 70
     0
300
1:1
140
1.0
141
1.0
290
     1
  0
SCALE
  5
49
102
{ACAD_REACTORS
330
47
102
}
330
47
100
AcDbScale
 70
     0
300
1:2
140
1.0
141
2.0
290
     0
  0
SCALE
  5
4A
102
{ACAD_REACTORS
330
47
102
}
330
47
100
AcDbScale
 70
     0
300
1:4
140
1.0
141
4.0
290
     0
  0
SCALE
  5
4B
102
{ACAD_REACTORS
330
47
102
}
330
47
100
AcDbScale
 70
     0
300
1:5
140
1.0
141
5.0
290
     0
  0
SCALE
  5
4C
102
{ACAD_REACTORS
330
47
102
}
330
47
100
AcDbScale
 70
     0
300
1:8
140
1.0
141
8.0
290
     0
  0
SCALE
  5
4D
102
{ACAD_REACTORS
330
47
102
}
330
47
100
AcDbScale
 70
     0
300
1:10
140
1.0
141
10.0
290
     0
  0
SCALE
  5
4E
102
{ACAD_REACTORS
330
47
102
}
330
47
100
AcDbScale
 70
     0
300
1:16
140
1.0
141
16.0
290
     0
  0
SCALE
  5
4F
102
{ACAD_REACTORS
330
47
102
}
330
47
100
AcDbScale
 70
     0
300
1:20
140
1.0
141
20.0
290
     0
  0
SCALE
  5
50
102
{ACAD_REACTORS
330
47
102
}
330
47
100
AcDbScale
 70
     0
300
1:30
140
1.0
141
30.0
290
     0
  0
SCALE
  5
51
102
{ACAD_REACTORS
330
47
102
}
330
47
100
AcDbScale
 70
     0
300
1:40
140
1.0
141
40.0
290
     0
  0
SCALE
  5
52
102
{ACAD_REACTORS
330
47
102
}
330
47
100
AcDbScale
 70
     0
300
1:50
140
1.0
141
50.0
290
     0
  0
SCALE
  5
53
102
{ACAD_REACTORS
330
47
102
}
330
47
100
AcDbScale
 70
     0
300
1:100
140
1.0
141
100.0
290
     0
  0
SCALE
  5
54
102
{ACAD_REACTORS
330
47
102
}
330
47
100
AcDbScale
 70
     0
300
2:1
140
2.0
141
1.0
290
     0
  0
SCALE
  5
55
102
{ACAD_REACTORS
330
47
102
}
330
47
100
AcDbScale
 70
     0
300
4:1
140
4.0
141
1.0
290
     0
  0
SCALE
  5
56
102
{ACAD_REACTORS
330
47
102
}
330
47
100
AcDbScale
 70
     0
300
8:1
140
8.0
141
1.0
290
     0
  0
SCALE
  5
57
102
{ACAD_REACTORS
330
47
102
}
330
47
100
AcDbScale
 70
     0
300
10:1
140
10.0
141
1.0
290
     0
  0
SCALE
  5
58
102
{ACAD_REACTORS
330
47
102
}
330
47
100
AcDbScale
 70
     0
300
100:1
140
100.0
141
1.0
290
     0
  0
SCALE
  5
59
102
{ACAD_REACTORS
330
47
102
}
330
47
100
AcDbScale
 70
     0
300
1/128" = 1'-0"
140
0.0078125
141
12.0
290
     0
  0
SCALE
  5
5A
102
{ACAD_REACTORS
330
47
102
}
330
47
100
AcDbScale
 70
     0
300
1/64" = 1'-0"
140
0.015625
141
12.0
290
     0
  0
SCALE
  5
5B
102
{ACAD_REACTORS
330
47
102
}
330
47
100
AcDbScale
 70
     0
300
1/32" = 1'-0"
140
0.03125
141
12.0
290
     0
  0
SCALE
  5
5C
102
{ACAD_REACTORS
330
47
102
}
330
47
100
AcDbScale
 70
     0
300
1/16" = 1'-0"
140
0.0625
141
12.0
290
     0
  0
SCALE
  5
5D
102
{ACAD_REACTORS
330
47
102
}
330
47
100
AcDbScale
 70
     0
300
3/32" = 1'-0"
140
0.09375
141
12.0
290
     0
  0
SCALE
  5
5E
102
{ACAD_REACTORS
330
47
102
}
330
47
100
AcDbScale
 70
     0
300
1/8" = 1'-0"
140
0.125
141
12.0
290
     0
  0
SCALE
  5
5F
102
{ACAD_REACTORS
330
47
102
}
330
47
100
AcDbScale
 70
     0
300
3/16" = 1'-0"
140
0.1875
141
12.0
290
     0
  0
SCALE
  5
60
102
{ACAD_REACTORS
330
47
102
}
330
47
100
AcDbScale
 70
     0
300
1/4" = 1'-0"
140
0.25
141
12.0
290
     0
  0
SCALE
  5
61
102
{ACAD_REACTORS
330
47
102
}
330
47
100
AcDbScale
 70
     0
300
3/8" = 1'-0"
140
0.375
141
12.0
290
     0
  0
SCALE
  5
62
102
{ACAD_REACTORS
330
47
102
}
330
47
100
AcDbScale
 70
     0
300
1/2" = 1'-0"
140
0.5
141
12.0
290
     0
  0
SCALE
  5
63
102
{ACAD_REACTORS
330
47
102
}
330
47
100
AcDbScale
 70
     0
300
3/4" = 1'-0"
140
0.75
141
12.0
290
     0
  0
SCALE
  5
64
102
{ACAD_REACTORS
330
47
102
}
330
47
100
AcDbScale
 70
     0
300
1" = 1'-0"
140
1.0
141
12.0
290
     0
  0
SCALE
  5
65
102
{ACAD_REACTORS
330
47
102
}
330
47
100
AcDbScale
 70
     0
300
1-1/2" = 1'-0"
140
1.5
141
12.0
290
     0
  0
SCALE
  5
66
102
{ACAD_REACTORS
330
47
102
}
330
47
100
AcDbScale
 70
     0
300
3" = 1'-0"
140
3.0
141
12.0
290
     0
  0
SCALE
  5
67
102
{ACAD_REACTORS
330
47
102
}
330
47
100
AcDbScale
 70
     0
300
6" = 1'-0"
140
6.0
141
12.0
290
     0
  0
SCALE
  5
68
102
{ACAD_REACTORS
330
47
102
}
330
47
100
AcDbScale
 70
     0
300
1'-0" = 1'-0"
140
12.0
141
12.0
290
     0
  0
TABLESTYLE
  5
6A
102
{ACAD_REACTORS
330
69
102
}
102
{ACAD_XDICTIONARY
360
272
102
}
330
69
100
AcDbTableStyle
  3
Standard
 70
     0
 71
     0
 40
0.06
 41
0.06
280
     0
281
     0
  7
Standard
140
4.5
170
     2
 62
     0
 63
   257
283
     0
 90
        4
 91
        0
  1

274
    -2
284
     1
 64
     0
275
    -2
285
     1
 65
     0
276
    -2
286
     1
 66
     0
277
    -2
287
     1
 67
     0
278
    -2
288
     1
 68
     0
279
    -2
289
     1
 69
     0
  7
Standard
140
6.0
170
     5
 62
     0
 63
   257
283
     0
 90
        4
 91
        0
  1

274
    -2
284
     1
 64
     0
275
    -2
285
     1
 65
     0
276
    -2
286
     1
 66
     0
277
    -2
287
     1
 67
     0
278
    -2
288
     1
 68
     0
279
    -2
289
     1
 69
     0
  7
Standard
140
4.5
170
     5
 62
     0
 63
   257
283
     0
 90
        4
 91
        0
  1

274
    -2
284
     1
 64
     0
275
    -2
285
     1
 65
     0
276
    -2
286
     1
 66
     0
277
    -2
287
     1
 67
     0
278
    -2
288
     1
 68
     0
279
    -2
289
     1
 69
     0
  0
VISUALSTYLE
  5
2F
102
{ACAD_REACTORS
330
2A
102
}
102
{ACAD_XDICTIONARY
360
24A
102
}
330
2A
100
AcDbVisualStyle
  2
2dWireframe
 70
     4
 71
     0
 72
     2
 73
     0
 90
        0
 40
0.6
 41
30.0
 62
     5
 63
     7
421
 16777215
 74
     1
 91
        4
 64
     7
 65
   257
 75
     1
175
     1
 42
1.0
 92
        0
 66
   257
 43
1.0
 76
     1
 77
     6
 78
     2
 67
     7
 79
     5
170
     0
171
     0
290
     0
174
     0
 93
        1
 44
0.0
173
     0
291
     0
 45
0.0
  0
VISUALSTYLE
  5
32
102
{ACAD_REACTORS
330
2A
102
}
102
{ACAD_XDICTIONARY
360
250
102
}
330
2A
100
AcDbVisualStyle
  2
Basic
 70
     7
 71
     1
 72
     0
 73
     1
 90
        0
 40
0.6
 41
30.0
 62
     5
 63
     7
421
 16777215
 74
     0
 91
        4
 64
     7
 65
   257
 75
     1
175
     1
 42
1.0
 92
        8
 66
     7
 43
1.0
 76
     1
 77
     6
 78
     2
 67
     7
 79
     5
170
     0
171
     0
290
     0
174
     0
 93
        1
 44
0.0
173
     0
291
     1
 45
0.0
  0
VISUALSTYLE
  5
36
102
{ACAD_REACTORS
330
2A
102
}
102
{ACAD_XDICTIONARY
360
258
102
}
330
2A
100
AcDbVisualStyle
  2
Brighten
 70
    12
 71
     2
 72
     2
 73
     0
 90
        0
 40
0.6
 41
30.0
 62
     5
 63
     7
421
 16777215
 74
     1
 91
        4
 64
     7
 65
   257
 75
     1
175
     1
 42
1.0
 92
        8
 66
     7
 43
1.0
 76
     1
 77
     6
 78
     2
 67
     7
 79
     5
170
     0
171
     0
290
     0
174
     0
 93
        1
 44
50.0
173
     0
291
     1
 45
0.0
  0
VISUALSTYLE
  5
3A
102
{ACAD_REACTORS
330
2A
102
}
102
{ACAD_XDICTIONARY
360
260
102
}
330
2A
100
AcDbVisualStyle
  2
ColorChange
 70
    16
 71
     2
 72
     2
 73
     3
 90
        0
 40
0.6
 41
30.0
 62
     5
 63
     8
421
  8421504
 74
     1
 91
        4
 64
     7
 65
   257
 75
     1
175
     1
 42
1.0
 92
        8
 66
     8
424
  8421504
 43
1.0
 76
     1
 77
     6
 78
     2
 67
     7
 79
     5
170
     0
171
     0
290
     0
174
     0
 93
        1
 44
0.0
173
     0
291
     1
 45
0.0
  0
VISUALSTYLE
  5
34
102
{ACAD_REACTORS
330
2A
102
}
102
{ACAD_XDICTIONARY
360
254
102
}
330
2A
100
AcDbVisualStyle
  2
Conceptual
 70
     9
 71
     3
 72
     2
 73
     0
 90
        0
 40
0.6
 41
30.0
 62
     5
 63
     7
421
 16777215
 74
     2
 91
        2
 64
     7
 65
   257
 75
     1
175
     1
 42
179.0
 92
        8
 66
     7
 43
1.0
 76
     1
 77
     6
 78
     2
 67
     7
 79
     3
170
     0
171
     0
290
     0
174
     0
 93
        1
 44
0.0
173
     0
291
     0
 45
0.0
  0
VISUALSTYLE
  5
35
102
{ACAD_REACTORS
330
2A
102
}
102
{ACAD_XDICTIONARY
360
256
102
}
330
2A
100
AcDbVisualStyle
  2
Dim
 70
    11
 71
     2
 72
     2
 73
     0
 90
        0
 40
0.6
 41
30.0
 62
     5
 63
     7
421
 16777215
 74
     1
 91
        4
 64
     7
 65
   257
 75
     1
175
     1
 42
1.0
 92
        8
 66
     7
 43
1.0
 76
     1
 77
     6
 78
     2
 67
     7
 79
     5
170
     0
171
     0
290
     0
174
     0
 93
        1
 44
-50.0
173
     0
291
     1
 45
0.0
  0
VISUALSTYLE
  5
3D
102
{ACAD_REACTORS
330
2A
102
}
102
{ACAD_XDICTIONARY
360
266
102
}
330
2A
100
AcDbVisualStyle
  2
EdgeColorOff
 70
    22
 71
     2
 72
     2
 73
     0
 90
        0
 40
0.6
 41
30.0
 62
     5
 63
     7
421
 16777215
 74
     1
 91
        4
 64
     7
 65
   257
 75
     1
175
     1
 42
1.0
 92
        8
 66
     7
 43
1.0
 76
     1
 77
     6
 78
     2
 67
     7
 79
     5
170
     0
171
     0
290
     0
174
     0
 93
        1
 44
0.0
173
     0
291
     1
 45
0.0
  0
VISUALSTYLE
  5
39
102
{ACAD_REACTORS
330
2A
102
}
102
{ACAD_XDICTIONARY
360
25E
102
}
330
2A
100
AcDbVisualStyle
  2
Facepattern
 70
    15
 71
     2
 72
     2
 73
     0
 90
        0
 40
0.6
 41
30.0
 62
     5
 63
     7
421
 16777215
 74
     1
 91
        4
 64
     7
 65
   257
 75
     1
175
     1
 42
1.0
 92
        8
 66
     7
 43
1.0
 76
     1
 77
     6
 78
     2
 67
     7
 79
     5
170
     0
171
     0
290
     0
174
     0
 93
        1
 44
0.0
173
     0
291
     1
 45
0.0
  0
VISUALSTYLE
  5
2B
102
{ACAD_REACTORS
330
2A
102
}
102
{ACAD_XDICTIONARY
360
242
102
}
330
2A
100
AcDbVisualStyle
  2
Flat
 70
     0
 71
     2
 72
     1
 73
     1
 90
        2
 40
0.6
 41
30.0
 62
     5
 63
     7
421
 16777215
 74
     0
 91
        0
 64
     7
 65
   257
 75
     1
175
     1
 42
1.0
 92
        8
 66
     7
 43
1.0
 76
     1
 77
     6
 78
     2
 67
     7
 79
     5
170
     0
171
     0
290
     0
174
     0
 93
       13
 44
0.0
173
     0
291
     1
 45
0.0
  0
VISUALSTYLE
  5
2C
102
{ACAD_REACTORS
330
2A
102
}
102
{ACAD_XDICTIONARY
360
244
102
}
330
2A
100
AcDbVisualStyle
  2
FlatWithEdges
 70
     1
 71
     2
 72
     1
 73
     1
 90
        2
 40
0.6
 41
30.0
 62
     5
 63
     7
421
 16777215
 74
     1
 91
        0
 64
     7
 65
   257
 75
     1
175
     1
 42
1.0
 92
        0
 66
   257
 43
1.0
 76
     1
 77
     6
 78
     2
 67
     7
 79
     5
170
     0
171
     0
290
     0
174
     0
 93
       13
 44
0.0
173
     0
291
     1
 45
0.0
  0
VISUALSTYLE
  5
2D
102
{ACAD_REACTORS
330
2A
102
}
102
{ACAD_XDICTIONARY
360
246
102
}
330
2A
100
AcDbVisualStyle
  2
Gouraud
 70
     2
 71
     2
 72
     2
 73
     1
 90
        2
 40
0.6
 41
30.0
 62
     5
 63
     7
421
 16777215
 74
     0
 91
        0
 64
     7
 65
   257
 75
     1
175
     1
 42
1.0
 92
        0
 66
     7
 43
1.0
 76
     1
 77
     6
 78
     2
 67
     7
 79
     5
170
     0
171
     0
290
     0
174
     0
 93
       13
 44
0.0
173
     0
291
     1
 45
0.0
  0
VISUALSTYLE
  5
2E
102
{ACAD_REACTORS
330
2A
102
}
102
{ACAD_XDICTIONARY
360
248
102
}
330
2A
100
AcDbVisualStyle
  2
GouraudWithEdges
 70
     3
 71
     2
 72
     2
 73
     1
 90
        2
 40
0.6
 41
30.0
 62
     5
 63
     7
421
 16777215
 74
     1
 91
        0
 64
     7
 65
   257
 75
     1
175
     1
 42
1.0
 92
        0
 66
   257
 43
1.0
 76
     1
 77
     6
 78
     2
 67
     7
 79
     5
170
     0
171
     0
290
     0
174
     0
 93
       13
 44
0.0
173
     0
291
     1
 45
0.0
  0
VISUALSTYLE
  5
31
102
{ACAD_REACTORS
330
2A
102
}
102
{ACAD_XDICTIONARY
360
24E
102
}
330
2A
100
AcDbVisualStyle
  2
Hidden
 70
     6
 71
     1
 72
     2
 73
     2
 90
        0
 40
0.6
 41
30.0
 62
     5
 63
     7
421
 16777215
 74
     2
 91
        2
 64
     7
 65
   257
 75
     2
175
     1
 42
40.0
 92
        0
 66
   257
 43
1.0
 76
     1
 77
     6
 78
     2
 67
     7
 79
     3
170
     0
171
     0
290
     0
174
     0
 93
        1
 44
0.0
173
     0
291
     0
 45
0.0
  0
VISUALSTYLE
  5
3B
102
{ACAD_REACTORS
330
2A
102
}
102
{ACAD_XDICTIONARY
360
262
102
}
330
2A
100
AcDbVisualStyle
  2
JitterOff
 70
    20
 71
     2
 72
     2
 73
     0
 90
        0
 40
0.6
 41
30.0
 62
     5
 63
     7
421
 16777215
 74
     1
 91
        4
 64
     7
 65
   257
 75
     1
175
     1
 42
1.0
 92
       10
 66
     7
 43
1.0
 76
     1
 77
     6
 78
     2
 67
     7
 79
     5
170
     0
171
     0
290
     0
174
     0
 93
        1
 44
0.0
173
     0
291
     1
 45
0.0
  0
VISUALSTYLE
  5
38
102
{ACAD_REACTORS
330
2A
102
}
102
{ACAD_XDICTIONARY
360
25C
102
}
330
2A
100
AcDbVisualStyle
  2
Linepattern
 70
    14
 71
     2
 72
     2
 73
     0
 90
        0
 40
0.6
 41
30.0
 62
     5
 63
     7
421
 16777215
 74
     1
 91
        4
 64
     7
 65
   257
 75
     7
175
     7
 42
1.0
 92
        8
 66
     7
 43
1.0
 76
     1
 77
     6
 78
     2
 67
     7
 79
     5
170
     0
171
     0
290
     0
174
     0
 93
        1
 44
0.0
173
     0
291
     1
 45
0.0
  0
VISUALSTYLE
  5
3C
102
{ACAD_REACTORS
330
2A
102
}
102
{ACAD_XDICTIONARY
360
264
102
}
330
2A
100
AcDbVisualStyle
  2
OverhangOff
 70
    21
 71
     2
 72
     2
 73
     0
 90
        0
 40
0.6
 41
30.0
 62
     5
 63
     7
421
 16777215
 74
     1
 91
        4
 64
     7
 65
   257
 75
     1
175
     1
 42
1.0
 92
        9
 66
     7
 43
1.0
 76
     1
 77
     6
 78
     2
 67
     7
 79
     5
170
     0
171
     0
290
     0
174
     0
 93
        1
 44
0.0
173
     0
291
     1
 45
0.0
  0
VISUALSTYLE
  5
33
102
{ACAD_REACTORS
330
2A
102
}
102
{ACAD_XDICTIONARY
360
252
102
}
330
2A
100
AcDbVisualStyle
  2
Realistic
 70
     8
 71
     2
 72
     3
 73
     0
 90
        2
 40
0.6
 41
30.0
 62
     5
 63
     7
421
 16777215
 74
     0
 91
        0
 64
     7
 65
   257
 75
     1
175
     1
 42
1.0
 92
        8
 66
   257
 43
1.0
 76
     1
 77
     6
 78
     2
 67
     7
 79
     3
170
     0
171
     0
290
     0
174
     0
 93
       13
 44
0.0
173
     0
291
     0
 45
0.0
  0
VISUALSTYLE
  5
42
102
{ACAD_REACTORS
330
2A
102
}
102
{ACAD_XDICTIONARY
360
270
102
}
330
2A
100
AcDbVisualStyle
  2
Shaded
 70
    27
 71
     2
 72
     2
 73
     1
 90
        2
 40
0.6
 41
30.0
 62
     5
 63
     7
421
 16777215
 74
     0
 91
        4
 64
     7
 65
   257
 75
     1
175
     1
 42
1.0
 92
        8
 66
   257
 43
1.0
 76
     1
 77
     6
 78
     2
 67
     8
425
  7895160
 79
     3
170
     0
171
     0
290
     0
174
     0
 93
        5
 44
0.0
173
     0
291
     0
 45
0.0
  0
VISUALSTYLE
  5
41
102
{ACAD_REACTORS
330
2A
102
}
102
{ACAD_XDICTIONARY
360
26E
102
}
330
2A
100
AcDbVisualStyle
  2
Shaded with edges
 70
    26
 71
     2
 72
     2
 73
     1
 90
        2
 40
0.6
 41
30.0
 62
     5
 63
     7
421
 16777215
 74
     1
 91
       10
 64
     7
 65
   257
 75
     2
175
     1
 42
1.0
 92
        8
 66
   257
 43
1.0
 76
     1
 77
     6
 78
     2
 67
     7
 79
     3
170
     0
171
     0
290
     0
174
     0
 93
        5
 44
0.0
173
     0
291
     0
 45
0.0
  0
VISUALSTYLE
  5
3E
102
{ACAD_REACTORS
330
2A
102
}
102
{ACAD_XDICTIONARY
360
268
102
}
330
2A
100
AcDbVisualStyle
  2
Shades of Gray
 70
    23
 71
     2
 72
     2
 73
     3
 90
        0
 40
0.6
 41
30.0
 62
     5
 63
     7
421
 16777215
 74
     2
 91
        2
 64
     7
 65
     7
 75
     1
175
     1
 42
40.0
 92
        8
 66
     7
 43
1.0
 76
     1
 77
     6
 78
     2
 67
     7
 79
     3
170
     0
171
     0
290
     0
174
     0
 93
        1
 44
0.0
173
     0
291
     0
 45
0.0
  0
VISUALSTYLE
  5
3F
102
{ACAD_REACTORS
330
2A
102
}
102
{ACAD_XDICTIONARY
360
26A
102
}
330
2A
100
AcDbVisualStyle
  2
Sketchy
 70
    24
 71
     1
 72
     2
 73
     2
 90
        0
 40
0.6
 41
30.0
 62
     5
 63
     7
421
 16777215
 74
     2
 91
        2
 64
     7
 65
     7
 75
     1
175
     1
 42
40.0
 92
       11
 66
     7
 43
1.0
 76
     1
 77
     6
 78
     2
 67
     7
 79
     6
170
     0
171
     0
290
     0
174
     0
 93
        1
 44
0.0
173
     0
291
     0
 45
0.0
  0
VISUALSTYLE
  5
37
102
{ACAD_REACTORS
330
2A
102
}
102
{ACAD_XDICTIONARY
360
25A
102
}
330
2A
100
AcDbVisualStyle
  2
Thicken
 70
    13
 71
     2
 72
     2
 73
     0
 90
        0
 40
0.6
 41
30.0
 62
     5
 63
     7
421
 16777215
 74
     1
 91
        4
 64
     7
 65
   257
 75
     1
175
     1
 42
1.0
 92
       12
 66
     7
 43
1.0
 76
     1
 77
     6
 78
     2
 67
     7
 79
     5
170
     0
171
     0
290
     0
174
     0
 93
        1
 44
0.0
173
     0
291
     1
 45
0.0
  0
VISUALSTYLE
  5
30
102
{ACAD_REACTORS
330
2A
102
}
102
{ACAD_XDICTIONARY
360
24C
102
}
330
2A
100
AcDbVisualStyle
  2
Wireframe
 70
     5
 71
     0
 72
     2
 73
     0
 90
        0
 40
0.6
 41
30.0
 62
     5
 63
     7
421
 16777215
 74
     1
 91
        4
 64
     7
 65
   257
 75
     1
175
     1
 42
1.0
 92
        0
 66
   257
 43
1.0
 76
     1
 77
     6
 78
     2
 67
     7
 79
     3
170
     0
171
     0
290
     0
174
     0
 93
        1
 44
0.0
173
     0
291
     0
 45
0.0
  0
VISUALSTYLE
  5
40
102
{ACAD_REACTORS
330
2A
102
}
102
{ACAD_XDICTIONARY
360
26C
102
}
330
2A
100
AcDbVisualStyle
  2
X-Ray
 70
    25
 71
     2
 72
     2
 73
     1
 90
        1
 40
0.5
 41
30.0
 62
     5
 63
     7
421
 16777215
 74
     1
 91
        0
 64
     7
 65
   257
 75
     1
175
     1
 42
1.0
 92
        8
 66
     7
 43
1.0
 76
     1
 77
     6
 78
     2
 67
     7
 79
     3
170
     0
171
     0
290
     0
174
     0
 93
       13
 44
0.0
173
     0
291
     0
 45
0.0
  0
DICTIONARYVAR
  5
240
102
{ACAD_REACTORS
330
23F
102
}
330
23F
100
DictionaryVariables
280
     0
  1
1:1
  0
DICTIONARYVAR
  5
278
102
{ACAD_REACTORS
330
23F
102
}
330
23F
100
DictionaryVariables
280
     0
  1
Standard
  0
DICTIONARYVAR
  5
277
102
{ACAD_REACTORS
330
23F
102
}
330
23F
100
DictionaryVariables
280
     0
  1
Standard
  0
DICTIONARYVAR
  5
27B
102
{ACAD_REACTORS
330
23F
102
}
330
23F
100
DictionaryVariables
280
     0
  1
6.000000
  0
DICTIONARYVAR
  5
241
102
{ACAD_REACTORS
330
23F
102
}
330
23F
100
DictionaryVariables
280
     0
  1
2
  0
DICTIONARY
  5
274
330
6C
100
AcDbDictionary
280
     1
281
     1
  3
ACAD_XREC_ROUNDTRIP
360
275
  0
DICTIONARY
  5
272
330
6A
100
AcDbDictionary
280
     1
281
     1
  3
ACAD_ROUNDTRIP_2008_TABLESTYLE_CELLSTYLEMAP
360
273
  0
DICTIONARY
  5
24A
330
2F
100
AcDbDictionary
280
     1
281
     1
  3
ACAD_XREC_ROUNDTRIP
360
24B
  0
DICTIONARY
  5
250
330
32
100
AcDbDictionary
280
     1
281
     1
  3
ACAD_XREC_ROUNDTRIP
360
251
  0
DICTIONARY
  5
258
330
36
100
AcDbDictionary
280
     1
281
     1
  3
ACAD_XREC_ROUNDTRIP
360
259
  0
DICTIONARY
  5
260
330
3A
100
AcDbDictionary
280
     1
281
     1
  3
ACAD_XREC_ROUNDTRIP
360
261
  0
DICTIONARY
  5
254
330
34
100
AcDbDictionary
280
     1
281
     1
  3
ACAD_XREC_ROUNDTRIP
360
255
  0
DICTIONARY
  5
256
330
35
100
AcDbDictionary
280
     1
281
     1
  3
ACAD_XREC_ROUNDTRIP
360
257
  0
DICTIONARY
  5
266
330
3D
100
AcDbDictionary
280
     1
281
     1
  3
ACAD_XREC_ROUNDTRIP
360
267
  0
DICTIONARY
  5
25E
330
39
100
AcDbDictionary
280
     1
281
     1
  3
ACAD_XREC_ROUNDTRIP
360
25F
  0
DICTIONARY
  5
242
330
2B
100
AcDbDictionary
280
     1
281
     1
  3
ACAD_XREC_ROUNDTRIP
360
243
  0
DICTIONARY
  5
244
330
2C
100
AcDbDictionary
280
     1
281
     1
  3
ACAD_XREC_ROUNDTRIP
360
245
  0
DICTIONARY
  5
246
330
2D
100
AcDbDictionary
280
     1
281
     1
  3
ACAD_XREC_ROUNDTRIP
360
247
  0
DICTIONARY
  5
248
330
2E
100
AcDbDictionary
280
     1
281
     1
  3
ACAD_XREC_ROUNDTRIP
360
249
  0
DICTIONARY
  5
24E
330
31
100
AcDbDictionary
280
     1
281
     1
  3
ACAD_XREC_ROUNDTRIP
360
24F
  0
DICTIONARY
  5
262
330
3B
100
AcDbDictionary
280
     1
281
     1
  3
ACAD_XREC_ROUNDTRIP
360
263
  0
DICTIONARY
  5
25C
330
38
100
AcDbDictionary
280
     1
281
     1
  3
ACAD_XREC_ROUNDTRIP
360
25D
  0
DICTIONARY
  5
264
330
3C
100
AcDbDictionary
280
     1
281
     1
  3
ACAD_XREC_ROUNDTRIP
360
265
  0
DICTIONARY
  5
252
330
33
100
AcDbDictionary
280
     1
281
     1
  3
ACAD_XREC_ROUNDTRIP
360
253
  0
DICTIONARY
  5
270
330
42
100
AcDbDictionary
280
     1
281
     1
  3
ACAD_XREC_ROUNDTRIP
360
271
  0
DICTIONARY
  5
26E
330
41
100
AcDbDictionary
280
     1
281
     1
  3
ACAD_XREC_ROUNDTRIP
360
26F
  0
DICTIONARY
  5
268
330
3E
100
AcDbDictionary
280
     1
281
     1
  3
ACAD_XREC_ROUNDTRIP
360
269
  0
DICTIONARY
  5
26A
330
3F
100
AcDbDictionary
280
     1
281
     1
  3
ACAD_XREC_ROUNDTRIP
360
26B
  0
DICTIONARY
  5
25A
330
37
100
AcDbDictionary
280
     1
281
     1
  3
ACAD_XREC_ROUNDTRIP
360
25B
  0
DICTIONARY
  5
24C
330
30
100
AcDbDictionary
280
     1
281
     1
  3
ACAD_XREC_ROUNDTRIP
360
24D
  0
DICTIONARY
  5
26C
330
40
100
AcDbDictionary
280
     1
281
     1
  3
ACAD_XREC_ROUNDTRIP
360
26D
  0
XRECORD
  5
275
102
{ACAD_REACTORS
330
274
102
}
330
274
100
AcDbXrecord
280
     1
102
ACAD_ROUNDTRIP_2010_MLEADER_STYLE
  0
CELLSTYLEMAP
  5
273
102
{ACAD_REACTORS
330
272
102
}
330
272
100
AcDbCellStyleMap
 90
        3
300
CELLSTYLE
  1
TABLEFORMAT_BEGIN
 90
        5
170
     1
 91
        0
 92
    32768
 62
   257
 93
        1
300
CONTENTFORMAT
  1
CONTENTFORMAT_BEGIN
 90
        0
 91
        0
 92
        4
 93
        0
300

 40
0.0
140
1.0
 94
        5
 62
     0
340
11
144
6.0
309
CONTENTFORMAT_END
171
     1
301
MARGIN
  1
CELLMARGIN_BEGIN
 40
1.5
 40
1.5
 40
1.5
 40
1.5
 40
1.5
 40
1.5
309
CELLMARGIN_END
 94
        6
 95
        1
302
GRIDFORMAT
  1
GRIDFORMAT_BEGIN
 90
        0
 91
        1
 62
     0
 92
       -2
340
14
 93
        0
 40
0.045
309
GRIDFORMAT_END
 95
        2
302
GRIDFORMAT
  1
GRIDFORMAT_BEGIN
 90
        0
 91
        1
 62
     0
 92
       -2
340
14
 93
        0
 40
0.045
309
GRIDFORMAT_END
 95
        4
302
GRIDFORMAT
  1
GRIDFORMAT_BEGIN
 90
        0
 91
        1
 62
     0
 92
       -2
340
14
 93
        0
 40
0.045
309
GRIDFORMAT_END
 95
        8
302
GRIDFORMAT
  1
GRIDFORMAT_BEGIN
 90
        0
 91
        1
 62
     0
 92
       -2
340
14
 93
        0
 40
0.045
309
GRIDFORMAT_END
 95
       16
302
GRIDFORMAT
  1
GRIDFORMAT_BEGIN
 90
        0
 91
        1
 62
     0
 92
       -2
340
14
 93
        0
 40
0.045
309
GRIDFORMAT_END
 95
       32
302
GRIDFORMAT
  1
GRIDFORMAT_BEGIN
 90
        0
 91
        1
 62
     0
 92
       -2
340
14
 93
        0
 40
0.045
309
GRIDFORMAT_END
309
TABLEFORMAT_END
  1
CELLSTYLE_BEGIN
 90
        1
 91
        1
300
_TITLE
309
CELLSTYLE_END
300
CELLSTYLE
  1
TABLEFORMAT_BEGIN
 90
        5
170
     1
 91
        0
 92
        0
 62
   257
 93
        1
300
CONTENTFORMAT
  1
CONTENTFORMAT_BEGIN
 90
        0
 91
        0
 92
        4
 93
        0
300

 40
0.0
140
1.0
 94
        5
 62
     0
340
11
144
4.5
309
CONTENTFORMAT_END
171
     1
301
MARGIN
  1
CELLMARGIN_BEGIN
 40
1.5
 40
1.5
 40
1.5
 40
1.5
 40
1.5
 40
1.5
309
CELLMARGIN_END
 94
        6
 95
        1
302
GRIDFORMAT
  1
GRIDFORMAT_BEGIN
 90
        0
 91
        1
 62
     0
 92
       -2
340
14
 93
        0
 40
0.045
309
GRIDFORMAT_END
 95
        2
302
GRIDFORMAT
  1
GRIDFORMAT_BEGIN
 90
        0
 91
        1
 62
     0
 92
       -2
340
14
 93
        0
 40
0.045
309
GRIDFORMAT_END
 95
        4
302
GRIDFORMAT
  1
GRIDFORMAT_BEGIN
 90
        0
 91
        1
 62
     0
 92
       -2
340
14
 93
        0
 40
0.045
309
GRIDFORMAT_END
 95
        8
302
GRIDFORMAT
  1
GRIDFORMAT_BEGIN
 90
        0
 91
        1
 62
     0
 92
       -2
340
14
 93
        0
 40
0.045
309
GRIDFORMAT_END
 95
       16
302
GRIDFORMAT
  1
GRIDFORMAT_BEGIN
 90
        0
 91
        1
 62
     0
 92
       -2
340
14
 93
        0
 40
0.045
309
GRIDFORMAT_END
 95
       32
302
GRIDFORMAT
  1
GRIDFORMAT_BEGIN
 90
        0
 91
        1
 62
     0
 92
       -2
340
14
 93
        0
 40
0.045
309
GRIDFORMAT_END
309
TABLEFORMAT_END
  1
CELLSTYLE_BEGIN
 90
        2
 91
        1
300
_HEADER
309
CELLSTYLE_END
300
CELLSTYLE
  1
TABLEFORMAT_BEGIN
 90
        5
170
     1
 91
        0
 92
        0
 62
   257
 93
        1
300
CONTENTFORMAT
  1
CONTENTFORMAT_BEGIN
 90
        0
 91
        0
 92
        4
 93
        0
300

 40
0.0
140
1.0
 94
        2
 62
     0
340
11
144
4.5
309
CONTENTFORMAT_END
171
     1
301
MARGIN
  1
CELLMARGIN_BEGIN
 40
1.5
 40
1.5
 40
1.5
 40
1.5
 40
1.5
 40
1.5
309
CELLMARGIN_END
 94
        6
 95
        1
302
GRIDFORMAT
  1
GRIDFORMAT_BEGIN
 90
        0
 91
        1
 62
     0
 92
       -2
340
14
 93
        0
 40
0.045
309
GRIDFORMAT_END
 95
        2
302
GRIDFORMAT
  1
GRIDFORMAT_BEGIN
 90
        0
 91
        1
 62
     0
 92
       -2
340
14
 93
        0
 40
0.045
309
GRIDFORMAT_END
 95
        4
302
GRIDFORMAT
  1
GRIDFORMAT_BEGIN
 90
        0
 91
        1
 62
     0
 92
       -2
340
14
 93
        0
 40
0.045
309
GRIDFORMAT_END
 95
        8
302
GRIDFORMAT
  1
GRIDFORMAT_BEGIN
 90
        0
 91
        1
 62
     0
 92
       -2
340
14
 93
        0
 40
0.045
309
GRIDFORMAT_END
 95
       16
302
GRIDFORMAT
  1
GRIDFORMAT_BEGIN
 90
        0
 91
        1
 62
     0
 92
       -2
340
14
 93
        0
 40
0.045
309
GRIDFORMAT_END
 95
       32
302
GRIDFORMAT
  1
GRIDFORMAT_BEGIN
 90
        0
 91
        1
 62
     0
 92
       -2
340
14
 93
        0
 40
0.045
309
GRIDFORMAT_END
309
TABLEFORMAT_END
  1
CELLSTYLE_BEGIN
 90
        3
 91
        2
300
_DATA
309
CELLSTYLE_END
  0
XRECORD
  5
24B
102
{ACAD_REACTORS
330
24A
102
}
330
24A
100
AcDbXrecord
280
     1
102
RTVSPropertyOp0
 70
     1
102
RTVSPropertyOp1
 70
     1
102
RTVSPropertyOp2
 70
     1
102
RTVSPropertyOp3
 70
     1
102
RTVSPropertyOp4
 70
     1
102
RTVSPropertyOp5
 70
     1
102
RTVSPropertyOp6
 70
     1
102
RTVSPropertyOp7
 70
     1
102
RTVSPropertyOp8
 70
     1
102
RTVSPropertyOp9
 70
     1
102
RTVSPropertyOp10
 70
     1
102
RTVSPropertyOp11
 70
     1
102
RTVSPropertyOp12
 70
     1
102
RTVSPropertyOp13
 70
     1
102
RTVSPropertyOp14
 70
     1
102
RTVSPropertyOp15
 70
     1
102
RTVSPropertyOp16
 70
     1
102
RTVSPropertyOp17
 70
     1
102
RTVSPropertyOp18
 70
     1
102
RTVSPropertyOp19
 70
     1
102
RTVSPropertyOp20
 70
     1
102
RTVSPropertyOp21
 70
     1
102
RTVSPropertyOp22
 70
     1
102
RTVSPropertyOp23
 70
     1
102
RTVSPropertyOp24
 70
     1
102
RTVSPropertyOp25
 70
     1
102
RTVSPropertyOp26
 70
     1
102
RTVSPropertyOp27
 70
     1
102
RTVSPropertyOp28
 70
     1
102
RTVSPropertyOp29
 70
     1
102
RTVSPropertyOp30
 70
     1
102
RTVSPropertyOp31
 70
     1
102
RTVSPropertyOp32
 70
     1
102
RTVSPropertyOp33
 70
     1
102
RTVSPropertyOp34
 70
     1
102
RTVSPropertyOp35
 70
     1
102
RTVSPropertyOp36
 70
     1
102
RTVSPropertyOp37
 70
     1
102
RTVSPropertyOp38
 70
     1
102
RTVSPropertyOp39
 70
     1
102
RTVSPropertyOp40
 70
     1
102
RTVSPropertyOp41
 70
     1
102
RTVSPropertyOp42
 70
     1
102
RTVSPropertyOp43
 70
     1
102
RTVSPropertyOp44
 70
     1
102
RTVSPropertyOp45
 70
     1
102
RTVSPropertyOp46
 70
     1
102
RTVSPropertyOp47
 70
     1
102
RTVSPropertyOp48
 70
     1
102
RTVSPropertyOp49
 70
     1
102
RTVSPropertyOp50
 70
     1
102
RTVSPropertyOp51
 70
     0
102
RTVSPropertyOp52
 70
     0
102
RTVSPropertyOp53
 70
     1
102
RTVSPropertyOp54
 70
     1
102
RTVSPropertyOp55
 70
     1
102
RTVSPropertyOp56
 70
     1
102
RTVSPropertyOp57
 70
     1
102
RTVSPost2010Prop28
280
     1
102
RTVSPost2010PropOp28
 70
     1
102
RTVSPost2010Prop29
280
     1
102
RTVSPost2010PropOp29
 70
     1
102
RTVSPost2010Prop30
280
     0
102
RTVSPost2010PropOp30
 70
     1
102
RTVSPost2010Prop31
280
     0
102
RTVSPost2010PropOp31
 70
     1
102
RTVSPost2010Prop32
280
     0
102
RTVSPost2010PropOp32
 70
     1
102
RTVSPost2010Prop33
280
     0
102
RTVSPost2010PropOp33
 70
     1
102
RTVSPost2010Prop34
280
     0
102
RTVSPost2010PropOp34
 70
     1
102
RTVSPost2010Prop35
280
     0
102
RTVSPost2010PropOp35
 70
     1
102
RTVSPost2010Prop36
280
     0
102
RTVSPost2010PropOp36
 70
     1
102
RTVSPost2010Prop37
 90
       50
102
RTVSPost2010PropOp37
 70
     1
102
RTVSPost2010Prop38
140
0.0
102
RTVSPost2010PropOp38
 70
     1
102
RTVSPost2010Prop39
140
1.0
102
RTVSPost2010PropOp39
 70
     1
102
RTVSPost2010Prop40
 90
        0
102
RTVSPost2010PropOp40
 70
     1
102
RTVSPost2010Prop41ColorIndex
 90
       18
102
RTVSPost2010Prop41ColorRGB
 90
        0
102
RTVSPost2010PropOp41
 70
     1
102
RTVSPost2010Prop42
 90
       50
102
RTVSPost2010PropOp42
 70
     1
102
RTVSPost2010Prop43
 90
        3
102
RTVSPost2010PropOp43
 70
     1
102
RTVSPost2010Prop44ColorIndex
 90
        5
102
RTVSPost2010Prop44ColorRGB
 90
      255
102
RTVSPost2010PropOp44
 70
     1
102
RTVSPost2010Prop45
280
     0
102
RTVSPost2010PropOp45
 70
     1
102
RTVSPost2010Prop46
 90
       50
102
RTVSPost2010PropOp46
 70
     1
102
RTVSPost2010Prop47
 90
       50
102
RTVSPost2010PropOp47
 70
     1
102
RTVSPost2010Prop48
 90
       50
102
RTVSPost2010PropOp48
 70
     1
102
RTVSPost2010Prop49
280
     0
102
RTVSPost2010PropOp49
 70
     1
102
RTVSPost2010Prop50
 90
       50
102
RTVSPost2010PropOp50
 70
     1
102
RTVSPost2010Prop51ColorIndex
 90
      256
102
RTVSPost2010Prop51ColorRGB
 90
-16777216
102
RTVSPost2010PropOp51
 70
     0
102
RTVSPost2010Prop52
140
1.0
102
RTVSPost2010PropOp52
 70
     0
102
RTVSPost2010Prop53
 90
        2
102
RTVSPost2010PropOp53
 70
     1
102
RTVSPost2010Prop54
  1
strokes_ogs.tif
102
RTVSPost2010PropOp54
 70
     1
102
RTVSPost2010Prop55
280
     0
102
RTVSPost2010PropOp55
 70
     1
102
RTVSPost2010Prop56
140
1.0
102
RTVSPost2010PropOp56
 70
     1
102
RTVSPost2010Prop57
140
1.0
102
RTVSPost2010PropOp57
 70
     1
  0
XRECORD
  5
251
102
{ACAD_REACTORS
330
250
102
}
330
250
100
AcDbXrecord
280
     1
102
RTVSPropertyOp0
 70
     1
102
RTVSPropertyOp1
 70
     1
102
RTVSPropertyOp2
 70
     1
102
RTVSPropertyOp3
 70
     1
102
RTVSPropertyOp4
 70
     1
102
RTVSPropertyOp5
 70
     1
102
RTVSPropertyOp6
 70
     1
102
RTVSPropertyOp7
 70
     1
102
RTVSPropertyOp8
 70
     1
102
RTVSPropertyOp9
 70
     1
102
RTVSPropertyOp10
 70
     1
102
RTVSPropertyOp11
 70
     1
102
RTVSPropertyOp12
 70
     1
102
RTVSPropertyOp13
 70
     1
102
RTVSPropertyOp14
 70
     1
102
RTVSPropertyOp15
 70
     1
102
RTVSPropertyOp16
 70
     1
102
RTVSPropertyOp17
 70
     1
102
RTVSPropertyOp18
 70
     1
102
RTVSPropertyOp19
 70
     1
102
RTVSPropertyOp20
 70
     1
102
RTVSPropertyOp21
 70
     1
102
RTVSPropertyOp22
 70
     1
102
RTVSPropertyOp23
 70
     1
102
RTVSPropertyOp24
 70
     1
102
RTVSPropertyOp25
 70
     1
102
RTVSPropertyOp26
 70
     1
102
RTVSPropertyOp27
 70
     1
102
RTVSPropertyOp28
 70
     1
102
RTVSPropertyOp29
 70
     1
102
RTVSPropertyOp30
 70
     1
102
RTVSPropertyOp31
 70
     1
102
RTVSPropertyOp32
 70
     1
102
RTVSPropertyOp33
 70
     1
102
RTVSPropertyOp34
 70
     1
102
RTVSPropertyOp35
 70
     1
102
RTVSPropertyOp36
 70
     1
102
RTVSPropertyOp37
 70
     1
102
RTVSPropertyOp38
 70
     1
102
RTVSPropertyOp39
 70
     1
102
RTVSPropertyOp40
 70
     1
102
RTVSPropertyOp41
 70
     1
102
RTVSPropertyOp42
 70
     1
102
RTVSPropertyOp43
 70
     1
102
RTVSPropertyOp44
 70
     1
102
RTVSPropertyOp45
 70
     1
102
RTVSPropertyOp46
 70
     1
102
RTVSPropertyOp47
 70
     1
102
RTVSPropertyOp48
 70
     1
102
RTVSPropertyOp49
 70
     1
102
RTVSPropertyOp50
 70
     1
102
RTVSPropertyOp51
 70
     0
102
RTVSPropertyOp52
 70
     0
102
RTVSPropertyOp53
 70
     1
102
RTVSPropertyOp54
 70
     1
102
RTVSPropertyOp55
 70
     1
102
RTVSPropertyOp56
 70
     1
102
RTVSPropertyOp57
 70
     1
102
RTVSPost2010Prop28
280
     0
102
RTVSPost2010PropOp28
 70
     1
102
RTVSPost2010Prop29
280
     1
102
RTVSPost2010PropOp29
 70
     1
102
RTVSPost2010Prop30
280
     1
102
RTVSPost2010PropOp30
 70
     1
102
RTVSPost2010Prop31
280
     0
102
RTVSPost2010PropOp31
 70
     1
102
RTVSPost2010Prop32
280
     0
102
RTVSPost2010PropOp32
 70
     1
102
RTVSPost2010Prop33
280
     0
102
RTVSPost2010PropOp33
 70
     1
102
RTVSPost2010Prop34
280
     0
102
RTVSPost2010PropOp34
 70
     1
102
RTVSPost2010Prop35
280
     0
102
RTVSPost2010PropOp35
 70
     1
102
RTVSPost2010Prop36
280
     0
102
RTVSPost2010PropOp36
 70
     1
102
RTVSPost2010Prop37
 90
       50
102
RTVSPost2010PropOp37
 70
     1
102
RTVSPost2010Prop38
140
0.0
102
RTVSPost2010PropOp38
 70
     1
102
RTVSPost2010Prop39
140
1.0
102
RTVSPost2010PropOp39
 70
     1
102
RTVSPost2010Prop40
 90
        0
102
RTVSPost2010PropOp40
 70
     1
102
RTVSPost2010Prop41ColorIndex
 90
       18
102
RTVSPost2010Prop41ColorRGB
 90
        0
102
RTVSPost2010PropOp41
 70
     1
102
RTVSPost2010Prop42
 90
       50
102
RTVSPost2010PropOp42
 70
     1
102
RTVSPost2010Prop43
 90
        3
102
RTVSPost2010PropOp43
 70
     1
102
RTVSPost2010Prop44ColorIndex
 90
        5
102
RTVSPost2010Prop44ColorRGB
 90
      255
102
RTVSPost2010PropOp44
 70
     1
102
RTVSPost2010Prop45
280
     0
102
RTVSPost2010PropOp45
 70
     1
102
RTVSPost2010Prop46
 90
       50
102
RTVSPost2010PropOp46
 70
     1
102
RTVSPost2010Prop47
 90
       50
102
RTVSPost2010PropOp47
 70
     1
102
RTVSPost2010Prop48
 90
       50
102
RTVSPost2010PropOp48
 70
     1
102
RTVSPost2010Prop49
280
     0
102
RTVSPost2010PropOp49
 70
     1
102
RTVSPost2010Prop50
 90
       50
102
RTVSPost2010PropOp50
 70
     1
102
RTVSPost2010Prop51ColorIndex
 90
      256
102
RTVSPost2010Prop51ColorRGB
 90
-16777216
102
RTVSPost2010PropOp51
 70
     0
102
RTVSPost2010Prop52
140
1.0
102
RTVSPost2010PropOp52
 70
     0
102
RTVSPost2010Prop53
 90
        2
102
RTVSPost2010PropOp53
 70
     1
102
RTVSPost2010Prop54
  1
strokes_ogs.tif
102
RTVSPost2010PropOp54
 70
     1
102
RTVSPost2010Prop55
280
     0
102
RTVSPost2010PropOp55
 70
     1
102
RTVSPost2010Prop56
140
1.0
102
RTVSPost2010PropOp56
 70
     1
102
RTVSPost2010Prop57
140
1.0
102
RTVSPost2010PropOp57
 70
     1
  0
XRECORD
  5
259
102
{ACAD_REACTORS
330
258
102
}
330
258
100
AcDbXrecord
280
     1
102
RTVSPropertyOp0
 70
     1
102
RTVSPropertyOp1
 70
     1
102
RTVSPropertyOp2
 70
     1
102
RTVSPropertyOp3
 70
     1
102
RTVSPropertyOp4
 70
     1
102
RTVSPropertyOp5
 70
     1
102
RTVSPropertyOp6
 70
     1
102
RTVSPropertyOp7
 70
     1
102
RTVSPropertyOp8
 70
     1
102
RTVSPropertyOp9
 70
     1
102
RTVSPropertyOp10
 70
     1
102
RTVSPropertyOp11
 70
     1
102
RTVSPropertyOp12
 70
     1
102
RTVSPropertyOp13
 70
     1
102
RTVSPropertyOp14
 70
     1
102
RTVSPropertyOp15
 70
     1
102
RTVSPropertyOp16
 70
     1
102
RTVSPropertyOp17
 70
     1
102
RTVSPropertyOp18
 70
     1
102
RTVSPropertyOp19
 70
     1
102
RTVSPropertyOp20
 70
     1
102
RTVSPropertyOp21
 70
     1
102
RTVSPropertyOp22
 70
     1
102
RTVSPropertyOp23
 70
     1
102
RTVSPropertyOp24
 70
     1
102
RTVSPropertyOp25
 70
     1
102
RTVSPropertyOp26
 70
     1
102
RTVSPropertyOp27
 70
     1
102
RTVSPropertyOp28
 70
     1
102
RTVSPropertyOp29
 70
     1
102
RTVSPropertyOp30
 70
     1
102
RTVSPropertyOp31
 70
     1
102
RTVSPropertyOp32
 70
     1
102
RTVSPropertyOp33
 70
     1
102
RTVSPropertyOp34
 70
     1
102
RTVSPropertyOp35
 70
     1
102
RTVSPropertyOp36
 70
     1
102
RTVSPropertyOp37
 70
     1
102
RTVSPropertyOp38
 70
     1
102
RTVSPropertyOp39
 70
     1
102
RTVSPropertyOp40
 70
     1
102
RTVSPropertyOp41
 70
     1
102
RTVSPropertyOp42
 70
     1
102
RTVSPropertyOp43
 70
     1
102
RTVSPropertyOp44
 70
     1
102
RTVSPropertyOp45
 70
     1
102
RTVSPropertyOp46
 70
     1
102
RTVSPropertyOp47
 70
     1
102
RTVSPropertyOp48
 70
     1
102
RTVSPropertyOp49
 70
     1
102
RTVSPropertyOp50
 70
     1
102
RTVSPropertyOp51
 70
     0
102
RTVSPropertyOp52
 70
     0
102
RTVSPropertyOp53
 70
     1
102
RTVSPropertyOp54
 70
     1
102
RTVSPropertyOp55
 70
     1
102
RTVSPropertyOp56
 70
     1
102
RTVSPropertyOp57
 70
     1
102
RTVSPost2010Prop28
280
     0
102
RTVSPost2010PropOp28
 70
     1
102
RTVSPost2010Prop29
280
     1
102
RTVSPost2010PropOp29
 70
     1
102
RTVSPost2010Prop30
280
     1
102
RTVSPost2010PropOp30
 70
     1
102
RTVSPost2010Prop31
280
     0
102
RTVSPost2010PropOp31
 70
     1
102
RTVSPost2010Prop32
280
     0
102
RTVSPost2010PropOp32
 70
     1
102
RTVSPost2010Prop33
280
     0
102
RTVSPost2010PropOp33
 70
     1
102
RTVSPost2010Prop34
280
     0
102
RTVSPost2010PropOp34
 70
     1
102
RTVSPost2010Prop35
280
     0
102
RTVSPost2010PropOp35
 70
     1
102
RTVSPost2010Prop36
280
     0
102
RTVSPost2010PropOp36
 70
     1
102
RTVSPost2010Prop37
 90
       50
102
RTVSPost2010PropOp37
 70
     1
102
RTVSPost2010Prop38
140
0.0
102
RTVSPost2010PropOp38
 70
     1
102
RTVSPost2010Prop39
140
1.0
102
RTVSPost2010PropOp39
 70
     1
102
RTVSPost2010Prop40
 90
        0
102
RTVSPost2010PropOp40
 70
     1
102
RTVSPost2010Prop41ColorIndex
 90
       18
102
RTVSPost2010Prop41ColorRGB
 90
        0
102
RTVSPost2010PropOp41
 70
     1
102
RTVSPost2010Prop42
 90
       50
102
RTVSPost2010PropOp42
 70
     1
102
RTVSPost2010Prop43
 90
        3
102
RTVSPost2010PropOp43
 70
     1
102
RTVSPost2010Prop44ColorIndex
 90
        5
102
RTVSPost2010Prop44ColorRGB
 90
      255
102
RTVSPost2010PropOp44
 70
     1
102
RTVSPost2010Prop45
280
     0
102
RTVSPost2010PropOp45
 70
     1
102
RTVSPost2010Prop46
 90
       50
102
RTVSPost2010PropOp46
 70
     1
102
RTVSPost2010Prop47
 90
       50
102
RTVSPost2010PropOp47
 70
     1
102
RTVSPost2010Prop48
 90
       50
102
RTVSPost2010PropOp48
 70
     1
102
RTVSPost2010Prop49
280
     0
102
RTVSPost2010PropOp49
 70
     1
102
RTVSPost2010Prop50
 90
       50
102
RTVSPost2010PropOp50
 70
     1
102
RTVSPost2010Prop51ColorIndex
 90
      256
102
RTVSPost2010Prop51ColorRGB
 90
-16777216
102
RTVSPost2010PropOp51
 70
     0
102
RTVSPost2010Prop52
140
1.0
102
RTVSPost2010PropOp52
 70
     0
102
RTVSPost2010Prop53
 90
        2
102
RTVSPost2010PropOp53
 70
     1
102
RTVSPost2010Prop54
  1
strokes_ogs.tif
102
RTVSPost2010PropOp54
 70
     1
102
RTVSPost2010Prop55
280
     0
102
RTVSPost2010PropOp55
 70
     1
102
RTVSPost2010Prop56
140
1.0
102
RTVSPost2010PropOp56
 70
     1
102
RTVSPost2010Prop57
140
1.0
102
RTVSPost2010PropOp57
 70
     1
  0
XRECORD
  5
261
102
{ACAD_REACTORS
330
260
102
}
330
260
100
AcDbXrecord
280
     1
102
RTVSPropertyOp0
 70
     1
102
RTVSPropertyOp1
 70
     1
102
RTVSPropertyOp2
 70
     1
102
RTVSPropertyOp3
 70
     1
102
RTVSPropertyOp4
 70
     1
102
RTVSPropertyOp5
 70
     1
102
RTVSPropertyOp6
 70
     1
102
RTVSPropertyOp7
 70
     1
102
RTVSPropertyOp8
 70
     1
102
RTVSPropertyOp9
 70
     1
102
RTVSPropertyOp10
 70
     1
102
RTVSPropertyOp11
 70
     1
102
RTVSPropertyOp12
 70
     1
102
RTVSPropertyOp13
 70
     1
102
RTVSPropertyOp14
 70
     1
102
RTVSPropertyOp15
 70
     1
102
RTVSPropertyOp16
 70
     1
102
RTVSPropertyOp17
 70
     1
102
RTVSPropertyOp18
 70
     1
102
RTVSPropertyOp19
 70
     1
102
RTVSPropertyOp20
 70
     1
102
RTVSPropertyOp21
 70
     1
102
RTVSPropertyOp22
 70
     1
102
RTVSPropertyOp23
 70
     1
102
RTVSPropertyOp24
 70
     1
102
RTVSPropertyOp25
 70
     1
102
RTVSPropertyOp26
 70
     1
102
RTVSPropertyOp27
 70
     1
102
RTVSPropertyOp28
 70
     1
102
RTVSPropertyOp29
 70
     1
102
RTVSPropertyOp30
 70
     1
102
RTVSPropertyOp31
 70
     1
102
RTVSPropertyOp32
 70
     1
102
RTVSPropertyOp33
 70
     1
102
RTVSPropertyOp34
 70
     1
102
RTVSPropertyOp35
 70
     1
102
RTVSPropertyOp36
 70
     1
102
RTVSPropertyOp37
 70
     1
102
RTVSPropertyOp38
 70
     1
102
RTVSPropertyOp39
 70
     1
102
RTVSPropertyOp40
 70
     1
102
RTVSPropertyOp41
 70
     1
102
RTVSPropertyOp42
 70
     1
102
RTVSPropertyOp43
 70
     1
102
RTVSPropertyOp44
 70
     1
102
RTVSPropertyOp45
 70
     1
102
RTVSPropertyOp46
 70
     1
102
RTVSPropertyOp47
 70
     1
102
RTVSPropertyOp48
 70
     1
102
RTVSPropertyOp49
 70
     1
102
RTVSPropertyOp50
 70
     1
102
RTVSPropertyOp51
 70
     0
102
RTVSPropertyOp52
 70
     0
102
RTVSPropertyOp53
 70
     1
102
RTVSPropertyOp54
 70
     1
102
RTVSPropertyOp55
 70
     1
102
RTVSPropertyOp56
 70
     1
102
RTVSPropertyOp57
 70
     1
102
RTVSPost2010Prop28
280
     0
102
RTVSPost2010PropOp28
 70
     1
102
RTVSPost2010Prop29
280
     1
102
RTVSPost2010PropOp29
 70
     1
102
RTVSPost2010Prop30
280
     1
102
RTVSPost2010PropOp30
 70
     1
102
RTVSPost2010Prop31
280
     0
102
RTVSPost2010PropOp31
 70
     1
102
RTVSPost2010Prop32
280
     0
102
RTVSPost2010PropOp32
 70
     1
102
RTVSPost2010Prop33
280
     0
102
RTVSPost2010PropOp33
 70
     1
102
RTVSPost2010Prop34
280
     0
102
RTVSPost2010PropOp34
 70
     1
102
RTVSPost2010Prop35
280
     0
102
RTVSPost2010PropOp35
 70
     1
102
RTVSPost2010Prop36
280
     0
102
RTVSPost2010PropOp36
 70
     1
102
RTVSPost2010Prop37
 90
       50
102
RTVSPost2010PropOp37
 70
     1
102
RTVSPost2010Prop38
140
0.0
102
RTVSPost2010PropOp38
 70
     1
102
RTVSPost2010Prop39
140
1.0
102
RTVSPost2010PropOp39
 70
     1
102
RTVSPost2010Prop40
 90
        0
102
RTVSPost2010PropOp40
 70
     1
102
RTVSPost2010Prop41ColorIndex
 90
       18
102
RTVSPost2010Prop41ColorRGB
 90
        0
102
RTVSPost2010PropOp41
 70
     1
102
RTVSPost2010Prop42
 90
       50
102
RTVSPost2010PropOp42
 70
     1
102
RTVSPost2010Prop43
 90
        3
102
RTVSPost2010PropOp43
 70
     1
102
RTVSPost2010Prop44ColorIndex
 90
        5
102
RTVSPost2010Prop44ColorRGB
 90
      255
102
RTVSPost2010PropOp44
 70
     1
102
RTVSPost2010Prop45
280
     0
102
RTVSPost2010PropOp45
 70
     1
102
RTVSPost2010Prop46
 90
       50
102
RTVSPost2010PropOp46
 70
     1
102
RTVSPost2010Prop47
 90
       50
102
RTVSPost2010PropOp47
 70
     1
102
RTVSPost2010Prop48
 90
       50
102
RTVSPost2010PropOp48
 70
     1
102
RTVSPost2010Prop49
280
     0
102
RTVSPost2010PropOp49
 70
     1
102
RTVSPost2010Prop50
 90
       50
102
RTVSPost2010PropOp50
 70
     1
102
RTVSPost2010Prop51ColorIndex
 90
      256
102
RTVSPost2010Prop51ColorRGB
 90
-16777216
102
RTVSPost2010PropOp51
 70
     0
102
RTVSPost2010Prop52
140
1.0
102
RTVSPost2010PropOp52
 70
     0
102
RTVSPost2010Prop53
 90
        2
102
RTVSPost2010PropOp53
 70
     1
102
RTVSPost2010Prop54
  1
strokes_ogs.tif
102
RTVSPost2010PropOp54
 70
     1
102
RTVSPost2010Prop55
280
     0
102
RTVSPost2010PropOp55
 70
     1
102
RTVSPost2010Prop56
140
1.0
102
RTVSPost2010PropOp56
 70
     1
102
RTVSPost2010Prop57
140
1.0
102
RTVSPost2010PropOp57
 70
     1
  0
XRECORD
  5
255
102
{ACAD_REACTORS
330
254
102
}
330
254
100
AcDbXrecord
280
     1
102
RTVSPropertyOp0
 70
     1
102
RTVSPropertyOp1
 70
     1
102
RTVSPropertyOp2
 70
     1
102
RTVSPropertyOp3
 70
     1
102
RTVSPropertyOp4
 70
     1
102
RTVSPropertyOp5
 70
     1
102
RTVSPropertyOp6
 70
     1
102
RTVSPropertyOp7
 70
     1
102
RTVSPropertyOp8
 70
     1
102
RTVSPropertyOp9
 70
     1
102
RTVSPropertyOp10
 70
     1
102
RTVSPropertyOp11
 70
     1
102
RTVSPropertyOp12
 70
     1
102
RTVSPropertyOp13
 70
     1
102
RTVSPropertyOp14
 70
     1
102
RTVSPropertyOp15
 70
     1
102
RTVSPropertyOp16
 70
     1
102
RTVSPropertyOp17
 70
     1
102
RTVSPropertyOp18
 70
     1
102
RTVSPropertyOp19
 70
     1
102
RTVSPropertyOp20
 70
     1
102
RTVSPropertyOp21
 70
     1
102
RTVSPropertyOp22
 70
     1
102
RTVSPropertyOp23
 70
     1
102
RTVSPropertyOp24
 70
     1
102
RTVSPropertyOp25
 70
     1
102
RTVSPropertyOp26
 70
     1
102
RTVSPropertyOp27
 70
     1
102
RTVSPropertyOp28
 70
     1
102
RTVSPropertyOp29
 70
     1
102
RTVSPropertyOp30
 70
     1
102
RTVSPropertyOp31
 70
     1
102
RTVSPropertyOp32
 70
     1
102
RTVSPropertyOp33
 70
     1
102
RTVSPropertyOp34
 70
     1
102
RTVSPropertyOp35
 70
     1
102
RTVSPropertyOp36
 70
     1
102
RTVSPropertyOp37
 70
     1
102
RTVSPropertyOp38
 70
     1
102
RTVSPropertyOp39
 70
     1
102
RTVSPropertyOp40
 70
     1
102
RTVSPropertyOp41
 70
     1
102
RTVSPropertyOp42
 70
     1
102
RTVSPropertyOp43
 70
     1
102
RTVSPropertyOp44
 70
     1
102
RTVSPropertyOp45
 70
     1
102
RTVSPropertyOp46
 70
     1
102
RTVSPropertyOp47
 70
     1
102
RTVSPropertyOp48
 70
     1
102
RTVSPropertyOp49
 70
     1
102
RTVSPropertyOp50
 70
     1
102
RTVSPropertyOp51
 70
     0
102
RTVSPropertyOp52
 70
     0
102
RTVSPropertyOp53
 70
     1
102
RTVSPropertyOp54
 70
     1
102
RTVSPropertyOp55
 70
     1
102
RTVSPropertyOp56
 70
     1
102
RTVSPropertyOp57
 70
     1
102
RTVSPost2010Prop28
280
     0
102
RTVSPost2010PropOp28
 70
     1
102
RTVSPost2010Prop29
280
     1
102
RTVSPost2010PropOp29
 70
     1
102
RTVSPost2010Prop30
280
     1
102
RTVSPost2010PropOp30
 70
     1
102
RTVSPost2010Prop31
280
     0
102
RTVSPost2010PropOp31
 70
     1
102
RTVSPost2010Prop32
280
     0
102
RTVSPost2010PropOp32
 70
     1
102
RTVSPost2010Prop33
280
     0
102
RTVSPost2010PropOp33
 70
     1
102
RTVSPost2010Prop34
280
     0
102
RTVSPost2010PropOp34
 70
     1
102
RTVSPost2010Prop35
280
     0
102
RTVSPost2010PropOp35
 70
     1
102
RTVSPost2010Prop36
280
     0
102
RTVSPost2010PropOp36
 70
     1
102
RTVSPost2010Prop37
 90
       50
102
RTVSPost2010PropOp37
 70
     1
102
RTVSPost2010Prop38
140
0.0
102
RTVSPost2010PropOp38
 70
     1
102
RTVSPost2010Prop39
140
1.0
102
RTVSPost2010PropOp39
 70
     1
102
RTVSPost2010Prop40
 90
        0
102
RTVSPost2010PropOp40
 70
     1
102
RTVSPost2010Prop41ColorIndex
 90
       18
102
RTVSPost2010Prop41ColorRGB
 90
        0
102
RTVSPost2010PropOp41
 70
     1
102
RTVSPost2010Prop42
 90
       50
102
RTVSPost2010PropOp42
 70
     1
102
RTVSPost2010Prop43
 90
        3
102
RTVSPost2010PropOp43
 70
     1
102
RTVSPost2010Prop44ColorIndex
 90
        5
102
RTVSPost2010Prop44ColorRGB
 90
      255
102
RTVSPost2010PropOp44
 70
     1
102
RTVSPost2010Prop45
280
     0
102
RTVSPost2010PropOp45
 70
     1
102
RTVSPost2010Prop46
 90
       50
102
RTVSPost2010PropOp46
 70
     1
102
RTVSPost2010Prop47
 90
       50
102
RTVSPost2010PropOp47
 70
     1
102
RTVSPost2010Prop48
 90
       50
102
RTVSPost2010PropOp48
 70
     1
102
RTVSPost2010Prop49
280
     0
102
RTVSPost2010PropOp49
 70
     1
102
RTVSPost2010Prop50
 90
       50
102
RTVSPost2010PropOp50
 70
     1
102
RTVSPost2010Prop51ColorIndex
 90
      256
102
RTVSPost2010Prop51ColorRGB
 90
-16777216
102
RTVSPost2010PropOp51
 70
     0
102
RTVSPost2010Prop52
140
1.0
102
RTVSPost2010PropOp52
 70
     0
102
RTVSPost2010Prop53
 90
        2
102
RTVSPost2010PropOp53
 70
     1
102
RTVSPost2010Prop54
  1
strokes_ogs.tif
102
RTVSPost2010PropOp54
 70
     1
102
RTVSPost2010Prop55
280
     0
102
RTVSPost2010PropOp55
 70
     1
102
RTVSPost2010Prop56
140
1.0
102
RTVSPost2010PropOp56
 70
     1
102
RTVSPost2010Prop57
140
1.0
102
RTVSPost2010PropOp57
 70
     1
  0
XRECORD
  5
257
102
{ACAD_REACTORS
330
256
102
}
330
256
100
AcDbXrecord
280
     1
102
RTVSPropertyOp0
 70
     1
102
RTVSPropertyOp1
 70
     1
102
RTVSPropertyOp2
 70
     1
102
RTVSPropertyOp3
 70
     1
102
RTVSPropertyOp4
 70
     1
102
RTVSPropertyOp5
 70
     1
102
RTVSPropertyOp6
 70
     1
102
RTVSPropertyOp7
 70
     1
102
RTVSPropertyOp8
 70
     1
102
RTVSPropertyOp9
 70
     1
102
RTVSPropertyOp10
 70
     1
102
RTVSPropertyOp11
 70
     1
102
RTVSPropertyOp12
 70
     1
102
RTVSPropertyOp13
 70
     1
102
RTVSPropertyOp14
 70
     1
102
RTVSPropertyOp15
 70
     1
102
RTVSPropertyOp16
 70
     1
102
RTVSPropertyOp17
 70
     1
102
RTVSPropertyOp18
 70
     1
102
RTVSPropertyOp19
 70
     1
102
RTVSPropertyOp20
 70
     1
102
RTVSPropertyOp21
 70
     1
102
RTVSPropertyOp22
 70
     1
102
RTVSPropertyOp23
 70
     1
102
RTVSPropertyOp24
 70
     1
102
RTVSPropertyOp25
 70
     1
102
RTVSPropertyOp26
 70
     1
102
RTVSPropertyOp27
 70
     1
102
RTVSPropertyOp28
 70
     1
102
RTVSPropertyOp29
 70
     1
102
RTVSPropertyOp30
 70
     1
102
RTVSPropertyOp31
 70
     1
102
RTVSPropertyOp32
 70
     1
102
RTVSPropertyOp33
 70
     1
102
RTVSPropertyOp34
 70
     1
102
RTVSPropertyOp35
 70
     1
102
RTVSPropertyOp36
 70
     1
102
RTVSPropertyOp37
 70
     1
102
RTVSPropertyOp38
 70
     1
102
RTVSPropertyOp39
 70
     1
102
RTVSPropertyOp40
 70
     1
102
RTVSPropertyOp41
 70
     1
102
RTVSPropertyOp42
 70
     1
102
RTVSPropertyOp43
 70
     1
102
RTVSPropertyOp44
 70
     1
102
RTVSPropertyOp45
 70
     1
102
RTVSPropertyOp46
 70
     1
102
RTVSPropertyOp47
 70
     1
102
RTVSPropertyOp48
 70
     1
102
RTVSPropertyOp49
 70
     1
102
RTVSPropertyOp50
 70
     1
102
RTVSPropertyOp51
 70
     0
102
RTVSPropertyOp52
 70
     0
102
RTVSPropertyOp53
 70
     1
102
RTVSPropertyOp54
 70
     1
102
RTVSPropertyOp55
 70
     1
102
RTVSPropertyOp56
 70
     1
102
RTVSPropertyOp57
 70
     1
102
RTVSPost2010Prop28
280
     0
102
RTVSPost2010PropOp28
 70
     1
102
RTVSPost2010Prop29
280
     1
102
RTVSPost2010PropOp29
 70
     1
102
RTVSPost2010Prop30
280
     1
102
RTVSPost2010PropOp30
 70
     1
102
RTVSPost2010Prop31
280
     0
102
RTVSPost2010PropOp31
 70
     1
102
RTVSPost2010Prop32
280
     0
102
RTVSPost2010PropOp32
 70
     1
102
RTVSPost2010Prop33
280
     0
102
RTVSPost2010PropOp33
 70
     1
102
RTVSPost2010Prop34
280
     0
102
RTVSPost2010PropOp34
 70
     1
102
RTVSPost2010Prop35
280
     0
102
RTVSPost2010PropOp35
 70
     1
102
RTVSPost2010Prop36
280
     0
102
RTVSPost2010PropOp36
 70
     1
102
RTVSPost2010Prop37
 90
       50
102
RTVSPost2010PropOp37
 70
     1
102
RTVSPost2010Prop38
140
0.0
102
RTVSPost2010PropOp38
 70
     1
102
RTVSPost2010Prop39
140
1.0
102
RTVSPost2010PropOp39
 70
     1
102
RTVSPost2010Prop40
 90
        0
102
RTVSPost2010PropOp40
 70
     1
102
RTVSPost2010Prop41ColorIndex
 90
       18
102
RTVSPost2010Prop41ColorRGB
 90
        0
102
RTVSPost2010PropOp41
 70
     1
102
RTVSPost2010Prop42
 90
       50
102
RTVSPost2010PropOp42
 70
     1
102
RTVSPost2010Prop43
 90
        3
102
RTVSPost2010PropOp43
 70
     1
102
RTVSPost2010Prop44ColorIndex
 90
        5
102
RTVSPost2010Prop44ColorRGB
 90
      255
102
RTVSPost2010PropOp44
 70
     1
102
RTVSPost2010Prop45
280
     0
102
RTVSPost2010PropOp45
 70
     1
102
RTVSPost2010Prop46
 90
       50
102
RTVSPost2010PropOp46
 70
     1
102
RTVSPost2010Prop47
 90
       50
102
RTVSPost2010PropOp47
 70
     1
102
RTVSPost2010Prop48
 90
       50
102
RTVSPost2010PropOp48
 70
     1
102
RTVSPost2010Prop49
280
     0
102
RTVSPost2010PropOp49
 70
     1
102
RTVSPost2010Prop50
 90
       50
102
RTVSPost2010PropOp50
 70
     1
102
RTVSPost2010Prop51ColorIndex
 90
      256
102
RTVSPost2010Prop51ColorRGB
 90
-16777216
102
RTVSPost2010PropOp51
 70
     0
102
RTVSPost2010Prop52
140
1.0
102
RTVSPost2010PropOp52
 70
     0
102
RTVSPost2010Prop53
 90
        2
102
RTVSPost2010PropOp53
 70
     1
102
RTVSPost2010Prop54
  1
strokes_ogs.tif
102
RTVSPost2010PropOp54
 70
     1
102
RTVSPost2010Prop55
280
     0
102
RTVSPost2010PropOp55
 70
     1
102
RTVSPost2010Prop56
140
1.0
102
RTVSPost2010PropOp56
 70
     1
102
RTVSPost2010Prop57
140
1.0
102
RTVSPost2010PropOp57
 70
     1
  0
XRECORD
  5
267
102
{ACAD_REACTORS
330
266
102
}
330
266
100
AcDbXrecord
280
     1
102
RTVSPropertyOp0
 70
     0
102
RTVSPropertyOp1
 70
     0
102
RTVSPropertyOp2
 70
     0
102
RTVSPropertyOp3
 70
     0
102
RTVSPropertyOp4
 70
     0
102
RTVSPropertyOp5
 70
     0
102
RTVSPropertyOp6
 70
     0
102
RTVSPropertyOp7
 70
     0
102
RTVSPropertyOp8
 70
     0
102
RTVSPropertyOp9
 70
     0
102
RTVSPropertyOp10
 70
     0
102
RTVSPropertyOp11
 70
     0
102
RTVSPropertyOp12
 70
     0
102
RTVSPropertyOp13
 70
     0
102
RTVSPropertyOp14
 70
     2
102
RTVSPropertyOp15
 70
     0
102
RTVSPropertyOp16
 70
     0
102
RTVSPropertyOp17
 70
     0
102
RTVSPropertyOp18
 70
     0
102
RTVSPropertyOp19
 70
     0
102
RTVSPropertyOp20
 70
     0
102
RTVSPropertyOp21
 70
     0
102
RTVSPropertyOp22
 70
     0
102
RTVSPropertyOp23
 70
     0
102
RTVSPropertyOp24
 70
     0
102
RTVSPropertyOp25
 70
     0
102
RTVSPropertyOp26
 70
     0
102
RTVSPropertyOp27
 70
     0
102
RTVSPropertyOp28
 70
     0
102
RTVSPropertyOp29
 70
     0
102
RTVSPropertyOp30
 70
     0
102
RTVSPropertyOp31
 70
     0
102
RTVSPropertyOp32
 70
     0
102
RTVSPropertyOp33
 70
     0
102
RTVSPropertyOp34
 70
     0
102
RTVSPropertyOp35
 70
     0
102
RTVSPropertyOp36
 70
     0
102
RTVSPropertyOp37
 70
     0
102
RTVSPropertyOp38
 70
     0
102
RTVSPropertyOp39
 70
     0
102
RTVSPropertyOp40
 70
     0
102
RTVSPropertyOp41
 70
     0
102
RTVSPropertyOp42
 70
     0
102
RTVSPropertyOp43
 70
     0
102
RTVSPropertyOp44
 70
     0
102
RTVSPropertyOp45
 70
     0
102
RTVSPropertyOp46
 70
     0
102
RTVSPropertyOp47
 70
     0
102
RTVSPropertyOp48
 70
     0
102
RTVSPropertyOp49
 70
     0
102
RTVSPropertyOp50
 70
     0
102
RTVSPropertyOp51
 70
     0
102
RTVSPropertyOp52
 70
     0
102
RTVSPropertyOp53
 70
     0
102
RTVSPropertyOp54
 70
     0
102
RTVSPropertyOp55
 70
     0
102
RTVSPropertyOp56
 70
     0
102
RTVSPropertyOp57
 70
     0
102
RTVSPost2010Prop28
280
     0
102
RTVSPost2010PropOp28
 70
     0
102
RTVSPost2010Prop29
280
     1
102
RTVSPost2010PropOp29
 70
     0
102
RTVSPost2010Prop30
280
     1
102
RTVSPost2010PropOp30
 70
     0
102
RTVSPost2010Prop31
280
     0
102
RTVSPost2010PropOp31
 70
     0
102
RTVSPost2010Prop32
280
     0
102
RTVSPost2010PropOp32
 70
     0
102
RTVSPost2010Prop33
280
     0
102
RTVSPost2010PropOp33
 70
     0
102
RTVSPost2010Prop34
280
     0
102
RTVSPost2010PropOp34
 70
     0
102
RTVSPost2010Prop35
280
     0
102
RTVSPost2010PropOp35
 70
     0
102
RTVSPost2010Prop36
280
     0
102
RTVSPost2010PropOp36
 70
     0
102
RTVSPost2010Prop37
 90
       50
102
RTVSPost2010PropOp37
 70
     0
102
RTVSPost2010Prop38
140
0.0
102
RTVSPost2010PropOp38
 70
     0
102
RTVSPost2010Prop39
140
1.0
102
RTVSPost2010PropOp39
 70
     0
102
RTVSPost2010Prop40
 90
        0
102
RTVSPost2010PropOp40
 70
     0
102
RTVSPost2010Prop41ColorIndex
 90
       18
102
RTVSPost2010Prop41ColorRGB
 90
        0
102
RTVSPost2010PropOp41
 70
     0
102
RTVSPost2010Prop42
 90
       50
102
RTVSPost2010PropOp42
 70
     0
102
RTVSPost2010Prop43
 90
        3
102
RTVSPost2010PropOp43
 70
     0
102
RTVSPost2010Prop44ColorIndex
 90
        5
102
RTVSPost2010Prop44ColorRGB
 90
      255
102
RTVSPost2010PropOp44
 70
     0
102
RTVSPost2010Prop45
280
     0
102
RTVSPost2010PropOp45
 70
     0
102
RTVSPost2010Prop46
 90
       50
102
RTVSPost2010PropOp46
 70
     0
102
RTVSPost2010Prop47
 90
       50
102
RTVSPost2010PropOp47
 70
     0
102
RTVSPost2010Prop48
 90
       50
102
RTVSPost2010PropOp48
 70
     0
102
RTVSPost2010Prop49
280
     0
102
RTVSPost2010PropOp49
 70
     0
102
RTVSPost2010Prop50
 90
       50
102
RTVSPost2010PropOp50
 70
     0
102
RTVSPost2010Prop51ColorIndex
 90
      256
102
RTVSPost2010Prop51ColorRGB
 90
-16777216
102
RTVSPost2010PropOp51
 70
     0
102
RTVSPost2010Prop52
140
1.0
102
RTVSPost2010PropOp52
 70
     0
102
RTVSPost2010Prop53
 90
        2
102
RTVSPost2010PropOp53
 70
     0
102
RTVSPost2010Prop54
  1
strokes_ogs.tif
102
RTVSPost2010PropOp54
 70
     0
102
RTVSPost2010Prop55
280
     0
102
RTVSPost2010PropOp55
 70
     0
102
RTVSPost2010Prop56
140
1.0
102
RTVSPost2010PropOp56
 70
     0
102
RTVSPost2010Prop57
140
1.0
102
RTVSPost2010PropOp57
 70
     0
  0
XRECORD
  5
25F
102
{ACAD_REACTORS
330
25E
102
}
330
25E
100
AcDbXrecord
280
     1
102
RTVSPropertyOp0
 70
     1
102
RTVSPropertyOp1
 70
     1
102
RTVSPropertyOp2
 70
     1
102
RTVSPropertyOp3
 70
     1
102
RTVSPropertyOp4
 70
     1
102
RTVSPropertyOp5
 70
     1
102
RTVSPropertyOp6
 70
     1
102
RTVSPropertyOp7
 70
     1
102
RTVSPropertyOp8
 70
     1
102
RTVSPropertyOp9
 70
     1
102
RTVSPropertyOp10
 70
     1
102
RTVSPropertyOp11
 70
     1
102
RTVSPropertyOp12
 70
     1
102
RTVSPropertyOp13
 70
     1
102
RTVSPropertyOp14
 70
     1
102
RTVSPropertyOp15
 70
     1
102
RTVSPropertyOp16
 70
     1
102
RTVSPropertyOp17
 70
     1
102
RTVSPropertyOp18
 70
     1
102
RTVSPropertyOp19
 70
     1
102
RTVSPropertyOp20
 70
     1
102
RTVSPropertyOp21
 70
     1
102
RTVSPropertyOp22
 70
     1
102
RTVSPropertyOp23
 70
     1
102
RTVSPropertyOp24
 70
     1
102
RTVSPropertyOp25
 70
     1
102
RTVSPropertyOp26
 70
     1
102
RTVSPropertyOp27
 70
     1
102
RTVSPropertyOp28
 70
     1
102
RTVSPropertyOp29
 70
     1
102
RTVSPropertyOp30
 70
     1
102
RTVSPropertyOp31
 70
     1
102
RTVSPropertyOp32
 70
     1
102
RTVSPropertyOp33
 70
     1
102
RTVSPropertyOp34
 70
     1
102
RTVSPropertyOp35
 70
     1
102
RTVSPropertyOp36
 70
     1
102
RTVSPropertyOp37
 70
     1
102
RTVSPropertyOp38
 70
     1
102
RTVSPropertyOp39
 70
     1
102
RTVSPropertyOp40
 70
     1
102
RTVSPropertyOp41
 70
     1
102
RTVSPropertyOp42
 70
     1
102
RTVSPropertyOp43
 70
     1
102
RTVSPropertyOp44
 70
     1
102
RTVSPropertyOp45
 70
     1
102
RTVSPropertyOp46
 70
     1
102
RTVSPropertyOp47
 70
     1
102
RTVSPropertyOp48
 70
     1
102
RTVSPropertyOp49
 70
     1
102
RTVSPropertyOp50
 70
     1
102
RTVSPropertyOp51
 70
     0
102
RTVSPropertyOp52
 70
     0
102
RTVSPropertyOp53
 70
     1
102
RTVSPropertyOp54
 70
     1
102
RTVSPropertyOp55
 70
     1
102
RTVSPropertyOp56
 70
     1
102
RTVSPropertyOp57
 70
     1
102
RTVSPost2010Prop28
280
     0
102
RTVSPost2010PropOp28
 70
     1
102
RTVSPost2010Prop29
280
     1
102
RTVSPost2010PropOp29
 70
     1
102
RTVSPost2010Prop30
280
     1
102
RTVSPost2010PropOp30
 70
     1
102
RTVSPost2010Prop31
280
     0
102
RTVSPost2010PropOp31
 70
     1
102
RTVSPost2010Prop32
280
     0
102
RTVSPost2010PropOp32
 70
     1
102
RTVSPost2010Prop33
280
     0
102
RTVSPost2010PropOp33
 70
     1
102
RTVSPost2010Prop34
280
     0
102
RTVSPost2010PropOp34
 70
     1
102
RTVSPost2010Prop35
280
     0
102
RTVSPost2010PropOp35
 70
     1
102
RTVSPost2010Prop36
280
     0
102
RTVSPost2010PropOp36
 70
     1
102
RTVSPost2010Prop37
 90
       50
102
RTVSPost2010PropOp37
 70
     1
102
RTVSPost2010Prop38
140
0.0
102
RTVSPost2010PropOp38
 70
     1
102
RTVSPost2010Prop39
140
1.0
102
RTVSPost2010PropOp39
 70
     1
102
RTVSPost2010Prop40
 90
        0
102
RTVSPost2010PropOp40
 70
     1
102
RTVSPost2010Prop41ColorIndex
 90
       18
102
RTVSPost2010Prop41ColorRGB
 90
        0
102
RTVSPost2010PropOp41
 70
     1
102
RTVSPost2010Prop42
 90
       50
102
RTVSPost2010PropOp42
 70
     1
102
RTVSPost2010Prop43
 90
        3
102
RTVSPost2010PropOp43
 70
     1
102
RTVSPost2010Prop44ColorIndex
 90
        5
102
RTVSPost2010Prop44ColorRGB
 90
      255
102
RTVSPost2010PropOp44
 70
     1
102
RTVSPost2010Prop45
280
     0
102
RTVSPost2010PropOp45
 70
     1
102
RTVSPost2010Prop46
 90
       50
102
RTVSPost2010PropOp46
 70
     1
102
RTVSPost2010Prop47
 90
       50
102
RTVSPost2010PropOp47
 70
     1
102
RTVSPost2010Prop48
 90
       50
102
RTVSPost2010PropOp48
 70
     1
102
RTVSPost2010Prop49
280
     0
102
RTVSPost2010PropOp49
 70
     1
102
RTVSPost2010Prop50
 90
       50
102
RTVSPost2010PropOp50
 70
     1
102
RTVSPost2010Prop51ColorIndex
 90
      256
102
RTVSPost2010Prop51ColorRGB
 90
-16777216
102
RTVSPost2010PropOp51
 70
     0
102
RTVSPost2010Prop52
140
1.0
102
RTVSPost2010PropOp52
 70
     0
102
RTVSPost2010Prop53
 90
        2
102
RTVSPost2010PropOp53
 70
     1
102
RTVSPost2010Prop54
  1
strokes_ogs.tif
102
RTVSPost2010PropOp54
 70
     1
102
RTVSPost2010Prop55
280
     0
102
RTVSPost2010PropOp55
 70
     1
102
RTVSPost2010Prop56
140
1.0
102
RTVSPost2010PropOp56
 70
     1
102
RTVSPost2010Prop57
140
1.0
102
RTVSPost2010PropOp57
 70
     1
  0
XRECORD
  5
243
102
{ACAD_REACTORS
330
242
102
}
330
242
100
AcDbXrecord
280
     1
102
RTVSPropertyOp0
 70
     1
102
RTVSPropertyOp1
 70
     1
102
RTVSPropertyOp2
 70
     1
102
RTVSPropertyOp3
 70
     1
102
RTVSPropertyOp4
 70
     1
102
RTVSPropertyOp5
 70
     1
102
RTVSPropertyOp6
 70
     1
102
RTVSPropertyOp7
 70
     1
102
RTVSPropertyOp8
 70
     1
102
RTVSPropertyOp9
 70
     1
102
RTVSPropertyOp10
 70
     1
102
RTVSPropertyOp11
 70
     1
102
RTVSPropertyOp12
 70
     1
102
RTVSPropertyOp13
 70
     1
102
RTVSPropertyOp14
 70
     1
102
RTVSPropertyOp15
 70
     1
102
RTVSPropertyOp16
 70
     1
102
RTVSPropertyOp17
 70
     1
102
RTVSPropertyOp18
 70
     1
102
RTVSPropertyOp19
 70
     1
102
RTVSPropertyOp20
 70
     1
102
RTVSPropertyOp21
 70
     1
102
RTVSPropertyOp22
 70
     1
102
RTVSPropertyOp23
 70
     1
102
RTVSPropertyOp24
 70
     1
102
RTVSPropertyOp25
 70
     1
102
RTVSPropertyOp26
 70
     1
102
RTVSPropertyOp27
 70
     1
102
RTVSPropertyOp28
 70
     1
102
RTVSPropertyOp29
 70
     1
102
RTVSPropertyOp30
 70
     1
102
RTVSPropertyOp31
 70
     1
102
RTVSPropertyOp32
 70
     1
102
RTVSPropertyOp33
 70
     1
102
RTVSPropertyOp34
 70
     1
102
RTVSPropertyOp35
 70
     1
102
RTVSPropertyOp36
 70
     1
102
RTVSPropertyOp37
 70
     1
102
RTVSPropertyOp38
 70
     1
102
RTVSPropertyOp39
 70
     1
102
RTVSPropertyOp40
 70
     1
102
RTVSPropertyOp41
 70
     1
102
RTVSPropertyOp42
 70
     1
102
RTVSPropertyOp43
 70
     1
102
RTVSPropertyOp44
 70
     1
102
RTVSPropertyOp45
 70
     1
102
RTVSPropertyOp46
 70
     1
102
RTVSPropertyOp47
 70
     1
102
RTVSPropertyOp48
 70
     1
102
RTVSPropertyOp49
 70
     1
102
RTVSPropertyOp50
 70
     1
102
RTVSPropertyOp51
 70
     0
102
RTVSPropertyOp52
 70
     0
102
RTVSPropertyOp53
 70
     1
102
RTVSPropertyOp54
 70
     1
102
RTVSPropertyOp55
 70
     1
102
RTVSPropertyOp56
 70
     1
102
RTVSPropertyOp57
 70
     1
102
RTVSPost2010Prop28
280
     0
102
RTVSPost2010PropOp28
 70
     1
102
RTVSPost2010Prop29
280
     1
102
RTVSPost2010PropOp29
 70
     1
102
RTVSPost2010Prop30
280
     1
102
RTVSPost2010PropOp30
 70
     1
102
RTVSPost2010Prop31
280
     0
102
RTVSPost2010PropOp31
 70
     1
102
RTVSPost2010Prop32
280
     0
102
RTVSPost2010PropOp32
 70
     1
102
RTVSPost2010Prop33
280
     0
102
RTVSPost2010PropOp33
 70
     1
102
RTVSPost2010Prop34
280
     0
102
RTVSPost2010PropOp34
 70
     1
102
RTVSPost2010Prop35
280
     0
102
RTVSPost2010PropOp35
 70
     1
102
RTVSPost2010Prop36
280
     0
102
RTVSPost2010PropOp36
 70
     1
102
RTVSPost2010Prop37
 90
       50
102
RTVSPost2010PropOp37
 70
     1
102
RTVSPost2010Prop38
140
0.0
102
RTVSPost2010PropOp38
 70
     1
102
RTVSPost2010Prop39
140
1.0
102
RTVSPost2010PropOp39
 70
     1
102
RTVSPost2010Prop40
 90
        0
102
RTVSPost2010PropOp40
 70
     1
102
RTVSPost2010Prop41ColorIndex
 90
       18
102
RTVSPost2010Prop41ColorRGB
 90
        0
102
RTVSPost2010PropOp41
 70
     1
102
RTVSPost2010Prop42
 90
       50
102
RTVSPost2010PropOp42
 70
     1
102
RTVSPost2010Prop43
 90
        3
102
RTVSPost2010PropOp43
 70
     1
102
RTVSPost2010Prop44ColorIndex
 90
        5
102
RTVSPost2010Prop44ColorRGB
 90
      255
102
RTVSPost2010PropOp44
 70
     1
102
RTVSPost2010Prop45
280
     0
102
RTVSPost2010PropOp45
 70
     1
102
RTVSPost2010Prop46
 90
       50
102
RTVSPost2010PropOp46
 70
     1
102
RTVSPost2010Prop47
 90
       50
102
RTVSPost2010PropOp47
 70
     1
102
RTVSPost2010Prop48
 90
       50
102
RTVSPost2010PropOp48
 70
     1
102
RTVSPost2010Prop49
280
     0
102
RTVSPost2010PropOp49
 70
     1
102
RTVSPost2010Prop50
 90
       50
102
RTVSPost2010PropOp50
 70
     1
102
RTVSPost2010Prop51ColorIndex
 90
      256
102
RTVSPost2010Prop51ColorRGB
 90
-16777216
102
RTVSPost2010PropOp51
 70
     0
102
RTVSPost2010Prop52
140
1.0
102
RTVSPost2010PropOp52
 70
     0
102
RTVSPost2010Prop53
 90
        2
102
RTVSPost2010PropOp53
 70
     1
102
RTVSPost2010Prop54
  1
strokes_ogs.tif
102
RTVSPost2010PropOp54
 70
     1
102
RTVSPost2010Prop55
280
     0
102
RTVSPost2010PropOp55
 70
     1
102
RTVSPost2010Prop56
140
1.0
102
RTVSPost2010PropOp56
 70
     1
102
RTVSPost2010Prop57
140
1.0
102
RTVSPost2010PropOp57
 70
     1
  0
XRECORD
  5
245
102
{ACAD_REACTORS
330
244
102
}
330
244
100
AcDbXrecord
280
     1
102
RTVSPropertyOp0
 70
     1
102
RTVSPropertyOp1
 70
     1
102
RTVSPropertyOp2
 70
     1
102
RTVSPropertyOp3
 70
     1
102
RTVSPropertyOp4
 70
     1
102
RTVSPropertyOp5
 70
     1
102
RTVSPropertyOp6
 70
     1
102
RTVSPropertyOp7
 70
     1
102
RTVSPropertyOp8
 70
     1
102
RTVSPropertyOp9
 70
     1
102
RTVSPropertyOp10
 70
     1
102
RTVSPropertyOp11
 70
     1
102
RTVSPropertyOp12
 70
     1
102
RTVSPropertyOp13
 70
     1
102
RTVSPropertyOp14
 70
     1
102
RTVSPropertyOp15
 70
     1
102
RTVSPropertyOp16
 70
     1
102
RTVSPropertyOp17
 70
     1
102
RTVSPropertyOp18
 70
     1
102
RTVSPropertyOp19
 70
     1
102
RTVSPropertyOp20
 70
     1
102
RTVSPropertyOp21
 70
     1
102
RTVSPropertyOp22
 70
     1
102
RTVSPropertyOp23
 70
     1
102
RTVSPropertyOp24
 70
     1
102
RTVSPropertyOp25
 70
     1
102
RTVSPropertyOp26
 70
     1
102
RTVSPropertyOp27
 70
     1
102
RTVSPropertyOp28
 70
     1
102
RTVSPropertyOp29
 70
     1
102
RTVSPropertyOp30
 70
     1
102
RTVSPropertyOp31
 70
     1
102
RTVSPropertyOp32
 70
     1
102
RTVSPropertyOp33
 70
     1
102
RTVSPropertyOp34
 70
     1
102
RTVSPropertyOp35
 70
     1
102
RTVSPropertyOp36
 70
     1
102
RTVSPropertyOp37
 70
     1
102
RTVSPropertyOp38
 70
     1
102
RTVSPropertyOp39
 70
     1
102
RTVSPropertyOp40
 70
     1
102
RTVSPropertyOp41
 70
     1
102
RTVSPropertyOp42
 70
     1
102
RTVSPropertyOp43
 70
     1
102
RTVSPropertyOp44
 70
     1
102
RTVSPropertyOp45
 70
     1
102
RTVSPropertyOp46
 70
     1
102
RTVSPropertyOp47
 70
     1
102
RTVSPropertyOp48
 70
     1
102
RTVSPropertyOp49
 70
     1
102
RTVSPropertyOp50
 70
     1
102
RTVSPropertyOp51
 70
     0
102
RTVSPropertyOp52
 70
     0
102
RTVSPropertyOp53
 70
     1
102
RTVSPropertyOp54
 70
     1
102
RTVSPropertyOp55
 70
     1
102
RTVSPropertyOp56
 70
     1
102
RTVSPropertyOp57
 70
     1
102
RTVSPost2010Prop28
280
     0
102
RTVSPost2010PropOp28
 70
     1
102
RTVSPost2010Prop29
280
     1
102
RTVSPost2010PropOp29
 70
     1
102
RTVSPost2010Prop30
280
     1
102
RTVSPost2010PropOp30
 70
     1
102
RTVSPost2010Prop31
280
     0
102
RTVSPost2010PropOp31
 70
     1
102
RTVSPost2010Prop32
280
     0
102
RTVSPost2010PropOp32
 70
     1
102
RTVSPost2010Prop33
280
     0
102
RTVSPost2010PropOp33
 70
     1
102
RTVSPost2010Prop34
280
     0
102
RTVSPost2010PropOp34
 70
     1
102
RTVSPost2010Prop35
280
     0
102
RTVSPost2010PropOp35
 70
     1
102
RTVSPost2010Prop36
280
     0
102
RTVSPost2010PropOp36
 70
     1
102
RTVSPost2010Prop37
 90
       50
102
RTVSPost2010PropOp37
 70
     1
102
RTVSPost2010Prop38
140
0.0
102
RTVSPost2010PropOp38
 70
     1
102
RTVSPost2010Prop39
140
1.0
102
RTVSPost2010PropOp39
 70
     1
102
RTVSPost2010Prop40
 90
        0
102
RTVSPost2010PropOp40
 70
     1
102
RTVSPost2010Prop41ColorIndex
 90
       18
102
RTVSPost2010Prop41ColorRGB
 90
        0
102
RTVSPost2010PropOp41
 70
     1
102
RTVSPost2010Prop42
 90
       50
102
RTVSPost2010PropOp42
 70
     1
102
RTVSPost2010Prop43
 90
        3
102
RTVSPost2010PropOp43
 70
     1
102
RTVSPost2010Prop44ColorIndex
 90
        5
102
RTVSPost2010Prop44ColorRGB
 90
      255
102
RTVSPost2010PropOp44
 70
     1
102
RTVSPost2010Prop45
280
     0
102
RTVSPost2010PropOp45
 70
     1
102
RTVSPost2010Prop46
 90
       50
102
RTVSPost2010PropOp46
 70
     1
102
RTVSPost2010Prop47
 90
       50
102
RTVSPost2010PropOp47
 70
     1
102
RTVSPost2010Prop48
 90
       50
102
RTVSPost2010PropOp48
 70
     1
102
RTVSPost2010Prop49
280
     0
102
RTVSPost2010PropOp49
 70
     1
102
RTVSPost2010Prop50
 90
       50
102
RTVSPost2010PropOp50
 70
     1
102
RTVSPost2010Prop51ColorIndex
 90
      256
102
RTVSPost2010Prop51ColorRGB
 90
-16777216
102
RTVSPost2010PropOp51
 70
     0
102
RTVSPost2010Prop52
140
1.0
102
RTVSPost2010PropOp52
 70
     0
102
RTVSPost2010Prop53
 90
        2
102
RTVSPost2010PropOp53
 70
     1
102
RTVSPost2010Prop54
  1
strokes_ogs.tif
102
RTVSPost2010PropOp54
 70
     1
102
RTVSPost2010Prop55
280
     0
102
RTVSPost2010PropOp55
 70
     1
102
RTVSPost2010Prop56
140
1.0
102
RTVSPost2010PropOp56
 70
     1
102
RTVSPost2010Prop57
140
1.0
102
RTVSPost2010PropOp57
 70
     1
  0
XRECORD
  5
247
102
{ACAD_REACTORS
330
246
102
}
330
246
100
AcDbXrecord
280
     1
102
RTVSPropertyOp0
 70
     1
102
RTVSPropertyOp1
 70
     1
102
RTVSPropertyOp2
 70
     1
102
RTVSPropertyOp3
 70
     1
102
RTVSPropertyOp4
 70
     1
102
RTVSPropertyOp5
 70
     1
102
RTVSPropertyOp6
 70
     1
102
RTVSPropertyOp7
 70
     1
102
RTVSPropertyOp8
 70
     1
102
RTVSPropertyOp9
 70
     1
102
RTVSPropertyOp10
 70
     1
102
RTVSPropertyOp11
 70
     1
102
RTVSPropertyOp12
 70
     1
102
RTVSPropertyOp13
 70
     1
102
RTVSPropertyOp14
 70
     1
102
RTVSPropertyOp15
 70
     1
102
RTVSPropertyOp16
 70
     1
102
RTVSPropertyOp17
 70
     1
102
RTVSPropertyOp18
 70
     1
102
RTVSPropertyOp19
 70
     1
102
RTVSPropertyOp20
 70
     1
102
RTVSPropertyOp21
 70
     1
102
RTVSPropertyOp22
 70
     1
102
RTVSPropertyOp23
 70
     1
102
RTVSPropertyOp24
 70
     1
102
RTVSPropertyOp25
 70
     1
102
RTVSPropertyOp26
 70
     1
102
RTVSPropertyOp27
 70
     1
102
RTVSPropertyOp28
 70
     1
102
RTVSPropertyOp29
 70
     1
102
RTVSPropertyOp30
 70
     1
102
RTVSPropertyOp31
 70
     1
102
RTVSPropertyOp32
 70
     1
102
RTVSPropertyOp33
 70
     1
102
RTVSPropertyOp34
 70
     1
102
RTVSPropertyOp35
 70
     1
102
RTVSPropertyOp36
 70
     1
102
RTVSPropertyOp37
 70
     1
102
RTVSPropertyOp38
 70
     1
102
RTVSPropertyOp39
 70
     1
102
RTVSPropertyOp40
 70
     1
102
RTVSPropertyOp41
 70
     1
102
RTVSPropertyOp42
 70
     1
102
RTVSPropertyOp43
 70
     1
102
RTVSPropertyOp44
 70
     1
102
RTVSPropertyOp45
 70
     1
102
RTVSPropertyOp46
 70
     1
102
RTVSPropertyOp47
 70
     1
102
RTVSPropertyOp48
 70
     1
102
RTVSPropertyOp49
 70
     1
102
RTVSPropertyOp50
 70
     1
102
RTVSPropertyOp51
 70
     0
102
RTVSPropertyOp52
 70
     0
102
RTVSPropertyOp53
 70
     1
102
RTVSPropertyOp54
 70
     1
102
RTVSPropertyOp55
 70
     1
102
RTVSPropertyOp56
 70
     1
102
RTVSPropertyOp57
 70
     1
102
RTVSPost2010Prop28
280
     0
102
RTVSPost2010PropOp28
 70
     1
102
RTVSPost2010Prop29
280
     1
102
RTVSPost2010PropOp29
 70
     1
102
RTVSPost2010Prop30
280
     1
102
RTVSPost2010PropOp30
 70
     1
102
RTVSPost2010Prop31
280
     0
102
RTVSPost2010PropOp31
 70
     1
102
RTVSPost2010Prop32
280
     0
102
RTVSPost2010PropOp32
 70
     1
102
RTVSPost2010Prop33
280
     0
102
RTVSPost2010PropOp33
 70
     1
102
RTVSPost2010Prop34
280
     0
102
RTVSPost2010PropOp34
 70
     1
102
RTVSPost2010Prop35
280
     0
102
RTVSPost2010PropOp35
 70
     1
102
RTVSPost2010Prop36
280
     0
102
RTVSPost2010PropOp36
 70
     1
102
RTVSPost2010Prop37
 90
       50
102
RTVSPost2010PropOp37
 70
     1
102
RTVSPost2010Prop38
140
0.0
102
RTVSPost2010PropOp38
 70
     1
102
RTVSPost2010Prop39
140
1.0
102
RTVSPost2010PropOp39
 70
     1
102
RTVSPost2010Prop40
 90
        0
102
RTVSPost2010PropOp40
 70
     1
102
RTVSPost2010Prop41ColorIndex
 90
       18
102
RTVSPost2010Prop41ColorRGB
 90
        0
102
RTVSPost2010PropOp41
 70
     1
102
RTVSPost2010Prop42
 90
       50
102
RTVSPost2010PropOp42
 70
     1
102
RTVSPost2010Prop43
 90
        3
102
RTVSPost2010PropOp43
 70
     1
102
RTVSPost2010Prop44ColorIndex
 90
        5
102
RTVSPost2010Prop44ColorRGB
 90
      255
102
RTVSPost2010PropOp44
 70
     1
102
RTVSPost2010Prop45
280
     0
102
RTVSPost2010PropOp45
 70
     1
102
RTVSPost2010Prop46
 90
       50
102
RTVSPost2010PropOp46
 70
     1
102
RTVSPost2010Prop47
 90
       50
102
RTVSPost2010PropOp47
 70
     1
102
RTVSPost2010Prop48
 90
       50
102
RTVSPost2010PropOp48
 70
     1
102
RTVSPost2010Prop49
280
     0
102
RTVSPost2010PropOp49
 70
     1
102
RTVSPost2010Prop50
 90
       50
102
RTVSPost2010PropOp50
 70
     1
102
RTVSPost2010Prop51ColorIndex
 90
      256
102
RTVSPost2010Prop51ColorRGB
 90
-16777216
102
RTVSPost2010PropOp51
 70
     0
102
RTVSPost2010Prop52
140
1.0
102
RTVSPost2010PropOp52
 70
     0
102
RTVSPost2010Prop53
 90
        2
102
RTVSPost2010PropOp53
 70
     1
102
RTVSPost2010Prop54
  1
strokes_ogs.tif
102
RTVSPost2010PropOp54
 70
     1
102
RTVSPost2010Prop55
280
     0
102
RTVSPost2010PropOp55
 70
     1
102
RTVSPost2010Prop56
140
1.0
102
RTVSPost2010PropOp56
 70
     1
102
RTVSPost2010Prop57
140
1.0
102
RTVSPost2010PropOp57
 70
     1
  0
XRECORD
  5
249
102
{ACAD_REACTORS
330
248
102
}
330
248
100
AcDbXrecord
280
     1
102
RTVSPropertyOp0
 70
     1
102
RTVSPropertyOp1
 70
     1
102
RTVSPropertyOp2
 70
     1
102
RTVSPropertyOp3
 70
     1
102
RTVSPropertyOp4
 70
     1
102
RTVSPropertyOp5
 70
     1
102
RTVSPropertyOp6
 70
     1
102
RTVSPropertyOp7
 70
     1
102
RTVSPropertyOp8
 70
     1
102
RTVSPropertyOp9
 70
     1
102
RTVSPropertyOp10
 70
     1
102
RTVSPropertyOp11
 70
     1
102
RTVSPropertyOp12
 70
     1
102
RTVSPropertyOp13
 70
     1
102
RTVSPropertyOp14
 70
     1
102
RTVSPropertyOp15
 70
     1
102
RTVSPropertyOp16
 70
     1
102
RTVSPropertyOp17
 70
     1
102
RTVSPropertyOp18
 70
     1
102
RTVSPropertyOp19
 70
     1
102
RTVSPropertyOp20
 70
     1
102
RTVSPropertyOp21
 70
     1
102
RTVSPropertyOp22
 70
     1
102
RTVSPropertyOp23
 70
     1
102
RTVSPropertyOp24
 70
     1
102
RTVSPropertyOp25
 70
     1
102
RTVSPropertyOp26
 70
     1
102
RTVSPropertyOp27
 70
     1
102
RTVSPropertyOp28
 70
     1
102
RTVSPropertyOp29
 70
     1
102
RTVSPropertyOp30
 70
     1
102
RTVSPropertyOp31
 70
     1
102
RTVSPropertyOp32
 70
     1
102
RTVSPropertyOp33
 70
     1
102
RTVSPropertyOp34
 70
     1
102
RTVSPropertyOp35
 70
     1
102
RTVSPropertyOp36
 70
     1
102
RTVSPropertyOp37
 70
     1
102
RTVSPropertyOp38
 70
     1
102
RTVSPropertyOp39
 70
     1
102
RTVSPropertyOp40
 70
     1
102
RTVSPropertyOp41
 70
     1
102
RTVSPropertyOp42
 70
     1
102
RTVSPropertyOp43
 70
     1
102
RTVSPropertyOp44
 70
     1
102
RTVSPropertyOp45
 70
     1
102
RTVSPropertyOp46
 70
     1
102
RTVSPropertyOp47
 70
     1
102
RTVSPropertyOp48
 70
     1
102
RTVSPropertyOp49
 70
     1
102
RTVSPropertyOp50
 70
     1
102
RTVSPropertyOp51
 70
     0
102
RTVSPropertyOp52
 70
     0
102
RTVSPropertyOp53
 70
     1
102
RTVSPropertyOp54
 70
     1
102
RTVSPropertyOp55
 70
     1
102
RTVSPropertyOp56
 70
     1
102
RTVSPropertyOp57
 70
     1
102
RTVSPost2010Prop28
280
     0
102
RTVSPost2010PropOp28
 70
     1
102
RTVSPost2010Prop29
280
     1
102
RTVSPost2010PropOp29
 70
     1
102
RTVSPost2010Prop30
280
     1
102
RTVSPost2010PropOp30
 70
     1
102
RTVSPost2010Prop31
280
     0
102
RTVSPost2010PropOp31
 70
     1
102
RTVSPost2010Prop32
280
     0
102
RTVSPost2010PropOp32
 70
     1
102
RTVSPost2010Prop33
280
     0
102
RTVSPost2010PropOp33
 70
     1
102
RTVSPost2010Prop34
280
     0
102
RTVSPost2010PropOp34
 70
     1
102
RTVSPost2010Prop35
280
     0
102
RTVSPost2010PropOp35
 70
     1
102
RTVSPost2010Prop36
280
     0
102
RTVSPost2010PropOp36
 70
     1
102
RTVSPost2010Prop37
 90
       50
102
RTVSPost2010PropOp37
 70
     1
102
RTVSPost2010Prop38
140
0.0
102
RTVSPost2010PropOp38
 70
     1
102
RTVSPost2010Prop39
140
1.0
102
RTVSPost2010PropOp39
 70
     1
102
RTVSPost2010Prop40
 90
        0
102
RTVSPost2010PropOp40
 70
     1
102
RTVSPost2010Prop41ColorIndex
 90
       18
102
RTVSPost2010Prop41ColorRGB
 90
        0
102
RTVSPost2010PropOp41
 70
     1
102
RTVSPost2010Prop42
 90
       50
102
RTVSPost2010PropOp42
 70
     1
102
RTVSPost2010Prop43
 90
        3
102
RTVSPost2010PropOp43
 70
     1
102
RTVSPost2010Prop44ColorIndex
 90
        5
102
RTVSPost2010Prop44ColorRGB
 90
      255
102
RTVSPost2010PropOp44
 70
     1
102
RTVSPost2010Prop45
280
     0
102
RTVSPost2010PropOp45
 70
     1
102
RTVSPost2010Prop46
 90
       50
102
RTVSPost2010PropOp46
 70
     1
102
RTVSPost2010Prop47
 90
       50
102
RTVSPost2010PropOp47
 70
     1
102
RTVSPost2010Prop48
 90
       50
102
RTVSPost2010PropOp48
 70
     1
102
RTVSPost2010Prop49
280
     0
102
RTVSPost2010PropOp49
 70
     1
102
RTVSPost2010Prop50
 90
       50
102
RTVSPost2010PropOp50
 70
     1
102
RTVSPost2010Prop51ColorIndex
 90
      256
102
RTVSPost2010Prop51ColorRGB
 90
-16777216
102
RTVSPost2010PropOp51
 70
     0
102
RTVSPost2010Prop52
140
1.0
102
RTVSPost2010PropOp52
 70
     0
102
RTVSPost2010Prop53
 90
        2
102
RTVSPost2010PropOp53
 70
     1
102
RTVSPost2010Prop54
  1
strokes_ogs.tif
102
RTVSPost2010PropOp54
 70
     1
102
RTVSPost2010Prop55
280
     0
102
RTVSPost2010PropOp55
 70
     1
102
RTVSPost2010Prop56
140
1.0
102
RTVSPost2010PropOp56
 70
     1
102
RTVSPost2010Prop57
140
1.0
102
RTVSPost2010PropOp57
 70
     1
  0
XRECORD
  5
24F
102
{ACAD_REACTORS
330
24E
102
}
330
24E
100
AcDbXrecord
280
     1
102
RTVSPropertyOp0
 70
     1
102
RTVSPropertyOp1
 70
     1
102
RTVSPropertyOp2
 70
     1
102
RTVSPropertyOp3
 70
     1
102
RTVSPropertyOp4
 70
     1
102
RTVSPropertyOp5
 70
     1
102
RTVSPropertyOp6
 70
     1
102
RTVSPropertyOp7
 70
     1
102
RTVSPropertyOp8
 70
     1
102
RTVSPropertyOp9
 70
     1
102
RTVSPropertyOp10
 70
     1
102
RTVSPropertyOp11
 70
     1
102
RTVSPropertyOp12
 70
     1
102
RTVSPropertyOp13
 70
     1
102
RTVSPropertyOp14
 70
     1
102
RTVSPropertyOp15
 70
     1
102
RTVSPropertyOp16
 70
     1
102
RTVSPropertyOp17
 70
     1
102
RTVSPropertyOp18
 70
     1
102
RTVSPropertyOp19
 70
     1
102
RTVSPropertyOp20
 70
     1
102
RTVSPropertyOp21
 70
     1
102
RTVSPropertyOp22
 70
     1
102
RTVSPropertyOp23
 70
     1
102
RTVSPropertyOp24
 70
     1
102
RTVSPropertyOp25
 70
     1
102
RTVSPropertyOp26
 70
     1
102
RTVSPropertyOp27
 70
     1
102
RTVSPropertyOp28
 70
     1
102
RTVSPropertyOp29
 70
     1
102
RTVSPropertyOp30
 70
     1
102
RTVSPropertyOp31
 70
     1
102
RTVSPropertyOp32
 70
     1
102
RTVSPropertyOp33
 70
     1
102
RTVSPropertyOp34
 70
     1
102
RTVSPropertyOp35
 70
     1
102
RTVSPropertyOp36
 70
     1
102
RTVSPropertyOp37
 70
     1
102
RTVSPropertyOp38
 70
     1
102
RTVSPropertyOp39
 70
     1
102
RTVSPropertyOp40
 70
     1
102
RTVSPropertyOp41
 70
     1
102
RTVSPropertyOp42
 70
     1
102
RTVSPropertyOp43
 70
     1
102
RTVSPropertyOp44
 70
     1
102
RTVSPropertyOp45
 70
     1
102
RTVSPropertyOp46
 70
     1
102
RTVSPropertyOp47
 70
     1
102
RTVSPropertyOp48
 70
     1
102
RTVSPropertyOp49
 70
     1
102
RTVSPropertyOp50
 70
     1
102
RTVSPropertyOp51
 70
     0
102
RTVSPropertyOp52
 70
     0
102
RTVSPropertyOp53
 70
     1
102
RTVSPropertyOp54
 70
     1
102
RTVSPropertyOp55
 70
     1
102
RTVSPropertyOp56
 70
     1
102
RTVSPropertyOp57
 70
     1
102
RTVSPost2010Prop28
280
     0
102
RTVSPost2010PropOp28
 70
     1
102
RTVSPost2010Prop29
280
     1
102
RTVSPost2010PropOp29
 70
     1
102
RTVSPost2010Prop30
280
     1
102
RTVSPost2010PropOp30
 70
     1
102
RTVSPost2010Prop31
280
     0
102
RTVSPost2010PropOp31
 70
     1
102
RTVSPost2010Prop32
280
     0
102
RTVSPost2010PropOp32
 70
     1
102
RTVSPost2010Prop33
280
     0
102
RTVSPost2010PropOp33
 70
     1
102
RTVSPost2010Prop34
280
     0
102
RTVSPost2010PropOp34
 70
     1
102
RTVSPost2010Prop35
280
     0
102
RTVSPost2010PropOp35
 70
     1
102
RTVSPost2010Prop36
280
     0
102
RTVSPost2010PropOp36
 70
     1
102
RTVSPost2010Prop37
 90
       50
102
RTVSPost2010PropOp37
 70
     1
102
RTVSPost2010Prop38
140
0.0
102
RTVSPost2010PropOp38
 70
     1
102
RTVSPost2010Prop39
140
1.0
102
RTVSPost2010PropOp39
 70
     1
102
RTVSPost2010Prop40
 90
        0
102
RTVSPost2010PropOp40
 70
     1
102
RTVSPost2010Prop41ColorIndex
 90
       18
102
RTVSPost2010Prop41ColorRGB
 90
        0
102
RTVSPost2010PropOp41
 70
     1
102
RTVSPost2010Prop42
 90
       50
102
RTVSPost2010PropOp42
 70
     1
102
RTVSPost2010Prop43
 90
        3
102
RTVSPost2010PropOp43
 70
     1
102
RTVSPost2010Prop44ColorIndex
 90
        5
102
RTVSPost2010Prop44ColorRGB
 90
      255
102
RTVSPost2010PropOp44
 70
     1
102
RTVSPost2010Prop45
280
     0
102
RTVSPost2010PropOp45
 70
     1
102
RTVSPost2010Prop46
 90
       50
102
RTVSPost2010PropOp46
 70
     1
102
RTVSPost2010Prop47
 90
       50
102
RTVSPost2010PropOp47
 70
     1
102
RTVSPost2010Prop48
 90
       50
102
RTVSPost2010PropOp48
 70
     1
102
RTVSPost2010Prop49
280
     0
102
RTVSPost2010PropOp49
 70
     1
102
RTVSPost2010Prop50
 90
       50
102
RTVSPost2010PropOp50
 70
     1
102
RTVSPost2010Prop51ColorIndex
 90
      256
102
RTVSPost2010Prop51ColorRGB
 90
-16777216
102
RTVSPost2010PropOp51
 70
     0
102
RTVSPost2010Prop52
140
1.0
102
RTVSPost2010PropOp52
 70
     0
102
RTVSPost2010Prop53
 90
        2
102
RTVSPost2010PropOp53
 70
     1
102
RTVSPost2010Prop54
  1
strokes_ogs.tif
102
RTVSPost2010PropOp54
 70
     1
102
RTVSPost2010Prop55
280
     0
102
RTVSPost2010PropOp55
 70
     1
102
RTVSPost2010Prop56
140
1.0
102
RTVSPost2010PropOp56
 70
     1
102
RTVSPost2010Prop57
140
1.0
102
RTVSPost2010PropOp57
 70
     1
  0
XRECORD
  5
263
102
{ACAD_REACTORS
330
262
102
}
330
262
100
AcDbXrecord
280
     1
102
RTVSPropertyOp0
 70
     0
102
RTVSPropertyOp1
 70
     0
102
RTVSPropertyOp2
 70
     0
102
RTVSPropertyOp3
 70
     0
102
RTVSPropertyOp4
 70
     0
102
RTVSPropertyOp5
 70
     0
102
RTVSPropertyOp6
 70
     0
102
RTVSPropertyOp7
 70
     0
102
RTVSPropertyOp8
 70
     0
102
RTVSPropertyOp9
 70
     0
102
RTVSPropertyOp10
 70
     0
102
RTVSPropertyOp11
 70
     0
102
RTVSPropertyOp12
 70
     0
102
RTVSPropertyOp13
 70
     0
102
RTVSPropertyOp14
 70
     2
102
RTVSPropertyOp15
 70
     0
102
RTVSPropertyOp16
 70
     0
102
RTVSPropertyOp17
 70
     0
102
RTVSPropertyOp18
 70
     0
102
RTVSPropertyOp19
 70
     0
102
RTVSPropertyOp20
 70
     0
102
RTVSPropertyOp21
 70
     0
102
RTVSPropertyOp22
 70
     0
102
RTVSPropertyOp23
 70
     0
102
RTVSPropertyOp24
 70
     0
102
RTVSPropertyOp25
 70
     0
102
RTVSPropertyOp26
 70
     0
102
RTVSPropertyOp27
 70
     0
102
RTVSPropertyOp28
 70
     0
102
RTVSPropertyOp29
 70
     0
102
RTVSPropertyOp30
 70
     0
102
RTVSPropertyOp31
 70
     0
102
RTVSPropertyOp32
 70
     0
102
RTVSPropertyOp33
 70
     0
102
RTVSPropertyOp34
 70
     0
102
RTVSPropertyOp35
 70
     0
102
RTVSPropertyOp36
 70
     0
102
RTVSPropertyOp37
 70
     0
102
RTVSPropertyOp38
 70
     0
102
RTVSPropertyOp39
 70
     0
102
RTVSPropertyOp40
 70
     0
102
RTVSPropertyOp41
 70
     0
102
RTVSPropertyOp42
 70
     0
102
RTVSPropertyOp43
 70
     0
102
RTVSPropertyOp44
 70
     0
102
RTVSPropertyOp45
 70
     0
102
RTVSPropertyOp46
 70
     0
102
RTVSPropertyOp47
 70
     0
102
RTVSPropertyOp48
 70
     0
102
RTVSPropertyOp49
 70
     0
102
RTVSPropertyOp50
 70
     0
102
RTVSPropertyOp51
 70
     0
102
RTVSPropertyOp52
 70
     0
102
RTVSPropertyOp53
 70
     0
102
RTVSPropertyOp54
 70
     0
102
RTVSPropertyOp55
 70
     0
102
RTVSPropertyOp56
 70
     0
102
RTVSPropertyOp57
 70
     0
102
RTVSPost2010Prop28
280
     0
102
RTVSPost2010PropOp28
 70
     0
102
RTVSPost2010Prop29
280
     1
102
RTVSPost2010PropOp29
 70
     0
102
RTVSPost2010Prop30
280
     1
102
RTVSPost2010PropOp30
 70
     0
102
RTVSPost2010Prop31
280
     0
102
RTVSPost2010PropOp31
 70
     0
102
RTVSPost2010Prop32
280
     0
102
RTVSPost2010PropOp32
 70
     0
102
RTVSPost2010Prop33
280
     0
102
RTVSPost2010PropOp33
 70
     0
102
RTVSPost2010Prop34
280
     0
102
RTVSPost2010PropOp34
 70
     0
102
RTVSPost2010Prop35
280
     0
102
RTVSPost2010PropOp35
 70
     0
102
RTVSPost2010Prop36
280
     0
102
RTVSPost2010PropOp36
 70
     0
102
RTVSPost2010Prop37
 90
       50
102
RTVSPost2010PropOp37
 70
     0
102
RTVSPost2010Prop38
140
0.0
102
RTVSPost2010PropOp38
 70
     0
102
RTVSPost2010Prop39
140
1.0
102
RTVSPost2010PropOp39
 70
     0
102
RTVSPost2010Prop40
 90
        0
102
RTVSPost2010PropOp40
 70
     0
102
RTVSPost2010Prop41ColorIndex
 90
       18
102
RTVSPost2010Prop41ColorRGB
 90
        0
102
RTVSPost2010PropOp41
 70
     0
102
RTVSPost2010Prop42
 90
       50
102
RTVSPost2010PropOp42
 70
     0
102
RTVSPost2010Prop43
 90
        3
102
RTVSPost2010PropOp43
 70
     0
102
RTVSPost2010Prop44ColorIndex
 90
        5
102
RTVSPost2010Prop44ColorRGB
 90
      255
102
RTVSPost2010PropOp44
 70
     0
102
RTVSPost2010Prop45
280
     0
102
RTVSPost2010PropOp45
 70
     0
102
RTVSPost2010Prop46
 90
       50
102
RTVSPost2010PropOp46
 70
     0
102
RTVSPost2010Prop47
 90
       50
102
RTVSPost2010PropOp47
 70
     0
102
RTVSPost2010Prop48
 90
       50
102
RTVSPost2010PropOp48
 70
     0
102
RTVSPost2010Prop49
280
     0
102
RTVSPost2010PropOp49
 70
     0
102
RTVSPost2010Prop50
 90
       50
102
RTVSPost2010PropOp50
 70
     0
102
RTVSPost2010Prop51ColorIndex
 90
      256
102
RTVSPost2010Prop51ColorRGB
 90
-16777216
102
RTVSPost2010PropOp51
 70
     0
102
RTVSPost2010Prop52
140
1.0
102
RTVSPost2010PropOp52
 70
     0
102
RTVSPost2010Prop53
 90
        2
102
RTVSPost2010PropOp53
 70
     0
102
RTVSPost2010Prop54
  1
strokes_ogs.tif
102
RTVSPost2010PropOp54
 70
     0
102
RTVSPost2010Prop55
280
     0
102
RTVSPost2010PropOp55
 70
     0
102
RTVSPost2010Prop56
140
1.0
102
RTVSPost2010PropOp56
 70
     0
102
RTVSPost2010Prop57
140
1.0
102
RTVSPost2010PropOp57
 70
     0
  0
XRECORD
  5
25D
102
{ACAD_REACTORS
330
25C
102
}
330
25C
100
AcDbXrecord
280
     1
102
RTVSPropertyOp0
 70
     1
102
RTVSPropertyOp1
 70
     1
102
RTVSPropertyOp2
 70
     1
102
RTVSPropertyOp3
 70
     1
102
RTVSPropertyOp4
 70
     1
102
RTVSPropertyOp5
 70
     1
102
RTVSPropertyOp6
 70
     1
102
RTVSPropertyOp7
 70
     1
102
RTVSPropertyOp8
 70
     1
102
RTVSPropertyOp9
 70
     1
102
RTVSPropertyOp10
 70
     1
102
RTVSPropertyOp11
 70
     1
102
RTVSPropertyOp12
 70
     1
102
RTVSPropertyOp13
 70
     1
102
RTVSPropertyOp14
 70
     1
102
RTVSPropertyOp15
 70
     1
102
RTVSPropertyOp16
 70
     1
102
RTVSPropertyOp17
 70
     1
102
RTVSPropertyOp18
 70
     1
102
RTVSPropertyOp19
 70
     1
102
RTVSPropertyOp20
 70
     1
102
RTVSPropertyOp21
 70
     1
102
RTVSPropertyOp22
 70
     1
102
RTVSPropertyOp23
 70
     1
102
RTVSPropertyOp24
 70
     1
102
RTVSPropertyOp25
 70
     1
102
RTVSPropertyOp26
 70
     1
102
RTVSPropertyOp27
 70
     1
102
RTVSPropertyOp28
 70
     1
102
RTVSPropertyOp29
 70
     1
102
RTVSPropertyOp30
 70
     1
102
RTVSPropertyOp31
 70
     1
102
RTVSPropertyOp32
 70
     1
102
RTVSPropertyOp33
 70
     1
102
RTVSPropertyOp34
 70
     1
102
RTVSPropertyOp35
 70
     1
102
RTVSPropertyOp36
 70
     1
102
RTVSPropertyOp37
 70
     1
102
RTVSPropertyOp38
 70
     1
102
RTVSPropertyOp39
 70
     1
102
RTVSPropertyOp40
 70
     1
102
RTVSPropertyOp41
 70
     1
102
RTVSPropertyOp42
 70
     1
102
RTVSPropertyOp43
 70
     1
102
RTVSPropertyOp44
 70
     1
102
RTVSPropertyOp45
 70
     1
102
RTVSPropertyOp46
 70
     1
102
RTVSPropertyOp47
 70
     1
102
RTVSPropertyOp48
 70
     1
102
RTVSPropertyOp49
 70
     1
102
RTVSPropertyOp50
 70
     1
102
RTVSPropertyOp51
 70
     0
102
RTVSPropertyOp52
 70
     0
102
RTVSPropertyOp53
 70
     1
102
RTVSPropertyOp54
 70
     1
102
RTVSPropertyOp55
 70
     1
102
RTVSPropertyOp56
 70
     1
102
RTVSPropertyOp57
 70
     1
102
RTVSPost2010Prop28
280
     0
102
RTVSPost2010PropOp28
 70
     1
102
RTVSPost2010Prop29
280
     1
102
RTVSPost2010PropOp29
 70
     1
102
RTVSPost2010Prop30
280
     1
102
RTVSPost2010PropOp30
 70
     1
102
RTVSPost2010Prop31
280
     0
102
RTVSPost2010PropOp31
 70
     1
102
RTVSPost2010Prop32
280
     0
102
RTVSPost2010PropOp32
 70
     1
102
RTVSPost2010Prop33
280
     0
102
RTVSPost2010PropOp33
 70
     1
102
RTVSPost2010Prop34
280
     0
102
RTVSPost2010PropOp34
 70
     1
102
RTVSPost2010Prop35
280
     0
102
RTVSPost2010PropOp35
 70
     1
102
RTVSPost2010Prop36
280
     0
102
RTVSPost2010PropOp36
 70
     1
102
RTVSPost2010Prop37
 90
       50
102
RTVSPost2010PropOp37
 70
     1
102
RTVSPost2010Prop38
140
0.0
102
RTVSPost2010PropOp38
 70
     1
102
RTVSPost2010Prop39
140
1.0
102
RTVSPost2010PropOp39
 70
     1
102
RTVSPost2010Prop40
 90
        0
102
RTVSPost2010PropOp40
 70
     1
102
RTVSPost2010Prop41ColorIndex
 90
       18
102
RTVSPost2010Prop41ColorRGB
 90
        0
102
RTVSPost2010PropOp41
 70
     1
102
RTVSPost2010Prop42
 90
       50
102
RTVSPost2010PropOp42
 70
     1
102
RTVSPost2010Prop43
 90
        3
102
RTVSPost2010PropOp43
 70
     1
102
RTVSPost2010Prop44ColorIndex
 90
        5
102
RTVSPost2010Prop44ColorRGB
 90
      255
102
RTVSPost2010PropOp44
 70
     1
102
RTVSPost2010Prop45
280
     0
102
RTVSPost2010PropOp45
 70
     1
102
RTVSPost2010Prop46
 90
       50
102
RTVSPost2010PropOp46
 70
     1
102
RTVSPost2010Prop47
 90
       50
102
RTVSPost2010PropOp47
 70
     1
102
RTVSPost2010Prop48
 90
       50
102
RTVSPost2010PropOp48
 70
     1
102
RTVSPost2010Prop49
280
     0
102
RTVSPost2010PropOp49
 70
     1
102
RTVSPost2010Prop50
 90
       50
102
RTVSPost2010PropOp50
 70
     1
102
RTVSPost2010Prop51ColorIndex
 90
      256
102
RTVSPost2010Prop51ColorRGB
 90
-16777216
102
RTVSPost2010PropOp51
 70
     0
102
RTVSPost2010Prop52
140
1.0
102
RTVSPost2010PropOp52
 70
     0
102
RTVSPost2010Prop53
 90
        2
102
RTVSPost2010PropOp53
 70
     1
102
RTVSPost2010Prop54
  1
strokes_ogs.tif
102
RTVSPost2010PropOp54
 70
     1
102
RTVSPost2010Prop55
280
     0
102
RTVSPost2010PropOp55
 70
     1
102
RTVSPost2010Prop56
140
1.0
102
RTVSPost2010PropOp56
 70
     1
102
RTVSPost2010Prop57
140
1.0
102
RTVSPost2010PropOp57
 70
     1
  0
XRECORD
  5
265
102
{ACAD_REACTORS
330
264
102
}
330
264
100
AcDbXrecord
280
     1
102
RTVSPropertyOp0
 70
     0
102
RTVSPropertyOp1
 70
     0
102
RTVSPropertyOp2
 70
     0
102
RTVSPropertyOp3
 70
     0
102
RTVSPropertyOp4
 70
     0
102
RTVSPropertyOp5
 70
     0
102
RTVSPropertyOp6
 70
     0
102
RTVSPropertyOp7
 70
     0
102
RTVSPropertyOp8
 70
     0
102
RTVSPropertyOp9
 70
     0
102
RTVSPropertyOp10
 70
     0
102
RTVSPropertyOp11
 70
     0
102
RTVSPropertyOp12
 70
     0
102
RTVSPropertyOp13
 70
     0
102
RTVSPropertyOp14
 70
     2
102
RTVSPropertyOp15
 70
     0
102
RTVSPropertyOp16
 70
     0
102
RTVSPropertyOp17
 70
     0
102
RTVSPropertyOp18
 70
     0
102
RTVSPropertyOp19
 70
     0
102
RTVSPropertyOp20
 70
     0
102
RTVSPropertyOp21
 70
     0
102
RTVSPropertyOp22
 70
     0
102
RTVSPropertyOp23
 70
     0
102
RTVSPropertyOp24
 70
     0
102
RTVSPropertyOp25
 70
     0
102
RTVSPropertyOp26
 70
     0
102
RTVSPropertyOp27
 70
     0
102
RTVSPropertyOp28
 70
     0
102
RTVSPropertyOp29
 70
     0
102
RTVSPropertyOp30
 70
     0
102
RTVSPropertyOp31
 70
     0
102
RTVSPropertyOp32
 70
     0
102
RTVSPropertyOp33
 70
     0
102
RTVSPropertyOp34
 70
     0
102
RTVSPropertyOp35
 70
     0
102
RTVSPropertyOp36
 70
     0
102
RTVSPropertyOp37
 70
     0
102
RTVSPropertyOp38
 70
     0
102
RTVSPropertyOp39
 70
     0
102
RTVSPropertyOp40
 70
     0
102
RTVSPropertyOp41
 70
     0
102
RTVSPropertyOp42
 70
     0
102
RTVSPropertyOp43
 70
     0
102
RTVSPropertyOp44
 70
     0
102
RTVSPropertyOp45
 70
     0
102
RTVSPropertyOp46
 70
     0
102
RTVSPropertyOp47
 70
     0
102
RTVSPropertyOp48
 70
     0
102
RTVSPropertyOp49
 70
     0
102
RTVSPropertyOp50
 70
     0
102
RTVSPropertyOp51
 70
     0
102
RTVSPropertyOp52
 70
     0
102
RTVSPropertyOp53
 70
     0
102
RTVSPropertyOp54
 70
     0
102
RTVSPropertyOp55
 70
     0
102
RTVSPropertyOp56
 70
     0
102
RTVSPropertyOp57
 70
     0
102
RTVSPost2010Prop28
280
     0
102
RTVSPost2010PropOp28
 70
     0
102
RTVSPost2010Prop29
280
     1
102
RTVSPost2010PropOp29
 70
     0
102
RTVSPost2010Prop30
280
     1
102
RTVSPost2010PropOp30
 70
     0
102
RTVSPost2010Prop31
280
     0
102
RTVSPost2010PropOp31
 70
     0
102
RTVSPost2010Prop32
280
     0
102
RTVSPost2010PropOp32
 70
     0
102
RTVSPost2010Prop33
280
     0
102
RTVSPost2010PropOp33
 70
     0
102
RTVSPost2010Prop34
280
     0
102
RTVSPost2010PropOp34
 70
     0
102
RTVSPost2010Prop35
280
     0
102
RTVSPost2010PropOp35
 70
     0
102
RTVSPost2010Prop36
280
     0
102
RTVSPost2010PropOp36
 70
     0
102
RTVSPost2010Prop37
 90
       50
102
RTVSPost2010PropOp37
 70
     0
102
RTVSPost2010Prop38
140
0.0
102
RTVSPost2010PropOp38
 70
     0
102
RTVSPost2010Prop39
140
1.0
102
RTVSPost2010PropOp39
 70
     0
102
RTVSPost2010Prop40
 90
        0
102
RTVSPost2010PropOp40
 70
     0
102
RTVSPost2010Prop41ColorIndex
 90
       18
102
RTVSPost2010Prop41ColorRGB
 90
        0
102
RTVSPost2010PropOp41
 70
     0
102
RTVSPost2010Prop42
 90
       50
102
RTVSPost2010PropOp42
 70
     0
102
RTVSPost2010Prop43
 90
        3
102
RTVSPost2010PropOp43
 70
     0
102
RTVSPost2010Prop44ColorIndex
 90
        5
102
RTVSPost2010Prop44ColorRGB
 90
      255
102
RTVSPost2010PropOp44
 70
     0
102
RTVSPost2010Prop45
280
     0
102
RTVSPost2010PropOp45
 70
     0
102
RTVSPost2010Prop46
 90
       50
102
RTVSPost2010PropOp46
 70
     0
102
RTVSPost2010Prop47
 90
       50
102
RTVSPost2010PropOp47
 70
     0
102
RTVSPost2010Prop48
 90
       50
102
RTVSPost2010PropOp48
 70
     0
102
RTVSPost2010Prop49
280
     0
102
RTVSPost2010PropOp49
 70
     0
102
RTVSPost2010Prop50
 90
       50
102
RTVSPost2010PropOp50
 70
     0
102
RTVSPost2010Prop51ColorIndex
 90
      256
102
RTVSPost2010Prop51ColorRGB
 90
-16777216
102
RTVSPost2010PropOp51
 70
     0
102
RTVSPost2010Prop52
140
1.0
102
RTVSPost2010PropOp52
 70
     0
102
RTVSPost2010Prop53
 90
        2
102
RTVSPost2010PropOp53
 70
     0
102
RTVSPost2010Prop54
  1
strokes_ogs.tif
102
RTVSPost2010PropOp54
 70
     0
102
RTVSPost2010Prop55
280
     0
102
RTVSPost2010PropOp55
 70
     0
102
RTVSPost2010Prop56
140
1.0
102
RTVSPost2010PropOp56
 70
     0
102
RTVSPost2010Prop57
140
1.0
102
RTVSPost2010PropOp57
 70
     0
  0
XRECORD
  5
253
102
{ACAD_REACTORS
330
252
102
}
330
252
100
AcDbXrecord
280
     1
102
RTVSPropertyOp0
 70
     1
102
RTVSPropertyOp1
 70
     1
102
RTVSPropertyOp2
 70
     1
102
RTVSPropertyOp3
 70
     1
102
RTVSPropertyOp4
 70
     1
102
RTVSPropertyOp5
 70
     1
102
RTVSPropertyOp6
 70
     1
102
RTVSPropertyOp7
 70
     1
102
RTVSPropertyOp8
 70
     1
102
RTVSPropertyOp9
 70
     1
102
RTVSPropertyOp10
 70
     1
102
RTVSPropertyOp11
 70
     1
102
RTVSPropertyOp12
 70
     1
102
RTVSPropertyOp13
 70
     1
102
RTVSPropertyOp14
 70
     1
102
RTVSPropertyOp15
 70
     1
102
RTVSPropertyOp16
 70
     1
102
RTVSPropertyOp17
 70
     1
102
RTVSPropertyOp18
 70
     1
102
RTVSPropertyOp19
 70
     1
102
RTVSPropertyOp20
 70
     1
102
RTVSPropertyOp21
 70
     1
102
RTVSPropertyOp22
 70
     1
102
RTVSPropertyOp23
 70
     1
102
RTVSPropertyOp24
 70
     1
102
RTVSPropertyOp25
 70
     1
102
RTVSPropertyOp26
 70
     1
102
RTVSPropertyOp27
 70
     1
102
RTVSPropertyOp28
 70
     1
102
RTVSPropertyOp29
 70
     1
102
RTVSPropertyOp30
 70
     1
102
RTVSPropertyOp31
 70
     1
102
RTVSPropertyOp32
 70
     1
102
RTVSPropertyOp33
 70
     1
102
RTVSPropertyOp34
 70
     1
102
RTVSPropertyOp35
 70
     1
102
RTVSPropertyOp36
 70
     1
102
RTVSPropertyOp37
 70
     1
102
RTVSPropertyOp38
 70
     1
102
RTVSPropertyOp39
 70
     1
102
RTVSPropertyOp40
 70
     1
102
RTVSPropertyOp41
 70
     1
102
RTVSPropertyOp42
 70
     1
102
RTVSPropertyOp43
 70
     1
102
RTVSPropertyOp44
 70
     1
102
RTVSPropertyOp45
 70
     1
102
RTVSPropertyOp46
 70
     1
102
RTVSPropertyOp47
 70
     1
102
RTVSPropertyOp48
 70
     1
102
RTVSPropertyOp49
 70
     1
102
RTVSPropertyOp50
 70
     1
102
RTVSPropertyOp51
 70
     0
102
RTVSPropertyOp52
 70
     0
102
RTVSPropertyOp53
 70
     1
102
RTVSPropertyOp54
 70
     1
102
RTVSPropertyOp55
 70
     1
102
RTVSPropertyOp56
 70
     1
102
RTVSPropertyOp57
 70
     1
102
RTVSPost2010Prop28
280
     0
102
RTVSPost2010PropOp28
 70
     1
102
RTVSPost2010Prop29
280
     1
102
RTVSPost2010PropOp29
 70
     1
102
RTVSPost2010Prop30
280
     1
102
RTVSPost2010PropOp30
 70
     1
102
RTVSPost2010Prop31
280
     0
102
RTVSPost2010PropOp31
 70
     1
102
RTVSPost2010Prop32
280
     0
102
RTVSPost2010PropOp32
 70
     1
102
RTVSPost2010Prop33
280
     0
102
RTVSPost2010PropOp33
 70
     1
102
RTVSPost2010Prop34
280
     0
102
RTVSPost2010PropOp34
 70
     1
102
RTVSPost2010Prop35
280
     0
102
RTVSPost2010PropOp35
 70
     1
102
RTVSPost2010Prop36
280
     0
102
RTVSPost2010PropOp36
 70
     1
102
RTVSPost2010Prop37
 90
       50
102
RTVSPost2010PropOp37
 70
     1
102
RTVSPost2010Prop38
140
0.0
102
RTVSPost2010PropOp38
 70
     1
102
RTVSPost2010Prop39
140
1.0
102
RTVSPost2010PropOp39
 70
     1
102
RTVSPost2010Prop40
 90
        0
102
RTVSPost2010PropOp40
 70
     1
102
RTVSPost2010Prop41ColorIndex
 90
       18
102
RTVSPost2010Prop41ColorRGB
 90
        0
102
RTVSPost2010PropOp41
 70
     1
102
RTVSPost2010Prop42
 90
       50
102
RTVSPost2010PropOp42
 70
     1
102
RTVSPost2010Prop43
 90
        3
102
RTVSPost2010PropOp43
 70
     1
102
RTVSPost2010Prop44ColorIndex
 90
        5
102
RTVSPost2010Prop44ColorRGB
 90
      255
102
RTVSPost2010PropOp44
 70
     1
102
RTVSPost2010Prop45
280
     0
102
RTVSPost2010PropOp45
 70
     1
102
RTVSPost2010Prop46
 90
       50
102
RTVSPost2010PropOp46
 70
     1
102
RTVSPost2010Prop47
 90
       50
102
RTVSPost2010PropOp47
 70
     1
102
RTVSPost2010Prop48
 90
       50
102
RTVSPost2010PropOp48
 70
     1
102
RTVSPost2010Prop49
280
     0
102
RTVSPost2010PropOp49
 70
     1
102
RTVSPost2010Prop50
 90
       50
102
RTVSPost2010PropOp50
 70
     1
102
RTVSPost2010Prop51ColorIndex
 90
      256
102
RTVSPost2010Prop51ColorRGB
 90
-16777216
102
RTVSPost2010PropOp51
 70
     0
102
RTVSPost2010Prop52
140
1.0
102
RTVSPost2010PropOp52
 70
     0
102
RTVSPost2010Prop53
 90
        2
102
RTVSPost2010PropOp53
 70
     1
102
RTVSPost2010Prop54
  1
strokes_ogs.tif
102
RTVSPost2010PropOp54
 70
     1
102
RTVSPost2010Prop55
280
     0
102
RTVSPost2010PropOp55
 70
     1
102
RTVSPost2010Prop56
140
1.0
102
RTVSPost2010PropOp56
 70
     1
102
RTVSPost2010Prop57
140
1.0
102
RTVSPost2010PropOp57
 70
     1
  0
XRECORD
  5
271
102
{ACAD_REACTORS
330
270
102
}
330
270
100
AcDbXrecord
280
     1
102
RTVSPropertyOp0
 70
     1
102
RTVSPropertyOp1
 70
     1
102
RTVSPropertyOp2
 70
     1
102
RTVSPropertyOp3
 70
     1
102
RTVSPropertyOp4
 70
     1
102
RTVSPropertyOp5
 70
     1
102
RTVSPropertyOp6
 70
     1
102
RTVSPropertyOp7
 70
     1
102
RTVSPropertyOp8
 70
     1
102
RTVSPropertyOp9
 70
     1
102
RTVSPropertyOp10
 70
     1
102
RTVSPropertyOp11
 70
     1
102
RTVSPropertyOp12
 70
     1
102
RTVSPropertyOp13
 70
     1
102
RTVSPropertyOp14
 70
     1
102
RTVSPropertyOp15
 70
     1
102
RTVSPropertyOp16
 70
     1
102
RTVSPropertyOp17
 70
     1
102
RTVSPropertyOp18
 70
     1
102
RTVSPropertyOp19
 70
     1
102
RTVSPropertyOp20
 70
     1
102
RTVSPropertyOp21
 70
     1
102
RTVSPropertyOp22
 70
     1
102
RTVSPropertyOp23
 70
     1
102
RTVSPropertyOp24
 70
     1
102
RTVSPropertyOp25
 70
     1
102
RTVSPropertyOp26
 70
     1
102
RTVSPropertyOp27
 70
     1
102
RTVSPropertyOp28
 70
     1
102
RTVSPropertyOp29
 70
     1
102
RTVSPropertyOp30
 70
     1
102
RTVSPropertyOp31
 70
     1
102
RTVSPropertyOp32
 70
     1
102
RTVSPropertyOp33
 70
     1
102
RTVSPropertyOp34
 70
     1
102
RTVSPropertyOp35
 70
     1
102
RTVSPropertyOp36
 70
     1
102
RTVSPropertyOp37
 70
     1
102
RTVSPropertyOp38
 70
     1
102
RTVSPropertyOp39
 70
     1
102
RTVSPropertyOp40
 70
     1
102
RTVSPropertyOp41
 70
     1
102
RTVSPropertyOp42
 70
     1
102
RTVSPropertyOp43
 70
     1
102
RTVSPropertyOp44
 70
     1
102
RTVSPropertyOp45
 70
     1
102
RTVSPropertyOp46
 70
     1
102
RTVSPropertyOp47
 70
     1
102
RTVSPropertyOp48
 70
     1
102
RTVSPropertyOp49
 70
     1
102
RTVSPropertyOp50
 70
     1
102
RTVSPropertyOp51
 70
     0
102
RTVSPropertyOp52
 70
     0
102
RTVSPropertyOp53
 70
     1
102
RTVSPropertyOp54
 70
     1
102
RTVSPropertyOp55
 70
     1
102
RTVSPropertyOp56
 70
     1
102
RTVSPropertyOp57
 70
     1
102
RTVSPost2010Prop28
280
     0
102
RTVSPost2010PropOp28
 70
     1
102
RTVSPost2010Prop29
280
     1
102
RTVSPost2010PropOp29
 70
     1
102
RTVSPost2010Prop30
280
     1
102
RTVSPost2010PropOp30
 70
     1
102
RTVSPost2010Prop31
280
     0
102
RTVSPost2010PropOp31
 70
     1
102
RTVSPost2010Prop32
280
     0
102
RTVSPost2010PropOp32
 70
     1
102
RTVSPost2010Prop33
280
     0
102
RTVSPost2010PropOp33
 70
     1
102
RTVSPost2010Prop34
280
     0
102
RTVSPost2010PropOp34
 70
     1
102
RTVSPost2010Prop35
280
     0
102
RTVSPost2010PropOp35
 70
     1
102
RTVSPost2010Prop36
280
     0
102
RTVSPost2010PropOp36
 70
     1
102
RTVSPost2010Prop37
 90
       50
102
RTVSPost2010PropOp37
 70
     1
102
RTVSPost2010Prop38
140
0.0
102
RTVSPost2010PropOp38
 70
     1
102
RTVSPost2010Prop39
140
1.0
102
RTVSPost2010PropOp39
 70
     1
102
RTVSPost2010Prop40
 90
        0
102
RTVSPost2010PropOp40
 70
     1
102
RTVSPost2010Prop41ColorIndex
 90
       18
102
RTVSPost2010Prop41ColorRGB
 90
        0
102
RTVSPost2010PropOp41
 70
     1
102
RTVSPost2010Prop42
 90
       50
102
RTVSPost2010PropOp42
 70
     1
102
RTVSPost2010Prop43
 90
        3
102
RTVSPost2010PropOp43
 70
     1
102
RTVSPost2010Prop44ColorIndex
 90
        5
102
RTVSPost2010Prop44ColorRGB
 90
      255
102
RTVSPost2010PropOp44
 70
     1
102
RTVSPost2010Prop45
280
     0
102
RTVSPost2010PropOp45
 70
     1
102
RTVSPost2010Prop46
 90
       50
102
RTVSPost2010PropOp46
 70
     1
102
RTVSPost2010Prop47
 90
       50
102
RTVSPost2010PropOp47
 70
     1
102
RTVSPost2010Prop48
 90
       50
102
RTVSPost2010PropOp48
 70
     1
102
RTVSPost2010Prop49
280
     0
102
RTVSPost2010PropOp49
 70
     1
102
RTVSPost2010Prop50
 90
       50
102
RTVSPost2010PropOp50
 70
     1
102
RTVSPost2010Prop51ColorIndex
 90
      256
102
RTVSPost2010Prop51ColorRGB
 90
-16777216
102
RTVSPost2010PropOp51
 70
     0
102
RTVSPost2010Prop52
140
1.0
102
RTVSPost2010PropOp52
 70
     0
102
RTVSPost2010Prop53
 90
        2
102
RTVSPost2010PropOp53
 70
     1
102
RTVSPost2010Prop54
  1
strokes_ogs.tif
102
RTVSPost2010PropOp54
 70
     1
102
RTVSPost2010Prop55
280
     0
102
RTVSPost2010PropOp55
 70
     1
102
RTVSPost2010Prop56
140
1.0
102
RTVSPost2010PropOp56
 70
     1
102
RTVSPost2010Prop57
140
1.0
102
RTVSPost2010PropOp57
 70
     1
  0
XRECORD
  5
26F
102
{ACAD_REACTORS
330
26E
102
}
330
26E
100
AcDbXrecord
280
     1
102
RTVSPropertyOp0
 70
     1
102
RTVSPropertyOp1
 70
     1
102
RTVSPropertyOp2
 70
     1
102
RTVSPropertyOp3
 70
     1
102
RTVSPropertyOp4
 70
     1
102
RTVSPropertyOp5
 70
     1
102
RTVSPropertyOp6
 70
     1
102
RTVSPropertyOp7
 70
     1
102
RTVSPropertyOp8
 70
     1
102
RTVSPropertyOp9
 70
     1
102
RTVSPropertyOp10
 70
     1
102
RTVSPropertyOp11
 70
     1
102
RTVSPropertyOp12
 70
     1
102
RTVSPropertyOp13
 70
     1
102
RTVSPropertyOp14
 70
     1
102
RTVSPropertyOp15
 70
     1
102
RTVSPropertyOp16
 70
     1
102
RTVSPropertyOp17
 70
     1
102
RTVSPropertyOp18
 70
     1
102
RTVSPropertyOp19
 70
     1
102
RTVSPropertyOp20
 70
     1
102
RTVSPropertyOp21
 70
     1
102
RTVSPropertyOp22
 70
     1
102
RTVSPropertyOp23
 70
     1
102
RTVSPropertyOp24
 70
     1
102
RTVSPropertyOp25
 70
     1
102
RTVSPropertyOp26
 70
     1
102
RTVSPropertyOp27
 70
     1
102
RTVSPropertyOp28
 70
     1
102
RTVSPropertyOp29
 70
     1
102
RTVSPropertyOp30
 70
     1
102
RTVSPropertyOp31
 70
     1
102
RTVSPropertyOp32
 70
     1
102
RTVSPropertyOp33
 70
     1
102
RTVSPropertyOp34
 70
     1
102
RTVSPropertyOp35
 70
     1
102
RTVSPropertyOp36
 70
     1
102
RTVSPropertyOp37
 70
     1
102
RTVSPropertyOp38
 70
     1
102
RTVSPropertyOp39
 70
     1
102
RTVSPropertyOp40
 70
     1
102
RTVSPropertyOp41
 70
     1
102
RTVSPropertyOp42
 70
     1
102
RTVSPropertyOp43
 70
     1
102
RTVSPropertyOp44
 70
     1
102
RTVSPropertyOp45
 70
     1
102
RTVSPropertyOp46
 70
     1
102
RTVSPropertyOp47
 70
     1
102
RTVSPropertyOp48
 70
     1
102
RTVSPropertyOp49
 70
     1
102
RTVSPropertyOp50
 70
     1
102
RTVSPropertyOp51
 70
     0
102
RTVSPropertyOp52
 70
     0
102
RTVSPropertyOp53
 70
     1
102
RTVSPropertyOp54
 70
     1
102
RTVSPropertyOp55
 70
     1
102
RTVSPropertyOp56
 70
     1
102
RTVSPropertyOp57
 70
     1
102
RTVSPost2010Prop28
280
     0
102
RTVSPost2010PropOp28
 70
     1
102
RTVSPost2010Prop29
280
     1
102
RTVSPost2010PropOp29
 70
     1
102
RTVSPost2010Prop30
280
     1
102
RTVSPost2010PropOp30
 70
     1
102
RTVSPost2010Prop31
280
     0
102
RTVSPost2010PropOp31
 70
     1
102
RTVSPost2010Prop32
280
     0
102
RTVSPost2010PropOp32
 70
     1
102
RTVSPost2010Prop33
280
     0
102
RTVSPost2010PropOp33
 70
     1
102
RTVSPost2010Prop34
280
     0
102
RTVSPost2010PropOp34
 70
     1
102
RTVSPost2010Prop35
280
     0
102
RTVSPost2010PropOp35
 70
     1
102
RTVSPost2010Prop36
280
     0
102
RTVSPost2010PropOp36
 70
     1
102
RTVSPost2010Prop37
 90
       50
102
RTVSPost2010PropOp37
 70
     1
102
RTVSPost2010Prop38
140
0.0
102
RTVSPost2010PropOp38
 70
     1
102
RTVSPost2010Prop39
140
1.0
102
RTVSPost2010PropOp39
 70
     1
102
RTVSPost2010Prop40
 90
        0
102
RTVSPost2010PropOp40
 70
     1
102
RTVSPost2010Prop41ColorIndex
 90
       18
102
RTVSPost2010Prop41ColorRGB
 90
        0
102
RTVSPost2010PropOp41
 70
     1
102
RTVSPost2010Prop42
 90
       50
102
RTVSPost2010PropOp42
 70
     1
102
RTVSPost2010Prop43
 90
        3
102
RTVSPost2010PropOp43
 70
     1
102
RTVSPost2010Prop44ColorIndex
 90
        5
102
RTVSPost2010Prop44ColorRGB
 90
      255
102
RTVSPost2010PropOp44
 70
     1
102
RTVSPost2010Prop45
280
     0
102
RTVSPost2010PropOp45
 70
     1
102
RTVSPost2010Prop46
 90
       50
102
RTVSPost2010PropOp46
 70
     1
102
RTVSPost2010Prop47
 90
       50
102
RTVSPost2010PropOp47
 70
     1
102
RTVSPost2010Prop48
 90
       50
102
RTVSPost2010PropOp48
 70
     1
102
RTVSPost2010Prop49
280
     0
102
RTVSPost2010PropOp49
 70
     1
102
RTVSPost2010Prop50
 90
       50
102
RTVSPost2010PropOp50
 70
     1
102
RTVSPost2010Prop51ColorIndex
 90
      256
102
RTVSPost2010Prop51ColorRGB
 90
-16777216
102
RTVSPost2010PropOp51
 70
     0
102
RTVSPost2010Prop52
140
1.0
102
RTVSPost2010PropOp52
 70
     0
102
RTVSPost2010Prop53
 90
        2
102
RTVSPost2010PropOp53
 70
     1
102
RTVSPost2010Prop54
  1
strokes_ogs.tif
102
RTVSPost2010PropOp54
 70
     1
102
RTVSPost2010Prop55
280
     0
102
RTVSPost2010PropOp55
 70
     1
102
RTVSPost2010Prop56
140
1.0
102
RTVSPost2010PropOp56
 70
     1
102
RTVSPost2010Prop57
140
1.0
102
RTVSPost2010PropOp57
 70
     1
  0
XRECORD
  5
269
102
{ACAD_REACTORS
330
268
102
}
330
268
100
AcDbXrecord
280
     1
102
RTVSPropertyOp0
 70
     1
102
RTVSPropertyOp1
 70
     1
102
RTVSPropertyOp2
 70
     1
102
RTVSPropertyOp3
 70
     1
102
RTVSPropertyOp4
 70
     1
102
RTVSPropertyOp5
 70
     1
102
RTVSPropertyOp6
 70
     1
102
RTVSPropertyOp7
 70
     1
102
RTVSPropertyOp8
 70
     1
102
RTVSPropertyOp9
 70
     1
102
RTVSPropertyOp10
 70
     1
102
RTVSPropertyOp11
 70
     1
102
RTVSPropertyOp12
 70
     1
102
RTVSPropertyOp13
 70
     1
102
RTVSPropertyOp14
 70
     1
102
RTVSPropertyOp15
 70
     1
102
RTVSPropertyOp16
 70
     1
102
RTVSPropertyOp17
 70
     1
102
RTVSPropertyOp18
 70
     1
102
RTVSPropertyOp19
 70
     1
102
RTVSPropertyOp20
 70
     1
102
RTVSPropertyOp21
 70
     1
102
RTVSPropertyOp22
 70
     1
102
RTVSPropertyOp23
 70
     1
102
RTVSPropertyOp24
 70
     1
102
RTVSPropertyOp25
 70
     1
102
RTVSPropertyOp26
 70
     1
102
RTVSPropertyOp27
 70
     1
102
RTVSPropertyOp28
 70
     1
102
RTVSPropertyOp29
 70
     1
102
RTVSPropertyOp30
 70
     1
102
RTVSPropertyOp31
 70
     1
102
RTVSPropertyOp32
 70
     1
102
RTVSPropertyOp33
 70
     1
102
RTVSPropertyOp34
 70
     1
102
RTVSPropertyOp35
 70
     1
102
RTVSPropertyOp36
 70
     1
102
RTVSPropertyOp37
 70
     1
102
RTVSPropertyOp38
 70
     1
102
RTVSPropertyOp39
 70
     1
102
RTVSPropertyOp40
 70
     1
102
RTVSPropertyOp41
 70
     1
102
RTVSPropertyOp42
 70
     1
102
RTVSPropertyOp43
 70
     1
102
RTVSPropertyOp44
 70
     1
102
RTVSPropertyOp45
 70
     1
102
RTVSPropertyOp46
 70
     1
102
RTVSPropertyOp47
 70
     1
102
RTVSPropertyOp48
 70
     1
102
RTVSPropertyOp49
 70
     1
102
RTVSPropertyOp50
 70
     1
102
RTVSPropertyOp51
 70
     0
102
RTVSPropertyOp52
 70
     0
102
RTVSPropertyOp53
 70
     1
102
RTVSPropertyOp54
 70
     1
102
RTVSPropertyOp55
 70
     1
102
RTVSPropertyOp56
 70
     1
102
RTVSPropertyOp57
 70
     1
102
RTVSPost2010Prop28
280
     0
102
RTVSPost2010PropOp28
 70
     1
102
RTVSPost2010Prop29
280
     1
102
RTVSPost2010PropOp29
 70
     1
102
RTVSPost2010Prop30
280
     1
102
RTVSPost2010PropOp30
 70
     1
102
RTVSPost2010Prop31
280
     0
102
RTVSPost2010PropOp31
 70
     1
102
RTVSPost2010Prop32
280
     0
102
RTVSPost2010PropOp32
 70
     1
102
RTVSPost2010Prop33
280
     0
102
RTVSPost2010PropOp33
 70
     1
102
RTVSPost2010Prop34
280
     0
102
RTVSPost2010PropOp34
 70
     1
102
RTVSPost2010Prop35
280
     0
102
RTVSPost2010PropOp35
 70
     1
102
RTVSPost2010Prop36
280
     0
102
RTVSPost2010PropOp36
 70
     1
102
RTVSPost2010Prop37
 90
       50
102
RTVSPost2010PropOp37
 70
     1
102
RTVSPost2010Prop38
140
0.0
102
RTVSPost2010PropOp38
 70
     1
102
RTVSPost2010Prop39
140
1.0
102
RTVSPost2010PropOp39
 70
     1
102
RTVSPost2010Prop40
 90
        0
102
RTVSPost2010PropOp40
 70
     1
102
RTVSPost2010Prop41ColorIndex
 90
       18
102
RTVSPost2010Prop41ColorRGB
 90
        0
102
RTVSPost2010PropOp41
 70
     1
102
RTVSPost2010Prop42
 90
       50
102
RTVSPost2010PropOp42
 70
     1
102
RTVSPost2010Prop43
 90
        3
102
RTVSPost2010PropOp43
 70
     1
102
RTVSPost2010Prop44ColorIndex
 90
        5
102
RTVSPost2010Prop44ColorRGB
 90
      255
102
RTVSPost2010PropOp44
 70
     1
102
RTVSPost2010Prop45
280
     0
102
RTVSPost2010PropOp45
 70
     1
102
RTVSPost2010Prop46
 90
       50
102
RTVSPost2010PropOp46
 70
     1
102
RTVSPost2010Prop47
 90
       50
102
RTVSPost2010PropOp47
 70
     1
102
RTVSPost2010Prop48
 90
       50
102
RTVSPost2010PropOp48
 70
     1
102
RTVSPost2010Prop49
280
     0
102
RTVSPost2010PropOp49
 70
     1
102
RTVSPost2010Prop50
 90
       50
102
RTVSPost2010PropOp50
 70
     1
102
RTVSPost2010Prop51ColorIndex
 90
      256
102
RTVSPost2010Prop51ColorRGB
 90
-16777216
102
RTVSPost2010PropOp51
 70
     0
102
RTVSPost2010Prop52
140
1.0
102
RTVSPost2010PropOp52
 70
     0
102
RTVSPost2010Prop53
 90
        2
102
RTVSPost2010PropOp53
 70
     1
102
RTVSPost2010Prop54
  1
strokes_ogs.tif
102
RTVSPost2010PropOp54
 70
     1
102
RTVSPost2010Prop55
280
     0
102
RTVSPost2010PropOp55
 70
     1
102
RTVSPost2010Prop56
140
1.0
102
RTVSPost2010PropOp56
 70
     1
102
RTVSPost2010Prop57
140
1.0
102
RTVSPost2010PropOp57
 70
     1
  0
XRECORD
  5
26B
102
{ACAD_REACTORS
330
26A
102
}
330
26A
100
AcDbXrecord
280
     1
102
RTVSPropertyOp0
 70
     1
102
RTVSPropertyOp1
 70
     1
102
RTVSPropertyOp2
 70
     1
102
RTVSPropertyOp3
 70
     1
102
RTVSPropertyOp4
 70
     1
102
RTVSPropertyOp5
 70
     1
102
RTVSPropertyOp6
 70
     1
102
RTVSPropertyOp7
 70
     1
102
RTVSPropertyOp8
 70
     1
102
RTVSPropertyOp9
 70
     1
102
RTVSPropertyOp10
 70
     1
102
RTVSPropertyOp11
 70
     1
102
RTVSPropertyOp12
 70
     1
102
RTVSPropertyOp13
 70
     1
102
RTVSPropertyOp14
 70
     1
102
RTVSPropertyOp15
 70
     1
102
RTVSPropertyOp16
 70
     1
102
RTVSPropertyOp17
 70
     1
102
RTVSPropertyOp18
 70
     1
102
RTVSPropertyOp19
 70
     1
102
RTVSPropertyOp20
 70
     1
102
RTVSPropertyOp21
 70
     1
102
RTVSPropertyOp22
 70
     1
102
RTVSPropertyOp23
 70
     1
102
RTVSPropertyOp24
 70
     1
102
RTVSPropertyOp25
 70
     1
102
RTVSPropertyOp26
 70
     1
102
RTVSPropertyOp27
 70
     1
102
RTVSPropertyOp28
 70
     1
102
RTVSPropertyOp29
 70
     1
102
RTVSPropertyOp30
 70
     1
102
RTVSPropertyOp31
 70
     1
102
RTVSPropertyOp32
 70
     1
102
RTVSPropertyOp33
 70
     1
102
RTVSPropertyOp34
 70
     1
102
RTVSPropertyOp35
 70
     1
102
RTVSPropertyOp36
 70
     1
102
RTVSPropertyOp37
 70
     1
102
RTVSPropertyOp38
 70
     1
102
RTVSPropertyOp39
 70
     1
102
RTVSPropertyOp40
 70
     1
102
RTVSPropertyOp41
 70
     1
102
RTVSPropertyOp42
 70
     1
102
RTVSPropertyOp43
 70
     1
102
RTVSPropertyOp44
 70
     1
102
RTVSPropertyOp45
 70
     1
102
RTVSPropertyOp46
 70
     1
102
RTVSPropertyOp47
 70
     1
102
RTVSPropertyOp48
 70
     1
102
RTVSPropertyOp49
 70
     1
102
RTVSPropertyOp50
 70
     1
102
RTVSPropertyOp51
 70
     0
102
RTVSPropertyOp52
 70
     0
102
RTVSPropertyOp53
 70
     1
102
RTVSPropertyOp54
 70
     1
102
RTVSPropertyOp55
 70
     1
102
RTVSPropertyOp56
 70
     1
102
RTVSPropertyOp57
 70
     1
102
RTVSPost2010Prop28
280
     0
102
RTVSPost2010PropOp28
 70
     1
102
RTVSPost2010Prop29
280
     1
102
RTVSPost2010PropOp29
 70
     1
102
RTVSPost2010Prop30
280
     1
102
RTVSPost2010PropOp30
 70
     1
102
RTVSPost2010Prop31
280
     0
102
RTVSPost2010PropOp31
 70
     1
102
RTVSPost2010Prop32
280
     0
102
RTVSPost2010PropOp32
 70
     1
102
RTVSPost2010Prop33
280
     0
102
RTVSPost2010PropOp33
 70
     1
102
RTVSPost2010Prop34
280
     0
102
RTVSPost2010PropOp34
 70
     1
102
RTVSPost2010Prop35
280
     0
102
RTVSPost2010PropOp35
 70
     1
102
RTVSPost2010Prop36
280
     0
102
RTVSPost2010PropOp36
 70
     1
102
RTVSPost2010Prop37
 90
       50
102
RTVSPost2010PropOp37
 70
     1
102
RTVSPost2010Prop38
140
0.0
102
RTVSPost2010PropOp38
 70
     1
102
RTVSPost2010Prop39
140
1.0
102
RTVSPost2010PropOp39
 70
     1
102
RTVSPost2010Prop40
 90
        0
102
RTVSPost2010PropOp40
 70
     1
102
RTVSPost2010Prop41ColorIndex
 90
       18
102
RTVSPost2010Prop41ColorRGB
 90
        0
102
RTVSPost2010PropOp41
 70
     1
102
RTVSPost2010Prop42
 90
       50
102
RTVSPost2010PropOp42
 70
     1
102
RTVSPost2010Prop43
 90
        3
102
RTVSPost2010PropOp43
 70
     1
102
RTVSPost2010Prop44ColorIndex
 90
        5
102
RTVSPost2010Prop44ColorRGB
 90
      255
102
RTVSPost2010PropOp44
 70
     1
102
RTVSPost2010Prop45
280
     0
102
RTVSPost2010PropOp45
 70
     1
102
RTVSPost2010Prop46
 90
       50
102
RTVSPost2010PropOp46
 70
     1
102
RTVSPost2010Prop47
 90
       50
102
RTVSPost2010PropOp47
 70
     1
102
RTVSPost2010Prop48
 90
       50
102
RTVSPost2010PropOp48
 70
     1
102
RTVSPost2010Prop49
280
     0
102
RTVSPost2010PropOp49
 70
     1
102
RTVSPost2010Prop50
 90
       50
102
RTVSPost2010PropOp50
 70
     1
102
RTVSPost2010Prop51ColorIndex
 90
      256
102
RTVSPost2010Prop51ColorRGB
 90
-16777216
102
RTVSPost2010PropOp51
 70
     0
102
RTVSPost2010Prop52
140
1.0
102
RTVSPost2010PropOp52
 70
     0
102
RTVSPost2010Prop53
 90
        2
102
RTVSPost2010PropOp53
 70
     1
102
RTVSPost2010Prop54
  1
strokes_ogs.tif
102
RTVSPost2010PropOp54
 70
     1
102
RTVSPost2010Prop55
280
     0
102
RTVSPost2010PropOp55
 70
     1
102
RTVSPost2010Prop56
140
1.0
102
RTVSPost2010PropOp56
 70
     1
102
RTVSPost2010Prop57
140
1.0
102
RTVSPost2010PropOp57
 70
     1
  0
XRECORD
  5
25B
102
{ACAD_REACTORS
330
25A
102
}
330
25A
100
AcDbXrecord
280
     1
102
RTVSPropertyOp0
 70
     1
102
RTVSPropertyOp1
 70
     1
102
RTVSPropertyOp2
 70
     1
102
RTVSPropertyOp3
 70
     1
102
RTVSPropertyOp4
 70
     1
102
RTVSPropertyOp5
 70
     1
102
RTVSPropertyOp6
 70
     1
102
RTVSPropertyOp7
 70
     1
102
RTVSPropertyOp8
 70
     1
102
RTVSPropertyOp9
 70
     1
102
RTVSPropertyOp10
 70
     1
102
RTVSPropertyOp11
 70
     1
102
RTVSPropertyOp12
 70
     1
102
RTVSPropertyOp13
 70
     1
102
RTVSPropertyOp14
 70
     1
102
RTVSPropertyOp15
 70
     1
102
RTVSPropertyOp16
 70
     1
102
RTVSPropertyOp17
 70
     1
102
RTVSPropertyOp18
 70
     1
102
RTVSPropertyOp19
 70
     1
102
RTVSPropertyOp20
 70
     1
102
RTVSPropertyOp21
 70
     1
102
RTVSPropertyOp22
 70
     1
102
RTVSPropertyOp23
 70
     1
102
RTVSPropertyOp24
 70
     1
102
RTVSPropertyOp25
 70
     1
102
RTVSPropertyOp26
 70
     1
102
RTVSPropertyOp27
 70
     1
102
RTVSPropertyOp28
 70
     1
102
RTVSPropertyOp29
 70
     1
102
RTVSPropertyOp30
 70
     1
102
RTVSPropertyOp31
 70
     1
102
RTVSPropertyOp32
 70
     1
102
RTVSPropertyOp33
 70
     1
102
RTVSPropertyOp34
 70
     1
102
RTVSPropertyOp35
 70
     1
102
RTVSPropertyOp36
 70
     1
102
RTVSPropertyOp37
 70
     1
102
RTVSPropertyOp38
 70
     1
102
RTVSPropertyOp39
 70
     1
102
RTVSPropertyOp40
 70
     1
102
RTVSPropertyOp41
 70
     1
102
RTVSPropertyOp42
 70
     1
102
RTVSPropertyOp43
 70
     1
102
RTVSPropertyOp44
 70
     1
102
RTVSPropertyOp45
 70
     1
102
RTVSPropertyOp46
 70
     1
102
RTVSPropertyOp47
 70
     1
102
RTVSPropertyOp48
 70
     1
102
RTVSPropertyOp49
 70
     1
102
RTVSPropertyOp50
 70
     1
102
RTVSPropertyOp51
 70
     0
102
RTVSPropertyOp52
 70
     0
102
RTVSPropertyOp53
 70
     1
102
RTVSPropertyOp54
 70
     1
102
RTVSPropertyOp55
 70
     1
102
RTVSPropertyOp56
 70
     1
102
RTVSPropertyOp57
 70
     1
102
RTVSPost2010Prop28
280
     0
102
RTVSPost2010PropOp28
 70
     1
102
RTVSPost2010Prop29
280
     1
102
RTVSPost2010PropOp29
 70
     1
102
RTVSPost2010Prop30
280
     1
102
RTVSPost2010PropOp30
 70
     1
102
RTVSPost2010Prop31
280
     0
102
RTVSPost2010PropOp31
 70
     1
102
RTVSPost2010Prop32
280
     0
102
RTVSPost2010PropOp32
 70
     1
102
RTVSPost2010Prop33
280
     0
102
RTVSPost2010PropOp33
 70
     1
102
RTVSPost2010Prop34
280
     0
102
RTVSPost2010PropOp34
 70
     1
102
RTVSPost2010Prop35
280
     0
102
RTVSPost2010PropOp35
 70
     1
102
RTVSPost2010Prop36
280
     0
102
RTVSPost2010PropOp36
 70
     1
102
RTVSPost2010Prop37
 90
       50
102
RTVSPost2010PropOp37
 70
     1
102
RTVSPost2010Prop38
140
0.0
102
RTVSPost2010PropOp38
 70
     1
102
RTVSPost2010Prop39
140
1.0
102
RTVSPost2010PropOp39
 70
     1
102
RTVSPost2010Prop40
 90
        0
102
RTVSPost2010PropOp40
 70
     1
102
RTVSPost2010Prop41ColorIndex
 90
       18
102
RTVSPost2010Prop41ColorRGB
 90
        0
102
RTVSPost2010PropOp41
 70
     1
102
RTVSPost2010Prop42
 90
       50
102
RTVSPost2010PropOp42
 70
     1
102
RTVSPost2010Prop43
 90
        3
102
RTVSPost2010PropOp43
 70
     1
102
RTVSPost2010Prop44ColorIndex
 90
        5
102
RTVSPost2010Prop44ColorRGB
 90
      255
102
RTVSPost2010PropOp44
 70
     1
102
RTVSPost2010Prop45
280
     0
102
RTVSPost2010PropOp45
 70
     1
102
RTVSPost2010Prop46
 90
       50
102
RTVSPost2010PropOp46
 70
     1
102
RTVSPost2010Prop47
 90
       50
102
RTVSPost2010PropOp47
 70
     1
102
RTVSPost2010Prop48
 90
       50
102
RTVSPost2010PropOp48
 70
     1
102
RTVSPost2010Prop49
280
     0
102
RTVSPost2010PropOp49
 70
     1
102
RTVSPost2010Prop50
 90
       50
102
RTVSPost2010PropOp50
 70
     1
102
RTVSPost2010Prop51ColorIndex
 90
      256
102
RTVSPost2010Prop51ColorRGB
 90
-16777216
102
RTVSPost2010PropOp51
 70
     0
102
RTVSPost2010Prop52
140
1.0
102
RTVSPost2010PropOp52
 70
     0
102
RTVSPost2010Prop53
 90
        2
102
RTVSPost2010PropOp53
 70
     1
102
RTVSPost2010Prop54
  1
strokes_ogs.tif
102
RTVSPost2010PropOp54
 70
     1
102
RTVSPost2010Prop55
280
     0
102
RTVSPost2010PropOp55
 70
     1
102
RTVSPost2010Prop56
140
1.0
102
RTVSPost2010PropOp56
 70
     1
102
RTVSPost2010Prop57
140
1.0
102
RTVSPost2010PropOp57
 70
     1
  0
XRECORD
  5
24D
102
{ACAD_REACTORS
330
24C
102
}
330
24C
100
AcDbXrecord
280
     1
102
RTVSPropertyOp0
 70
     1
102
RTVSPropertyOp1
 70
     1
102
RTVSPropertyOp2
 70
     1
102
RTVSPropertyOp3
 70
     1
102
RTVSPropertyOp4
 70
     1
102
RTVSPropertyOp5
 70
     1
102
RTVSPropertyOp6
 70
     1
102
RTVSPropertyOp7
 70
     1
102
RTVSPropertyOp8
 70
     1
102
RTVSPropertyOp9
 70
     1
102
RTVSPropertyOp10
 70
     1
102
RTVSPropertyOp11
 70
     1
102
RTVSPropertyOp12
 70
     1
102
RTVSPropertyOp13
 70
     1
102
RTVSPropertyOp14
 70
     1
102
RTVSPropertyOp15
 70
     1
102
RTVSPropertyOp16
 70
     1
102
RTVSPropertyOp17
 70
     1
102
RTVSPropertyOp18
 70
     1
102
RTVSPropertyOp19
 70
     1
102
RTVSPropertyOp20
 70
     1
102
RTVSPropertyOp21
 70
     1
102
RTVSPropertyOp22
 70
     1
102
RTVSPropertyOp23
 70
     1
102
RTVSPropertyOp24
 70
     1
102
RTVSPropertyOp25
 70
     1
102
RTVSPropertyOp26
 70
     1
102
RTVSPropertyOp27
 70
     1
102
RTVSPropertyOp28
 70
     1
102
RTVSPropertyOp29
 70
     1
102
RTVSPropertyOp30
 70
     1
102
RTVSPropertyOp31
 70
     1
102
RTVSPropertyOp32
 70
     1
102
RTVSPropertyOp33
 70
     1
102
RTVSPropertyOp34
 70
     1
102
RTVSPropertyOp35
 70
     1
102
RTVSPropertyOp36
 70
     1
102
RTVSPropertyOp37
 70
     1
102
RTVSPropertyOp38
 70
     1
102
RTVSPropertyOp39
 70
     1
102
RTVSPropertyOp40
 70
     1
102
RTVSPropertyOp41
 70
     1
102
RTVSPropertyOp42
 70
     1
102
RTVSPropertyOp43
 70
     1
102
RTVSPropertyOp44
 70
     1
102
RTVSPropertyOp45
 70
     1
102
RTVSPropertyOp46
 70
     1
102
RTVSPropertyOp47
 70
     1
102
RTVSPropertyOp48
 70
     1
102
RTVSPropertyOp49
 70
     1
102
RTVSPropertyOp50
 70
     1
102
RTVSPropertyOp51
 70
     0
102
RTVSPropertyOp52
 70
     0
102
RTVSPropertyOp53
 70
     1
102
RTVSPropertyOp54
 70
     1
102
RTVSPropertyOp55
 70
     1
102
RTVSPropertyOp56
 70
     1
102
RTVSPropertyOp57
 70
     1
102
RTVSPost2010Prop28
280
     0
102
RTVSPost2010PropOp28
 70
     1
102
RTVSPost2010Prop29
280
     1
102
RTVSPost2010PropOp29
 70
     1
102
RTVSPost2010Prop30
280
     1
102
RTVSPost2010PropOp30
 70
     1
102
RTVSPost2010Prop31
280
     0
102
RTVSPost2010PropOp31
 70
     1
102
RTVSPost2010Prop32
280
     0
102
RTVSPost2010PropOp32
 70
     1
102
RTVSPost2010Prop33
280
     0
102
RTVSPost2010PropOp33
 70
     1
102
RTVSPost2010Prop34
280
     0
102
RTVSPost2010PropOp34
 70
     1
102
RTVSPost2010Prop35
280
     0
102
RTVSPost2010PropOp35
 70
     1
102
RTVSPost2010Prop36
280
     0
102
RTVSPost2010PropOp36
 70
     1
102
RTVSPost2010Prop37
 90
       50
102
RTVSPost2010PropOp37
 70
     1
102
RTVSPost2010Prop38
140
0.0
102
RTVSPost2010PropOp38
 70
     1
102
RTVSPost2010Prop39
140
1.0
102
RTVSPost2010PropOp39
 70
     1
102
RTVSPost2010Prop40
 90
        0
102
RTVSPost2010PropOp40
 70
     1
102
RTVSPost2010Prop41ColorIndex
 90
       18
102
RTVSPost2010Prop41ColorRGB
 90
        0
102
RTVSPost2010PropOp41
 70
     1
102
RTVSPost2010Prop42
 90
       50
102
RTVSPost2010PropOp42
 70
     1
102
RTVSPost2010Prop43
 90
        3
102
RTVSPost2010PropOp43
 70
     1
102
RTVSPost2010Prop44ColorIndex
 90
        5
102
RTVSPost2010Prop44ColorRGB
 90
      255
102
RTVSPost2010PropOp44
 70
     1
102
RTVSPost2010Prop45
280
     0
102
RTVSPost2010PropOp45
 70
     1
102
RTVSPost2010Prop46
 90
       50
102
RTVSPost2010PropOp46
 70
     1
102
RTVSPost2010Prop47
 90
       50
102
RTVSPost2010PropOp47
 70
     1
102
RTVSPost2010Prop48
 90
       50
102
RTVSPost2010PropOp48
 70
     1
102
RTVSPost2010Prop49
280
     0
102
RTVSPost2010PropOp49
 70
     1
102
RTVSPost2010Prop50
 90
       50
102
RTVSPost2010PropOp50
 70
     1
102
RTVSPost2010Prop51ColorIndex
 90
      256
102
RTVSPost2010Prop51ColorRGB
 90
-16777216
102
RTVSPost2010PropOp51
 70
     0
102
RTVSPost2010Prop52
140
1.0
102
RTVSPost2010PropOp52
 70
     0
102
RTVSPost2010Prop53
 90
        2
102
RTVSPost2010PropOp53
 70
     1
102
RTVSPost2010Prop54
  1
strokes_ogs.tif
102
RTVSPost2010PropOp54
 70
     1
102
RTVSPost2010Prop55
280
     0
102
RTVSPost2010PropOp55
 70
     1
102
RTVSPost2010Prop56
140
1.0
102
RTVSPost2010PropOp56
 70
     1
102
RTVSPost2010Prop57
140
1.0
102
RTVSPost2010PropOp57
 70
     1
  0
XRECORD
  5
26D
102
{ACAD_REACTORS
330
26C
102
}
330
26C
100
AcDbXrecord
280
     1
102
RTVSPropertyOp0
 70
     1
102
RTVSPropertyOp1
 70
     1
102
RTVSPropertyOp2
 70
     1
102
RTVSPropertyOp3
 70
     1
102
RTVSPropertyOp4
 70
     1
102
RTVSPropertyOp5
 70
     1
102
RTVSPropertyOp6
 70
     1
102
RTVSPropertyOp7
 70
     1
102
RTVSPropertyOp8
 70
     1
102
RTVSPropertyOp9
 70
     1
102
RTVSPropertyOp10
 70
     1
102
RTVSPropertyOp11
 70
     1
102
RTVSPropertyOp12
 70
     1
102
RTVSPropertyOp13
 70
     1
102
RTVSPropertyOp14
 70
     1
102
RTVSPropertyOp15
 70
     1
102
RTVSPropertyOp16
 70
     1
102
RTVSPropertyOp17
 70
     1
102
RTVSPropertyOp18
 70
     1
102
RTVSPropertyOp19
 70
     1
102
RTVSPropertyOp20
 70
     1
102
RTVSPropertyOp21
 70
     1
102
RTVSPropertyOp22
 70
     1
102
RTVSPropertyOp23
 70
     1
102
RTVSPropertyOp24
 70
     1
102
RTVSPropertyOp25
 70
     1
102
RTVSPropertyOp26
 70
     1
102
RTVSPropertyOp27
 70
     1
102
RTVSPropertyOp28
 70
     1
102
RTVSPropertyOp29
 70
     1
102
RTVSPropertyOp30
 70
     1
102
RTVSPropertyOp31
 70
     1
102
RTVSPropertyOp32
 70
     1
102
RTVSPropertyOp33
 70
     1
102
RTVSPropertyOp34
 70
     1
102
RTVSPropertyOp35
 70
     1
102
RTVSPropertyOp36
 70
     1
102
RTVSPropertyOp37
 70
     1
102
RTVSPropertyOp38
 70
     1
102
RTVSPropertyOp39
 70
     1
102
RTVSPropertyOp40
 70
     1
102
RTVSPropertyOp41
 70
     1
102
RTVSPropertyOp42
 70
     1
102
RTVSPropertyOp43
 70
     1
102
RTVSPropertyOp44
 70
     1
102
RTVSPropertyOp45
 70
     1
102
RTVSPropertyOp46
 70
     1
102
RTVSPropertyOp47
 70
     1
102
RTVSPropertyOp48
 70
     1
102
RTVSPropertyOp49
 70
     1
102
RTVSPropertyOp50
 70
     1
102
RTVSPropertyOp51
 70
     0
102
RTVSPropertyOp52
 70
     0
102
RTVSPropertyOp53
 70
     1
102
RTVSPropertyOp54
 70
     1
102
RTVSPropertyOp55
 70
     1
102
RTVSPropertyOp56
 70
     1
102
RTVSPropertyOp57
 70
     1
102
RTVSPost2010Prop28
280
     0
102
RTVSPost2010PropOp28
 70
     1
102
RTVSPost2010Prop29
280
     1
102
RTVSPost2010PropOp29
 70
     1
102
RTVSPost2010Prop30
280
     1
102
RTVSPost2010PropOp30
 70
     1
102
RTVSPost2010Prop31
280
     0
102
RTVSPost2010PropOp31
 70
     1
102
RTVSPost2010Prop32
280
     0
102
RTVSPost2010PropOp32
 70
     1
102
RTVSPost2010Prop33
280
     0
102
RTVSPost2010PropOp33
 70
     1
102
RTVSPost2010Prop34
280
     0
102
RTVSPost2010PropOp34
 70
     1
102
RTVSPost2010Prop35
280
     0
102
RTVSPost2010PropOp35
 70
     1
102
RTVSPost2010Prop36
280
     0
102
RTVSPost2010PropOp36
 70
     1
102
RTVSPost2010Prop37
 90
       50
102
RTVSPost2010PropOp37
 70
     1
102
RTVSPost2010Prop38
140
0.0
102
RTVSPost2010PropOp38
 70
     1
102
RTVSPost2010Prop39
140
1.0
102
RTVSPost2010PropOp39
 70
     1
102
RTVSPost2010Prop40
 90
        0
102
RTVSPost2010PropOp40
 70
     1
102
RTVSPost2010Prop41ColorIndex
 90
       18
102
RTVSPost2010Prop41ColorRGB
 90
        0
102
RTVSPost2010PropOp41
 70
     1
102
RTVSPost2010Prop42
 90
       50
102
RTVSPost2010PropOp42
 70
     1
102
RTVSPost2010Prop43
 90
        3
102
RTVSPost2010PropOp43
 70
     1
102
RTVSPost2010Prop44ColorIndex
 90
        5
102
RTVSPost2010Prop44ColorRGB
 90
      255
102
RTVSPost2010PropOp44
 70
     1
102
RTVSPost2010Prop45
280
     0
102
RTVSPost2010PropOp45
 70
     1
102
RTVSPost2010Prop46
 90
       50
102
RTVSPost2010PropOp46
 70
     1
102
RTVSPost2010Prop47
 90
       50
102
RTVSPost2010PropOp47
 70
     1
102
RTVSPost2010Prop48
 90
       50
102
RTVSPost2010PropOp48
 70
     1
102
RTVSPost2010Prop49
280
     0
102
RTVSPost2010PropOp49
 70
     1
102
RTVSPost2010Prop50
 90
       50
102
RTVSPost2010PropOp50
 70
     1
102
RTVSPost2010Prop51ColorIndex
 90
      256
102
RTVSPost2010Prop51ColorRGB
 90
-16777216
102
RTVSPost2010PropOp51
 70
     0
102
RTVSPost2010Prop52
140
1.0
102
RTVSPost2010PropOp52
 70
     0
102
RTVSPost2010Prop53
 90
        2
102
RTVSPost2010PropOp53
 70
     1
102
RTVSPost2010Prop54
  1
strokes_ogs.tif
102
RTVSPost2010PropOp54
 70
     1
102
RTVSPost2010Prop55
280
     0
102
RTVSPost2010PropOp55
 70
     1
102
RTVSPost2010Prop56
140
1.0
102
RTVSPost2010PropOp56
 70
     1
102
RTVSPost2010Prop57
140
1.0
102
RTVSPost2010PropOp57
 70
     1
  0
ENDSEC
  0
EOF
