  0
SECTION
  2
HEADER
  9
$ACADVER
  1
AC1021
  9
$ACADMAINTVER
 70
    25
  9
$DWGCODEPAGE
  3
ANSI_1252
  9
$INSBASE
 10
0.0
 20
0.0
 30
0.0
  9
$EXTMIN
 10
0.0
 20
0.0
 30
0.0
  9
$EXTMAX
 10
550.0
 20
511.0
 30
0.0
  9
$LIMMIN
 10
0.0
 20
0.0
  9
$LIMMAX
 10
550.0
 20
511.0
  9
$ORTHOMODE
 70
     0
  9
$REGENMODE
 70
     1
  9
$FILLMODE
 70
     1
  9
$QTEXTMODE
 70
     0
  9
$MIRRTEXT
 70
     1
  9
$LTSCALE
 40
1.0
  9
$ATTMODE
 70
     1
  9
$TEXTSIZE
 40
2.5
  9
$TRACEWID
 40
1.0
  9
$TEXTSTYLE
  7
Standard
  9
$CLAYER
  8
0
  9
$CELTYPE
  6
ByLayer
  9
$CECOLOR
 62
   256
  9
$CELTSCALE
 40
1.0
  9
$DISPSILH
 70
     0
  9
$DIMSCALE
 40
1.0
  9
$DIMASZ
 40
2.5
  9
$DIMEXO
 40
0.625
  9
$DIMDLI
 40
3.75
  9
$DIMRND
 40
0.0
  9
$DIMDLE
 40
0.0
  9
$DIMEXE
 40
1.25
  9
$DIMTP
 40
0.0
  9
$DIMTM
 40
0.0
  9
$DIMTXT
 40
2.5
  9
$DIMCEN
 40
2.5
  9
$DIMTSZ
 40
0.0
  9
$DIMTOL
 70
     0
  9
$DIMLIM
 70
     0
  9
$DIMTIH
 70
     0
  9
$DIMTOH
 70
     0
  9
$DIMSE1
 70
     0
  9
$DIMSE2
 70
     0
  9
$DIMTAD
 70
     1
  9
$DIMZIN
 70
     8
  9
$DIMBLK
  1

  9
$DIMASO
 70
     1
  9
$DIMSHO
 70
     1
  9
$DIMPOST
  1

  9
$DIMAPOST
  1

  9
$DIMALT
 70
     0
  9
$DIMALTD
 70
     3
  9
$DIMALTF
 40
0.0393700787
  9
$DIMLFAC
 40
1.0
  9
$DIMTOFL
 70
     1
  9
$DIMTVP
 40
0.0
  9
$DIMTIX
 70
     0
  9
$DIMSOXD
 70
     0
  9
$DIMSAH
 70
     0
  9
$DIMBLK1
  1

  9
$DIMBLK2
  1

  9
$DIMSTYLE
  2
ISO-25
  9
$DIMCLRD
 70
     0
  9
$DIMCLRE
 70
     0
  9
$DIMCLRT
 70
     0
  9
$DIMTFAC
 40
1.0
  9
$DIMGAP
 40
0.625
  9
$DIMJUST
 70
     0
  9
$DIMSD1
 70
     0
  9
$DIMSD2
 70
     0
  9
$DIMTOLJ
 70
     0
  9
$DIMTZIN
 70
     8
  9
$DIMALTZ
 70
     0
  9
$DIMALTTZ
 70
     0
  9
$DIMUPT
 70
     0
  9
$DIMDEC
 70
     2
  9
$DIMTDEC
 70
     2
  9
$DIMALTU
 70
     2
  9
$DIMALTTD
 70
     3
  9
$DIMTXSTY
  7
Standard
  9
$DIMAUNIT
 70
     0
  9
$DIMADEC
 70
     0
  9
$DIMALTRND
 40
0.0
  9
$DIMAZIN
 70
     0
  9
$DIMDSEP
 70
    44
  9
$DIMATFIT
 70
     3
  9
$DIMFRAC
 70
     0
  9
$DIMLDRBLK
  1

  9
$DIMLUNIT
 70
     2
  9
$DIMLWD
 70
    -2
  9
$DIMLWE
 70
    -2
  9
$DIMTMOVE
 70
     0
  9
$DIMFXL
 40
1.0
  9
$DIMFXLON
 70
     0
  9
$DIMJOGANG
 40
0.7853981634
  9
$DIMTFILL
 70
     0
  9
$DIMTFILLCLR
 70
     0
  9
$DIMARCSYM
 70
     0
  9
$DIMLTYPE
  6

  9
$DIMLTEX1
  6

  9
$DIMLTEX2
  6

  9
$LUNITS
 70
     2
  9
$LUPREC
 70
     4
  9
$SKETCHINC
 40
1.0
  9
$FILLETRAD
 40
10.0
  9
$AUNITS
 70
     0
  9
$AUPREC
 70
     0
  9
$MENU
  1
.
  9
$ELEVATION
 40
0.0
  9
$PELEVATION
 40
0.0
  9
$THICKNESS
 40
0.0
  9
$LIMCHECK
 70
     0
  9
$CHAMFERA
 40
0.0
  9
$CHAMFERB
 40
0.0
  9
$CHAMFERC
 40
0.0
  9
$CHAMFERD
 40
0.0
  9
$SKPOLY
 70
     0
  9
$TDCREATE
 40
2457289.682232708
  9
$TDUCREATE
 40
2457289.598899375
  9
$TDUPDATE
 40
2457289.682234514
  9
$TDUUPDATE
 40
2457289.598901181
  9
$TDINDWG
 40
0.0000000116
  9
$TDUSRTIMER
 40
0.0000000116
  9
$USRTIMER
 70
     1
  9
$ANGBASE
 50
0.0
  9
$ANGDIR
 70
     0
  9
$PDMODE
 70
     0
  9
$PDSIZE
 40
0.0
  9
$PLINEWID
 40
0.0
  9
$SPLFRAME
 70
     0
  9
$SPLINETYPE
 70
     6
  9
$SPLINESEGS
 70
     8
  9
$HANDSEED
  5
203
  9
$SURFTAB1
 70
     6
  9
$SURFTAB2
 70
     6
  9
$SURFTYPE
 70
     6
  9
$SURFU
 70
     6
  9
$SURFV
 70
     6
  9
$UCSBASE
  2

  9
$UCSNAME
  2

  9
$UCSORG
 10
0.0
 20
0.0
 30
0.0
  9
$UCSXDIR
 10
1.0
 20
0.0
 30
0.0
  9
$UCSYDIR
 10
0.0
 20
1.0
 30
0.0
  9
$UCSORTHOREF
  2

  9
$UCSORTHOVIEW
 70
     0
  9
$UCSORGTOP
 10
0.0
 20
0.0
 30
0.0
  9
$UCSORGBOTTOM
 10
0.0
 20
0.0
 30
0.0
  9
$UCSORGLEFT
 10
0.0
 20
0.0
 30
0.0
  9
$UCSORGRIGHT
 10
0.0
 20
0.0
 30
0.0
  9
$UCSORGFRONT
 10
0.0
 20
0.0
 30
0.0
  9
$UCSORGBACK
 10
0.0
 20
0.0
 30
0.0
  9
$PUCSBASE
  2

  9
$PUCSNAME
  2

  9
$PUCSORG
 10
0.0
 20
0.0
 30
0.0
  9
$PUCSXDIR
 10
1.0
 20
0.0
 30
0.0
  9
$PUCSYDIR
 10
0.0
 20
1.0
 30
0.0
  9
$PUCSORTHOREF
  2

  9
$PUCSORTHOVIEW
 70
     0
  9
$PUCSORGTOP
 10
0.0
 20
0.0
 30
0.0
  9
$PUCSORGBOTTOM
 10
0.0
 20
0.0
 30
0.0
  9
$PUCSORGLEFT
 10
0.0
 20
0.0
 30
0.0
  9
$PUCSORGRIGHT
 10
0.0
 20
0.0
 30
0.0
  9
$PUCSORGFRONT
 10
0.0
 20
0.0
 30
0.0
  9
$PUCSORGBACK
 10
0.0
 20
0.0
 30
0.0
  9
$USERI1
 70
     0
  9
$USERI2
 70
     0
  9
$USERI3
 70
     0
  9
$USERI4
 70
     0
  9
$USERI5
 70
     0
  9
$USERR1
 40
0.0
  9
$USERR2
 40
0.0
  9
$USERR3
 40
0.0
  9
$USERR4
 40
0.0
  9
$USERR5
 40
0.0
  9
$WORLDVIEW
 70
     1
  9
$SHADEDGE
 70
     3
  9
$SHADEDIF
 70
    70
  9
$TILEMODE
 70
     1
  9
$MAXACTVP
 70
    64
  9
$PINSBASE
 10
0.0
 20
0.0
 30
0.0
  9
$PLIMCHECK
 70
     0
  9
$PEXTMIN
 10
0.0
 20
0.0
 30
0.0
  9
$PEXTMAX
 10
550.0
 20
511.0
 30
0.0
  9
$PLIMMIN
 10
0.0
 20
0.0
  9
$PLIMMAX
 10
550.0
 20
511.0
  9
$UNITMODE
 70
     0
  9
$VISRETAIN
 70
     1
  9
$PLINEGEN
 70
     0
  9
$PSLTSCALE
 70
     1
  9
$TREEDEPTH
 70
  3020
  9
$CMLSTYLE
  2
Standard
  9
$CMLJUST
 70
     0
  9
$CMLSCALE
 40
20.0
  9
$PROXYGRAPHICS
 70
     1
  9
$MEASUREMENT
 70
     1
  9
$CELWEIGHT
370
    -1
  9
$ENDCAPS
280
     0
  9
$JOINSTYLE
280
     0
  9
$LWDISPLAY
290
     0
  9
$INSUNITS
 70
     4
  9
$HYPERLINKBASE
  1

  9
$STYLESHEET
  1

  9
$XEDIT
290
     1
  9
$CEPSNTYPE
380
     0
  9
$PSTYLEMODE
290
     1
  9
$FINGERPRINTGUID
  2
{79858724-1F68-45A0-8162-84EFA1D50D38}
  9
$VERSIONGUID
  2
{FAEB1C32-E019-11D5-929B-00C0DF256EC4}
  9
$EXTNAMES
290
     1
  9
$PSVPSCALE
 40
0.0
  9
$OLESTARTUP
290
     0
  9
$SORTENTS
280
   127
  9
$INDEXCTL
280
     0
  9
$HIDETEXT
280
     1
  9
$XCLIPFRAME
290
     0
  9
$HALOGAP
280
     0
  9
$OBSCOLOR
 70
   257
  9
$OBSLTYPE
280
     0
  9
$INTERSECTIONDISPLAY
280
     0
  9
$INTERSECTIONCOLOR
 70
   257
  9
$DIMASSOC
280
     2
  9
$PROJECTNAME
  1

  9
$CAMERADISPLAY
290
     0
  9
$LENSLENGTH
 40
50.0
  9
$CAMERAHEIGHT
 40
0.0
  9
$STEPSPERSEC
 40
2.0
  9
$STEPSIZE
 40
6.0
  9
$3DDWFPREC
 40
2.0
  9
$PSOLWIDTH
 40
5.0
  9
$PSOLHEIGHT
 40
80.0
  9
$LOFTANG1
 40
1.5707963268
  9
$LOFTANG2
 40
1.5707963268
  9
$LOFTMAG1
 40
0.0
  9
$LOFTMAG2
 40
0.0
  9
$LOFTPARAM
 70
     7
  9
$LOFTNORMALS
280
     1
  9
$LATITUDE
 40
37.795
  9
$LONGITUDE
 40
-122.394
  9
$NORTHDIRECTION
 40
0.0
  9
$TIMEZONE
 70
 -8000
  9
$LIGHTGLYPHDISPLAY
280
     1
  9
$TILEMODELIGHTSYNCH
280
     1
  9
$CMATERIAL
347
44
  9
$SOLIDHIST
280
     0
  9
$SHOWHIST
280
     1
  9
$DWFFRAME
280
     2
  9
$DGNFRAME
280
     2
  9
$REALWORLDSCALE
290
     1
  9
$INTERFERECOLOR
 62
   256
  9
$CSHADOW
280
     0
  9
$SHADOWPLANELOCATION
 40
0.0
  0
ENDSEC
  0
SECTION
  2
CLASSES
  0
CLASS
  1
ACDBDICTIONARYWDFLT
  2
AcDbDictionaryWithDefault
  3
ObjectDBX Classes
 90
        0
 91
        4
280
     0
281
     0
  0
CLASS
  1
VISUALSTYLE
  2
AcDbVisualStyle
  3
ObjectDBX Classes
 90
     4095
 91
        4
280
     0
281
     0
  0
CLASS
  1
MATERIAL
  2
AcDbMaterial
  3
ObjectDBX Classes
 90
     1153
 91
        4
280
     0
281
     0
  0
CLASS
  1
SCALE
  2
AcDbScale
  3
ObjectDBX Classes
 90
     1153
 91
        4
280
     0
281
     0
  0
CLASS
  1
TABLESTYLE
  2
AcDbTableStyle
  3
ObjectDBX Classes
 90
     4095
 91
        4
280
     0
281
     0
  0
CLASS
  1
MLEADERSTYLE
  2
AcDbMLeaderStyle
  3
ACDB_MLEADERSTYLE_CLASS
 90
     4095
 91
        4
280
     0
281
     0
  0
CLASS
  1
SUN
  2
AcDbSun
  3
SCENEOE
 90
     1153
 91
        4
280
     0
281
     0
  0
CLASS
  1
DICTIONARYVAR
  2
AcDbDictionaryVar
  3
ObjectDBX Classes
 90
        0
 91
        4
280
     0
281
     0
  0
CLASS
  1
CELLSTYLEMAP
  2
AcDbCellStyleMap
  3
ObjectDBX Classes
 90
     1152
 91
        4
280
     0
281
     0
  0
ENDSEC
  0
SECTION
  2
TABLES
  0
TABLE
  2
VPORT
  5
8
330
0
100
AcDbSymbolTable
 70
     1
  0
VPORT
  5
29
330
8
100
AcDbSymbolTableRecord
100
AcDbViewportTableRecord
  2
*Active
 70
     0
 10
0.0
 20
0.0
 11
1.0
 21
1.0
 12
344.1869158879
 22
148.5
 13
0.0
 23
0.0
 14
10.0
 24
10.0
 15
10.0
 25
10.0
 16
0.0
 26
0.0
 36
1.0
 17
0.0
 27
0.0
 37
0.0
 40
297.0
 41
1.9729729729
 42
50.0
 43
0.0
 44
0.0
 50
0.0
 51
0.0
 71
     0
 72
   100
 73
     1
 74
     3
 75
     0
 76
     0
 77
     0
 78
     0
281
     0
 65
     1
110
0.0
120
0.0
130
0.0
111
1.0
121
0.0
131
0.0
112
0.0
122
1.0
132
0.0
 79
     0
146
0.0
 60
     3
 61
     5
292
     1
282
     1
141
0.0
142
0.0
 63
   250
361
6D
  0
ENDTAB
  0
TABLE
  2
LTYPE
  5
5
330
0
100
AcDbSymbolTable
 70
     1
  0
LTYPE
  5
14
330
5
100
AcDbSymbolTableRecord
100
AcDbLinetypeTableRecord
  2
ByBlock
 70
     0
  3

 72
    65
 73
     0
 40
0.0
  0
LTYPE
  5
15
330
5
100
AcDbSymbolTableRecord
100
AcDbLinetypeTableRecord
  2
ByLayer
 70
     0
  3

 72
    65
 73
     0
 40
0.0
  0
LTYPE
  5
16
330
5
100
AcDbSymbolTableRecord
100
AcDbLinetypeTableRecord
  2
Continuous
 70
     0
  3
Solid line
 72
    65
 73
     0
 40
0.0
  0
ENDTAB
  0
TABLE
  2
LAYER
  5
2
330
0
100
AcDbSymbolTable
 70
     4
  0
LAYER
  5
10
330
2
100
AcDbSymbolTableRecord
100
AcDbLayerTableRecord
  2
0
 70
     0
 62
     7
  6
Continuous
370
    -3
390
F
347
46
  0
LAYER
  5
6E
330
2
100
AcDbSymbolTableRecord
100
AcDbLayerTableRecord
  2
encadrement
 70
     1
 62
    -7
  6
Continuous
370
    -3
390
F
347
46
  0
LAYER
  5
74
330
2
100
AcDbSymbolTableRecord
100
AcDbLayerTableRecord
  2
Cartouche
 70
     0
 62
     7
  6
Continuous
370
    -3
390
F
347
46
  0
LAYER
  5
77
330
2
100
AcDbSymbolTableRecord
100
AcDbLayerTableRecord
  2
H855
 70
     0
 62
     7
  6
Continuous
370
    -3
390
F
347
46
  0
ENDTAB
  0
TABLE
  2
STYLE
  5
3
330
0
100
AcDbSymbolTable
 70
     4
  0
STYLE
  5
11
330
3
100
AcDbSymbolTableRecord
100
AcDbTextStyleTableRecord
  2
Standard
 70
     0
 40
0.0
 41
1.0
 50
0.0
 71
     0
 42
2.5
  3
txt
  4

  0
STYLE
  5
1A1
330
3
100
AcDbSymbolTableRecord
100
AcDbTextStyleTableRecord
  2
SEACAD_Solid_Edge_ANSI1_SymbolsB
 70
     0
 40
0.0
 41
1.0
 50
0.0
 71
     0
 42
2.5
  3
semeca1.ttf
  4

1001
ACAD
1000
Solid Edge ANSI1 Symbols
1071
 33554432
  0
STYLE
  5
1A3
330
3
100
AcDbSymbolTableRecord
100
AcDbTextStyleTableRecord
  2
SEACAD_ArialB
 70
     0
 40
0.0
 41
1.0
 50
0.0
 71
     0
 42
2.5
  3
arialbd.ttf
  4

1001
ACAD
1000
Arial
1071
 33554432
  0
STYLE
  5
1B9
330
3
100
AcDbSymbolTableRecord
100
AcDbTextStyleTableRecord
  2
SEACAD_Arial
 70
     0
 40
0.0
 41
1.0
 50
0.0
 71
     0
 42
2.5
  3

  4

1001
ACAD
1000
Arial
1071
        0
  0
ENDTAB
  0
TABLE
  2
VIEW
  5
6
330
0
100
AcDbSymbolTable
 70
     0
  0
ENDTAB
  0
TABLE
  2
UCS
  5
7
330
0
100
AcDbSymbolTable
 70
     0
  0
ENDTAB
  0
TABLE
  2
APPID
  5
9
330
0
100
AcDbSymbolTable
 70
     2
  0
APPID
  5
12
330
9
100
AcDbSymbolTableRecord
100
AcDbRegAppTableRecord
  2
ACAD
 70
     0
  0
APPID
  5
1FB
330
9
100
AcDbSymbolTableRecord
100
AcDbRegAppTableRecord
  2
ACAD_MLEADERVER
 70
     0
  0
ENDTAB
  0
TABLE
  2
DIMSTYLE
  5
A
330
0
100
AcDbSymbolTable
 70
     3
100
AcDbDimStyleTable
  0
DIMSTYLE
105
27
330
A
100
AcDbSymbolTableRecord
100
AcDbDimStyleTableRecord
  2
ISO-25
 70
     0
 41
2.5
 42
0.625
 43
3.75
 44
1.25
 73
     0
 74
     0
 77
     1
 78
     8
140
2.5
141
2.5
143
0.0393700787
147
0.625
171
     3
172
     1
178
     0
271
     2
272
     2
274
     3
278
    44
283
     0
284
     8
340
11
  0
DIMSTYLE
105
1A7
330
A
100
AcDbSymbolTableRecord
100
AcDbDimStyleTableRecord
  2
Standard
 70
     0
178
     0
340
11
  0
DIMSTYLE
105
1BA
102
{ACAD_REACTORS
330
1BB
102
}
330
A
100
AcDbSymbolTableRecord
100
AcDbDimStyleTableRecord
  2
ISO
 70
     0
 41
24.0
 42
0.0
 44
8.0
 78
     8
140
16.0
141
0.0
147
8.0
172
     1
173
     1
178
     0
271
     0
272
     0
278
    44
284
     8
340
1B9
343
1B4
344
1B4
  0
ENDTAB
  0
TABLE
  2
BLOCK_RECORD
  5
1
330
0
100
AcDbSymbolTable
 70
    12
  0
BLOCK_RECORD
  5
1F
330
1
100
AcDbSymbolTableRecord
100
AcDbBlockTableRecord
  2
*Model_Space
340
22
 70
     0
280
     1
281
     0
  0
BLOCK_RECORD
  5
1B
330
1
100
AcDbSymbolTableRecord
100
AcDbBlockTableRecord
  2
*Paper_Space
340
1E
 70
     0
280
     1
281
     0
  0
BLOCK_RECORD
  5
75
330
1
100
AcDbSymbolTableRecord
100
AcDbBlockTableRecord
  2
SE
340
0
102
{BLKREFS
331
76
102
}
 70
     0
280
     1
281
     0
  0
BLOCK_RECORD
  5
AE
330
1
100
AcDbSymbolTableRecord
100
AcDbBlockTableRecord
  2
SE1
340
0
102
{BLKREFS
331
AF
102
}
 70
     0
280
     1
281
     0
  0
BLOCK_RECORD
  5
E1
330
1
100
AcDbSymbolTableRecord
100
AcDbBlockTableRecord
  2
SE2
340
0
102
{BLKREFS
331
E2
102
}
 70
     0
280
     1
281
     0
  0
BLOCK_RECORD
  5
115
330
1
100
AcDbSymbolTableRecord
100
AcDbBlockTableRecord
  2
SE3
340
0
102
{BLKREFS
331
116
102
}
 70
     0
280
     1
281
     0
  0
BLOCK_RECORD
  5
11E
330
1
100
AcDbSymbolTableRecord
100
AcDbBlockTableRecord
  2
SE4
340
0
102
{BLKREFS
331
11F
102
}
 70
     0
280
     1
281
     0
  0
BLOCK_RECORD
  5
15B
330
1
100
AcDbSymbolTableRecord
100
AcDbBlockTableRecord
  2
SE5
340
0
102
{BLKREFS
331
15C
102
}
 70
     0
280
     1
281
     0
  0
BLOCK_RECORD
  5
199
330
1
100
AcDbSymbolTableRecord
100
AcDbBlockTableRecord
  2
GDimGGroup
340
0
102
{BLKREFS
331
19A
102
}
 70
     0
280
     1
281
     0
  0
BLOCK_RECORD
  5
1A8
330
1
100
AcDbSymbolTableRecord
100
AcDbBlockTableRecord
  2
_OBLIQUE
340
0
 70
     0
280
     1
281
     0
  0
BLOCK_RECORD
  5
1AC
330
1
100
AcDbSymbolTableRecord
100
AcDbBlockTableRecord
  2
_DOT
340
0
 70
     0
280
     1
281
     0
  0
BLOCK_RECORD
  5
1B4
330
1
100
AcDbSymbolTableRecord
100
AcDbBlockTableRecord
  2
_SE_FILLED
340
0
 70
     0
280
     1
281
     0
  0
BLOCK_RECORD
  5
1BC
330
1
100
AcDbSymbolTableRecord
100
AcDbBlockTableRecord
  2
DMBLK4
340
0
 70
     0
280
     1
281
     0
  0
ENDTAB
  0
ENDSEC
  0
SECTION
  2
BLOCKS
  0
BLOCK
  5
20
330
1F
100
AcDbEntity
  8
0
100
AcDbBlockBegin
  2
*Model_Space
 70
     0
 10
0.0
 20
0.0
 30
0.0
  3
*Model_Space
  1
*Model_Space
  0
ENDBLK
  5
21
330
1F
100
AcDbEntity
  8
0
100
AcDbBlockEnd
  0
BLOCK
  5
1C
330
1B
100
AcDbEntity
 67
     1
  8
0
100
AcDbBlockBegin
  2
*Paper_Space
 70
     0
 10
0.0
 20
0.0
 30
0.0
  3
*Paper_Space
  1
*Paper_Space
  0
ENDBLK
  5
1D
330
1B
100
AcDbEntity
 67
     1
  8
0
100
AcDbBlockEnd
  0
BLOCK
  5
AC
330
75
100
AcDbEntity
  8
0
100
AcDbBlockBegin
  2
SE
 70
     0
 10
0.0
 20
0.0
 30
0.0
  3
SE
  1
SE
  0
LINE
  5
78
330
75
100
AcDbEntity
  8
H855
  6
Continuous
 62
     7
100
AcDbLine
 10
398.2571436525
 20
419.4813315545
 30
0.0
 11
175.0706388771
 21
419.4813315545
 31
0.0
  0
LINE
  5
79
330
75
100
AcDbEntity
  8
H855
  6
Continuous
 62
     7
100
AcDbLine
 10
400.8890541293
 20
411.6187056583
 30
0.0
 11
172.4387284003
 21
411.6187056583
 31
0.0
  0
LINE
  5
7A
330
75
100
AcDbEntity
  8
H855
  6
Continuous
 62
     7
100
AcDbLine
 10
391.9224749258
 20
389.6505422551
 30
0.0
 11
181.4053076039
 21
389.6505422551
 31
0.0
  0
LINE
  5
7B
330
75
100
AcDbEntity
  8
H855
  6
Continuous
 62
     7
100
AcDbLine
 10
376.6638912648
 20
154.6505422551
 30
0.0
 11
337.4319606423
 21
154.6505422551
 31
0.0
  0
LINE
  5
7C
330
75
100
AcDbEntity
  8
H855
  6
Continuous
 62
     7
100
AcDbLine
 10
235.9091069026
 20
154.6505422551
 30
0.0
 11
196.6638912648
 21
154.6505422551
 31
0.0
  0
LINE
  5
7D
330
75
100
AcDbEntity
  8
H855
  6
Continuous
 62
     7
100
AcDbLine
 10
397.1766503228
 20
131.9858707154
 30
0.0
 11
176.1511322069
 21
131.9858707154
 31
0.0
  0
LINE
  5
7E
330
75
100
AcDbEntity
  8
H855
  6
Continuous
 62
     7
100
AcDbLine
 10
400.576046182
 20
128.4997750456
 30
0.0
 11
172.7517363477
 21
128.4997750456
 31
0.0
  0
LINE
  5
7F
330
75
100
AcDbEntity
  8
H855
  6
Continuous
 62
     7
100
AcDbLine
 10
401.6638912648
 20
124.6505422551
 30
0.0
 11
171.6638912648
 21
124.6505422551
 31
0.0
  0
LINE
  5
80
330
75
100
AcDbEntity
  8
H855
  6
Continuous
 62
     7
100
AcDbLine
 10
236.7481490307
 20
141.1283339741
 30
0.0
 11
336.5796334989
 21
141.1283339741
 31
0.0
  0
LINE
  5
81
330
75
100
AcDbEntity
  8
H855
  6
Continuous
 62
     7
100
AcDbLine
 10
336.5796334989
 20
150.5616589966
 30
0.0
 11
236.7481490307
 21
150.5616589966
 31
0.0
  0
LINE
  5
82
330
75
100
AcDbEntity
  8
H855
  6
Continuous
 62
     7
100
AcDbLine
 10
236.7481490307
 20
150.5616589966
 30
0.0
 11
236.7481490307
 21
141.1283339741
 31
0.0
  0
LINE
  5
83
330
75
100
AcDbEntity
  8
H855
  6
Continuous
 62
     7
100
AcDbLine
 10
336.5796334989
 20
141.1283339741
 30
0.0
 11
336.5796334989
 21
150.5616589966
 31
0.0
  0
SPLINE
  5
84
330
75
100
AcDbEntity
  8
H855
  6
Continuous
 62
     7
100
AcDbSpline
210
0.0
220
0.0
230
1.0
 70
     8
 71
     3
 72
    20
 73
    16
 74
     0
 42
0.000000001
 43
0.0000000001
 40
0.0
 40
0.0
 40
0.0
 40
0.0
 40
0.1250000000000032
 40
0.1250000000000032
 40
0.2500000000000064
 40
0.2500000000000064
 40
0.3750000000000095
 40
0.3750000000000095
 40
0.4375000000000106
 40
0.4375000000000106
 40
0.5000000000000117
 40
0.5000000000000117
 40
0.6250000000000088
 40
0.6250000000000088
 40
0.6866547576668561
 40
0.6866547576668561
 40
0.6866547576668561
 40
0.6866547576668561
 10
236.7481490307175
 20
141.1283339740507
 30
0.0
 10
236.4374081715483
 20
141.1283339740507
 30
0.0
 10
236.1476145337343
 20
141.1342705622349
 30
0.0
 10
235.608190124988
 20
141.1580567951924
 30
0.0
 10
235.3561573314655
 20
141.1762494991377
 30
0.0
 10
234.9122146284875
 20
141.2250518037746
 30
0.0
 10
234.7187916024169
 20
141.2555354292214
 30
0.0
 10
234.4714744419676
 20
141.312105625343
 30
0.0
 10
234.3960101803621
 20
141.3328995621806
 30
0.0
 10
234.2628337618655
 20
141.3775967083153
 30
0.0
 10
234.2046773453599
 20
141.4015722077048
 30
0.0
 10
234.0548231106914
 20
141.4787584520273
 30
0.0
 10
233.9873011038677
 20
141.5376427240644
 30
0.0
 10
233.9374879560303
 20
141.6368403988187
 30
0.0
 10
233.9293696217048
 20
141.6711274388878
 30
0.0
 10
233.9293826068119
 20
141.7070357492155
 30
0.0
  0
SPLINE
  5
85
330
75
100
AcDbEntity
  8
H855
  6
Continuous
 62
     7
100
AcDbSpline
210
0.0
220
0.0
230
1.0
 70
     8
 71
     3
 72
    20
 73
    16
 74
     0
 42
0.000000001
 43
0.0000000001
 40
0.313143552539189
 40
0.313143552539189
 40
0.313143552539189
 40
0.313143552539189
 40
0.3749999999999912
 40
0.3749999999999912
 40
0.4999999999999913
 40
0.4999999999999913
 40
0.6249999999999915
 40
0.6249999999999915
 40
0.6874999999999916
 40
0.6874999999999916
 40
0.7499999999999916
 40
0.7499999999999916
 40
0.8749999999999958
 40
0.8749999999999958
 40
1.0
 40
1.0
 40
1.0
 40
1.0
 10
339.3983951987517
 20
141.7080123752766
 30
0.0
 10
339.3985552081589
 20
141.6720273806317
 30
0.0
 10
339.3905652243789
 20
141.6377750423554
 30
0.0
 10
339.3416292789288
 20
141.5391479373284
 30
0.0
 10
339.2739209495018
 20
141.4794267504566
 30
0.0
 10
339.0743382326832
 20
141.3762823567109
 30
0.0
 10
338.9426622637924
 20
141.3320875996882
 30
0.0
 10
338.6954933955896
 20
141.2752108903286
 30
0.0
 10
338.6046974440842
 20
141.2578718334207
 30
0.0
 10
338.4106063179819
 20
141.2268960732269
 30
0.0
 10
338.3068377132936
 20
141.2131391646341
 30
0.0
 10
337.9755834285519
 20
141.1766061524144
 30
0.0
 10
337.7259150497843
 20
141.1584049855612
 30
0.0
 10
337.1817763976554
 20
141.1342730996091
 30
0.0
 10
336.8904676193365
 20
141.1283339740507
 30
0.0
 10
336.5796334989144
 20
141.1283339740507
 30
0.0
  0
ARC
  5
86
330
75
100
AcDbEntity
  8
H855
  6
Continuous
 62
     7
100
AcDbCircle
 10
251.1502024821
 20
143.6310545377
 30
0.0
 40
17.44015081840018
100
AcDbArc
 50
112.0740528632
 51
139.3180866881
  0
LINE
  5
87
330
75
100
AcDbEntity
  8
H855
  6
Continuous
 62
     7
100
AcDbLine
 10
237.9246359329
 20
154.999574671
 30
0.0
 11
335.4031465968
 21
154.999574671
 31
0.0
  0
LINE
  5
88
330
75
100
AcDbEntity
  8
H855
  6
Continuous
 62
     7
100
AcDbLine
 10
328.731669544
 20
159.7928233593
 30
0.0
 11
244.5961129857
 21
159.7928233593
 31
0.0
  0
ARC
  5
89
330
75
100
AcDbEntity
  8
H855
  6
Continuous
 62
     7
100
AcDbCircle
 10
322.1775800476
 20
143.6310545377
 30
0.0
 40
17.44015081840015
100
AcDbArc
 50
40.6819133119
 51
67.9259471368
  0
LINE
  5
8A
330
75
100
AcDbEntity
  8
H855
  6
Continuous
 62
     7
100
AcDbLine
 10
233.9294442743
 20
150.5616589966
 30
0.0
 11
236.7481490307
 21
150.5616589966
 31
0.0
  0
ELLIPSE
  5
8B
330
75
100
AcDbEntity
  8
H855
  6
Continuous
 62
     7
100
AcDbEllipse
 10
238.9294442743
 20
150.5616589966
 30
0.0
 11
3.67983500286112
 21
-3.385087052310186
 31
0.0
210
0.0
220
0.0
230
1.0
 40
0.780310227
 41
2.417061716391556
 42
3.141592653589784
  0
SPLINE
  5
8C
330
75
100
AcDbEntity
  8
H855
  6
Continuous
 62
     7
100
AcDbSpline
210
0.0
220
0.0
230
1.0
 70
     8
 71
     3
 72
    12
 73
     8
 74
     0
 42
0.000000001
 43
0.0000000001
 40
0.7992434808329855
 40
0.7992434808329855
 40
0.7992434808329855
 40
0.7992434808329855
 40
0.8749999999999992
 40
0.8749999999999992
 40
0.9374999999999997
 40
0.9374999999999997
 40
1.0
 40
1.0
 40
1.0
 40
1.0
 10
244.0521881968117
 20
159.8400755199551
 30
0.0
 10
244.1170911048972
 20
159.8605239759375
 30
0.0
 10
244.1832663283661
 20
159.8707561418189
 30
0.0
 10
244.3064477388704
 20
159.8715700077053
 30
0.0
 10
244.3630361876103
 20
159.8652329770606
 30
0.0
 10
244.4781252132617
 20
159.8391506351242
 30
0.0
 10
244.5371488360024
 20
159.8191720356369
 30
0.0
 10
244.5961129856817
 20
159.7928233592897
 30
0.0
  0
ELLIPSE
  5
8D
330
75
100
AcDbEntity
  8
H855
  6
Continuous
 62
     7
100
AcDbEllipse
 10
238.9294442743
 20
150.5616589966
 30
0.0
 11
6.938893903907229E-15
 21
4.999999999999977
 31
0.0
210
0.0
220
0.0
230
1.0
 40
0.4362590487
 41
0.4787246423183955
 42
1.570796326794897
  0
SPLINE
  5
8E
330
75
100
AcDbEntity
  8
H855
  6
Continuous
 62
     7
100
AcDbSpline
210
0.0
220
0.0
230
1.0
 70
     8
 71
     3
 72
    12
 73
     8
 74
     0
 42
0.000000001
 43
0.0000000001
 40
0.7993284018305619
 40
0.7993284018305619
 40
0.7993284018305619
 40
0.7993284018305619
 40
0.8750000000000001
 40
0.8750000000000001
 40
0.9375
 40
0.9375
 40
1.0
 40
1.0
 40
1.0
 40
1.0
 10
329.2753760648396
 20
159.840144247932
 30
0.0
 10
329.2105430618234
 20
159.8605469035997
 30
0.0
 10
329.1444405398191
 20
159.8707566417179
 30
0.0
 10
329.0213347907616
 20
159.8715700077053
 30
0.0
 10
328.9647463420216
 20
159.8652329770605
 30
0.0
 10
328.8496573163701
 20
159.8391506351242
 30
0.0
 10
328.7906336936217
 20
159.8191720356379
 30
0.0
 10
328.7316695439502
 20
159.7928233592897
 30
0.0
  0
ELLIPSE
  5
8F
330
75
100
AcDbEntity
  8
H855
  6
Continuous
 62
     7
100
AcDbEllipse
 10
334.3983382553
 20
150.5616589966
 30
0.0
 11
2.081668171172169E-14
 21
5.000000000000025
 31
0.0
210
0.0
220
0.0
230
1.0
 40
0.4362590487
 41
4.712388980384697
 42
5.804460664861199
  0
ELLIPSE
  5
90
330
75
100
AcDbEntity
  8
H855
  6
Continuous
 62
     7
100
AcDbEllipse
 10
334.3983382553
 20
150.5616589966
 30
0.0
 11
-3.679835002861156
 21
-3.385087052310176
 31
0.0
210
0.0
220
0.0
230
1.0
 40
0.780310227
 41
3.141592653589793
 42
3.86612359078802
  0
LINE
  5
91
330
75
100
AcDbEntity
  8
H855
  6
Continuous
 62
     7
100
AcDbLine
 10
339.3983382553
 20
150.5616589966
 30
0.0
 11
336.5796334989
 21
150.5616589966
 31
0.0
  0
LINE
  5
92
330
75
100
AcDbEntity
  8
H855
  6
Continuous
 62
     7
100
AcDbLine
 10
181.4053076039
 20
421.1825420211
 30
0.0
 11
391.9224749258
 21
421.1825420211
 31
0.0
  0
LINE
  5
93
330
75
100
AcDbEntity
  8
H855
  6
Continuous
 62
     7
100
AcDbLine
 10
390.9543895728
 20
421.4331656032
 30
0.0
 11
182.3733929568
 21
421.4331656032
 31
0.0
  0
ARC
  5
94
330
75
100
AcDbEntity
  8
H855
  6
Continuous
 62
     7
100
AcDbCircle
 10
286.6638912648
 20
16.594547713
 30
0.0
 40
418.0559945421419
100
AcDbArc
 50
104.5829315162
 51
105.4818879837
  0
ARC
  5
95
330
75
100
AcDbEntity
  8
H855
  6
Continuous
 62
     7
100
AcDbCircle
 10
286.6638912648
 20
16.594547713
 30
0.0
 40
418.0559945421417
100
AcDbArc
 50
74.5181120163
 51
75.4170684838
  0
ARC
  5
96
330
75
100
AcDbEntity
  8
H855
  6
Continuous
 62
     7
100
AcDbCircle
 10
176.4053076039
 20
414.6627571398
 30
0.0
 40
4.999999999999997
100
AcDbArc
 50
105.4818879837
 51
217.5035292664
  0
ARC
  5
97
330
75
100
AcDbEntity
  8
H855
  6
Continuous
 62
     7
100
AcDbCircle
 10
396.9224749258
 20
414.6627571398
 30
0.0
 40
5.000000000000235
100
AcDbArc
 50
322.4964707336
 51
74.5181120163
  0
ARC
  5
98
330
75
100
AcDbEntity
  8
H855
  6
Continuous
 62
     7
100
AcDbCircle
 10
136.7712287218
 20
384.2465797875
 30
0.0
 40
44.96002455518166
100
AcDbArc
 50
6.9033468491
 51
37.5035292664
  0
ARC
  5
99
330
75
100
AcDbEntity
  8
H855
  6
Continuous
 62
     7
100
AcDbCircle
 10
436.5565538078
 20
384.2465797875
 30
0.0
 40
44.96002455518165
100
AcDbArc
 50
142.4964707336
 51
173.0966531509
  0
LINE
  5
9A
330
75
100
AcDbEntity
  8
H855
  6
Continuous
 62
     7
100
AcDbLine
 10
181.4053076039
 20
389.6505422551
 30
0.0
 11
196.6638912648
 21
154.6505422551
 31
0.0
  0
LINE
  5
9B
330
75
100
AcDbEntity
  8
H855
  6
Continuous
 62
     7
100
AcDbLine
 10
376.6638912648
 20
154.6505422551
 30
0.0
 11
391.9224749258
 21
389.6505422551
 31
0.0
  0
ARC
  5
9C
330
75
100
AcDbEntity
  8
H855
  6
Continuous
 62
     7
100
AcDbCircle
 10
167.2679722815
 20
160.6405294944
 30
0.0
 40
29.99999999999999
100
AcDbArc
 50
287.2238296816
 51
348.4825575827
  0
ARC
  5
9D
330
75
100
AcDbEntity
  8
H855
  6
Continuous
 62
     7
100
AcDbCircle
 10
406.0598102481
 20
160.6405294944
 30
0.0
 40
30.0
100
AcDbArc
 50
191.5174424173
 51
252.7761703184
  0
ARC
  5
9E
330
75
100
AcDbEntity
  8
H855
  6
Continuous
 62
     7
100
AcDbCircle
 10
177.662052207
 20
127.1120535818
 30
0.0
 40
5.102643697068755
100
AcDbArc
 50
107.2238296816
 51
164.2189927236
  0
ARC
  5
9F
330
75
100
AcDbEntity
  8
H855
  6
Continuous
 62
     7
100
AcDbCircle
 10
395.6657303227
 20
127.1120535818
 30
0.0
 40
5.102643697068756
100
AcDbArc
 50
15.7810072764
 51
72.7761703184
  0
LINE
  5
A0
330
75
100
AcDbEntity
  8
H855
  6
Continuous
 62
     7
100
AcDbLine
 10
401.6638912648
 20
124.6505422551
 30
0.0
 11
400.576046182
 21
128.4997750456
 31
0.0
  0
LINE
  5
A1
330
75
100
AcDbEntity
  8
H855
  6
Continuous
 62
     7
100
AcDbLine
 10
172.7517363477
 20
128.4997750456
 30
0.0
 11
171.6638912648
 21
124.6505422551
 31
0.0
  0
LINE
  5
A2
330
75
100
AcDbEntity
  8
H855
  6
Continuous
 62
     7
100
AcDbLine
 10
233.9294442743
 20
150.5616589966
 30
0.0
 11
233.9294442743
 21
141.7205842913
 31
0.0
  0
ARC
  5
A3
330
75
100
AcDbEntity
  8
H855
  6
Continuous
 62
     7
100
AcDbCircle
 10
250.6450477787
 20
140.4782761273
 30
0.0
 40
20.45267178472002
100
AcDbArc
 50
108.8126771122
 51
138.8253233226
  0
ARC
  5
A4
330
75
100
AcDbEntity
  8
H855
  6
Continuous
 62
     7
100
AcDbCircle
 10
238.9294442743
 20
150.5616589966
 30
0.0
 40
4.999999999999994
100
AcDbArc
 50
137.3889896646
 51
180.0
  0
LINE
  5
A5
330
75
100
AcDbEntity
  8
H855
  6
Continuous
 62
     7
100
AcDbLine
 10
329.1234888361
 20
159.8712172073
 30
0.0
 11
244.2085657109
 21
159.8712172073
 31
0.0
  0
ARC
  5
A6
330
75
100
AcDbEntity
  8
H855
  6
Continuous
 62
     7
100
AcDbCircle
 10
322.7908981587
 20
140.6569530825
 30
0.0
 40
20.24540442529232
100
AcDbArc
 50
40.9892232884
 51
71.3102943269
  0
ARC
  5
A7
330
75
100
AcDbEntity
  8
H855
  6
Continuous
 62
     7
100
AcDbCircle
 10
334.3983382553
 20
150.5616589966
 30
0.0
 40
5.000000000000004
100
AcDbArc
 50
0.0
 51
42.6110103354
  0
LINE
  5
A8
330
75
100
AcDbEntity
  8
H855
  6
Continuous
 62
     7
100
AcDbLine
 10
339.3983382553
 20
141.7233952733
 30
0.0
 11
339.3983382553
 21
150.5616589966
 31
0.0
  0
ARC
  5
A9
330
75
100
AcDbEntity
  8
H855
  6
Continuous
 62
     7
100
AcDbCircle
 10
286.6638912648
 20
16.594547713
 30
0.0
 40
418.055994542142
100
AcDbArc
 50
75.554121498
 51
104.445878502
  0
LINE
  5
AA
330
75
100
AcDbEntity
  8
H855
  6
Continuous
 62
     7
100
AcDbLine
 10
182.3733929568
 20
421.4331656032
 30
0.0
 11
182.4385957895
 21
421.1825420211
 31
0.0
  0
LINE
  5
AB
330
75
100
AcDbEntity
  8
H855
  6
Continuous
 62
     7
100
AcDbLine
 10
390.8891867402
 20
421.1825420211
 30
0.0
 11
390.9543895728
 21
421.4331656032
 31
0.0
  0
ENDBLK
  5
AD
330
75
100
AcDbEntity
  8
0
100
AcDbBlockEnd
  0
BLOCK
  5
DF
330
AE
100
AcDbEntity
  8
0
100
AcDbBlockBegin
  2
SE1
 70
     0
 10
0.0
 20
0.0
 30
0.0
  3
SE1
  1
SE1
  0
LINE
  5
B0
330
AE
100
AcDbEntity
  8
H855
  6
Continuous
 62
     7
100
AcDbLine
 10
501.3322705871
 20
419.4813315545
 30
0.0
 11
724.5187753625
 21
419.4813315545
 31
0.0
  0
LINE
  5
B1
330
AE
100
AcDbEntity
  8
H855
  6
Continuous
 62
     7
100
AcDbLine
 10
498.7003601103
 20
411.6187056583
 30
0.0
 11
727.1506858393
 21
411.6187056583
 31
0.0
  0
LINE
  5
B2
330
AE
100
AcDbEntity
  8
H855
  6
Continuous
 62
     7
100
AcDbLine
 10
507.6669393139
 20
389.6505422551
 30
0.0
 11
718.1841066357
 21
389.6505422551
 31
0.0
  0
LINE
  5
B3
330
AE
100
AcDbEntity
  8
H855
  6
Continuous
 62
     7
100
AcDbLine
 10
522.9255229748
 20
154.6505422551
 30
0.0
 11
693.5505757723
 21
154.6505422551
 31
0.0
  0
LINE
  5
B4
330
AE
100
AcDbEntity
  8
H855
  6
Continuous
 62
     7
100
AcDbLine
 10
502.4127639169
 20
131.9858707154
 30
0.0
 11
723.4382820328
 21
131.9858707154
 31
0.0
  0
LINE
  5
B5
330
AE
100
AcDbEntity
  8
H855
  6
Continuous
 62
     7
100
AcDbLine
 10
499.0133680577
 20
128.4997750456
 30
0.0
 11
726.8376778919
 21
128.4997750456
 31
0.0
  0
LINE
  5
B6
330
AE
100
AcDbEntity
  8
H855
  6
Continuous
 62
     7
100
AcDbLine
 10
497.9255229748
 20
124.6505422551
 30
0.0
 11
727.9255229748
 21
124.6505422551
 31
0.0
  0
ELLIPSE
  5
B7
330
AE
100
AcDbEntity
  8
H855
  6
Continuous
 62
     7
100
AcDbEllipse
 10
719.7461066033
 20
181.3941737896
 30
0.0
 11
-2.275957200481571E-12
 21
-40.88961596268433
 31
0.0
210
0.0
220
0.0
230
1.0
 40
0.8789456437
 41
5.463792002167548
 42
5.979456742601853
  0
LINE
  5
B8
330
AE
100
AcDbEntity
  8
H855
  6
Continuous
 62
     7
100
AcDbLine
 10
727.3431892232
 20
141.1283339741
 30
0.0
 11
715.8809552111
 21
141.1283339741
 31
0.0
  0
LINE
  5
B9
330
AE
100
AcDbEntity
  8
H855
  6
Continuous
 62
     7
100
AcDbLine
 10
715.8809552111
 20
150.5616589966
 30
0.0
 11
727.3431892232
 21
150.5616589966
 31
0.0
  0
LINE
  5
BA
330
AE
100
AcDbEntity
  8
H855
  6
Continuous
 62
     7
100
AcDbLine
 10
715.8809552111
 20
150.5616589966
 30
0.0
 11
715.8809552111
 21
141.1283339741
 31
0.0
  0
ARC
  5
BB
330
AE
100
AcDbEntity
  8
H855
  6
Continuous
 62
     7
100
AcDbCircle
 10
716.8045273265
 20
165.8344698592
 30
0.0
 40
24.72339248217905
100
AcDbArc
 50
251.5917631029
 51
267.8591490023
  0
ARC
  5
BC
330
AE
100
AcDbEntity
  8
H855
  6
Continuous
 62
     7
100
AcDbCircle
 10
692.9686167361
 20
120.4051100646
 30
0.0
 40
40.20500362688539
100
AcDbArc
 50
59.3673401105
 51
78.4275793104
  0
LINE
  5
BD
330
AE
100
AcDbEntity
  8
H855
  6
Continuous
 62
     7
100
AcDbLine
 10
724.6464270458
 20
154.999574671
 30
0.0
 11
713.4543516566
 21
154.999574671
 31
0.0
  0
LINE
  5
BE
330
AE
100
AcDbEntity
  8
H855
  6
Continuous
 62
     7
100
AcDbLine
 10
710.5615878084
 20
159.7928233593
 30
0.0
 11
701.0339969534
 21
159.7928233593
 31
0.0
  0
LINE
  5
BF
330
AE
100
AcDbEntity
  8
H855
  6
Continuous
 62
     7
100
AcDbLine
 10
693.5816586116
 20
155.1951857285
 30
0.0
 11
693.4837887042
 21
153.4802778386
 31
0.0
  0
ARC
  5
C0
330
AE
100
AcDbEntity
  8
H855
  6
Continuous
 62
     7
100
AcDbCircle
 10
690.7184360222
 20
119.8034914484
 30
0.0
 40
35.77959669326961
100
AcDbArc
 50
59.2780512641
 51
85.3746690552
  0
LINE
  5
C1
330
AE
100
AcDbEntity
  8
H855
  6
Continuous
 62
     7
100
AcDbLine
 10
708.9972398289
 20
142.3761579472
 30
0.0
 11
708.9972398289
 21
150.5616589966
 31
0.0
  0
ELLIPSE
  5
C2
330
AE
100
AcDbEntity
  8
H855
  6
Continuous
 62
     7
100
AcDbEllipse
 10
697.9671520965
 20
154.8712172077
 30
0.0
 11
1.592392884219862E-9
 21
4.999999997762527
 31
0.0
210
0.0
220
0.0
230
1.0
 40
0.8789456433
 41
1.451443484169642
 42
1.505957200605268
  0
LINE
  5
C3
330
AE
100
AcDbEntity
  8
H855
  6
Continuous
 62
     7
100
AcDbLine
 10
708.9972398289
 20
150.5616589966
 30
0.0
 11
715.8809552111
 21
150.5616589966
 31
0.0
  0
ELLIPSE
  5
C4
330
AE
100
AcDbEntity
  8
H855
  6
Continuous
 62
     7
100
AcDbEllipse
 10
711.3818496266
 20
150.5616589966
 30
0.0
 11
2.540274749353047
 21
4.306623294159747
 31
0.0
210
0.0
220
0.0
230
1.0
 40
0.4234017032
 41
0.2236869168877105
 42
1.815534761503463
  0
SPLINE
  5
C5
330
AE
100
AcDbEntity
  8
H855
  6
Continuous
 62
     7
100
AcDbSpline
210
0.0
220
0.0
230
1.0
 70
     8
 71
     3
 72
    30
 73
    26
 74
     0
 42
0.000000001
 43
0.0000000001
 40
0.0
 40
0.0
 40
0.0
 40
0.0
 40
0.1250000000000016
 40
0.1250000000000016
 40
0.1875000000000014
 40
0.1875000000000014
 40
0.2500000000000013
 40
0.2500000000000013
 40
0.3125000000000012
 40
0.3125000000000012
 40
0.375000000000001
 40
0.375000000000001
 40
0.4375000000000009
 40
0.4375000000000009
 40
0.5000000000000007
 40
0.5000000000000007
 40
0.6250000000000004
 40
0.6250000000000004
 40
0.7500000000000001
 40
0.7500000000000001
 40
0.8749999999999999
 40
0.8749999999999999
 40
0.9375
 40
0.9375
 40
1.0
 40
1.0
 40
1.0
 40
1.0
 10
693.6036884156682
 20
155.4665656030086
 30
0.0
 10
693.6466584436846
 20
155.8742290563548
 30
0.0
 10
693.7553251298897
 20
156.2627615796136
 30
0.0
 10
694.0061049581419
 20
156.8199928276491
 30
0.0
 10
694.1041934950099
 20
157.000089300872
 30
0.0
 10
694.321371467568
 20
157.340900138399
 30
0.0
 10
694.4411188447781
 20
157.5031134746207
 30
0.0
 10
694.7009353535661
 20
157.812626377094
 30
0.0
 10
694.8415948265927
 20
157.9602674761233
 30
0.0
 10
695.1345129739776
 20
158.2348717387455
 30
0.0
 10
695.2875301734662
 20
158.3628502746113
 30
0.0
 10
695.6052186201703
 20
158.6022242400645
 30
0.0
 10
695.7698978436141
 20
158.7136082560282
 30
0.0
 10
696.1100523538565
 20
158.9209900871965
 30
0.0
 10
696.2863399822467
 20
159.0173229314774
 30
0.0
 10
696.8212618550846
 20
159.2798545969752
 30
0.0
 10
697.1876822736208
 20
159.4213669732883
 30
0.0
 10
697.9371118220067
 20
159.6469635912952
 30
0.0
 10
698.3220281910584
 20
159.7311761440625
 30
0.0
 10
699.0991570833032
 20
159.8430867208265
 30
0.0
 10
699.4871296895509
 20
159.8704662633421
 30
0.0
 10
700.0680687411508
 20
159.8715700077053
 30
0.0
 10
700.2615445095081
 20
159.8652329770606
 30
0.0
 10
700.648124619541
 20
159.8391506351242
 30
0.0
 10
700.8429048040717
 20
159.8191720356369
 30
0.0
 10
701.0339969534102
 20
159.7928233592897
 30
0.0
  0
ELLIPSE
  5
C6
330
AE
100
AcDbEntity
  8
H855
  6
Continuous
 62
     7
100
AcDbEllipse
 10
711.3818496266
 20
150.5616589966
 30
0.0
 11
4.163336342344337E-14
 21
4.999999999999977
 31
0.0
210
0.0
220
0.0
230
1.0
 40
0.8998211169
 41
4.712388980384697
 42
5.804460664861199
  0
LINE
  5
C7
330
AE
100
AcDbEntity
  8
H855
  6
Continuous
 62
     7
100
AcDbLine
 10
507.6669393139
 20
421.1825420211
 30
0.0
 11
718.1841066357
 21
421.1825420211
 31
0.0
  0
LINE
  5
C8
330
AE
100
AcDbEntity
  8
H855
  6
Continuous
 62
     7
100
AcDbLine
 10
508.6350246668
 20
421.4331656032
 30
0.0
 11
717.2160212828
 21
421.4331656032
 31
0.0
  0
ARC
  5
C9
330
AE
100
AcDbEntity
  8
H855
  6
Continuous
 62
     7
100
AcDbCircle
 10
612.9255229748
 20
16.594547713
 30
0.0
 40
418.0559945421419
100
AcDbArc
 50
104.5829315162
 51
105.4818879837
  0
ARC
  5
CA
330
AE
100
AcDbEntity
  8
H855
  6
Continuous
 62
     7
100
AcDbCircle
 10
612.9255229748
 20
16.594547713
 30
0.0
 40
418.0559945421417
100
AcDbArc
 50
74.5181120163
 51
75.4170684838
  0
ARC
  5
CB
330
AE
100
AcDbEntity
  8
H855
  6
Continuous
 62
     7
100
AcDbCircle
 10
502.6669393139
 20
414.6627571398
 30
0.0
 40
4.999999999999997
100
AcDbArc
 50
105.4818879837
 51
217.5035292664
  0
ARC
  5
CC
330
AE
100
AcDbEntity
  8
H855
  6
Continuous
 62
     7
100
AcDbCircle
 10
723.1841066357
 20
414.6627571398
 30
0.0
 40
5.000000000000235
100
AcDbArc
 50
322.4964707336
 51
74.5181120163
  0
ARC
  5
CD
330
AE
100
AcDbEntity
  8
H855
  6
Continuous
 62
     7
100
AcDbCircle
 10
463.0328604318
 20
384.2465797875
 30
0.0
 40
44.96002455518166
100
AcDbArc
 50
6.9033468491
 51
37.5035292664
  0
ARC
  5
CE
330
AE
100
AcDbEntity
  8
H855
  6
Continuous
 62
     7
100
AcDbCircle
 10
762.8181855178
 20
384.2465797875
 30
0.0
 40
44.96002455518165
100
AcDbArc
 50
142.4964707336
 51
173.0966531509
  0
LINE
  5
CF
330
AE
100
AcDbEntity
  8
H855
  6
Continuous
 62
     7
100
AcDbLine
 10
507.6669393139
 20
389.6505422551
 30
0.0
 11
522.9255229748
 21
154.6505422551
 31
0.0
  0
LINE
  5
D0
330
AE
100
AcDbEntity
  8
H855
  6
Continuous
 62
     7
100
AcDbLine
 10
703.2645021473
 20
159.8712172073
 30
0.0
 11
718.1841066357
 21
389.6505422551
 31
0.0
  0
ARC
  5
D1
330
AE
100
AcDbEntity
  8
H855
  6
Continuous
 62
     7
100
AcDbCircle
 10
493.5296039915
 20
160.6405294944
 30
0.0
 40
29.99999999999999
100
AcDbArc
 50
287.2238296816
 51
348.4825575827
  0
ARC
  5
D2
330
AE
100
AcDbEntity
  8
H855
  6
Continuous
 62
     7
100
AcDbCircle
 10
732.3214419581
 20
160.6405294944
 30
0.0
 40
30.0
100
AcDbArc
 50
216.9201240826
 51
252.7761703184
  0
ARC
  5
D3
330
AE
100
AcDbEntity
  8
H855
  6
Continuous
 62
     7
100
AcDbCircle
 10
503.923683917
 20
127.1120535818
 30
0.0
 40
5.102643697068755
100
AcDbArc
 50
107.2238296816
 51
164.2189927236
  0
ARC
  5
D4
330
AE
100
AcDbEntity
  8
H855
  6
Continuous
 62
     7
100
AcDbCircle
 10
721.9273620327
 20
127.1120535818
 30
0.0
 40
5.102643697068756
100
AcDbArc
 50
15.7810072764
 51
72.7761703184
  0
LINE
  5
D5
330
AE
100
AcDbEntity
  8
H855
  6
Continuous
 62
     7
100
AcDbLine
 10
727.9255229748
 20
124.6505422551
 30
0.0
 11
726.8376778919
 21
128.4997750456
 31
0.0
  0
LINE
  5
D6
330
AE
100
AcDbEntity
  8
H855
  6
Continuous
 62
     7
100
AcDbLine
 10
499.0133680577
 20
128.4997750456
 30
0.0
 11
497.9255229748
 21
124.6505422551
 31
0.0
  0
LINE
  5
D7
330
AE
100
AcDbEntity
  8
H855
  6
Continuous
 62
     7
100
AcDbLine
 10
727.3431892232
 20
141.1283339741
 30
0.0
 11
727.3431892232
 21
150.5616589966
 31
0.0
  0
ARC
  5
D8
330
AE
100
AcDbEntity
  8
H855
  6
Continuous
 62
     7
100
AcDbCircle
 10
701.8219304249
 20
111.020967546
 30
0.0
 40
49.54871875893883
100
AcDbArc
 50
62.5710984462
 51
79.8407255895
  0
ARC
  5
D9
330
AE
100
AcDbEntity
  8
H855
  6
Continuous
 62
     7
100
AcDbCircle
 10
709.6796621398
 20
154.8712172073
 30
0.0
 40
4.999999999999844
100
AcDbArc
 50
79.8407255895
 51
90.0
  0
LINE
  5
DA
330
AE
100
AcDbEntity
  8
H855
  6
Continuous
 62
     7
100
AcDbLine
 10
709.6796621398
 20
159.8712172073
 30
0.0
 11
699.8664426507
 21
159.8712172073
 31
0.0
  0
ARC
  5
DB
330
AE
100
AcDbEntity
  8
H855
  6
Continuous
 62
     7
100
AcDbCircle
 10
722.3431892232
 20
150.5616589966
 30
0.0
 40
5.000000000000004
100
AcDbArc
 50
0.0
 51
62.5710984462
  0
ARC
  5
DC
330
AE
100
AcDbEntity
  8
H855
  6
Continuous
 62
     7
100
AcDbCircle
 10
612.9255229748
 20
16.594547713
 30
0.0
 40
418.055994542142
100
AcDbArc
 50
75.554121498
 51
104.445878502
  0
LINE
  5
DD
330
AE
100
AcDbEntity
  8
H855
  6
Continuous
 62
     7
100
AcDbLine
 10
508.6350246668
 20
421.4331656032
 30
0.0
 11
508.7002274994
 21
421.1825420211
 31
0.0
  0
LINE
  5
DE
330
AE
100
AcDbEntity
  8
H855
  6
Continuous
 62
     7
100
AcDbLine
 10
717.1508184502
 20
421.1825420211
 30
0.0
 11
717.2160212828
 21
421.4331656032
 31
0.0
  0
ENDBLK
  5
E0
330
AE
100
AcDbEntity
  8
0
100
AcDbBlockEnd
  0
BLOCK
  5
113
330
E1
100
AcDbEntity
  8
0
100
AcDbBlockBegin
  2
SE2
 70
     0
 10
0.0
 20
0.0
 30
0.0
  3
SE2
  1
SE2
  0
LINE
  5
E3
330
E1
100
AcDbEntity
  8
H855
  6
Continuous
 62
     7
100
AcDbLine
 10
80.6969215427
 20
419.4813315545
 30
0.0
 11
-142.4895832326
 21
419.4813315545
 31
0.0
  0
LINE
  5
E4
330
E1
100
AcDbEntity
  8
H855
  6
Continuous
 62
     7
100
AcDbLine
 10
83.3288320196
 20
411.6187056583
 30
0.0
 11
-145.1214937095
 21
411.6187056583
 31
0.0
  0
LINE
  5
E5
330
E1
100
AcDbEntity
  8
H855
  6
Continuous
 62
     7
100
AcDbLine
 10
74.362252816
 20
389.6505422551
 30
0.0
 11
-136.1549145059
 21
389.6505422551
 31
0.0
  0
LINE
  5
E6
330
E1
100
AcDbEntity
  8
H855
  6
Continuous
 62
     7
100
AcDbLine
 10
59.1036691551
 20
154.6505422551
 30
0.0
 11
-111.5213836425
 21
154.6505422551
 31
0.0
  0
LINE
  5
E7
330
E1
100
AcDbEntity
  8
H855
  6
Continuous
 62
     7
100
AcDbLine
 10
79.616428213
 20
131.9858707154
 30
0.0
 11
-141.4090899029
 21
131.9858707154
 31
0.0
  0
LINE
  5
E8
330
E1
100
AcDbEntity
  8
H855
  6
Continuous
 62
     7
100
AcDbLine
 10
83.0158240722
 20
128.4997750456
 30
0.0
 11
-144.8084857621
 21
128.4997750456
 31
0.0
  0
LINE
  5
E9
330
E1
100
AcDbEntity
  8
H855
  6
Continuous
 62
     7
100
AcDbLine
 10
84.1036691551
 20
124.6505422551
 30
0.0
 11
-145.8963308449
 21
124.6505422551
 31
0.0
  0
ELLIPSE
  5
EA
330
E1
100
AcDbEntity
  8
H855
  6
Continuous
 62
     7
100
AcDbEllipse
 10
-137.7169144735
 20
181.3941737896
 30
0.0
 11
-4.551914400963142E-12
 21
-40.88961596268118
 31
0.0
210
0.0
220
0.0
230
1.0
 40
0.8789456437
 41
0.3037285645778907
 42
0.8193933050122154
  0
LINE
  5
EB
330
E1
100
AcDbEntity
  8
H855
  6
Continuous
 62
     7
100
AcDbLine
 10
-145.3139970934
 20
141.1283339741
 30
0.0
 11
-133.8517630812
 21
141.1283339741
 31
0.0
  0
LINE
  5
EC
330
E1
100
AcDbEntity
  8
H855
  6
Continuous
 62
     7
100
AcDbLine
 10
-133.8517630812
 20
150.5616589966
 30
0.0
 11
-145.3139970934
 21
150.5616589966
 31
0.0
  0
LINE
  5
ED
330
E1
100
AcDbEntity
  8
H855
  6
Continuous
 62
     7
100
AcDbLine
 10
-133.8517630812
 20
141.1283339741
 30
0.0
 11
-133.8517630812
 21
150.5616589966
 31
0.0
  0
LINE
  5
EE
330
E1
100
AcDbEntity
  8
H855
  6
Continuous
 62
     7
100
AcDbLine
 10
-111.5524664817
 20
155.1951857285
 30
0.0
 11
-111.4545965743
 21
153.4802778386
 31
0.0
  0
ELLIPSE
  5
EF
330
E1
100
AcDbEntity
  8
H855
  6
Continuous
 62
     7
100
AcDbEllipse
 10
-115.9379599697
 20
154.8712172074
 30
0.0
 11
-2.600974990940585E-10
 21
4.99999999953394
 31
0.0
210
0.0
220
0.0
230
1.0
 40
0.8789456436
 41
4.77722810684935
 42
4.831741823265839
  0
ARC
  5
F0
330
E1
100
AcDbEntity
  8
H855
  6
Continuous
 62
     7
100
AcDbCircle
 10
-108.6892438923
 20
119.8034914484
 30
0.0
 40
35.77959669326948
100
AcDbArc
 50
94.6253309448
 51
120.7219487359
  0
LINE
  5
F1
330
E1
100
AcDbEntity
  8
H855
  6
Continuous
 62
     7
100
AcDbLine
 10
-126.9680476991
 20
150.5616589966
 30
0.0
 11
-126.9680476991
 21
142.3761579472
 31
0.0
  0
ARC
  5
F2
330
E1
100
AcDbEntity
  8
H855
  6
Continuous
 62
     7
100
AcDbCircle
 10
-134.7468607012
 20
165.6773881507
 30
0.0
 40
24.56536709920526
100
AcDbArc
 50
272.0881703455
 51
288.4609175493
  0
LINE
  5
F3
330
E1
100
AcDbEntity
  8
H855
  6
Continuous
 62
     7
100
AcDbLine
 10
-142.6172349159
 20
154.999574671
 30
0.0
 11
-131.4251595267
 21
154.999574671
 31
0.0
  0
LINE
  5
F4
330
E1
100
AcDbEntity
  8
H855
  6
Continuous
 62
     7
100
AcDbLine
 10
-128.5323956785
 20
159.7928233593
 30
0.0
 11
-119.0048048235
 21
159.7928233593
 31
0.0
  0
ARC
  5
F5
330
E1
100
AcDbEntity
  8
H855
  6
Continuous
 62
     7
100
AcDbCircle
 10
-110.9394246063
 20
120.4051100646
 30
0.0
 40
40.20500362688499
100
AcDbArc
 50
101.5724206896
 51
120.6326598895
  0
SPLINE
  5
F6
330
E1
100
AcDbEntity
  8
H855
  6
Continuous
 62
     7
100
AcDbSpline
210
0.0
220
0.0
230
1.0
 70
     8
 71
     3
 72
    30
 73
    26
 74
     0
 42
0.000000001
 43
0.0000000001
 40
0.0
 40
0.0
 40
0.0
 40
0.0
 40
0.1249999999999979
 40
0.1249999999999979
 40
0.1874999999999978
 40
0.1874999999999978
 40
0.2499999999999977
 40
0.2499999999999977
 40
0.3124999999999976
 40
0.3124999999999976
 40
0.3749999999999974
 40
0.3749999999999974
 40
0.4374999999999973
 40
0.4374999999999973
 40
0.4999999999999972
 40
0.4999999999999972
 40
0.6249999999999979
 40
0.6249999999999979
 40
0.7499999999999986
 40
0.7499999999999986
 40
0.8749999999999992
 40
0.8749999999999992
 40
0.9374999999999996
 40
0.9374999999999996
 40
1.0
 40
1.0
 40
1.0
 40
1.0
 10
-111.5744962858039
 20
155.4665656030086
 30
0.0
 10
-111.6174663138202
 20
155.8742290563548
 30
0.0
 10
-111.7261330000254
 20
156.2627615796136
 30
0.0
 10
-111.9769128282777
 20
156.8199928276491
 30
0.0
 10
-112.0750013651455
 20
157.000089300872
 30
0.0
 10
-112.2921793377038
 20
157.340900138399
 30
0.0
 10
-112.4119267149138
 20
157.5031134746207
 30
0.0
 10
-112.6717432237019
 20
157.812626377094
 30
0.0
 10
-112.8124026967285
 20
157.9602674761233
 30
0.0
 10
-113.1053208441133
 20
158.2348717387455
 30
0.0
 10
-113.2583380436019
 20
158.3628502746113
 30
0.0
 10
-113.576026490306
 20
158.6022242400645
 30
0.0
 10
-113.7407057137498
 20
158.7136082560282
 30
0.0
 10
-114.0808602239922
 20
158.9209900871965
 30
0.0
 10
-114.2571478523824
 20
159.0173229314774
 30
0.0
 10
-114.7920697252203
 20
159.2798545969752
 30
0.0
 10
-115.1584901437566
 20
159.4213669732883
 30
0.0
 10
-115.9079196921424
 20
159.6469635912953
 30
0.0
 10
-116.2928360611942
 20
159.7311761440625
 30
0.0
 10
-117.0699649534391
 20
159.8430867208265
 30
0.0
 10
-117.4579375596866
 20
159.8704662633421
 30
0.0
 10
-118.0388766112866
 20
159.8715700077053
 30
0.0
 10
-118.2323523796438
 20
159.8652329770606
 30
0.0
 10
-118.6189324896769
 20
159.8391506351242
 30
0.0
 10
-118.8137126742052
 20
159.8191720356379
 30
0.0
 10
-119.0048048235459
 20
159.7928233592897
 30
0.0
  0
ELLIPSE
  5
F7
330
E1
100
AcDbEntity
  8
H855
  6
Continuous
 62
     7
100
AcDbEllipse
 10
-129.3526574967
 20
150.5616589966
 30
0.0
 11
-2.914335439641036E-13
 21
5.000000000000025
 31
0.0
210
0.0
220
0.0
230
1.0
 40
0.8998211169
 41
0.4787246423183369
 42
1.570796326794838
  0
ELLIPSE
  5
F8
330
E1
100
AcDbEntity
  8
H855
  6
Continuous
 62
     7
100
AcDbEllipse
 10
-129.3526574967
 20
150.5616589966
 30
0.0
 11
2.540274749353047
 21
-4.306623294159751
 31
0.0
210
0.0
220
0.0
230
1.0
 40
0.4234017032
 41
1.326057892086308
 42
2.91790573670208
  0
LINE
  5
F9
330
E1
100
AcDbEntity
  8
H855
  6
Continuous
 62
     7
100
AcDbLine
 10
-126.9680476991
 20
150.5616589966
 30
0.0
 11
-133.8517630812
 21
150.5616589966
 31
0.0
  0
LINE
  5
FA
330
E1
100
AcDbEntity
  8
H855
  6
Continuous
 62
     7
100
AcDbLine
 10
74.362252816
 20
421.1825420211
 30
0.0
 11
-136.1549145059
 21
421.1825420211
 31
0.0
  0
LINE
  5
FB
330
E1
100
AcDbEntity
  8
H855
  6
Continuous
 62
     7
100
AcDbLine
 10
73.3941674631
 20
421.4331656032
 30
0.0
 11
-135.186829153
 21
421.4331656032
 31
0.0
  0
ARC
  5
FC
330
E1
100
AcDbEntity
  8
H855
  6
Continuous
 62
     7
100
AcDbCircle
 10
-30.8963308449
 20
16.594547713
 30
0.0
 40
418.0559945421417
100
AcDbArc
 50
74.5181120163
 51
75.4170684838
  0
ARC
  5
FD
330
E1
100
AcDbEntity
  8
H855
  6
Continuous
 62
     7
100
AcDbCircle
 10
-30.8963308449
 20
16.594547713
 30
0.0
 40
418.0559945421419
100
AcDbArc
 50
104.5829315162
 51
105.4818879837
  0
ARC
  5
FE
330
E1
100
AcDbEntity
  8
H855
  6
Continuous
 62
     7
100
AcDbCircle
 10
-141.1549145059
 20
414.6627571398
 30
0.0
 40
4.999999999999997
100
AcDbArc
 50
105.4818879837
 51
217.5035292664
  0
ARC
  5
FF
330
E1
100
AcDbEntity
  8
H855
  6
Continuous
 62
     7
100
AcDbCircle
 10
79.362252816
 20
414.6627571398
 30
0.0
 40
5.000000000000235
100
AcDbArc
 50
322.4964707336
 51
74.5181120163
  0
ARC
  5
100
330
E1
100
AcDbEntity
  8
H855
  6
Continuous
 62
     7
100
AcDbCircle
 10
-180.788993388
 20
384.2465797875
 30
0.0
 40
44.96002455518166
100
AcDbArc
 50
6.9033468491
 51
37.5035292664
  0
ARC
  5
101
330
E1
100
AcDbEntity
  8
H855
  6
Continuous
 62
     7
100
AcDbCircle
 10
118.9963316981
 20
384.2465797875
 30
0.0
 40
44.96002455518165
100
AcDbArc
 50
142.4964707336
 51
173.0966531509
  0
LINE
  5
102
330
E1
100
AcDbEntity
  8
H855
  6
Continuous
 62
     7
100
AcDbLine
 10
-136.1549145059
 20
389.6505422551
 30
0.0
 11
-121.2353100174
 21
159.8712172073
 31
0.0
  0
LINE
  5
103
330
E1
100
AcDbEntity
  8
H855
  6
Continuous
 62
     7
100
AcDbLine
 10
59.1036691551
 20
154.6505422551
 30
0.0
 11
74.362252816
 21
389.6505422551
 31
0.0
  0
ARC
  5
104
330
E1
100
AcDbEntity
  8
H855
  6
Continuous
 62
     7
100
AcDbCircle
 10
-150.2922498282
 20
160.6405294944
 30
0.0
 40
29.99999999999999
100
AcDbArc
 50
287.2238296816
 51
323.0798759174
  0
ARC
  5
105
330
E1
100
AcDbEntity
  8
H855
  6
Continuous
 62
     7
100
AcDbCircle
 10
88.4995881384
 20
160.6405294944
 30
0.0
 40
30.0
100
AcDbArc
 50
191.5174424173
 51
252.7761703184
  0
ARC
  5
106
330
E1
100
AcDbEntity
  8
H855
  6
Continuous
 62
     7
100
AcDbCircle
 10
-139.8981699028
 20
127.1120535818
 30
0.0
 40
5.102643697068755
100
AcDbArc
 50
107.2238296816
 51
164.2189927236
  0
ARC
  5
107
330
E1
100
AcDbEntity
  8
H855
  6
Continuous
 62
     7
100
AcDbCircle
 10
78.1055082129
 20
127.1120535818
 30
0.0
 40
5.102643697068756
100
AcDbArc
 50
15.7810072764
 51
72.7761703184
  0
LINE
  5
108
330
E1
100
AcDbEntity
  8
H855
  6
Continuous
 62
     7
100
AcDbLine
 10
84.1036691551
 20
124.6505422551
 30
0.0
 11
83.0158240722
 21
128.4997750456
 31
0.0
  0
LINE
  5
109
330
E1
100
AcDbEntity
  8
H855
  6
Continuous
 62
     7
100
AcDbLine
 10
-144.8084857621
 20
128.4997750456
 30
0.0
 11
-145.8963308449
 21
124.6505422551
 31
0.0
  0
LINE
  5
10A
330
E1
100
AcDbEntity
  8
H855
  6
Continuous
 62
     7
100
AcDbLine
 10
-145.3139970934
 20
150.5616589966
 30
0.0
 11
-145.3139970934
 21
141.1283339741
 31
0.0
  0
ARC
  5
10B
330
E1
100
AcDbEntity
  8
H855
  6
Continuous
 62
     7
100
AcDbCircle
 10
-119.7927382951
 20
111.020967546
 30
0.0
 40
49.54871875893857
100
AcDbArc
 50
100.1592744105
 51
117.4289015538
  0
ARC
  5
10C
330
E1
100
AcDbEntity
  8
H855
  6
Continuous
 62
     7
100
AcDbCircle
 10
-127.6504700099
 20
154.8712172073
 30
0.0
 40
5.000000000000001
100
AcDbArc
 50
90.0
 51
100.1592744105
  0
LINE
  5
10D
330
E1
100
AcDbEntity
  8
H855
  6
Continuous
 62
     7
100
AcDbLine
 10
-117.8352534137
 20
159.8712172073
 30
0.0
 11
-127.6504700099
 21
159.8712172073
 31
0.0
  0
ARC
  5
10E
330
E1
100
AcDbEntity
  8
H855
  6
Continuous
 62
     7
100
AcDbCircle
 10
-140.3139970934
 20
150.5616589966
 30
0.0
 40
5.000000000000098
100
AcDbArc
 50
117.4289015538
 51
180.0
  0
ARC
  5
10F
330
E1
100
AcDbEntity
  8
H855
  6
Continuous
 62
     7
100
AcDbCircle
 10
-30.8963308449
 20
16.594547713
 30
0.0
 40
418.055994542142
100
AcDbArc
 50
75.554121498
 51
90.0
  0
ARC
  5
110
330
E1
100
AcDbEntity
  8
H855
  6
Continuous
 62
     7
100
AcDbCircle
 10
-30.8963308449
 20
16.594547713
 30
0.0
 40
418.0559945421419
100
AcDbArc
 50
90.0
 51
104.445878502
  0
LINE
  5
111
330
E1
100
AcDbEntity
  8
H855
  6
Continuous
 62
     7
100
AcDbLine
 10
-135.186829153
 20
421.4331656032
 30
0.0
 11
-135.1216263203
 21
421.1825420211
 31
0.0
  0
LINE
  5
112
330
E1
100
AcDbEntity
  8
H855
  6
Continuous
 62
     7
100
AcDbLine
 10
73.3289646304
 20
421.1825420211
 30
0.0
 11
73.3941674631
 21
421.4331656032
 31
0.0
  0
ENDBLK
  5
114
330
E1
100
AcDbEntity
  8
0
100
AcDbBlockEnd
  0
BLOCK
  5
11C
330
115
100
AcDbEntity
  8
0
100
AcDbBlockBegin
  2
SE3
 70
     0
 10
0.0
 20
0.0
 30
0.0
  3
SE3
  1
SE3
  0
CIRCLE
  5
117
330
115
100
AcDbEntity
  8
H855
  6
Continuous
 62
     7
100
AcDbCircle
 10
286.6638912648
 20
-157.1830089173
 30
0.0
 40
111.593252387668
  0
CIRCLE
  5
118
330
115
100
AcDbEntity
  8
H855
  6
Continuous
 62
     7
100
AcDbCircle
 10
286.6638912648
 20
-157.1830089173
 30
0.0
 40
105.2585836609357
  0
CIRCLE
  5
119
330
115
100
AcDbEntity
  8
H855
  6
Continuous
 62
     7
100
AcDbCircle
 10
286.6638912648
 20
-157.1830089173
 30
0.0
 40
104.2904983080055
  0
CIRCLE
  5
11A
330
115
100
AcDbEntity
  8
H855
  6
Continuous
 62
     7
100
AcDbCircle
 10
286.6638912648
 20
-157.1830089173
 30
0.0
 40
105.1169549200237
  0
CIRCLE
  5
11B
330
115
100
AcDbEntity
  8
H855
  6
Continuous
 62
     7
100
AcDbCircle
 10
286.6638912648
 20
-157.1830089173
 30
0.0
 40
115.2585836609357
  0
ENDBLK
  5
11D
330
115
100
AcDbEntity
  8
0
100
AcDbBlockEnd
  0
BLOCK
  5
159
330
11E
100
AcDbEntity
  8
0
100
AcDbBlockBegin
  2
SE4
 70
     0
 10
0.0
 20
0.0
 30
0.0
  3
SE4
  1
SE4
  0
ELLIPSE
  5
120
330
11E
100
AcDbEntity
  8
H855
  6
Continuous
 62
     7
100
AcDbEllipse
 10
613.8400716167
 20
-41.6161137417
 30
0.0
 11
111.593252387668
 21
-1.387778780781446E-14
 31
0.0
210
0.0
220
0.0
230
1.0
 40
0.5773502692
 41
0.0
 42
6.283185307179586
  0
ELLIPSE
  5
121
330
11E
100
AcDbEntity
  8
H855
  6
Continuous
 62
     7
100
AcDbEllipse
 10
613.8400716167
 20
-48.035920903
 30
0.0
 11
114.2251628645054
 21
-2.266233259184198E-14
 31
0.0
210
0.0
220
0.0
230
1.0
 40
0.5773502692
 41
3.649007477857143
 42
3.824384678026905
  0
ELLIPSE
  5
122
330
11E
100
AcDbEntity
  8
H855
  6
Continuous
 62
     7
100
AcDbEllipse
 10
613.8400716167
 20
-48.035920903
 30
0.0
 11
114.2251628645054
 21
-2.266233259184198E-14
 31
0.0
210
0.0
220
0.0
230
1.0
 40
0.5773502692
 41
3.824384678026906
 42
5.613275506651764
  0
ELLIPSE
  5
123
330
11E
100
AcDbEntity
  8
H855
  6
Continuous
 62
     7
100
AcDbEllipse
 10
613.8400716167
 20
-48.035920903
 30
0.0
 11
114.2251628645054
 21
-2.266233259184198E-14
 31
0.0
210
0.0
220
0.0
230
1.0
 40
0.5773502692
 41
-0.6699098005278223
 42
-0.5199691824008257
  0
ELLIPSE
  5
124
330
11E
100
AcDbEntity
  8
H855
  6
Continuous
 62
     7
100
AcDbEllipse
 10
613.8400716167
 20
-65.972851211
 30
0.0
 11
105.2585836609359
 21
3.654012039965643E-14
 31
0.0
210
0.0
220
0.0
230
1.0
 40
0.5773502692
 41
3.298052847237026
 42
6.126049011085261
  0
ELLIPSE
  5
125
330
11E
100
AcDbEntity
  8
H855
  6
Continuous
 62
     7
100
AcDbEllipse
 10
613.8400716167
 20
-257.849547729
 30
0.0
 11
89.99999999999997
 21
3.654012039965643E-14
 31
0.0
210
0.0
220
0.0
230
1.0
 40
0.5773502692
 41
3.187521343811628
 42
5.008716994423863
  0
ELLIPSE
  5
126
330
11E
100
AcDbEntity
  8
H855
  6
Continuous
 62
     7
100
AcDbEllipse
 10
613.8400716167
 20
-257.849547729
 30
0.0
 11
89.99999999999997
 21
3.654012039965643E-14
 31
0.0
210
0.0
220
0.0
230
1.0
 40
0.5773502692
 41
5.638325791188345
 42
6.237256616957752
  0
ELLIPSE
  5
127
330
11E
100
AcDbEntity
  8
H855
  6
Continuous
 62
     7
100
AcDbEllipse
 10
613.8400716167
 20
-276.355174549
 30
0.0
 11
110.5127590579535
 21
4.392272392013759E-15
 31
0.0
210
0.0
220
0.0
230
1.0
 40
0.5773502692
 41
0.0
 42
0.5957881120070609
  0
ELLIPSE
  5
128
330
11E
100
AcDbEntity
  8
H855
  6
Continuous
 62
     7
100
AcDbEllipse
 10
613.8400716167
 20
-276.355174549
 30
0.0
 11
110.5127590579535
 21
4.392272392013759E-15
 31
0.0
210
0.0
220
0.0
230
1.0
 40
0.5773502692
 41
2.545804541582734
 42
6.031686094542374
  0
ELLIPSE
  5
129
330
11E
100
AcDbEntity
  8
H855
  6
Continuous
 62
     7
100
AcDbEllipse
 10
613.8400716167
 20
-276.355174549
 30
0.0
 11
110.5127590579535
 21
4.392272392013759E-15
 31
0.0
210
0.0
220
0.0
230
1.0
 40
0.5773502692
 41
6.086058065093252
 42
6.283185307179586
  0
ELLIPSE
  5
12A
330
11E
100
AcDbEntity
  8
H855
  6
Continuous
 62
     7
100
AcDbEllipse
 10
613.8400716167
 20
-279.2015597442
 30
0.0
 11
113.9121549171368
 21
5.665583147960494E-15
 31
0.0
210
0.0
220
0.0
230
1.0
 40
0.5773502692
 41
0.0
 42
0.2011924909067082
  0
ELLIPSE
  5
12B
330
11E
100
AcDbEntity
  8
H855
  6
Continuous
 62
     7
100
AcDbEllipse
 10
613.8400716167
 20
-279.2015597442
 30
0.0
 11
113.9121549171368
 21
5.665583147960494E-15
 31
0.0
210
0.0
220
0.0
230
1.0
 40
0.5773502692
 41
0.201192490906708
 42
0.2027710061721303
  0
ELLIPSE
  5
12C
330
11E
100
AcDbEntity
  8
H855
  6
Continuous
 62
     7
100
AcDbEllipse
 10
613.8400716167
 20
-279.2015597442
 30
0.0
 11
113.9121549171368
 21
5.665583147960494E-15
 31
0.0
210
0.0
220
0.0
230
1.0
 40
0.5773502692
 41
2.940572380726223
 42
6.283185307179586
  0
ELLIPSE
  5
12D
330
11E
100
AcDbEntity
  8
H855
  6
Continuous
 62
     7
100
AcDbEllipse
 10
613.8400716167
 20
-282.3444451569
 30
0.0
 11
114.9999999999999
 21
2.520895410373545E-14
 31
0.0
210
0.0
220
0.0
230
1.0
 40
0.5773502692
 41
0.0
 42
0.2011924909067149
  0
ELLIPSE
  5
12E
330
11E
100
AcDbEntity
  8
H855
  6
Continuous
 62
     7
100
AcDbEllipse
 10
613.8400716167
 20
-282.3444451569
 30
0.0
 11
114.9999999999999
 21
2.520895410373545E-14
 31
0.0
210
0.0
220
0.0
230
1.0
 40
0.5773502692
 41
2.940400162683091
 42
6.283185307179586
  0
ELLIPSE
  5
12F
330
11E
100
AcDbEntity
  8
H855
  6
Continuous
 62
     7
100
AcDbEllipse
 10
648.3886013301
 20
-303.2855023948
 30
0.0
 11
6.899452621776287
 21
-40.30332799032423
 31
0.0
210
0.0
220
0.0
230
1.0
 40
0.2321084823
 41
4.828316250491699
 42
5.343980990926005
  0
ELLIPSE
  5
130
330
11E
100
AcDbEntity
  8
H855
  6
Continuous
 62
     7
100
AcDbEllipse
 10
613.8400716167
 20
-268.8903845571
 30
0.0
 11
114.4176662484316
 21
-3.214784800764268E-14
 31
0.0
210
0.0
220
0.0
230
1.0
 40
0.5773502692
 41
5.046350119709222
 42
5.949224167855055
  0
ELLIPSE
  5
131
330
11E
100
AcDbEntity
  8
H855
  6
Continuous
 62
     7
100
AcDbEllipse
 10
613.8400716167
 20
-261.1881069294
 30
0.0
 11
114.4176662484324
 21
-5.265841536513516E-13
 31
0.0
210
0.0
220
0.0
230
1.0
 40
0.5773502692
 41
5.046350119709228
 42
5.949224167855061
  0
LINE
  5
132
330
11E
100
AcDbEntity
  8
H855
  6
Continuous
 62
     7
100
AcDbLine
 10
651.3447960892
 20
-323.5975025681
 30
0.0
 11
651.3447960892
 21
-331.2997801958
 31
0.0
  0
LINE
  5
133
330
11E
100
AcDbEntity
  8
H855
  6
Continuous
 62
     7
100
AcDbLine
 10
721.9363157326
 20
-290.5437473272
 30
0.0
 11
721.9363157326
 21
-282.8414696995
 31
0.0
  0
SPLINE
  5
134
330
11E
100
AcDbEntity
  8
H855
  6
Continuous
 62
     7
100
AcDbSpline
210
0.0
220
0.0
230
1.0
 70
     8
 71
     3
 72
    24
 73
    20
 74
     0
 42
0.000000001
 43
0.0000000001
 40
0.0
 40
0.0
 40
0.0
 40
0.0
 40
0.1250000000000032
 40
0.1250000000000032
 40
0.2500000000000064
 40
0.2500000000000064
 40
0.3750000000000095
 40
0.3750000000000095
 40
0.4375000000000106
 40
0.4375000000000106
 40
0.5000000000000117
 40
0.5000000000000117
 40
0.6250000000000088
 40
0.6250000000000088
 40
0.7500000000000058
 40
0.7500000000000058
 40
0.8750000000000029
 40
0.8750000000000029
 40
1.0
 40
1.0
 40
1.0
 40
1.0
 10
651.3447960892495
 20
-331.2997801958452
 30
0.0
 10
651.0185391930376
 20
-331.3651345380585
 30
0.0
 10
650.686461573405
 20
-331.4051777454669
 30
0.0
 10
650.0111645517613
 20
-331.4363116357654
 30
0.0
 10
649.6639016788041
 20
-331.4267489562075
 30
0.0
 10
648.9839860201762
 20
-331.3568302519043
 30
0.0
 10
648.6502566358696
 20
-331.2971909655462
 30
0.0
 10
648.159137180501
 20
-331.1693872599807
 30
0.0
 10
647.9963703752193
 20
-331.1200519343874
 30
0.0
 10
647.6811363053883
 20
-331.0102944826794
 30
0.0
 10
647.5278918113577
 20
-330.9497273347571
 30
0.0
 10
647.080981974038
 20
-330.7510369855375
 30
0.0
 10
646.7982025842708
 20
-330.5948269096544
 30
0.0
 10
646.2761969086766
 20
-330.239440269966
 30
0.0
 10
646.0414013059843
 20
-330.043798547171
 30
0.0
 10
645.6219906478991
 20
-329.6167396842759
 30
0.0
 10
645.4364884820528
 20
-329.3830893408128
 30
0.0
 10
645.1293412287648
 20
-328.895785958034
 30
0.0
 10
645.0057402509077
 20
-328.6408168944286
 30
0.0
 10
644.9121407966487
 20
-328.374301379332
 30
0.0
  0
SPLINE
  5
135
330
11E
100
AcDbEntity
  8
H855
  6
Continuous
 62
     7
100
AcDbSpline
210
0.0
220
0.0
230
1.0
 70
     8
 71
     3
 72
    10
 73
     6
 74
     0
 42
0.000000001
 43
0.0000000001
 40
0.7977448372070048
 40
0.7977448372070048
 40
0.7977448372070048
 40
0.7977448372070048
 40
0.8749999999999958
 40
0.8749999999999958
 40
1.0
 40
1.0
 40
1.0
 40
1.0
 10
722.2125038823266
 20
-289.5610188331781
 30
0.0
 10
722.2123190647856
 20
-289.6929129593717
 30
0.0
 10
722.1987946107887
 20
-289.8234144228036
 30
0.0
 10
722.1278313921785
 20
-290.1578220510638
 30
0.0
 10
722.0495467471571
 20
-290.3553262873911
 30
0.0
 10
721.936315732631
 20
-290.5437473272341
 30
0.0
  0
ARC
  5
136
330
11E
100
AcDbEntity
  8
H855
  6
Continuous
 62
     7
100
AcDbCircle
 10
537.5130056276
 20
-351.1597515465
 30
0.0
 40
117.5741222150688
100
AcDbArc
 50
16.1262348763
 51
22.1685958872
  0
ELLIPSE
  5
137
330
11E
100
AcDbEntity
  8
H855
  6
Continuous
 62
     7
100
AcDbEllipse
 10
613.8400716167
 20
-257.5645639548
 30
0.0
 11
111.7209040709793
 21
-6.343588639702006E-13
 31
0.0
210
0.0
220
0.0
230
1.0
 40
0.5773502692
 41
5.04635011970923
 42
5.949224167855056
  0
ELLIPSE
  5
138
330
11E
100
AcDbEntity
  8
H855
  6
Continuous
 62
     7
100
AcDbEllipse
 10
613.8400716167
 20
-253.6508927893
 30
0.0
 11
97.63606483354501
 21
-2.018934876381705E-13
 31
0.0
210
0.0
220
0.0
230
1.0
 40
0.5773502692
 41
5.052338145756282
 42
5.943236141808001
  0
ARC
  5
139
330
11E
100
AcDbEntity
  8
H855
  6
Continuous
 62
     7
100
AcDbCircle
 10
686.182618677
 20
-332.6248134644
 30
0.0
 40
63.3222148275873
100
AcDbArc
 50
58.3723969391
 51
71.8683509796
  0
LINE
  5
13A
330
11E
100
AcDbEntity
  8
H855
  6
Continuous
 62
     7
100
AcDbLine
 10
639.9263445424
 20
-308.1993904777
 30
0.0
 11
639.894690892
 21
-309.5379717052
 31
0.0
  0
ARC
  5
13B
330
11E
100
AcDbEntity
  8
H855
  6
Continuous
 62
     7
100
AcDbCircle
 10
548.6650221543
 20
-348.9155069534
 30
0.0
 40
100.0234413835101
100
AcDbArc
 50
15.7941849586
 51
24.1509685167
  0
LINE
  5
13C
330
11E
100
AcDbEntity
  8
H855
  6
Continuous
 62
     7
100
AcDbLine
 10
644.9121407966
 20
-328.3743013793
 30
0.0
 11
644.9121407966
 21
-321.6908677593
 31
0.0
  0
ELLIPSE
  5
13D
330
11E
100
AcDbEntity
  8
H855
  6
Continuous
 62
     7
100
AcDbEllipse
 10
641.3447261578
 20
-311.2257470958
 30
0.0
 11
-0.8436680622310847
 21
4.928308449031288
 31
0.0
210
0.0
220
0.0
230
1.0
 40
0.2321084822
 41
0.8159677324210639
 42
0.8704814488566742
  0
ELLIPSE
  5
13E
330
11E
100
AcDbEntity
  8
H855
  6
Continuous
 62
     7
100
AcDbEllipse
 10
649.7058566797
 20
-320.8702403504
 30
0.0
 11
-5.000000000000007
 21
-1.393325150988620E-14
 31
0.0
210
0.0
220
0.0
230
1.0
 40
0.5773502692
 41
0.2882487608083109
 42
1.904757466119434
  0
ELLIPSE
  5
13F
330
11E
100
AcDbEntity
  8
H855
  6
Continuous
 62
     7
100
AcDbEllipse
 10
649.7058566797
 20
-320.8702403504
 30
0.0
 11
4.800842824579233
 21
1.397107073092917
 31
0.0
210
0.0
220
0.0
230
1.0
 40
0.4292273554
 41
1.289843069352282
 42
2.881690913968121
  0
SPLINE
  5
140
330
11E
100
AcDbEntity
  8
H855
  6
Continuous
 62
     7
100
AcDbSpline
210
0.0
220
0.0
230
1.0
 70
     8
 71
     3
 72
    30
 73
    26
 74
     0
 42
0.000000001
 43
0.0000000001
 40
0.0
 40
0.0
 40
0.0
 40
0.0
 40
0.1249999999999984
 40
0.1249999999999984
 40
0.1874999999999985
 40
0.1874999999999985
 40
0.2499999999999986
 40
0.2499999999999986
 40
0.3124999999999987
 40
0.3124999999999987
 40
0.3749999999999988
 40
0.3749999999999988
 40
0.437499999999999
 40
0.437499999999999
 40
0.4999999999999991
 40
0.4999999999999991
 40
0.6249999999999993
 40
0.6249999999999993
 40
0.7499999999999996
 40
0.7499999999999996
 40
0.8749999999999999
 40
0.8749999999999999
 40
0.9374999999999999
 40
0.9374999999999999
 40
1.0
 40
1.0
 40
1.0
 40
1.0
 10
639.9334695487435
 20
-307.9916833733571
 30
0.0
 10
639.9473671632226
 20
-307.6858886470279
 30
0.0
 10
640.0223908359956
 20
-307.414064210284
 30
0.0
 10
640.215535429491
 20
-307.0523355907635
 30
0.0
 10
640.2933215252015
 20
-306.9404665678229
 30
0.0
 10
640.4688868739192
 20
-306.7381580549431
 30
0.0
 10
640.5671716284639
 20
-306.6467400151106
 30
0.0
 10
640.782830097093
 20
-306.4816526046661
 30
0.0
 10
640.9007149014795
 20
-306.4078913073598
 30
0.0
 10
641.1480774958562
 20
-306.2800296712011
 30
0.0
 10
641.278179042186
 20
-306.2253594916447
 30
0.0
 10
641.5498290025521
 20
-306.1324658200804
 30
0.0
 10
641.6913854152676
 20
-306.094253541781
 30
0.0
 10
641.9851640030616
 20
-306.0330488335405
 30
0.0
 10
642.1380979393579
 20
-306.0100351921058
 30
0.0
 10
642.6040884769362
 20
-305.9634011027665
 30
0.0
 10
642.9257796022761
 20
-305.9613092924538
 30
0.0
 10
643.5885326026059
 20
-306.006376465939
 30
0.0
 10
643.9313121016147
 20
-306.0539962677817
 30
0.0
 10
644.6284634401126
 20
-306.1946442349947
 30
0.0
 10
644.979009074324
 20
-306.2866796223629
 30
0.0
 10
645.507921107
 20
-306.4547456637798
 30
0.0
 10
645.6847432106415
 20
-306.5158038418544
 30
0.0
 10
646.039476858396
 20
-306.647935755943
 30
0.0
 10
646.2189432516086
 20
-306.7196705983861
 30
0.0
 10
646.3957597563224
 20
-306.7951252325188
 30
0.0
  0
ELLIPSE
  5
141
330
11E
100
AcDbEntity
  8
H855
  6
Continuous
 62
     7
100
AcDbEllipse
 10
649.7058566797
 20
-320.8702403504
 30
0.0
 11
-0.9820683292509138
 21
4.902605613006427
 31
0.0
210
0.0
220
0.0
230
1.0
 40
0.2676376848
 41
4.069875428817001
 42
5.161947113293518
  0
SPLINE
  5
142
330
11E
100
AcDbEntity
  8
H855
  6
Continuous
 62
     7
100
AcDbSpline
210
0.0
220
0.0
230
1.0
 70
     8
 71
     3
 72
    28
 73
    24
 74
     0
 42
0.000000001
 43
0.0000000001
 40
0.1376669849593281
 40
0.1376669849593281
 40
0.1376669849593281
 40
0.1376669849593281
 40
0.1874999999999979
 40
0.1874999999999979
 40
0.2499999999999978
 40
0.2499999999999978
 40
0.3124999999999978
 40
0.3124999999999978
 40
0.3749999999999977
 40
0.3749999999999977
 40
0.4374999999999976
 40
0.4374999999999976
 40
0.4999999999999976
 40
0.4999999999999976
 40
0.6249999999999983
 40
0.6249999999999983
 40
0.749999999999999
 40
0.749999999999999
 40
0.8749999999999998
 40
0.8749999999999998
 40
0.9374999999999999
 40
0.9374999999999999
 40
1.0
 40
1.0
 40
1.0
 40
1.0
 10
702.109618742389
 20
-271.3524905865553
 30
0.0
 10
702.1547642520545
 20
-271.2652408674691
 30
0.0
 10
702.2041313644063
 20
-271.1860144087987
 30
0.0
 10
702.3223692187723
 20
-271.0270333728264
 30
0.0
 10
702.3934328291367
 20
-270.9513314679141
 30
0.0
 10
702.5452103909639
 20
-270.8231257162077
 30
0.0
 10
702.626248121008
 20
-270.7706380871918
 30
0.0
 10
702.7931343433281
 20
-270.6892395061035
 30
0.0
 10
702.8794317957914
 20
-270.6598596319323
 30
0.0
 10
703.0570611453636
 20
-270.6212487853193
 30
0.0
 10
703.1483963238834
 20
-270.6120317501018
 30
0.0
 10
703.3356688577766
 20
-270.6123183407515
 30
0.0
 10
703.4320432764284
 20
-270.6219593520539
 30
0.0
 10
703.7225465062272
 20
-270.6766429071004
 30
0.0
 10
703.9190521063119
 20
-270.7468269934926
 30
0.0
 10
704.3161525373524
 20
-270.9452687493678
 30
0.0
 10
704.517726987836
 20
-271.0744133239875
 30
0.0
 10
704.9196018684628
 20
-271.3855392336378
 30
0.0
 10
705.1177323558359
 20
-271.5655715470616
 30
0.0
 10
705.4103922088448
 20
-271.8700378480059
 30
0.0
 10
705.5071861608046
 20
-271.9773003009967
 30
0.0
 10
705.6991593476025
 20
-272.203402011032
 30
0.0
 10
705.7951537330276
 20
-272.3233294396383
 30
0.0
 10
705.8885823375783
 20
-272.44692810038
 30
0.0
  0
ELLIPSE
  5
143
330
11E
100
AcDbEntity
  8
H855
  6
Continuous
 62
     7
100
AcDbEllipse
 10
717.2125590061
 20
-281.8952275902
 30
0.0
 11
4.285673503910717
 21
-2.575461631994888
 31
0.0
210
0.0
220
0.0
230
1.0
 40
0.7713862433
 41
0.4340747321101066
 42
1.526146416586605
  0
ELLIPSE
  5
144
330
11E
100
AcDbEntity
  8
H855
  6
Continuous
 62
     7
100
AcDbEllipse
 10
717.2125590061
 20
-281.8952275902
 30
0.0
 11
-2.612229446908084
 21
-4.263362208012172
 31
0.0
210
0.0
220
0.0
230
1.0
 40
0.0596748192
 41
2.451163649787421
 42
3.145386732243266
  0
ELLIPSE
  5
145
330
11E
100
AcDbEntity
  8
H855
  6
Continuous
 62
     7
100
AcDbEllipse
 10
717.2125590061
 20
-281.8952275902
 30
0.0
 11
-4.999999999999987
 21
8.673617379884035E-15
 31
0.0
210
0.0
220
0.0
230
1.0
 40
0.5773502692
 41
2.807631514265278
 42
3.141592653589796
  0
ELLIPSE
  5
146
330
11E
100
AcDbEntity
  8
H855
  6
Continuous
 62
     7
100
AcDbEllipse
 10
613.8400716167
 20
-40.2270812122
 30
0.0
 11
-105.2585836609357
 21
0.0
 31
0.0
210
0.0
220
0.0
230
1.0
 40
0.5773502692
 41
0.0
 42
6.283185307179586
  0
ELLIPSE
  5
147
330
11E
100
AcDbEntity
  8
H855
  6
Continuous
 62
     7
100
AcDbEllipse
 10
613.8400716167
 20
-40.0224479144
 30
0.0
 11
104.2904983080056
 21
6.938893903907228E-15
 31
0.0
210
0.0
220
0.0
230
1.0
 40
0.5773502692
 41
0.0
 42
6.283185307179586
  0
ELLIPSE
  5
148
330
11E
100
AcDbEntity
  8
H855
  6
Continuous
 62
     7
100
AcDbEllipse
 10
613.8400716167
 20
-40.6715704338
 30
0.0
 11
105.1169549200236
 21
3.469446951953614E-15
 31
0.0
210
0.0
220
0.0
230
1.0
 40
0.5773502692
 41
0.0
 42
0.829413017762546
  0
ELLIPSE
  5
149
330
11E
100
AcDbEntity
  8
H855
  6
Continuous
 62
     7
100
AcDbEllipse
 10
613.8400716167
 20
-40.6715704338
 30
0.0
 11
105.1169549200236
 21
3.469446951953614E-15
 31
0.0
210
0.0
220
0.0
230
1.0
 40
0.5773502692
 41
2.312179640940744
 42
3.326608996292181
  0
ELLIPSE
  5
14A
330
11E
100
AcDbEntity
  8
H855
  6
Continuous
 62
     7
100
AcDbEllipse
 10
613.8400716167
 20
-40.6715704338
 30
0.0
 11
105.1169549200236
 21
3.469446951953614E-15
 31
0.0
210
0.0
220
0.0
230
1.0
 40
0.5773502692
 41
6.098168964477195
 42
6.283185307179586
  0
ELLIPSE
  5
14B
330
11E
100
AcDbEntity
  8
H855
  6
Continuous
 62
     7
100
AcDbEllipse
 10
613.8400716167
 20
-40.4659920549
 30
0.0
 11
104.149170700708
 21
-1.040834085586084E-14
 31
0.0
210
0.0
220
0.0
230
1.0
 40
0.5773502692
 41
3.326608996292141
 42
6.098168964477235
  0
SPLINE
  5
14C
330
11E
100
AcDbEntity
  8
H855
  6
Continuous
 62
     7
100
AcDbSpline
210
0.0
220
0.0
230
1.0
 70
     8
 71
     3
 72
    94
 73
    90
 74
     0
 42
0.000000001
 43
0.0000000001
 40
0.0
 40
0.0
 40
0.0
 40
0.0
 40
0.0022357509591134
 40
0.0141010765597496
 40
0.0259373092093999
 40
0.0377352634243299
 40
0.0494858447343499
 40
0.0611810808569635
 40
0.0728153166311476
 40
0.0843863703899999
 40
0.0958964065308279
 40
0.1073523101281985
 40
0.1187654489575409
 40
0.130150837203232
 40
0.1415258264438052
 40
0.1529031211349396
 40
0.1642998431034693
 40
0.1757317283536745
 40
0.1872112341086986
 40
0.1987466727028517
 40
0.2103418773069843
 40
0.2219964154454579
 40
0.2337062718210548
 40
0.2454648395945183
 40
0.2572640176666257
 40
0.269095225138313
 40
0.2809502029706701
 40
0.2928215493670539
 40
0.3047030013615445
 40
0.3165895149303959
 40
0.3284766661095254
 40
0.3403614017422301
 40
0.3522419907051518
 40
0.3641173481652014
 40
0.3759868912694844
 40
0.387850417886163
 40
0.3997080087402536
 40
0.411559950761376
 40
0.423406678478697
 40
0.4352487301446392
 40
0.447086715531142
 40
0.4589212927720551
 40
0.4707531520850682
 40
0.4825830046280429
 40
0.4944115750992703
 40
0.5062395969712418
 40
0.5180678094552753
 40
0.5298967331420936
 40
0.5417270883915452
 40
0.5535596209604207
 40
0.565395074317049
 40
0.5772341852691198
 40
0.5890776771266024
 40
0.6009262493041269
 40
0.6127805619932811
 40
0.6246412141763293
 40
0.6365087128157007
 40
0.648383430556972
 40
0.6602655487795565
 40
0.6721549824314088
 40
0.6840512830052778
 40
0.6959535166232251
 40
0.7078601160789816
 40
0.7197684323129724
 40
0.7316740245863436
 40
0.7435719568503197
 40
0.7554559783253093
 40
0.7673185432981586
 40
0.7791510282428523
 40
0.7909442153469639
 40
0.8026890786599654
 40
0.814377840599883
 40
0.8260051738489196
 40
0.8375693386732537
 40
0.8490730099790427
 40
0.8605235880125744
 40
0.8719328916886063
 40
0.8833162626346599
 40
0.8946911346788098
 40
0.9060697195651535
 40
0.9174695831047208
 40
0.928906157896093
 40
0.9403914793234377
 40
0.9519333741164114
 40
0.9635351871176022
 40
0.9751960518700792
 40
0.986911616365572
 40
0.998675056091424
 40
1.0
 40
1.0
 40
1.0
 40
1.0
 10
713.05774324786
 20
-80.69305404133556
 30
0.0
 10
713.2650626471119
 20
-80.49307525300239
 30
0.0
 10
714.3848090227821
 20
-79.41116606449866
 30
0.0
 10
716.408782141769
 20
-77.14061070938911
 30
0.0
 10
718.8917365401803
 20
-74.09000165829005
 30
0.0
 10
721.126147009051
 20
-70.92574559011447
 30
0.0
 10
723.09140649651
 20
-67.7072371411559
 30
0.0
 10
724.78601980461
 20
-64.43110926641876
 30
0.0
 10
726.2050692730082
 20
-61.11110409241588
 30
0.0
 10
727.3462964052433
 20
-57.75643083992515
 30
0.0
 10
728.2084031249456
 20
-54.37714814410258
 30
0.0
 10
728.7912638149394
 20
-50.98240954462907
 30
0.0
 10
729.0955085380643
 20
-47.58072437390806
 30
0.0
 10
729.1222231804423
 20
-44.1798378657485
 30
0.0
 10
728.8726903015429
 20
-40.78740728197305
 30
0.0
 10
728.3483544593889
 20
-37.41066424388995
 30
0.0
 10
727.5507324297922
 20
-34.05655461198284
 30
0.0
 10
726.4811993480464
 20
-30.73145299166396
 30
0.0
 10
725.1411609621617
 20
-27.44191582319672
 30
0.0
 10
723.5323276588234
 20
-24.19493356983343
 30
0.0
 10
721.6570213232485
 20
-20.99801110434296
 30
0.0
 10
719.5184574744245
 20
-17.85912578650439
 30
0.0
 10
717.1209459982696
 20
-14.78658129859134
 30
0.0
 10
714.4699784183231
 20
-11.78879688117696
 30
0.0
 10
711.5722006519413
 20
-8.87408074578988
 30
0.0
 10
708.435296761769
 20
-6.05043107427522
 30
0.0
 10
705.067823234053
 20
-3.325392029982333
 30
0.0
 10
701.4790330628427
 20
-0.7059730235809969
 30
0.0
 10
697.678718579024
 20
1.801376033672697
 30
0.0
 10
693.6771489344304
 20
4.190712837596921
 30
0.0
 10
689.4849593908679
 20
6.456596138751602
 30
0.0
 10
685.1130441665733
 20
8.594071055725461
 30
0.0
 10
680.5724500898249
 20
10.59864377582398
 30
0.0
 10
675.8743953860152
 20
12.46620907245355
 30
0.0
 10
671.0303254915544
 20
14.1929912473191
 30
0.0
 10
666.0519100243054
 20
15.77552676638788
 30
0.0
 10
660.9510384295304
 20
17.2106544736681
 30
0.0
 10
655.739812760745
 20
18.49551163058527
 30
0.0
 10
650.4305369312941
 20
19.62753411310164
 30
0.0
 10
645.0357023282791
 20
20.60445932906718
 30
0.0
 10
639.5679700022979
 20
21.42433069171645
 30
0.0
 10
634.0401498146501
 20
22.08550274487597
 30
0.0
 10
628.4651769954079
 20
22.58664625856249
 30
0.0
 10
622.8560865831398
 20
22.92675279413603
 30
0.0
 10
617.2259862034081
 20
23.10513837881606
 30
0.0
 10
611.5880276288207
 20
23.12144603742378
 30
0.0
 10
605.9554127937073
 20
22.97564792250878
 30
0.0
 10
600.3413322239901
 20
22.66804897433344
 30
0.0
 10
594.7589299504667
 20
22.19928545116612
 30
0.0
 10
589.2212387855756
 20
21.57031615712723
 30
0.0
 10
583.7411829503658
 20
20.78241787126123
 30
0.0
 10
578.3315543339619
 20
19.83717941083957
 30
0.0
 10
573.0049863307175
 20
18.73649422776247
 30
0.0
 10
567.7739296812152
 20
17.48255198716758
 30
0.0
 10
562.6506308431826
 20
16.07782948383857
 30
0.0
 10
557.647113457108
 20
14.52508141741465
 30
0.0
 10
552.7751634896786
 20
12.82733176940432
 30
0.0
 10
548.0463186127971
 20
10.98786681570307
 30
0.0
 10
543.4718622669305
 20
9.010231175432315
 30
0.0
 10
539.0628226057914
 20
6.898228735598256
 30
0.0
 10
534.8299760407734
 20
4.655930770029348
 30
0.0
 10
530.7838542910246
 20
2.287694010275843
 30
0.0
 10
526.9347824670198
 20
-0.2017890015543755
 30
0.0
 10
523.2929572261149
 20
-2.80737967034006
 30
0.0
 10
519.8683413505114
 20
-5.523462142537738
 30
0.0
 10
516.6706017478144
 20
-8.343880296548312
 30
0.0
 10
513.7089859272268
 20
-11.26191815446143
 30
0.0
 10
510.9922861325804
 20
-14.27017157384564
 30
0.0
 10
508.5286832144941
 20
-17.36050100937581
 30
0.0
 10
506.3255492491632
 20
-20.52403813564208
 30
0.0
 10
504.3892304210936
 20
-23.75126932935478
 30
0.0
 10
502.7248477156777
 20
-27.03220784074339
 30
0.0
 10
501.3361626398649
 20
-30.35664615541372
 30
0.0
 10
500.2255512108335
 20
-33.7144558302537
 30
0.0
 10
499.3941091378245
 20
-37.09588304823827
 30
0.0
 10
498.8418794526717
 20
-40.4917829587833
 30
0.0
 10
498.568161736091
 20
-43.89374701945645
 30
0.0
 10
498.5718411794937
 20
-47.29409432002613
 30
0.0
 10
498.8516195106625
 20
-50.68517051509122
 30
0.0
 10
499.406042481026
 20
-54.05979010298579
 30
0.0
 10
500.2335850820375
 20
-57.41101354635394
 30
0.0
 10
501.3329029684529
 20
-60.73258129800391
 30
0.0
 10
502.7025115960731
 20
-64.01762984716109
 30
0.0
 10
504.3408725477336
 20
-67.26011742461371
 30
0.0
 10
506.2447362518147
 20
-70.44870976349088
 30
0.0
 10
508.4139422895217
 20
-73.58957412518097
 30
0.0
 10
510.8321477618549
 20
-76.62104917630391
 30
0.0
 10
512.7347229963203
 20
-78.81023415509536
 30
0.0
 10
513.7601079305584
 20
-79.82416570734213
 30
0.0
 10
513.8809382804604
 20
-79.94352980754199
 30
0.0
  0
LINE
  5
14D
330
11E
100
AcDbEntity
  8
H855
  6
Continuous
 62
     7
100
AcDbLine
 10
509.1445542003
 20
-74.4417560191
 30
0.0
 11
523.9349799376
 21
-260.2352335269
 31
0.0
  0
LINE
  5
14E
330
11E
100
AcDbEntity
  8
H855
  6
Continuous
 62
     7
100
AcDbLine
 10
703.7451632958
 20
-260.2352335269
 30
0.0
 11
718.5339731498
 21
-74.4620543244
 31
0.0
  0
SPLINE
  5
14F
330
11E
100
AcDbEntity
  8
H855
  6
Continuous
 62
     7
100
AcDbSpline
210
0.0
220
0.0
230
1.0
 70
     8
 71
     3
 72
    17
 73
    13
 74
     0
 42
0.000000001
 43
0.0000000001
 40
0.0
 40
0.0
 40
0.0
 40
0.0
 40
0.0033173587165363
 40
0.0209535006663166
 40
0.0386789717383512
 40
0.0564992936384284
 40
0.0744132690406431
 40
0.0924141086360631
 40
0.1104910322537402
 40
0.1286310195206864
 40
0.1468204109834069
 40
0.1554468622160165
 40
0.1554468622160165
 40
0.1554468622160165
 40
0.1554468622160165
 10
725.3952919443337
 20
-265.952870010701
 30
0.0
 10
725.3212890028551
 20
-265.7236005647128
 30
0.0
 10
724.919098913521
 20
-264.4822883574598
 30
0.0
 10
723.8489432561449
 20
-262.0228710804616
 30
0.0
 10
722.2471897217292
 20
-258.818598353132
 30
0.0
 10
720.3438373825875
 20
-255.6336161893153
 30
0.0
 10
718.1871206113856
 20
-252.5162181637939
 30
0.0
 10
715.7693361442294
 20
-249.4639214420329
 30
0.0
 10
713.0994005451463
 20
-246.4881454933158
 30
0.0
 10
710.1832434062916
 20
-243.5964545893092
 30
0.0
 10
707.5839770461171
 20
-241.2896510388511
 30
0.0
 10
705.9529534256394
 20
-239.9517621738075
 30
0.0
 10
705.4200757305138
 20
-239.5254009291111
 30
0.0
  0
SPLINE
  5
150
330
11E
100
AcDbEntity
  8
H855
  6
Continuous
 62
     7
100
AcDbSpline
210
0.0
220
0.0
230
1.0
 70
     8
 71
     3
 72
    16
 73
    12
 74
     0
 42
0.000000001
 43
0.0000000001
 40
0.8438695112555991
 40
0.8438695112555991
 40
0.8438695112555991
 40
0.8438695112555991
 40
0.8578860963330507
 40
0.8761698262416991
 40
0.8944273064307455
 40
0.9126457924584311
 40
0.9308110561592795
 40
0.9489083512789586
 40
0.9669238616019148
 40
0.9848465200918975
 40
1.0
 40
1.0
 40
1.0
 40
1.0
 10
522.2668570466028
 20
-239.5199683068198
 30
0.0
 10
521.4009047190359
 20
-240.2126805122143
 30
0.0
 10
519.4551972644418
 20
-241.83349768361
 30
0.0
 10
516.5946446798945
 20
-244.4558755152499
 30
0.0
 10
513.7312593170584
 20
-247.3957299007113
 30
0.0
 10
511.1156591131653
 20
-250.4237594792547
 30
0.0
 10
508.7572948686569
 20
-253.5293442142703
 30
0.0
 10
506.6578938608021
 20
-256.7111261521036
 30
0.0
 10
504.8433295669401
 20
-259.9300812022915
 30
0.0
 10
503.3238891056705
 20
-263.1175446003772
 30
0.0
 10
502.616887053278
 20
-265.0337336974818
 30
0.0
 10
502.2387323249439
 20
-266.0739973052753
 30
0.0
  0
LINE
  5
151
330
11E
100
AcDbEntity
  8
H855
  6
Continuous
 62
     7
100
AcDbLine
 10
726.5204031302
 20
-269.0761509937
 30
0.0
 11
725.4545010035
 21
-266.0587773077
 31
0.0
  0
LINE
  5
152
330
11E
100
AcDbEntity
  8
H855
  6
Continuous
 62
     7
100
AcDbLine
 10
502.2256422299
 20
-266.0587773077
 30
0.0
 11
501.1597401032
 21
-269.0761509937
 31
0.0
  0
SPLINE
  5
153
330
11E
100
AcDbEntity
  8
H855
  6
Continuous
 62
     7
100
AcDbSpline
210
0.0
220
0.0
230
1.0
 70
     8
 71
     3
 72
    26
 73
    22
 74
     0
 42
0.000000001
 43
0.0000000001
 40
0.0
 40
0.0
 40
0.0
 40
0.0
 40
0.02846810631226
 40
0.0847292010068907
 40
0.1406409685693061
 40
0.1961973274231483
 40
0.2514915287855599
 40
0.3066039753837129
 40
0.361599697183544
 40
0.4165290243950828
 40
0.4714294932152694
 40
0.5263250528899803
 40
0.5812319209733615
 40
0.6361642469292205
 40
0.691130787988034
 40
0.7461362707228524
 40
0.8011824616753155
 40
0.856268989185499
 40
0.9113939630293207
 40
0.966554434031111
 40
1.0
 40
1.0
 40
1.0
 40
1.0
 10
702.1546993868171
 20
-271.2649842667515
 30
0.0
 10
701.9002135816597
 20
-271.7481261078607
 30
0.0
 10
701.2505465227446
 20
-272.9697462569407
 30
0.0
 10
699.8771989275901
 20
-275.1798420331226
 30
0.0
 10
698.0324720059406
 20
-277.7024482610601
 30
0.0
 10
695.927783097369
 20
-280.1926474010366
 30
0.0
 10
693.587655628386
 20
-282.6153103395376
 30
0.0
 10
691.0124116612717
 20
-284.9718349464389
 30
0.0
 10
688.2092104861512
 20
-287.2537127001819
 30
0.0
 10
685.1843641768953
 20
-289.4545896602748
 30
0.0
 10
681.9455877778892
 20
-291.5672091414355
 30
0.0
 10
678.5014656040802
 20
-293.5844382997603
 30
0.0
 10
674.8615246212448
 20
-295.4992314866781
 30
0.0
 10
671.035965670548
 20
-297.3048584285633
 30
0.0
 10
667.035987026604
 20
-298.9948231060918
 30
0.0
 10
662.8724135146758
 20
-300.5633544403437
 30
0.0
 10
658.5608812773797
 20
-302.0036925846866
 30
0.0
 10
654.102135729183
 20
-303.3147399934776
 30
0.0
 10
649.5553049568675
 20
-304.476401579044
 30
0.0
 10
645.3935224384937
 20
-305.4018285485715
 30
0.0
 10
643.0037922558885
 20
-305.8370001521636
 30
0.0
 10
641.93943500398
 20
-306.0290653042595
 30
0.0
  0
ARC
  5
154
330
11E
100
AcDbEntity
  8
H855
  6
Continuous
 62
     7
100
AcDbCircle
 10
688.5345479917
 20
-328.0404218783
 30
0.0
 40
59.3042044321586
100
AcDbArc
 50
58.1714227936
 51
75.2007121396
  0
ARC
  5
155
330
11E
100
AcDbEntity
  8
H855
  6
Continuous
 62
     7
100
AcDbCircle
 10
717.2125590061
 20
-281.8952275902
 30
0.0
 40
5.000000000000002
100
AcDbArc
 50
0.0
 51
58.5035396142
  0
LINE
  5
156
330
11E
100
AcDbEntity
  8
H855
  6
Continuous
 62
     7
100
AcDbLine
 10
722.2125590061
 20
-289.5506066371
 30
0.0
 11
722.2125590061
 21
-281.8952275902
 31
0.0
  0
LINE
  5
157
330
11E
100
AcDbEntity
  8
H855
  6
Continuous
 62
     7
100
AcDbLine
 10
511.3294737635
 20
-51.0992309178
 30
0.0
 11
511.4683893671
 21
-51.5277645323
 31
0.0
  0
LINE
  5
158
330
11E
100
AcDbEntity
  8
H855
  6
Continuous
 62
     7
100
AcDbLine
 10
716.2117538663
 20
-51.5277645323
 30
0.0
 11
716.3506694699
 21
-51.0992309178
 31
0.0
  0
ENDBLK
  5
15A
330
11E
100
AcDbEntity
  8
0
100
AcDbBlockEnd
  0
BLOCK
  5
197
330
15B
100
AcDbEntity
  8
0
100
AcDbBlockBegin
  2
SE5
 70
     0
 10
0.0
 20
0.0
 30
0.0
  3
SE5
  1
SE5
  0
ELLIPSE
  5
15D
330
15B
100
AcDbEntity
  8
H855
  6
Continuous
 62
     7
100
AcDbEllipse
 10
-50.0685350379
 20
-31.6325256717
 30
0.0
 11
111.5932523876681
 21
6.614134689540564E-14
 31
0.0
210
0.0
220
0.0
230
1.0
 40
0.5773502692
 41
0.0
 42
6.283185307179586
  0
ELLIPSE
  5
15E
330
15B
100
AcDbEntity
  8
H855
  6
Continuous
 62
     7
100
AcDbEllipse
 10
-50.0685350379
 20
-38.052332833
 30
0.0
 11
114.2251628645055
 21
-1.387778780781446E-14
 31
0.0
210
0.0
220
0.0
230
1.0
 40
0.5773502692
 41
3.639603376721134
 42
3.822573636346625
  0
ELLIPSE
  5
15F
330
15B
100
AcDbEntity
  8
H855
  6
Continuous
 62
     7
100
AcDbEllipse
 10
-50.0685350379
 20
-38.052332833
 30
0.0
 11
114.2251628645055
 21
-1.387778780781446E-14
 31
0.0
210
0.0
220
0.0
230
1.0
 40
0.5773502692
 41
3.822573636346625
 42
5.60552894230193
  0
ELLIPSE
  5
160
330
15B
100
AcDbEntity
  8
H855
  6
Continuous
 62
     7
100
AcDbEllipse
 10
-50.0685350379
 20
-38.052332833
 30
0.0
 11
114.2251628645055
 21
-1.387778780781446E-14
 31
0.0
210
0.0
220
0.0
230
1.0
 40
0.5773502692
 41
-0.6776563648776559
 42
-0.4934112976419485
  0
ELLIPSE
  5
161
330
15B
100
AcDbEntity
  8
H855
  6
Continuous
 62
     7
100
AcDbEllipse
 10
-50.0685350379
 20
-55.989263141
 30
0.0
 11
105.258583660936
 21
6.938893903907228E-15
 31
0.0
210
0.0
220
0.0
230
1.0
 40
0.5773502692
 41
3.301369102365291
 42
6.123038369930087
  0
ELLIPSE
  5
162
330
15B
100
AcDbEntity
  8
H855
  6
Continuous
 62
     7
100
AcDbEllipse
 10
-50.0685350379
 20
-247.865959659
 30
0.0
 11
89.99999999999997
 21
2.867840105568906E-14
 31
0.0
210
0.0
220
0.0
230
1.0
 40
0.5773502692
 41
3.187521343811632
 42
3.789548625175891
  0
ELLIPSE
  5
163
330
15B
100
AcDbEntity
  8
H855
  6
Continuous
 62
     7
100
AcDbEllipse
 10
-50.0685350379
 20
-247.865959659
 30
0.0
 11
89.99999999999997
 21
2.867840105568906E-14
 31
0.0
210
0.0
220
0.0
230
1.0
 40
0.5773502692
 41
4.41624700910778
 42
6.237256616957766
  0
ELLIPSE
  5
164
330
15B
100
AcDbEntity
  8
H855
  6
Continuous
 62
     7
100
AcDbEllipse
 10
-50.0685350379
 20
-266.371586479
 30
0.0
 11
110.5127590579534
 21
1.260447705186772E-14
 31
0.0
210
0.0
220
0.0
230
1.0
 40
0.5773502692
 41
0.0000000000000007
 42
0.59578811200706
  0
ELLIPSE
  5
165
330
15B
100
AcDbEntity
  8
H855
  6
Continuous
 62
     7
100
AcDbEllipse
 10
-50.0685350379
 20
-266.371586479
 30
0.0
 11
110.5127590579534
 21
1.260447705186772E-14
 31
0.0
210
0.0
220
0.0
230
1.0
 40
0.5773502692
 41
2.545804541582734
 42
3.338719895676127
  0
ELLIPSE
  5
166
330
15B
100
AcDbEntity
  8
H855
  6
Continuous
 62
     7
100
AcDbEllipse
 10
-50.0685350379
 20
-266.371586479
 30
0.0
 11
110.5127590579534
 21
1.260447705186772E-14
 31
0.0
210
0.0
220
0.0
230
1.0
 40
0.5773502692
 41
3.393091866227007
 42
6.283185307179586
  0
ELLIPSE
  5
167
330
15B
100
AcDbEntity
  8
H855
  6
Continuous
 62
     7
100
AcDbEllipse
 10
-50.0685350379
 20
-269.2179716742
 30
0.0
 11
113.9121549171369
 21
1.699674944388148E-14
 31
0.0
210
0.0
220
0.0
230
1.0
 40
0.5773502692
 41
0.0
 42
0.2011924909067104
  0
ELLIPSE
  5
168
330
15B
100
AcDbEntity
  8
H855
  6
Continuous
 62
     7
100
AcDbEllipse
 10
-50.0685350379
 20
-269.2179716742
 30
0.0
 11
113.9121549171369
 21
1.699674944388148E-14
 31
0.0
210
0.0
220
0.0
230
1.0
 40
0.5773502692
 41
0.2011924909067107
 42
0.2109107611538097
  0
ELLIPSE
  5
169
330
15B
100
AcDbEntity
  8
H855
  6
Continuous
 62
     7
100
AcDbEllipse
 10
-50.0685350379
 20
-269.2179716742
 30
0.0
 11
113.9121549171369
 21
1.699674944388148E-14
 31
0.0
210
0.0
220
0.0
230
1.0
 40
0.5773502692
 41
-3.345766406633657
 42
-3.342785144496504
  0
ELLIPSE
  5
16A
330
15B
100
AcDbEntity
  8
H855
  6
Continuous
 62
     7
100
AcDbEllipse
 10
-50.0685350379
 20
-269.2179716742
 30
0.0
 11
113.9121549171369
 21
1.699674944388148E-14
 31
0.0
210
0.0
220
0.0
230
1.0
 40
0.5773502692
 41
2.940400162683082
 42
6.283185307179586
  0
ELLIPSE
  5
16B
330
15B
100
AcDbEntity
  8
H855
  6
Continuous
 62
     7
100
AcDbEllipse
 10
-50.0685350379
 20
-272.3608570869
 30
0.0
 11
115.0
 21
-3.214784800764268E-14
 31
0.0
210
0.0
220
0.0
230
1.0
 40
0.5773502692
 41
0.0000000000000005
 42
0.201192490906711
  0
ELLIPSE
  5
16C
330
15B
100
AcDbEntity
  8
H855
  6
Continuous
 62
     7
100
AcDbEllipse
 10
-50.0685350379
 20
-272.3608570869
 30
0.0
 11
115.0
 21
-3.214784800764268E-14
 31
0.0
210
0.0
220
0.0
230
1.0
 40
0.5773502692
 41
2.940400162683084
 42
6.283185307179586
  0
ELLIPSE
  5
16D
330
15B
100
AcDbEntity
  8
H855
  6
Continuous
 62
     7
100
AcDbEllipse
 10
-84.6170647513
 20
-293.3019143248
 30
0.0
 11
-6.899452621776247
 21
-40.30332799032212
 31
0.0
210
0.0
220
0.0
230
1.0
 40
0.2321084823
 41
0.9392043162535861
 42
1.454869056687913
  0
ELLIPSE
  5
16E
330
15B
100
AcDbEntity
  8
H855
  6
Continuous
 62
     7
100
AcDbEllipse
 10
-50.0685350379
 20
-258.9067964871
 30
0.0
 11
-114.4176662484316
 21
-1.026814672950621E-13
 31
0.0
210
0.0
220
0.0
230
1.0
 40
0.5773502692
 41
0.3339611393245319
 42
1.236835187470365
  0
ELLIPSE
  5
16F
330
15B
100
AcDbEntity
  8
H855
  6
Continuous
 62
     7
100
AcDbEllipse
 10
-50.0685350379
 20
-251.2045188594
 30
0.0
 11
-114.4176662484324
 21
-5.631242740510080E-13
 31
0.0
210
0.0
220
0.0
230
1.0
 40
0.5773502692
 41
0.3339611393245283
 42
1.236835187470358
  0
LINE
  5
170
330
15B
100
AcDbEntity
  8
H855
  6
Continuous
 62
     7
100
AcDbLine
 10
-158.1647791539
 20
-272.8578816295
 30
0.0
 11
-158.1647791539
 21
-280.5601592572
 31
0.0
  0
LINE
  5
171
330
15B
100
AcDbEntity
  8
H855
  6
Continuous
 62
     7
100
AcDbLine
 10
-87.5732595105
 20
-321.3161921259
 30
0.0
 11
-87.5732595105
 21
-313.6139144981
 31
0.0
  0
LINE
  5
172
330
15B
100
AcDbEntity
  8
H855
  6
Continuous
 62
     7
100
AcDbLine
 10
-76.1548079636
 20
-298.2158024077
 30
0.0
 11
-76.1231543133
 21
-299.5543836352
 31
0.0
  0
ELLIPSE
  5
173
330
15B
100
AcDbEntity
  8
H855
  6
Continuous
 62
     7
100
AcDbEllipse
 10
-77.5731895801
 20
-301.242159028
 30
0.0
 11
0.8436680630933797
 21
4.928308451456821
 31
0.0
210
0.0
220
0.0
230
1.0
 40
0.2321084823
 41
-0.8704814486514563
 42
-0.815967732234963
  0
ARC
  5
174
330
15B
100
AcDbEntity
  8
H855
  6
Continuous
 62
     7
100
AcDbCircle
 10
15.1065144244
 20
-338.9319188834
 30
0.0
 40
100.0234413835085
100
AcDbArc
 50
155.8490314833
 51
164.2058150414
  0
LINE
  5
175
330
15B
100
AcDbEntity
  8
H855
  6
Continuous
 62
     7
100
AcDbLine
 10
-81.1406042179
 20
-311.7072796893
 30
0.0
 11
-81.1406042179
 21
-318.3907133093
 31
0.0
  0
SPLINE
  5
176
330
15B
100
AcDbEntity
  8
H855
  6
Continuous
 62
     7
100
AcDbSpline
210
0.0
220
0.0
230
1.0
 70
     8
 71
     3
 72
    10
 73
     6
 74
     0
 42
0.000000001
 43
0.0000000001
 40
0.0
 40
0.0
 40
0.0
 40
0.0
 40
0.1250000000000032
 40
0.1250000000000032
 40
0.2034407931590574
 40
0.2034407931590574
 40
0.2034407931590574
 40
0.2034407931590574
 10
-158.1647791538873
 20
-280.56015925724
 30
0.0
 10
-158.277976195096
 20
-280.3717947503871
 30
0.0
 10
-158.3557286683495
 20
-280.1752224433457
 30
0.0
 10
-158.4269852652963
 20
-279.8421456815818
 30
0.0
 10
-158.4408279800371
 20
-279.7095097087432
 30
0.0
 10
-158.4408928088101
 20
-279.5750946722233
 30
0.0
  0
SPLINE
  5
177
330
15B
100
AcDbEntity
  8
H855
  6
Continuous
 62
     7
100
AcDbSpline
210
0.0
220
0.0
230
1.0
 70
     8
 71
     3
 72
    26
 73
    22
 74
     0
 42
0.000000001
 43
0.0000000001
 40
0.0
 40
0.0
 40
0.0
 40
0.0
 40
0.1249999999999955
 40
0.1249999999999955
 40
0.1874999999999933
 40
0.1874999999999933
 40
0.2499999999999911
 40
0.2499999999999911
 40
0.3749999999999912
 40
0.3749999999999912
 40
0.4999999999999913
 40
0.4999999999999913
 40
0.6249999999999915
 40
0.6249999999999915
 40
0.6874999999999916
 40
0.6874999999999916
 40
0.7499999999999916
 40
0.7499999999999916
 40
0.8749999999999958
 40
0.8749999999999958
 40
1.0
 40
1.0
 40
1.0
 40
1.0
 10
-81.14060421790501
 20
-318.3907133093379
 30
0.0
 10
-81.2342180106891
 20
-318.6572696520164
 30
0.0
 10
-81.35762323798174
 20
-318.9116513758125
 30
0.0
 10
-81.58674957851284
 20
-319.2755577264891
 30
0.0
 10
-81.67051182466824
 20
-319.3938994524682
 30
0.0
 10
-81.85332676463602
 20
-319.6245650396912
 30
0.0
 10
-81.95284243211256
 20
-319.7372565864244
 30
0.0
 10
-82.26840699893327
 20
-320.0590226531857
 30
0.0
 10
-82.50284894917816
 20
-320.2542379401975
 30
0.0
 10
-83.02022091312818
 20
-320.6072259805294
 30
0.0
 10
-83.30599341846565
 20
-320.7656953388253
 30
0.0
 10
-83.90237093114037
 20
-321.0312724952472
 30
0.0
 10
-84.21528033731087
 20
-321.140502714746
 30
0.0
 10
-84.70734895462712
 20
-321.2692257663405
 30
0.0
 10
-84.8751200637865
 20
-321.3061111580915
 30
0.0
 10
-85.21035845020414
 20
-321.3664779921714
 30
0.0
 10
-85.37881193897384
 20
-321.3902404171529
 30
0.0
 10
-85.886620879753
 20
-321.4427851344679
 30
0.0
 10
-86.2314032201434
 20
-321.4528531243791
 30
0.0
 10
-86.91321651616698
 20
-321.4219144677328
 30
0.0
 10
-87.24690469628274
 20
-321.3815660825684
 30
0.0
 10
-87.5732595105057
 20
-321.316192125851
 30
0.0
  0
ARC
  5
178
330
15B
100
AcDbEntity
  8
H855
  6
Continuous
 62
     7
100
AcDbCircle
 10
-122.4110820983
 20
-322.6412253944
 30
0.0
 40
63.32221482758786
100
AcDbArc
 50
108.1316490204
 51
121.6276030609
  0
ELLIPSE
  5
179
330
15B
100
AcDbEntity
  8
H855
  6
Continuous
 62
     7
100
AcDbEllipse
 10
-50.0685350379
 20
-247.5809758848
 30
0.0
 11
-111.7209040709792
 21
-7.571560423452112E-13
 31
0.0
210
0.0
220
0.0
230
1.0
 40
0.5773502692
 41
0.3339611393245274
 42
1.236835187470356
  0
ELLIPSE
  5
17A
330
15B
100
AcDbEntity
  8
H855
  6
Continuous
 62
     7
100
AcDbEllipse
 10
-50.0685350379
 20
-243.6673047193
 30
0.0
 11
-97.63606483354501
 21
-5.691403425148552E-13
 31
0.0
210
0.0
220
0.0
230
1.0
 40
0.5773502692
 41
0.3399491653715803
 42
1.230847161423303
  0
ARC
  5
17B
330
15B
100
AcDbEntity
  8
H855
  6
Continuous
 62
     7
100
AcDbCircle
 10
26.2585309512
 20
-341.1761634765
 30
0.0
 40
117.5741222150611
100
AcDbArc
 50
157.8314041128
 51
163.8737651237
  0
ELLIPSE
  5
17C
330
15B
100
AcDbEntity
  8
H855
  6
Continuous
 62
     7
100
AcDbEllipse
 10
-153.4410224273
 20
-271.9116395202
 30
0.0
 11
5.000000000000002
 21
5.882423582457594E-15
 31
0.0
210
0.0
220
0.0
230
1.0
 40
0.5773502692
 41
3.141592653589793
 42
3.475553792914317
  0
ELLIPSE
  5
17D
330
15B
100
AcDbEntity
  8
H855
  6
Continuous
 62
     7
100
AcDbEllipse
 10
-153.4410224273
 20
-271.9116395202
 30
0.0
 11
2.612229446908088
 21
-4.263362208012163
 31
0.0
210
0.0
220
0.0
230
1.0
 40
0.0596748192
 41
3.13938759965333
 42
3.83202165739212
  0
SPLINE
  5
17E
330
15B
100
AcDbEntity
  8
H855
  6
Continuous
 62
     7
100
AcDbSpline
210
0.0
220
0.0
230
1.0
 70
     8
 71
     3
 72
    28
 73
    24
 74
     0
 42
0.000000001
 43
0.0000000001
 40
0.137591595999175
 40
0.137591595999175
 40
0.137591595999175
 40
0.137591595999175
 40
0.1874999999999985
 40
0.1874999999999985
 40
0.2499999999999986
 40
0.2499999999999986
 40
0.3124999999999987
 40
0.3124999999999987
 40
0.3749999999999988
 40
0.3749999999999988
 40
0.437499999999999
 40
0.437499999999999
 40
0.4999999999999991
 40
0.4999999999999991
 40
0.6249999999999993
 40
0.6249999999999993
 40
0.7499999999999996
 40
0.7499999999999996
 40
0.8749999999999999
 40
0.8749999999999999
 40
0.9374999999999999
 40
0.9374999999999999
 40
1.0
 40
1.0
 40
1.0
 40
1.0
 10
-138.3378772999731
 20
-261.3692985540443
 30
0.0
 10
-138.3830783121165
 20
-261.2818925299666
 30
0.0
 10
-138.4325154338453
 20
-261.2025330341958
 30
0.0
 10
-138.5508326400287
 20
-261.0434453028323
 30
0.0
 10
-138.6218962503929
 20
-260.9677433979201
 30
0.0
 10
-138.7736738122203
 20
-260.8395376462136
 30
0.0
 10
-138.8547115422643
 20
-260.7870500171978
 30
0.0
 10
-139.0215977645844
 20
-260.7056514361093
 30
0.0
 10
-139.1078952170479
 20
-260.6762715619382
 30
0.0
 10
-139.2855245666199
 20
-260.6376607153253
 30
0.0
 10
-139.3768597451397
 20
-260.6284436801078
 30
0.0
 10
-139.5641322790328
 20
-260.6287302707573
 30
0.0
 10
-139.6605066976847
 20
-260.6383712820598
 30
0.0
 10
-139.9510099274836
 20
-260.6930548371063
 30
0.0
 10
-140.1475155275681
 20
-260.7632389234985
 30
0.0
 10
-140.5446159586087
 20
-260.9616806793737
 30
0.0
 10
-140.7461904090923
 20
-261.0908252539934
 30
0.0
 10
-141.1480652897191
 20
-261.4019511636436
 30
0.0
 10
-141.3461957770922
 20
-261.5819834770675
 30
0.0
 10
-141.6388556301011
 20
-261.8864497780119
 30
0.0
 10
-141.7356495820609
 20
-261.9937122310026
 30
0.0
 10
-141.9276227688588
 20
-262.219813941038
 30
0.0
 10
-142.0236171542911
 20
-262.3397413696428
 30
0.0
 10
-142.1170457588346
 20
-262.4633400303859
 30
0.0
  0
ELLIPSE
  5
17F
330
15B
100
AcDbEntity
  8
H855
  6
Continuous
 62
     7
100
AcDbEllipse
 10
-153.4410224273
 20
-271.9116395202
 30
0.0
 11
-4.285673503910607
 21
-2.575461631995002
 31
0.0
210
0.0
220
0.0
230
1.0
 40
0.7713862433
 41
4.757038890592939
 42
5.849110575069473
  0
SPLINE
  5
180
330
15B
100
AcDbEntity
  8
H855
  6
Continuous
 62
     7
100
AcDbSpline
210
0.0
220
0.0
230
1.0
 70
     8
 71
     3
 72
    30
 73
    26
 74
     0
 42
0.000000001
 43
0.0000000001
 40
0.0
 40
0.0
 40
0.0
 40
0.0
 40
0.1249999999999986
 40
0.1249999999999986
 40
0.1874999999999989
 40
0.1874999999999989
 40
0.2499999999999992
 40
0.2499999999999992
 40
0.3124999999999994
 40
0.3124999999999994
 40
0.3749999999999997
 40
0.3749999999999997
 40
0.4374999999999999
 40
0.4374999999999999
 40
0.5000000000000002
 40
0.5000000000000002
 40
0.6250000000000003
 40
0.6250000000000003
 40
0.7500000000000003
 40
0.7500000000000003
 40
0.8750000000000004
 40
0.8750000000000004
 40
0.9375000000000002
 40
0.9375000000000002
 40
1.0
 40
1.0
 40
1.0
 40
1.0
 10
-76.1619329699997
 20
-298.0080953033631
 30
0.0
 10
-76.17583058447883
 20
-297.7023005770338
 30
0.0
 10
-76.25085425725186
 20
-297.43047614029
 30
0.0
 10
-76.4439988507472
 20
-297.0687475207694
 30
0.0
 10
-76.52178494645776
 20
-296.9568784978288
 30
0.0
 10
-76.69735029517553
 20
-296.754569984949
 30
0.0
 10
-76.79563504972026
 20
-296.6631519451166
 30
0.0
 10
-77.01129351834939
 20
-296.498064534672
 30
0.0
 10
-77.1291783227359
 20
-296.4243032373656
 30
0.0
 10
-77.37654091711256
 20
-296.2964416012071
 30
0.0
 10
-77.50664246344228
 20
-296.2417714216505
 30
0.0
 10
-77.7782924238084
 20
-296.1488777500863
 30
0.0
 10
-77.9198488365239
 20
-296.1106654717869
 30
0.0
 10
-78.2136274243179
 20
-296.0494607635464
 30
0.0
 10
-78.3665613606141
 20
-296.0264471221117
 30
0.0
 10
-78.83255189819249
 20
-295.9798130327723
 30
0.0
 10
-79.1542430235324
 20
-295.9777212224598
 30
0.0
 10
-79.81699602386225
 20
-296.0227883959449
 30
0.0
 10
-80.15977552287104
 20
-296.0704081977876
 30
0.0
 10
-80.85692686136895
 20
-296.2110561650006
 30
0.0
 10
-81.20747249558036
 20
-296.3030915523688
 30
0.0
 10
-81.73638452825638
 20
-296.4711575937856
 30
0.0
 10
-81.91320663189782
 20
-296.5322157718603
 30
0.0
 10
-82.26794027965236
 20
-296.6643476859489
 30
0.0
 10
-82.44740667286881
 20
-296.736082528387
 30
0.0
 10
-82.62422317757868
 20
-296.8115371625247
 30
0.0
  0
ELLIPSE
  5
181
330
15B
100
AcDbEntity
  8
H855
  6
Continuous
 62
     7
100
AcDbEllipse
 10
-85.934320101
 20
-310.8866522804
 30
0.0
 11
0.9820683292509186
 21
4.902605613006465
 31
0.0
210
0.0
220
0.0
230
1.0
 40
0.2676376848
 41
1.121238193886072
 42
2.213309878362577
  0
ELLIPSE
  5
182
330
15B
100
AcDbEntity
  8
H855
  6
Continuous
 62
     7
100
AcDbEllipse
 10
-85.934320101
 20
-310.8866522804
 30
0.0
 11
4.800842824579214
 21
-1.39710707309294
 31
0.0
210
0.0
220
0.0
230
1.0
 40
0.4292273554
 41
0.2599017396217693
 42
1.851749584237521
  0
ELLIPSE
  5
183
330
15B
100
AcDbEntity
  8
H855
  6
Continuous
 62
     7
100
AcDbEllipse
 10
-85.934320101
 20
-310.8866522804
 30
0.0
 11
4.999999999999992
 21
3.021900157441477E-15
 31
0.0
210
0.0
220
0.0
230
1.0
 40
0.5773502692
 41
4.378427841060159
 42
5.994936546371263
  0
ELLIPSE
  5
184
330
15B
100
AcDbEntity
  8
H855
  6
Continuous
 62
     7
100
AcDbEllipse
 10
-50.0685350379
 20
-30.2434931423
 30
0.0
 11
-105.2585836609357
 21
1.387778780781446E-14
 31
0.0
210
0.0
220
0.0
230
1.0
 40
0.5773502692
 41
0.0
 42
6.283185307179586
  0
ELLIPSE
  5
185
330
15B
100
AcDbEntity
  8
H855
  6
Continuous
 62
     7
100
AcDbEllipse
 10
-50.0685350379
 20
-30.0388598444
 30
0.0
 11
104.2904983080056
 21
3.469446951953614E-15
 31
0.0
210
0.0
220
0.0
230
1.0
 40
0.5773502692
 41
0.0
 42
6.283185307179586
  0
ELLIPSE
  5
186
330
15B
100
AcDbEntity
  8
H855
  6
Continuous
 62
     7
100
AcDbEllipse
 10
-50.0685350379
 20
-30.6879823638
 30
0.0
 11
105.1169549200237
 21
-4.000956735161005E-14
 31
0.0
210
0.0
220
0.0
230
1.0
 40
0.5773502692
 41
0.0
 42
0.8294130126490503
  0
ELLIPSE
  5
187
330
15B
100
AcDbEntity
  8
H855
  6
Continuous
 62
     7
100
AcDbEllipse
 10
-50.0685350379
 20
-30.6879823638
 30
0.0
 11
105.1169549200237
 21
-4.000956735161005E-14
 31
0.0
210
0.0
220
0.0
230
1.0
 40
0.5773502692
 41
2.312179635827248
 42
3.326608996292183
  0
ELLIPSE
  5
188
330
15B
100
AcDbEntity
  8
H855
  6
Continuous
 62
     7
100
AcDbEllipse
 10
-50.0685350379
 20
-30.6879823638
 30
0.0
 11
105.1169549200237
 21
-4.000956735161005E-14
 31
0.0
210
0.0
220
0.0
230
1.0
 40
0.5773502692
 41
6.101730894085809
 42
6.283185307179586
  0
ELLIPSE
  5
189
330
15B
100
AcDbEntity
  8
H855
  6
Continuous
 62
     7
100
AcDbEllipse
 10
-50.0685350379
 20
-30.4824039849
 30
0.0
 11
104.1491707007081
 21
3.654012039965643E-14
 31
0.0
210
0.0
220
0.0
230
1.0
 40
0.5773502692
 41
3.326608996292144
 42
6.098168964477233
  0
SPLINE
  5
18A
330
15B
100
AcDbEntity
  8
H855
  6
Continuous
 62
     7
100
AcDbSpline
210
0.0
220
0.0
230
1.0
 70
     8
 71
     3
 72
    93
 73
    89
 74
     0
 42
0.000000001
 43
0.0000000001
 40
0.0
 40
0.0
 40
0.0
 40
0.0
 40
0.0017621750833084
 40
0.0137153078297601
 40
0.0256347244156065
 40
0.0375110917254491
 40
0.0493356344333667
 40
0.0611012741267958
 40
0.072803845464209
 40
0.0844431565942601
 40
0.0960236515572633
 40
0.1075544998256563
 40
0.1190490588207221
 40
0.1305237819491518
 40
0.1419944176215826
 40
0.153475458325121
 40
0.1649840010764007
 40
0.1765344774504436
 40
0.1881375334131519
 40
0.1997994039632583
 40
0.2115218433850308
 40
0.2233025820153414
 40
0.2351361873387789
 40
0.2470151406149149
 40
0.2589309245200473
 40
0.2708749554800183
 40
0.2828392661367326
 40
0.2948169184269749
 40
0.3068021826677982
 40
0.318790511390417
 40
0.3307776307134757
 40
0.3427613896757064
 40
0.3547403729220964
 40
0.3667137447418477
 40
0.3786811143082485
 40
0.3906424248104857
 40
0.4025978653272158
 40
0.4145478026294015
 40
0.4264927295727348
 40
0.4384332268254841
 40
0.4503699350459697
 40
0.4623035350838671
 40
0.4742347342304631
 40
0.4861642569377714
 40
0.4980928387483909
 40
0.5100212224250068
 40
0.5219500615657298
 40
0.5338799512647133
 40
0.5458116436017485
 40
0.5577458899922154
 40
0.5696834376873569
 40
0.5816250243039452
 40
0.5935713693685516
 40
0.6055231616520041
 40
0.6174810407503923
 40
0.6294455709683059
 40
0.6414172050866144
 40
0.6533962350833308
 40
0.6653827263998826
 40
0.6773764320623791
 40
0.6893766831605683
 40
0.701382253325246
 40
0.7133911976401341
 40
0.7253997878897795
 40
0.7374034168406776
 40
0.749396480925615
 40
0.7613720402834098
 40
0.7733219241532284
 40
0.7852370705272913
 40
0.7971081582762708
 40
0.8089265395678203
 40
0.820685396955471
 40
0.8323809546360899
 40
0.8440135064397895
 40
0.8555880220220402
 40
0.8671141678123465
 40
0.8786057030667273
 40
0.8900793358828912
 40
0.9015502283759989
 40
0.9130334887244894
 40
0.9245459891312171
 40
0.9361017923797794
 40
0.9477110810660114
 40
0.9593795917221154
 40
0.9711086060281914
 40
0.9828954594658544
 40
0.9947344360664956
 40
1.0
 40
1.0
 40
1.0
 40
1.0
 10
50.62851775197653
 20
-69.17692169742848
 30
0.0
 10
50.78426943804961
 20
-69.01802425636893
 30
0.0
 10
51.8240608460732
 20
-67.95582140865409
 30
0.0
 10
53.71973890351421
 20
-65.69518764354665
 30
0.0
 10
56.08138704206792
 20
-62.60948410077422
 30
0.0
 10
58.18905858935061
 20
-59.41272578808645
 30
0.0
 10
60.02549617108552
 20
-56.16689755656621
 30
0.0
 10
61.58908878599971
 20
-52.86817420991638
 30
0.0
 10
62.87578361804287
 20
-49.5304761853429
 30
0.0
 10
63.88390807657191
 20
-46.16284104072513
 30
0.0
 10
64.6127282950282
 20
-42.77508320319284
 30
0.0
 10
65.06252792259922
 20
-39.3760155352138
 30
0.0
 10
65.23419274759082
 20
-35.97378787164004
 30
0.0
 10
65.12892276017736
 20
-32.57605256869397
 30
0.0
 10
64.74809079801663
 20
-29.19027266215432
 30
0.0
 10
64.09318135457603
 20
-25.82351529068671
 30
0.0
 10
63.16565491889128
 20
-22.48244930921583
 30
0.0
 10
61.96686868722666
 20
-19.17347537177361
 30
0.0
 10
60.49833658283413
 20
-15.90333928008153
 30
0.0
 10
58.7620224708491
 20
-12.67927453034912
 30
0.0
 10
56.76064332521067
 20
-9.50902378433388
 30
0.0
 10
54.4979183539358
 20
-6.400743404816501
 30
0.0
 10
51.97871771461711
 20
-3.362820618060924
 30
0.0
 10
49.20909342289318
 20
-0.4036491244689966
 30
0.0
 10
46.19620525101922
 20
2.468588929100735
 30
0.0
 10
42.94817565068738
 20
5.246097928231331
 30
0.0
 10
39.47391474304095
 20
7.921582528221061
 30
0.0
 10
35.78295057786597
 20
10.48830007498225
 30
0.0
 10
31.8852906369425
 20
12.94006166816419
 30
0.0
 10
27.79141294018504
 20
15.27114968703874
 30
0.0
 10
23.51208220910443
 20
17.47636171267031
 30
0.0
 10
19.0582988573154
 20
19.55095765863324
 30
0.0
 10
14.44116075829634
 20
21.49065008981643
 30
0.0
 10
9.67199493814582
 20
23.2914937227075
 30
0.0
 10
4.762354209852
 20
24.94986346474548
 30
0.0
 10
-0.2759862256531409
 20
26.46244088034699
 30
0.0
 10
-5.431034369750363
 20
27.82620740208708
 30
0.0
 10
-10.69059028741452
 20
29.03844254999843
 30
0.0
 10
-16.04225860186228
 20
30.09672558919457
 30
0.0
 10
-21.47346455426876
 20
30.9989393183131
 30
0.0
 10
-26.97147331944806
 20
31.74327495208545
 30
0.0
 10
-32.52341215254276
 20
32.32823730533529
 30
0.0
 10
-38.11629490011517
 20
32.75264968844327
 30
0.0
 10
-43.73704840892154
 20
33.01565808518081
 30
0.0
 10
-49.37254038207087
 20
33.11673430786111
 30
0.0
 10
-55.0095934757958
 20
33.05567807909087
 30
0.0
 10
-60.63500531425591
 20
32.83262030186695
 30
0.0
 10
-66.23560372026127
 20
32.44802431737548
 30
0.0
 10
-71.79829207413674
 20
31.90268132641427
 30
0.0
 10
-77.3100879006927
 20
31.19770241998743
 30
0.0
 10
-82.75812674947814
 20
30.33451411088645
 30
0.0
 10
-88.12968920288073
 20
29.31485156179514
 30
0.0
 10
-93.41222614659225
 20
28.14075066026744
 30
0.0
 10
-98.59338178962464
 20
26.81453922803623
 30
0.0
 10
-103.6610138890705
 20
25.33882779289143
 30
0.0
 10
-108.6032106022377
 20
23.71650054223917
 30
0.0
 10
-113.4083033876769
 20
21.95070733078808
 30
0.0
 10
-118.064875435746
 20
20.04485794165378
 30
0.0
 10
-122.5617652779924
 20
18.00262020295535
 30
0.0
 10
-126.8880655712862
 20
15.82792402710492
 30
0.0
 10
-131.0331176806649
 20
13.52497391059815
 30
0.0
 10
-134.9865036828782
 20
11.09827281513553
 30
0.0
 10
-138.7379469422752
 20
8.552722821782321
 30
0.0
 10
-142.2773592294423
 20
5.893680276508495
 30
0.0
 10
-145.5949015597425
 20
3.127018403029647
 30
0.0
 10
-148.6811064891073
 20
0.2591438599265916
 30
0.0
 10
-151.5269272597264
 20
-2.702907297409018
 30
0.0
 10
-154.1238410306911
 20
-5.751383221786144
 30
0.0
 10
-156.4640263146442
 20
-8.877791552114322
 30
0.0
 10
-158.5405734958518
 20
-12.07294028555778
 30
0.0
 10
-160.3476989715453
 20
-15.3270631713297
 30
0.0
 10
-161.8809194613438
 20
-18.63003269446894
 30
0.0
 10
-163.1371391372479
 20
-21.97164057760159
 30
0.0
 10
-164.1146141109863
 20
-25.34190273879947
 30
0.0
 10
-164.8127856199584
 20
-28.73133243498804
 30
0.0
 10
-165.2320067517252
 20
-32.1311279067524
 30
0.0
 10
-165.3732152211514
 20
-35.53323990584423
 30
0.0
 10
-165.2376311043758
 20
-38.93001373371283
 30
0.0
 10
-164.826644136351
 20
-42.31404404583128
 30
0.0
 10
-164.1417513640925
 20
-45.67828009568078
 30
0.0
 10
-163.1843745759607
 20
-49.01617400172026
 30
0.0
 10
-161.9559515447287
 20
-52.32109964641926
 30
0.0
 10
-160.4577453790063
 20
-55.5870059320624
 30
0.0
 10
-158.692860078863
 20
-58.80380780154265
 30
0.0
 10
-156.6600813104561
 20
-61.97421936466685
 30
0.0
 10
-154.378403888741
 20
-65.05053788797815
 30
0.0
 10
-152.277188829599
 20
-67.59092667442978
 30
0.0
 10
-151.008552839707
 20
-68.91102873441751
 30
0.0
 10
-150.548359417729
 20
-69.38792093156584
 30
0.0
  0
LINE
  5
18B
330
15B
100
AcDbEntity
  8
H855
  6
Continuous
 62
     7
100
AcDbLine
 10
-154.763116787
 20
-64.4699215587
 30
0.0
 11
-139.973626717
 21
-250.2516454569
 31
0.0
  0
LINE
  5
18C
330
15B
100
AcDbEntity
  8
H855
  6
Continuous
 62
     7
100
AcDbLine
 10
39.8365566411
 20
-250.2516454569
 30
0.0
 11
54.62771497
 21
-64.4489653249
 31
0.0
  0
SPLINE
  5
18D
330
15B
100
AcDbEntity
  8
H855
  6
Continuous
 62
     7
100
AcDbSpline
210
0.0
220
0.0
230
1.0
 70
     8
 71
     3
 72
    16
 73
    12
 74
     0
 42
0.000000001
 43
0.0000000001
 40
0.0
 40
0.0
 40
0.0
 40
0.0
 40
0.0118610305039215
 40
0.0296288036988861
 40
0.0474907040095645
 40
0.0654477749431068
 40
0.083494982444097
 40
0.1016226930514761
 40
0.1198184169978503
 40
0.1380684971439188
 40
0.1531290900760824
 40
0.1531290900760824
 40
0.1531290900760824
 40
0.1531290900760824
 10
61.27276245314518
 20
-255.4071232415673
 30
0.0
 10
60.97435766325381
 20
-254.596972191202
 30
0.0
 10
60.33580057707604
 20
-252.8837365086697
 30
0.0
 10
58.91625828139477
 20
-249.9295869960287
 30
0.0
 10
57.12783249204239
 20
-246.7519717937089
 30
0.0
 10
55.05571421892509
 20
-243.6061501895384
 30
0.0
 10
52.72870342671047
 20
-240.5313951952357
 30
0.0
 10
50.14532933164158
 20
-237.5278184842737
 30
0.0
 10
47.3138145355749
 20
-234.6061038050819
 30
0.0
 10
44.42252502902252
 20
-231.9409552902448
 30
0.0
 10
42.42778886942725
 20
-230.2747340869468
 30
0.0
 10
41.50116544679248
 20
-229.5335692973759
 30
0.0
  0
SPLINE
  5
18E
330
15B
100
AcDbEntity
  8
H855
  6
Continuous
 62
     7
100
AcDbSpline
210
0.0
220
0.0
230
1.0
 70
     8
 71
     3
 72
    17
 73
    13
 74
     0
 42
0.000000001
 43
0.0000000001
 40
0.8444206831875241
 40
0.8444206831875241
 40
0.8444206831875241
 40
0.8444206831875241
 40
0.8520872546452491
 40
0.8704542576185951
 40
0.8887988882477452
 40
0.9071090047545776
 40
0.9253707513950142
 40
0.9435693595616361
 40
0.9616904389044014
 40
0.9797216972862427
 40
0.9976548761857188
 40
1.0
 40
1.0
 40
1.0
 40
1.0
 10
-141.6481318039392
 20
-229.5414868879791
 30
0.0
 10
-142.119739508375
 20
-229.9188204630019
 30
0.0
 10
-143.6994073094953
 20
-231.2108534387839
 30
0.0
 10
-146.264069765345
 20
-233.4741802501039
 30
0.0
 10
-149.2116366018851
 20
-236.3818845699125
 30
0.0
 10
-151.9138537289306
 20
-239.3799095056882
 30
0.0
 10
-154.3634291545709
 20
-242.460846364445
 30
0.0
 10
-156.5493015686108
 20
-245.612641000707
 30
0.0
 10
-158.4785348120202
 20
-248.8370339046041
 30
0.0
 10
-160.0961869779394
 20
-252.0817108063442
 30
0.0
 10
-161.1549822534435
 20
-254.5106256842681
 30
0.0
 10
-161.5418275789152
 20
-255.7095689807028
 30
0.0
 10
-161.5937745818055
 20
-255.8709915331829
 30
0.0
  0
LINE
  5
18F
330
15B
100
AcDbEntity
  8
H855
  6
Continuous
 62
     7
100
AcDbLine
 10
62.6117964756
 20
-259.0925629237
 30
0.0
 11
61.5458943489
 21
-256.0751892377
 31
0.0
  0
LINE
  5
190
330
15B
100
AcDbEntity
  8
H855
  6
Continuous
 62
     7
100
AcDbLine
 10
-161.6829644247
 20
-256.0751892377
 30
0.0
 11
-162.7488665515
 21
-259.0925629237
 31
0.0
  0
LINE
  5
191
330
15B
100
AcDbEntity
  8
H855
  6
Continuous
 62
     7
100
AcDbLine
 10
-158.4410224273
 20
-271.9116395202
 30
0.0
 11
-158.4410224273
 21
-279.5749024025
 31
0.0
  0
ARC
  5
192
330
15B
100
AcDbEntity
  8
H855
  6
Continuous
 62
     7
100
AcDbCircle
 10
-124.601573664
 20
-318.5387875148
 30
0.0
 40
59.81166536586136
100
AcDbArc
 50
104.8320187836
 51
121.7180687267
  0
ARC
  5
193
330
15B
100
AcDbEntity
  8
H855
  6
Continuous
 62
     7
100
AcDbCircle
 10
-153.4410224273
 20
-271.9116395202
 30
0.0
 40
4.999999999999996
100
AcDbArc
 50
121.4964603858
 51
180.0
  0
SPLINE
  5
194
330
15B
100
AcDbEntity
  8
H855
  6
Continuous
 62
     7
100
AcDbSpline
210
0.0
220
0.0
230
1.0
 70
     8
 71
     3
 72
    26
 73
    22
 74
     0
 42
0.000000001
 43
0.0000000001
 40
0.0
 40
0.0
 40
0.0
 40
0.0
 40
0.0122140945273097
 40
0.0674077054946684
 40
0.1225736457385112
 40
0.177702323422488
 40
0.2327896861748166
 40
0.2878323056850426
 40
0.3428276856015254
 40
0.3977746868559913
 40
0.4526741026929432
 40
0.5075294228006891
 40
0.5623478298885135
 40
0.6171414710846542
 40
0.6719274888133105
 40
0.7267246345083153
 40
0.7815668779948661
 40
0.8365001753277707
 40
0.8915844114851049
 40
0.9468944546977613
 40
1.0
 40
1.0
 40
1.0
 40
1.0
 10
-78.17958775400876
 20
-296.0527680258893
 30
0.0
 10
-78.56879971250986
 20
-295.983601986939
 30
0.0
 10
-80.40757412662643
 20
-295.6554824659988
 30
0.0
 10
-84.0081977390706
 20
-294.9029016884287
 30
0.0
 10
-88.59187010143413
 20
-293.7961655430112
 30
0.0
 10
-93.10385480240221
 20
-292.5361370560075
 30
0.0
 10
-97.47051618848437
 20
-291.1454440107897
 30
0.0
 10
-101.6944631049601
 20
-289.6243878003199
 30
0.0
 10
-105.7585896128938
 20
-287.9798915299633
 30
0.0
 10
-109.6518075222891
 20
-286.2177377344771
 30
0.0
 10
-113.3622507423266
 20
-284.344613150882
 30
0.0
 10
-116.8791934738561
 20
-282.3675102840006
 30
0.0
 10
-120.1926283464527
 20
-280.2938314468347
 30
0.0
 10
-123.2934859056159
 20
-278.1312428695803
 30
0.0
 10
-126.1734254908585
 20
-275.887852346963
 30
0.0
 10
-128.8255646710517
 20
-273.5713574208351
 30
0.0
 10
-131.2426051850157
 20
-271.1913197336377
 30
0.0
 10
-133.4241832366706
 20
-268.7496207057447
 30
0.0
 10
-135.3494803250414
 20
-266.2748000089018
 30
0.0
 10
-137.0529029813369
 20
-263.7314755718924
 30
0.0
 10
-137.8985360113184
 20
-262.1819401786587
 30
0.0
 10
-138.3831628080734
 20
-261.2813961967574
 30
0.0
  0
LINE
  5
195
330
15B
100
AcDbEntity
  8
H855
  6
Continuous
 62
     7
100
AcDbLine
 10
-152.5791328911
 20
-41.1156428479
 30
0.0
 11
-152.4402172876
 21
-41.5441764623
 31
0.0
  0
LINE
  5
196
330
15B
100
AcDbEntity
  8
H855
  6
Continuous
 62
     7
100
AcDbLine
 10
52.3031472117
 20
-41.5441764623
 30
0.0
 11
52.4420628152
 21
-41.1156428479
 31
0.0
  0
ENDBLK
  5
198
330
15B
100
AcDbEntity
  8
0
100
AcDbBlockEnd
  0
BLOCK
  5
1A5
330
199
100
AcDbEntity
  8
0
100
AcDbBlockBegin
  2
GDimGGroup
 70
     0
 10
0.0
 20
0.0
 30
0.0
  3
GDimGGroup
  1
GDimGGroup
  0
HATCH
  5
19B
330
199
100
AcDbEntity
  8
Cartouche
  6
Continuous
 62
     7
100
AcDbHatch
 10
0.0
 20
0.0
 30
0.0
210
0.0
220
0.0
230
1.0
  2
SOLID
 70
     1
 71
     0
 91
        1
 92
        1
 93
        3
 72
     1
 10
377.6638910561997
 20
490.2337453671904
 11
377.6638910561997
 21
482.2337452976517
 72
     1
 10
377.6638910561997
 20
482.2337452976517
 11
401.663891264816
 21
486.2337453324211
 72
     1
 10
401.663891264816
 20
486.2337453324211
 11
377.6638910561997
 21
490.2337453671904
 97
        0
 75
     0
 76
     1
 98
        0
  0
HATCH
  5
19C
330
199
100
AcDbEntity
  8
Cartouche
  6
Continuous
 62
     7
100
AcDbHatch
 10
0.0
 20
0.0
 30
0.0
210
0.0
220
0.0
230
1.0
  2
SOLID
 70
     1
 71
     0
 91
        1
 92
        1
 93
        3
 72
     1
 10
195.6638914734322
 20
490.2337453671904
 11
171.663891264816
 21
486.2337453324211
 72
     1
 10
171.663891264816
 20
486.2337453324211
 11
195.6638914734322
 21
482.2337452976517
 72
     1
 10
195.6638914734322
 20
482.2337452976517
 11
195.6638914734322
 21
490.2337453671904
 97
        0
 75
     0
 76
     1
 98
        0
  0
LINE
  5
19D
330
199
100
AcDbEntity
  8
Cartouche
  6
Continuous
 62
     7
100
AcDbLine
 10
401.6638912648
 20
124.6505422551
 30
0.0
 11
401.6638912648
 21
494.2337457124
 31
0.0
  0
LINE
  5
19E
330
199
100
AcDbEntity
  8
Cartouche
  6
Continuous
 62
     7
100
AcDbLine
 10
171.6638912648
 20
124.6505422551
 30
0.0
 11
171.6638912648
 21
494.2337457124
 31
0.0
  0
LINE
  5
19F
330
199
100
AcDbEntity
  8
Cartouche
  6
Continuous
 62
     7
100
AcDbLine
 10
401.6638912648
 20
486.2337453324
 30
0.0
 11
324.4548656434
 21
486.2337453324
 31
0.0
  0
LINE
  5
1A0
330
199
100
AcDbEntity
  8
Cartouche
  6
Continuous
 62
     7
100
AcDbLine
 10
248.8729168862
 20
486.2337453324
 30
0.0
 11
171.6638912648
 21
486.2337453324
 31
0.0
  0
TEXT
  5
1A2
330
199
100
AcDbEntity
  8
Cartouche
  6
Continuous
 62
     7
100
AcDbText
 10
254.4729139239
 20
478.2337453324
 30
0.0
 40
16.0
  1
O
  7
SEACAD_Solid_Edge_ANSI1_SymbolsB
 11
254.4729139239
 21
494.2337453324
 31
0.0
100
AcDbText
 73
     3
  0
TEXT
  5
1A4
330
199
100
AcDbEntity
  8
Cartouche
  6
Continuous
 62
     7
100
AcDbText
 10
282.5881977667
 20
478.2337453324
 30
0.0
 40
16.0
  1
230
  7
SEACAD_ArialB
 11
282.5881977667
 21
494.2337453324
 31
0.0
100
AcDbText
 73
     3
  0
ENDBLK
  5
1A6
330
199
100
AcDbEntity
  8
0
100
AcDbBlockEnd
  0
BLOCK
  5
1A9
330
1A8
100
AcDbEntity
  8
0
100
AcDbBlockBegin
  2
_OBLIQUE
 70
     0
 10
0.0
 20
0.0
 30
0.0
  3
_OBLIQUE
  1
_OBLIQUE
  0
LINE
  5
1AB
330
1A8
100
AcDbEntity
  8
0
  6
ByBlock
 62
     0
370
    -2
100
AcDbLine
 10
-0.5
 20
-0.5
 30
0.0
 11
0.5
 21
0.5
 31
0.0
  0
ENDBLK
  5
1AA
330
1A8
100
AcDbEntity
  8
0
100
AcDbBlockEnd
  0
BLOCK
  5
1AD
330
1AC
100
AcDbEntity
  8
0
100
AcDbBlockBegin
  2
_DOT
 70
     0
 10
0.0
 20
0.0
 30
0.0
  3
_DOT
  1
_DOT
  0
POLYLINE
  5
1AF
330
1AC
100
AcDbEntity
  8
0
  6
ByBlock
 62
     0
100
AcDb2dPolyline
 66
     1
 10
0.0
 20
0.0
 30
0.0
 70
     1
 40
0.5
 41
0.5
  0
VERTEX
  5
1B1
330
1AF
100
AcDbEntity
  8
0
  6
ByBlock
 62
     0
100
AcDbVertex
100
AcDb2dVertex
 10
-0.25
 20
0.0
 30
0.0
 42
1.0
  0
VERTEX
  5
1B2
330
1AF
100
AcDbEntity
  8
0
  6
ByBlock
 62
     0
100
AcDbVertex
100
AcDb2dVertex
 10
0.25
 20
0.0
 30
0.0
 42
1.0
  0
SEQEND
  5
1B3
330
1AF
100
AcDbEntity
  8
0
  6
ByBlock
 62
     0
  0
LINE
  5
1B0
330
1AC
100
AcDbEntity
  8
0
  6
ByBlock
 62
     0
370
    -2
100
AcDbLine
 10
-0.5
 20
0.0
 30
0.0
 11
-1.0
 21
0.0
 31
0.0
  0
ENDBLK
  5
1AE
330
1AC
100
AcDbEntity
  8
0
100
AcDbBlockEnd
  0
BLOCK
  5
1B7
330
1B4
100
AcDbEntity
  8
0
100
AcDbBlockBegin
  2
_SE_FILLED
 70
     0
 10
0.0
 20
0.0
 30
0.0
  3
_SE_FILLED
  1
_SE_FILLED
  0
SOLID
  5
1B5
330
1B4
100
AcDbEntity
  8
0
 62
     0
100
AcDbTrace
 10
0.0
 20
0.0
 30
0.0
 11
-1.0
 21
-0.1665
 31
0.0
 12
-1.0
 22
0.1665
 32
0.0
 13
0.0
 23
0.0
 33
0.0
  0
LINE
  5
1B6
330
1B4
100
AcDbEntity
  8
0
 62
     0
100
AcDbLine
 10
0.0
 20
0.0
 30
0.0
 11
-1.0
 21
0.0
 31
0.0
  0
ENDBLK
  5
1B8
330
1B4
100
AcDbEntity
  8
0
100
AcDbBlockEnd
  0
BLOCK
  5
1C4
330
1BC
100
AcDbEntity
  8
0
100
AcDbBlockBegin
  2
DMBLK4
 70
     0
 10
0.0
 20
0.0
 30
0.0
  3
DMBLK4
  1
DMBLK4
  0
HATCH
  5
1BD
330
1BC
100
AcDbEntity
  8
Cartouche
  6
Continuous
 62
     7
100
AcDbHatch
 10
0.0
 20
0.0
 30
0.0
210
0.0
220
0.0
230
1.0
  2
SOLID
 70
     1
 71
     0
 91
        1
 92
        1
 93
        3
 72
     1
 10
444.7531633218326
 20
148.650542463721
 11
436.7531632522939
 21
148.650542463721
 72
     1
 10
436.7531632522939
 20
148.650542463721
 11
440.7531632870633
 21
124.6505422551047
 72
     1
 10
440.7531632870633
 20
124.6505422551047
 11
444.7531633218326
 21
148.650542463721
 97
        0
 75
     0
 76
     1
 98
        0
  0
HATCH
  5
1BE
330
1BC
100
AcDbEntity
  8
Cartouche
  6
Continuous
 62
     7
100
AcDbHatch
 10
0.0
 20
0.0
 30
0.0
210
0.0
220
0.0
230
1.0
  2
SOLID
 70
     1
 71
     0
 91
        1
 92
        1
 93
        3
 72
     1
 10
444.7531633218326
 20
410.6505420464888
 11
440.7531632870633
 21
434.6505422551051
 72
     1
 10
440.7531632870633
 20
434.6505422551051
 11
436.7531632522939
 21
410.6505420464888
 72
     1
 10
436.7531632522939
 20
410.6505420464888
 11
444.7531633218326
 21
410.6505420464888
 97
        0
 75
     0
 76
     1
 98
        0
  0
LINE
  5
1BF
330
1BC
100
AcDbEntity
  8
Cartouche
  6
Continuous
 62
     7
100
AcDbLine
 10
286.6638912648
 20
124.6505422551
 30
0.0
 11
448.753163667
 21
124.6505422551
 31
0.0
  0
LINE
  5
1C0
330
1BC
100
AcDbEntity
  8
Cartouche
  6
Continuous
 62
     7
100
AcDbLine
 10
286.6638912648
 20
434.6505422551
 30
0.0
 11
448.753163667
 21
434.6505422551
 31
0.0
  0
LINE
  5
1C1
330
1BC
100
AcDbEntity
  8
Cartouche
  6
Continuous
 62
     7
100
AcDbLine
 10
440.7531632871
 20
124.6505422551
 30
0.0
 11
440.7531632871
 21
266.0505367476
 31
0.0
  0
LINE
  5
1C2
330
1BC
100
AcDbEntity
  8
Cartouche
  6
Continuous
 62
     7
100
AcDbLine
 10
440.7531632871
 20
293.2505477626
 30
0.0
 11
440.7531632871
 21
434.6505422551
 31
0.0
  0
TEXT
  5
1C3
330
1BC
100
AcDbEntity
  8
Cartouche
  6
Continuous
 62
     7
100
AcDbText
 10
422.6198299537
 20
271.6505434472
 30
0.0
 40
16.0
  1
310
  7
SEACAD_ArialB
 11
422.6198299537
 21
287.6505434472
 31
0.0
100
AcDbText
 73
     3
  0
ENDBLK
  5
1C5
330
1BC
100
AcDbEntity
  8
0
100
AcDbBlockEnd
  0
ENDSEC
  0
SECTION
  2
ENTITIES
  0
LINE
  5
6F
330
1F
100
AcDbEntity
  8
encadrement
  6
Continuous
 62
     7
100
AcDbLine
 10
10.0
 20
80.035459542
 30
0.0
 11
200.0
 21
80.035459542
 31
0.0
  0
LINE
  5
70
330
1F
100
AcDbEntity
  8
encadrement
  6
Continuous
 62
     7
100
AcDbLine
 10
10.0
 20
65.035459542
 30
0.0
 11
200.0
 21
65.035459542
 31
0.0
  0
LINE
  5
71
330
1F
100
AcDbEntity
  8
encadrement
  6
Continuous
 62
     7
100
AcDbLine
 10
10.0
 20
55.035459542
 30
0.0
 11
200.0
 21
55.035459542
 31
0.0
  0
LINE
  5
72
330
1F
100
AcDbEntity
  8
encadrement
  6
Continuous
 62
     7
100
AcDbLine
 10
10.0
 20
45.035459542
 30
0.0
 11
200.0
 21
45.035459542
 31
0.0
  0
LINE
  5
73
330
1F
100
AcDbEntity
  8
encadrement
  6
Continuous
 62
     7
100
AcDbLine
 10
10.0
 20
35.035459542
 30
0.0
 11
200.0
 21
35.035459542
 31
0.0
  0
INSERT
  5
76
330
1F
100
AcDbEntity
  8
Cartouche
100
AcDbBlockReference
  2
SE
 10
0.0
 20
0.0
 30
0.0
  0
INSERT
  5
AF
330
1F
100
AcDbEntity
  8
Cartouche
100
AcDbBlockReference
  2
SE1
 10
0.0
 20
0.0
 30
0.0
  0
INSERT
  5
E2
330
1F
100
AcDbEntity
  8
Cartouche
100
AcDbBlockReference
  2
SE2
 10
0.0
 20
0.0
 30
0.0
  0
INSERT
  5
116
330
1F
100
AcDbEntity
  8
Cartouche
100
AcDbBlockReference
  2
SE3
 10
0.0
 20
0.0
 30
0.0
  0
INSERT
  5
11F
330
1F
100
AcDbEntity
  8
Cartouche
100
AcDbBlockReference
  2
SE4
 10
0.0
 20
0.0
 30
0.0
  0
INSERT
  5
15C
330
1F
100
AcDbEntity
  8
Cartouche
100
AcDbBlockReference
  2
SE5
 10
0.0
 20
0.0
 30
0.0
  0
INSERT
  5
19A
330
1F
100
AcDbEntity
  8
Cartouche
100
AcDbBlockReference
  2
GDimGGroup
 10
0.0
 20
0.0
 30
0.0
  0
DIMENSION
  5
1BB
330
1F
100
AcDbEntity
  8
Cartouche
  6
Continuous
 62
     7
100
AcDbDimension
  2
DMBLK4
 10
440.7531632871
 20
124.6505422551
 30
0.0
 11
440.7531632871
 21
279.6505434472
 31
0.0
 70
   161
  1
\A1;<>
 71
     5
 42
-1.0
 73
     0
 74
     0
 75
     0
  3
ISO
100
AcDbAlignedDimension
 13
286.6638912648
 23
124.6505422551
 33
0.0
 14
286.6638912648
 24
434.6505422551
 34
0.0
  0
ENDSEC
  0
SECTION
  2
OBJECTS
  0
DICTIONARY
  5
C
330
0
100
AcDbDictionary
281
     1
  3
ACAD_DETAILVIEWSTYLE
350
201
  3
ACAD_GROUP
350
D
  3
ACAD_LAYOUT
350
1A
  3
ACAD_MATERIAL
350
43
  3
ACAD_MLEADERSTYLE
350
6B
  3
ACAD_MLINESTYLE
350
17
  3
ACAD_PLOTSETTINGS
350
19
  3
ACAD_PLOTSTYLENAME
350
E
  3
ACAD_SCALELIST
350
47
  3
ACAD_SECTIONVIEWSTYLE
350
202
  3
ACAD_TABLESTYLE
350
69
  3
ACAD_VISUALSTYLE
350
2A
  3
ACDB_RECOMPOSE_DATA
350
1FE
  3
AcDbVariableDictionary
350
1C6
  0
SUN
  5
6D
330
29
100
AcDbSun
 90
        1
290
     0
 63
     7
421
 16777215
 40
1.0
291
     1
 91
  2455826
 92
 54000000
292
     0
 70
     2
 71
   256
280
     1
  0
DICTIONARY
  5
201
102
{ACAD_REACTORS
330
C
102
}
330
C
100
AcDbDictionary
281
     1
  0
DICTIONARY
  5
D
102
{ACAD_REACTORS
330
C
102
}
330
C
100
AcDbDictionary
281
     1
  0
DICTIONARY
  5
1A
102
{ACAD_REACTORS
330
C
102
}
330
C
100
AcDbDictionary
281
     1
  3
Layout1
350
1E
  3
Model
350
22
  0
DICTIONARY
  5
43
102
{ACAD_REACTORS
330
C
102
}
330
C
100
AcDbDictionary
281
     1
  3
ByBlock
350
45
  3
ByLayer
350
44
  3
Global
350
46
  0
DICTIONARY
  5
6B
102
{ACAD_REACTORS
330
C
102
}
330
C
100
AcDbDictionary
281
     1
  3
Standard
350
6C
  0
DICTIONARY
  5
17
102
{ACAD_REACTORS
330
C
102
}
330
C
100
AcDbDictionary
281
     1
  3
Standard
350
18
  0
DICTIONARY
  5
19
102
{ACAD_REACTORS
330
C
102
}
330
C
100
AcDbDictionary
281
     1
  0
ACDBDICTIONARYWDFLT
  5
E
102
{ACAD_REACTORS
330
C
102
}
330
C
100
AcDbDictionary
281
     1
  3
Normal
350
F
100
AcDbDictionaryWithDefault
340
F
  0
DICTIONARY
  5
47
102
{ACAD_REACTORS
330
C
102
}
330
C
100
AcDbDictionary
281
     1
  3
A0
350
48
  3
A1
350
49
  3
A2
350
4A
  3
A3
350
4B
  3
A4
350
4C
  3
A5
350
4D
  3
A6
350
4E
  3
A7
350
4F
  3
A8
350
50
  3
A9
350
51
  3
B0
350
52
  3
B1
350
53
  3
B2
350
54
  3
B3
350
55
  3
B4
350
56
  3
B5
350
57
  3
B6
350
58
  3
B7
350
59
  3
B8
350
5A
  3
B9
350
5B
  3
C0
350
5C
  3
C1
350
5D
  3
C2
350
5E
  3
C3
350
5F
  3
C4
350
60
  3
C5
350
61
  3
C6
350
62
  3
C7
350
63
  3
C8
350
64
  3
C9
350
65
  3
D0
350
66
  3
D1
350
67
  3
D2
350
68
  0
DICTIONARY
  5
202
102
{ACAD_REACTORS
330
C
102
}
330
C
100
AcDbDictionary
281
     1
  0
DICTIONARY
  5
69
102
{ACAD_REACTORS
330
C
102
}
330
C
100
AcDbDictionary
281
     1
  3
Standard
350
6A
  0
DICTIONARY
  5
2A
102
{ACAD_REACTORS
330
C
102
}
330
C
100
AcDbDictionary
281
     1
  3
2dWireframe
350
2F
  3
Basic
350
32
  3
Brighten
350
36
  3
ColorChange
350
3A
  3
Conceptual
350
34
  3
Dim
350
35
  3
EdgeColorOff
350
3D
  3
Facepattern
350
39
  3
Flat
350
2B
  3
FlatWithEdges
350
2C
  3
Gouraud
350
2D
  3
GouraudWithEdges
350
2E
  3
Hidden
350
31
  3
JitterOff
350
3B
  3
Linepattern
350
38
  3
OverhangOff
350
3C
  3
Realistic
350
33
  3
Shaded
350
42
  3
Shaded with edges
350
41
  3
Shades of Gray
350
3E
  3
Sketchy
350
3F
  3
Thicken
350
37
  3
Wireframe
350
30
  3
X-Ray
350
40
  0
XRECORD
  5
1FE
102
{ACAD_REACTORS
330
C
102
}
330
C
100
AcDbXrecord
280
     1
 90
        1
330
6A
  0
DICTIONARY
  5
1C6
102
{ACAD_REACTORS
330
C
102
}
330
C
100
AcDbDictionary
281
     1
  3
CANNOSCALE
350
1C7
  3
CMLEADERSTYLE
350
200
  3
CTABLESTYLE
350
1FF
  3
XCLIPFRAME
350
1C8
  0
LAYOUT
  5
1E
102
{ACAD_REACTORS
330
1A
102
}
330
1A
100
AcDbPlotSettings
  1

  2
none_device
  4

  6

 40
0.0
 41
0.0
 42
0.0
 43
0.0
 44
0.0
 45
0.0
 46
0.0
 47
0.0
 48
0.0
 49
0.0
140
0.0
141
0.0
142
1.0
143
1.0
 70
   688
 72
     1
 73
     0
 74
     5
  7

 75
    16
 76
     0
 77
     2
 78
   300
147
1.0
148
0.0
149
0.0
100
AcDbLayout
  1
Layout1
 70
     1
 71
     1
 10
0.0
 20
0.0
 11
550.0
 21
511.0
 12
0.0
 22
0.0
 32
0.0
 14
0.0
 24
0.0
 34
0.0
 15
550.0
 25
511.0
 35
0.0
146
0.0
 13
0.0
 23
0.0
 33
0.0
 16
1.0
 26
0.0
 36
0.0
 17
0.0
 27
1.0
 37
0.0
 76
     0
330
1B
  0
LAYOUT
  5
22
102
{ACAD_REACTORS
330
1A
102
}
330
1A
100
AcDbPlotSettings
  1

  2
none_device
  4
Letter_(8.50_x_11.00_Inches)
  6

 40
6.35
 41
6.35
 42
6.35000508
 43
6.35000508
 44
215.9
 45
279.4
 46
0.0
 47
0.0
 48
0.0
 49
0.0
140
0.0
141
0.0
142
1.0
143
1.0
 70
  1712
 72
     1
 73
     0
 74
     0
  7

 75
     0
 76
     0
 77
     2
 78
   300
147
1.0
148
0.0
149
0.0
100
AcDbLayout
  1
Model
 70
     1
 71
     0
 10
0.0
 20
0.0
 11
550.0
 21
511.0
 12
0.0
 22
0.0
 32
0.0
 14
0.0
 24
0.0
 34
0.0
 15
550.0
 25
511.0
 35
0.0
146
0.0
 13
0.0
 23
0.0
 33
0.0
 16
1.0
 26
0.0
 36
0.0
 17
0.0
 27
1.0
 37
0.0
 76
     0
330
1F
331
29
  0
MATERIAL
  5
45
102
{ACAD_REACTORS
330
43
102
}
330
43
100
AcDbMaterial
  1
ByBlock
 72
     1
 94
      127
  0
MATERIAL
  5
44
102
{ACAD_REACTORS
330
43
102
}
330
43
100
AcDbMaterial
  1
ByLayer
 72
     1
 94
      127
  0
MATERIAL
  5
46
102
{ACAD_REACTORS
330
43
102
}
330
43
100
AcDbMaterial
  1
Global
 72
     1
 94
      127
  0
MLEADERSTYLE
  5
6C
102
{ACAD_REACTORS
330
6B
102
}
102
{ACAD_XDICTIONARY
360
1FC
102
}
330
6B
100
AcDbMLeaderStyle
170
     2
171
     1
172
     0
 90
        2
 40
0.0
 41
0.0
173
     1
 91
-1056964608
340
14
 92
       -2
290
     1
 42
2.0
291
     1
 43
8.0
  3
Standard
341
0
 44
4.0
300

342
11
174
     1
178
     6
175
     1
176
     0
 93
-1056964608
 45
4.0
292
     0
297
     0
 46
4.0
343
0
 94
-1056964608
 47
1.0
 49
1.0
140
1.0
293
     1
141
0.0
294
     1
177
     0
142
1.0
295
     0
296
     0
143
3.75
1001
ACAD_MLEADERVER
1070
     2
  0
MLINESTYLE
  5
18
102
{ACAD_REACTORS
330
17
102
}
330
17
100
AcDbMlineStyle
  2
Standard
 70
     0
  3

 62
   256
 51
90.0
 52
90.0
 71
     2
 49
0.5
 62
   256
  6
BYLAYER
 49
-0.5
 62
   256
  6
BYLAYER
  0
ACDBPLACEHOLDER
  5
F
102
{ACAD_REACTORS
330
E
102
}
330
E
  0
SCALE
  5
48
102
{ACAD_REACTORS
330
47
102
}
330
47
100
AcDbScale
 70
     0
300
1:1
140
1.0
141
1.0
290
     1
  0
SCALE
  5
49
102
{ACAD_REACTORS
330
47
102
}
330
47
100
AcDbScale
 70
     0
300
1:2
140
1.0
141
2.0
290
     0
  0
SCALE
  5
4A
102
{ACAD_REACTORS
330
47
102
}
330
47
100
AcDbScale
 70
     0
300
1:4
140
1.0
141
4.0
290
     0
  0
SCALE
  5
4B
102
{ACAD_REACTORS
330
47
102
}
330
47
100
AcDbScale
 70
     0
300
1:5
140
1.0
141
5.0
290
     0
  0
SCALE
  5
4C
102
{ACAD_REACTORS
330
47
102
}
330
47
100
AcDbScale
 70
     0
300
1:8
140
1.0
141
8.0
290
     0
  0
SCALE
  5
4D
102
{ACAD_REACTORS
330
47
102
}
330
47
100
AcDbScale
 70
     0
300
1:10
140
1.0
141
10.0
290
     0
  0
SCALE
  5
4E
102
{ACAD_REACTORS
330
47
102
}
330
47
100
AcDbScale
 70
     0
300
1:16
140
1.0
141
16.0
290
     0
  0
SCALE
  5
4F
102
{ACAD_REACTORS
330
47
102
}
330
47
100
AcDbScale
 70
     0
300
1:20
140
1.0
141
20.0
290
     0
  0
SCALE
  5
50
102
{ACAD_REACTORS
330
47
102
}
330
47
100
AcDbScale
 70
     0
300
1:30
140
1.0
141
30.0
290
     0
  0
SCALE
  5
51
102
{ACAD_REACTORS
330
47
102
}
330
47
100
AcDbScale
 70
     0
300
1:40
140
1.0
141
40.0
290
     0
  0
SCALE
  5
52
102
{ACAD_REACTORS
330
47
102
}
330
47
100
AcDbScale
 70
     0
300
1:50
140
1.0
141
50.0
290
     0
  0
SCALE
  5
53
102
{ACAD_REACTORS
330
47
102
}
330
47
100
AcDbScale
 70
     0
300
1:100
140
1.0
141
100.0
290
     0
  0
SCALE
  5
54
102
{ACAD_REACTORS
330
47
102
}
330
47
100
AcDbScale
 70
     0
300
2:1
140
2.0
141
1.0
290
     0
  0
SCALE
  5
55
102
{ACAD_REACTORS
330
47
102
}
330
47
100
AcDbScale
 70
     0
300
4:1
140
4.0
141
1.0
290
     0
  0
SCALE
  5
56
102
{ACAD_REACTORS
330
47
102
}
330
47
100
AcDbScale
 70
     0
300
8:1
140
8.0
141
1.0
290
     0
  0
SCALE
  5
57
102
{ACAD_REACTORS
330
47
102
}
330
47
100
AcDbScale
 70
     0
300
10:1
140
10.0
141
1.0
290
     0
  0
SCALE
  5
58
102
{ACAD_REACTORS
330
47
102
}
330
47
100
AcDbScale
 70
     0
300
100:1
140
100.0
141
1.0
290
     0
  0
SCALE
  5
59
102
{ACAD_REACTORS
330
47
102
}
330
47
100
AcDbScale
 70
     0
300
1/128" = 1'-0"
140
0.0078125
141
12.0
290
     0
  0
SCALE
  5
5A
102
{ACAD_REACTORS
330
47
102
}
330
47
100
AcDbScale
 70
     0
300
1/64" = 1'-0"
140
0.015625
141
12.0
290
     0
  0
SCALE
  5
5B
102
{ACAD_REACTORS
330
47
102
}
330
47
100
AcDbScale
 70
     0
300
1/32" = 1'-0"
140
0.03125
141
12.0
290
     0
  0
SCALE
  5
5C
102
{ACAD_REACTORS
330
47
102
}
330
47
100
AcDbScale
 70
     0
300
1/16" = 1'-0"
140
0.0625
141
12.0
290
     0
  0
SCALE
  5
5D
102
{ACAD_REACTORS
330
47
102
}
330
47
100
AcDbScale
 70
     0
300
3/32" = 1'-0"
140
0.09375
141
12.0
290
     0
  0
SCALE
  5
5E
102
{ACAD_REACTORS
330
47
102
}
330
47
100
AcDbScale
 70
     0
300
1/8" = 1'-0"
140
0.125
141
12.0
290
     0
  0
SCALE
  5
5F
102
{ACAD_REACTORS
330
47
102
}
330
47
100
AcDbScale
 70
     0
300
3/16" = 1'-0"
140
0.1875
141
12.0
290
     0
  0
SCALE
  5
60
102
{ACAD_REACTORS
330
47
102
}
330
47
100
AcDbScale
 70
     0
300
1/4" = 1'-0"
140
0.25
141
12.0
290
     0
  0
SCALE
  5
61
102
{ACAD_REACTORS
330
47
102
}
330
47
100
AcDbScale
 70
     0
300
3/8" = 1'-0"
140
0.375
141
12.0
290
     0
  0
SCALE
  5
62
102
{ACAD_REACTORS
330
47
102
}
330
47
100
AcDbScale
 70
     0
300
1/2" = 1'-0"
140
0.5
141
12.0
290
     0
  0
SCALE
  5
63
102
{ACAD_REACTORS
330
47
102
}
330
47
100
AcDbScale
 70
     0
300
3/4" = 1'-0"
140
0.75
141
12.0
290
     0
  0
SCALE
  5
64
102
{ACAD_REACTORS
330
47
102
}
330
47
100
AcDbScale
 70
     0
300
1" = 1'-0"
140
1.0
141
12.0
290
     0
  0
SCALE
  5
65
102
{ACAD_REACTORS
330
47
102
}
330
47
100
AcDbScale
 70
     0
300
1-1/2" = 1'-0"
140
1.5
141
12.0
290
     0
  0
SCALE
  5
66
102
{ACAD_REACTORS
330
47
102
}
330
47
100
AcDbScale
 70
     0
300
3" = 1'-0"
140
3.0
141
12.0
290
     0
  0
SCALE
  5
67
102
{ACAD_REACTORS
330
47
102
}
330
47
100
AcDbScale
 70
     0
300
6" = 1'-0"
140
6.0
141
12.0
290
     0
  0
SCALE
  5
68
102
{ACAD_REACTORS
330
47
102
}
330
47
100
AcDbScale
 70
     0
300
1'-0" = 1'-0"
140
12.0
141
12.0
290
     0
  0
TABLESTYLE
  5
6A
102
{ACAD_REACTORS
330
69
102
}
102
{ACAD_XDICTIONARY
360
1F9
102
}
330
69
100
AcDbTableStyle
  3
Standard
 70
     0
 71
     0
 40
0.06
 41
0.06
280
     0
281
     0
  7
Standard
140
4.5
170
     2
 62
     0
 63
   257
283
     0
 90
        4
 91
        0
  1

274
    -2
284
     1
 64
     0
275
    -2
285
     1
 65
     0
276
    -2
286
     1
 66
     0
277
    -2
287
     1
 67
     0
278
    -2
288
     1
 68
     0
279
    -2
289
     1
 69
     0
  7
Standard
140
6.0
170
     5
 62
     0
 63
   257
283
     0
 90
        4
 91
        0
  1

274
    -2
284
     1
 64
     0
275
    -2
285
     1
 65
     0
276
    -2
286
     1
 66
     0
277
    -2
287
     1
 67
     0
278
    -2
288
     1
 68
     0
279
    -2
289
     1
 69
     0
  7
Standard
140
4.5
170
     5
 62
     0
 63
   257
283
     0
 90
        4
 91
        0
  1

274
    -2
284
     1
 64
     0
275
    -2
285
     1
 65
     0
276
    -2
286
     1
 66
     0
277
    -2
287
     1
 67
     0
278
    -2
288
     1
 68
     0
279
    -2
289
     1
 69
     0
  0
VISUALSTYLE
  5
2F
102
{ACAD_REACTORS
330
2A
102
}
102
{ACAD_XDICTIONARY
360
1D1
102
}
330
2A
100
AcDbVisualStyle
  2
2dWireframe
 70
     4
 71
     0
 72
     2
 73
     0
 90
        0
 40
0.6
 41
30.0
 62
     5
 63
     7
421
 16777215
 74
     1
 91
        4
 64
     7
 65
   257
 75
     1
175
     1
 42
1.0
 92
        0
 66
   257
 43
1.0
 76
     1
 77
     6
 78
     2
 67
     7
 79
     5
170
     0
171
     0
290
     0
174
     0
 93
        1
 44
0.0
173
     0
291
     0
 45
0.0
  0
VISUALSTYLE
  5
32
102
{ACAD_REACTORS
330
2A
102
}
102
{ACAD_XDICTIONARY
360
1D7
102
}
330
2A
100
AcDbVisualStyle
  2
Basic
 70
     7
 71
     1
 72
     0
 73
     1
 90
        0
 40
0.6
 41
30.0
 62
     5
 63
     7
421
 16777215
 74
     0
 91
        4
 64
     7
 65
   257
 75
     1
175
     1
 42
1.0
 92
        8
 66
     7
 43
1.0
 76
     1
 77
     6
 78
     2
 67
     7
 79
     5
170
     0
171
     0
290
     0
174
     0
 93
        1
 44
0.0
173
     0
291
     1
 45
0.0
  0
VISUALSTYLE
  5
36
102
{ACAD_REACTORS
330
2A
102
}
102
{ACAD_XDICTIONARY
360
1DF
102
}
330
2A
100
AcDbVisualStyle
  2
Brighten
 70
    12
 71
     2
 72
     2
 73
     0
 90
        0
 40
0.6
 41
30.0
 62
     5
 63
     7
421
 16777215
 74
     1
 91
        4
 64
     7
 65
   257
 75
     1
175
     1
 42
1.0
 92
        8
 66
     7
 43
1.0
 76
     1
 77
     6
 78
     2
 67
     7
 79
     5
170
     0
171
     0
290
     0
174
     0
 93
        1
 44
50.0
173
     0
291
     1
 45
0.0
  0
VISUALSTYLE
  5
3A
102
{ACAD_REACTORS
330
2A
102
}
102
{ACAD_XDICTIONARY
360
1E7
102
}
330
2A
100
AcDbVisualStyle
  2
ColorChange
 70
    16
 71
     2
 72
     2
 73
     3
 90
        0
 40
0.6
 41
30.0
 62
     5
 63
     8
421
  8421504
 74
     1
 91
        4
 64
     7
 65
   257
 75
     1
175
     1
 42
1.0
 92
        8
 66
     8
424
  8421504
 43
1.0
 76
     1
 77
     6
 78
     2
 67
     7
 79
     5
170
     0
171
     0
290
     0
174
     0
 93
        1
 44
0.0
173
     0
291
     1
 45
0.0
  0
VISUALSTYLE
  5
34
102
{ACAD_REACTORS
330
2A
102
}
102
{ACAD_XDICTIONARY
360
1DB
102
}
330
2A
100
AcDbVisualStyle
  2
Conceptual
 70
     9
 71
     3
 72
     2
 73
     0
 90
        0
 40
0.6
 41
30.0
 62
     5
 63
     7
421
 16777215
 74
     2
 91
        2
 64
     7
 65
   257
 75
     1
175
     1
 42
179.0
 92
        8
 66
     7
 43
1.0
 76
     1
 77
     6
 78
     2
 67
     7
 79
     3
170
     0
171
     0
290
     0
174
     0
 93
        1
 44
0.0
173
     0
291
     0
 45
0.0
  0
VISUALSTYLE
  5
35
102
{ACAD_REACTORS
330
2A
102
}
102
{ACAD_XDICTIONARY
360
1DD
102
}
330
2A
100
AcDbVisualStyle
  2
Dim
 70
    11
 71
     2
 72
     2
 73
     0
 90
        0
 40
0.6
 41
30.0
 62
     5
 63
     7
421
 16777215
 74
     1
 91
        4
 64
     7
 65
   257
 75
     1
175
     1
 42
1.0
 92
        8
 66
     7
 43
1.0
 76
     1
 77
     6
 78
     2
 67
     7
 79
     5
170
     0
171
     0
290
     0
174
     0
 93
        1
 44
-50.0
173
     0
291
     1
 45
0.0
  0
VISUALSTYLE
  5
3D
102
{ACAD_REACTORS
330
2A
102
}
102
{ACAD_XDICTIONARY
360
1ED
102
}
330
2A
100
AcDbVisualStyle
  2
EdgeColorOff
 70
    22
 71
     2
 72
     2
 73
     0
 90
        0
 40
0.6
 41
30.0
 62
     5
 63
     7
421
 16777215
 74
     1
 91
        4
 64
     7
 65
   257
 75
     1
175
     1
 42
1.0
 92
        8
 66
     7
 43
1.0
 76
     1
 77
     6
 78
     2
 67
     7
 79
     5
170
     0
171
     0
290
     0
174
     0
 93
        1
 44
0.0
173
     0
291
     1
 45
0.0
  0
VISUALSTYLE
  5
39
102
{ACAD_REACTORS
330
2A
102
}
102
{ACAD_XDICTIONARY
360
1E5
102
}
330
2A
100
AcDbVisualStyle
  2
Facepattern
 70
    15
 71
     2
 72
     2
 73
     0
 90
        0
 40
0.6
 41
30.0
 62
     5
 63
     7
421
 16777215
 74
     1
 91
        4
 64
     7
 65
   257
 75
     1
175
     1
 42
1.0
 92
        8
 66
     7
 43
1.0
 76
     1
 77
     6
 78
     2
 67
     7
 79
     5
170
     0
171
     0
290
     0
174
     0
 93
        1
 44
0.0
173
     0
291
     1
 45
0.0
  0
VISUALSTYLE
  5
2B
102
{ACAD_REACTORS
330
2A
102
}
102
{ACAD_XDICTIONARY
360
1C9
102
}
330
2A
100
AcDbVisualStyle
  2
Flat
 70
     0
 71
     2
 72
     1
 73
     1
 90
        2
 40
0.6
 41
30.0
 62
     5
 63
     7
421
 16777215
 74
     0
 91
        0
 64
     7
 65
   257
 75
     1
175
     1
 42
1.0
 92
        8
 66
     7
 43
1.0
 76
     1
 77
     6
 78
     2
 67
     7
 79
     5
170
     0
171
     0
290
     0
174
     0
 93
       13
 44
0.0
173
     0
291
     1
 45
0.0
  0
VISUALSTYLE
  5
2C
102
{ACAD_REACTORS
330
2A
102
}
102
{ACAD_XDICTIONARY
360
1CB
102
}
330
2A
100
AcDbVisualStyle
  2
FlatWithEdges
 70
     1
 71
     2
 72
     1
 73
     1
 90
        2
 40
0.6
 41
30.0
 62
     5
 63
     7
421
 16777215
 74
     1
 91
        0
 64
     7
 65
   257
 75
     1
175
     1
 42
1.0
 92
        0
 66
   257
 43
1.0
 76
     1
 77
     6
 78
     2
 67
     7
 79
     5
170
     0
171
     0
290
     0
174
     0
 93
       13
 44
0.0
173
     0
291
     1
 45
0.0
  0
VISUALSTYLE
  5
2D
102
{ACAD_REACTORS
330
2A
102
}
102
{ACAD_XDICTIONARY
360
1CD
102
}
330
2A
100
AcDbVisualStyle
  2
Gouraud
 70
     2
 71
     2
 72
     2
 73
     1
 90
        2
 40
0.6
 41
30.0
 62
     5
 63
     7
421
 16777215
 74
     0
 91
        0
 64
     7
 65
   257
 75
     1
175
     1
 42
1.0
 92
        0
 66
     7
 43
1.0
 76
     1
 77
     6
 78
     2
 67
     7
 79
     5
170
     0
171
     0
290
     0
174
     0
 93
       13
 44
0.0
173
     0
291
     1
 45
0.0
  0
VISUALSTYLE
  5
2E
102
{ACAD_REACTORS
330
2A
102
}
102
{ACAD_XDICTIONARY
360
1CF
102
}
330
2A
100
AcDbVisualStyle
  2
GouraudWithEdges
 70
     3
 71
     2
 72
     2
 73
     1
 90
        2
 40
0.6
 41
30.0
 62
     5
 63
     7
421
 16777215
 74
     1
 91
        0
 64
     7
 65
   257
 75
     1
175
     1
 42
1.0
 92
        0
 66
   257
 43
1.0
 76
     1
 77
     6
 78
     2
 67
     7
 79
     5
170
     0
171
     0
290
     0
174
     0
 93
       13
 44
0.0
173
     0
291
     1
 45
0.0
  0
VISUALSTYLE
  5
31
102
{ACAD_REACTORS
330
2A
102
}
102
{ACAD_XDICTIONARY
360
1D5
102
}
330
2A
100
AcDbVisualStyle
  2
Hidden
 70
     6
 71
     1
 72
     2
 73
     2
 90
        0
 40
0.6
 41
30.0
 62
     5
 63
     7
421
 16777215
 74
     2
 91
        2
 64
     7
 65
   257
 75
     2
175
     1
 42
40.0
 92
        0
 66
   257
 43
1.0
 76
     1
 77
     6
 78
     2
 67
     7
 79
     3
170
     0
171
     0
290
     0
174
     0
 93
        1
 44
0.0
173
     0
291
     0
 45
0.0
  0
VISUALSTYLE
  5
3B
102
{ACAD_REACTORS
330
2A
102
}
102
{ACAD_XDICTIONARY
360
1E9
102
}
330
2A
100
AcDbVisualStyle
  2
JitterOff
 70
    20
 71
     2
 72
     2
 73
     0
 90
        0
 40
0.6
 41
30.0
 62
     5
 63
     7
421
 16777215
 74
     1
 91
        4
 64
     7
 65
   257
 75
     1
175
     1
 42
1.0
 92
       10
 66
     7
 43
1.0
 76
     1
 77
     6
 78
     2
 67
     7
 79
     5
170
     0
171
     0
290
     0
174
     0
 93
        1
 44
0.0
173
     0
291
     1
 45
0.0
  0
VISUALSTYLE
  5
38
102
{ACAD_REACTORS
330
2A
102
}
102
{ACAD_XDICTIONARY
360
1E3
102
}
330
2A
100
AcDbVisualStyle
  2
Linepattern
 70
    14
 71
     2
 72
     2
 73
     0
 90
        0
 40
0.6
 41
30.0
 62
     5
 63
     7
421
 16777215
 74
     1
 91
        4
 64
     7
 65
   257
 75
     7
175
     7
 42
1.0
 92
        8
 66
     7
 43
1.0
 76
     1
 77
     6
 78
     2
 67
     7
 79
     5
170
     0
171
     0
290
     0
174
     0
 93
        1
 44
0.0
173
     0
291
     1
 45
0.0
  0
VISUALSTYLE
  5
3C
102
{ACAD_REACTORS
330
2A
102
}
102
{ACAD_XDICTIONARY
360
1EB
102
}
330
2A
100
AcDbVisualStyle
  2
OverhangOff
 70
    21
 71
     2
 72
     2
 73
     0
 90
        0
 40
0.6
 41
30.0
 62
     5
 63
     7
421
 16777215
 74
     1
 91
        4
 64
     7
 65
   257
 75
     1
175
     1
 42
1.0
 92
        9
 66
     7
 43
1.0
 76
     1
 77
     6
 78
     2
 67
     7
 79
     5
170
     0
171
     0
290
     0
174
     0
 93
        1
 44
0.0
173
     0
291
     1
 45
0.0
  0
VISUALSTYLE
  5
33
102
{ACAD_REACTORS
330
2A
102
}
102
{ACAD_XDICTIONARY
360
1D9
102
}
330
2A
100
AcDbVisualStyle
  2
Realistic
 70
     8
 71
     2
 72
     3
 73
     0
 90
        2
 40
0.6
 41
30.0
 62
     5
 63
     7
421
 16777215
 74
     0
 91
        0
 64
     7
 65
   257
 75
     1
175
     1
 42
1.0
 92
        8
 66
   257
 43
1.0
 76
     1
 77
     6
 78
     2
 67
     7
 79
     3
170
     0
171
     0
290
     0
174
     0
 93
       13
 44
0.0
173
     0
291
     0
 45
0.0
  0
VISUALSTYLE
  5
42
102
{ACAD_REACTORS
330
2A
102
}
102
{ACAD_XDICTIONARY
360
1F7
102
}
330
2A
100
AcDbVisualStyle
  2
Shaded
 70
    27
 71
     2
 72
     2
 73
     1
 90
        2
 40
0.6
 41
30.0
 62
     5
 63
     7
421
 16777215
 74
     0
 91
        4
 64
     7
 65
   257
 75
     1
175
     1
 42
1.0
 92
        8
 66
   257
 43
1.0
 76
     1
 77
     6
 78
     2
 67
     8
425
  7895160
 79
     3
170
     0
171
     0
290
     0
174
     0
 93
        5
 44
0.0
173
     0
291
     0
 45
0.0
  0
VISUALSTYLE
  5
41
102
{ACAD_REACTORS
330
2A
102
}
102
{ACAD_XDICTIONARY
360
1F5
102
}
330
2A
100
AcDbVisualStyle
  2
Shaded with edges
 70
    26
 71
     2
 72
     2
 73
     1
 90
        2
 40
0.6
 41
30.0
 62
     5
 63
     7
421
 16777215
 74
     1
 91
       10
 64
     7
 65
   257
 75
     2
175
     1
 42
1.0
 92
        8
 66
   257
 43
1.0
 76
     1
 77
     6
 78
     2
 67
     7
 79
     3
170
     0
171
     0
290
     0
174
     0
 93
        5
 44
0.0
173
     0
291
     0
 45
0.0
  0
VISUALSTYLE
  5
3E
102
{ACAD_REACTORS
330
2A
102
}
102
{ACAD_XDICTIONARY
360
1EF
102
}
330
2A
100
AcDbVisualStyle
  2
Shades of Gray
 70
    23
 71
     2
 72
     2
 73
     3
 90
        0
 40
0.6
 41
30.0
 62
     5
 63
     7
421
 16777215
 74
     2
 91
        2
 64
     7
 65
     7
 75
     1
175
     1
 42
40.0
 92
        8
 66
     7
 43
1.0
 76
     1
 77
     6
 78
     2
 67
     7
 79
     3
170
     0
171
     0
290
     0
174
     0
 93
        1
 44
0.0
173
     0
291
     0
 45
0.0
  0
VISUALSTYLE
  5
3F
102
{ACAD_REACTORS
330
2A
102
}
102
{ACAD_XDICTIONARY
360
1F1
102
}
330
2A
100
AcDbVisualStyle
  2
Sketchy
 70
    24
 71
     1
 72
     2
 73
     2
 90
        0
 40
0.6
 41
30.0
 62
     5
 63
     7
421
 16777215
 74
     2
 91
        2
 64
     7
 65
     7
 75
     1
175
     1
 42
40.0
 92
       11
 66
     7
 43
1.0
 76
     1
 77
     6
 78
     2
 67
     7
 79
     6
170
     0
171
     0
290
     0
174
     0
 93
        1
 44
0.0
173
     0
291
     0
 45
0.0
  0
VISUALSTYLE
  5
37
102
{ACAD_REACTORS
330
2A
102
}
102
{ACAD_XDICTIONARY
360
1E1
102
}
330
2A
100
AcDbVisualStyle
  2
Thicken
 70
    13
 71
     2
 72
     2
 73
     0
 90
        0
 40
0.6
 41
30.0
 62
     5
 63
     7
421
 16777215
 74
     1
 91
        4
 64
     7
 65
   257
 75
     1
175
     1
 42
1.0
 92
       12
 66
     7
 43
1.0
 76
     1
 77
     6
 78
     2
 67
     7
 79
     5
170
     0
171
     0
290
     0
174
     0
 93
        1
 44
0.0
173
     0
291
     1
 45
0.0
  0
VISUALSTYLE
  5
30
102
{ACAD_REACTORS
330
2A
102
}
102
{ACAD_XDICTIONARY
360
1D3
102
}
330
2A
100
AcDbVisualStyle
  2
Wireframe
 70
     5
 71
     0
 72
     2
 73
     0
 90
        0
 40
0.6
 41
30.0
 62
     5
 63
     7
421
 16777215
 74
     1
 91
        4
 64
     7
 65
   257
 75
     1
175
     1
 42
1.0
 92
        0
 66
   257
 43
1.0
 76
     1
 77
     6
 78
     2
 67
     7
 79
     3
170
     0
171
     0
290
     0
174
     0
 93
        1
 44
0.0
173
     0
291
     0
 45
0.0
  0
VISUALSTYLE
  5
40
102
{ACAD_REACTORS
330
2A
102
}
102
{ACAD_XDICTIONARY
360
1F3
102
}
330
2A
100
AcDbVisualStyle
  2
X-Ray
 70
    25
 71
     2
 72
     2
 73
     1
 90
        1
 40
0.5
 41
30.0
 62
     5
 63
     7
421
 16777215
 74
     1
 91
        0
 64
     7
 65
   257
 75
     1
175
     1
 42
1.0
 92
        8
 66
     7
 43
1.0
 76
     1
 77
     6
 78
     2
 67
     7
 79
     3
170
     0
171
     0
290
     0
174
     0
 93
       13
 44
0.0
173
     0
291
     0
 45
0.0
  0
DICTIONARYVAR
  5
1C7
102
{ACAD_REACTORS
330
1C6
102
}
330
1C6
100
DictionaryVariables
280
     0
  1
1:1
  0
DICTIONARYVAR
  5
200
102
{ACAD_REACTORS
330
1C6
102
}
330
1C6
100
DictionaryVariables
280
     0
  1
Standard
  0
DICTIONARYVAR
  5
1FF
102
{ACAD_REACTORS
330
1C6
102
}
330
1C6
100
DictionaryVariables
280
     0
  1
Standard
  0
DICTIONARYVAR
  5
1C8
102
{ACAD_REACTORS
330
1C6
102
}
330
1C6
100
DictionaryVariables
280
     0
  1
2
  0
DICTIONARY
  5
1FC
330
6C
100
AcDbDictionary
280
     1
281
     1
  3
ACAD_XREC_ROUNDTRIP
360
1FD
  0
DICTIONARY
  5
1F9
330
6A
100
AcDbDictionary
280
     1
281
     1
  3
ACAD_ROUNDTRIP_2008_TABLESTYLE_CELLSTYLEMAP
360
1FA
  0
DICTIONARY
  5
1D1
330
2F
100
AcDbDictionary
280
     1
281
     1
  3
ACAD_XREC_ROUNDTRIP
360
1D2
  0
DICTIONARY
  5
1D7
330
32
100
AcDbDictionary
280
     1
281
     1
  3
ACAD_XREC_ROUNDTRIP
360
1D8
  0
DICTIONARY
  5
1DF
330
36
100
AcDbDictionary
280
     1
281
     1
  3
ACAD_XREC_ROUNDTRIP
360
1E0
  0
DICTIONARY
  5
1E7
330
3A
100
AcDbDictionary
280
     1
281
     1
  3
ACAD_XREC_ROUNDTRIP
360
1E8
  0
DICTIONARY
  5
1DB
330
34
100
AcDbDictionary
280
     1
281
     1
  3
ACAD_XREC_ROUNDTRIP
360
1DC
  0
DICTIONARY
  5
1DD
330
35
100
AcDbDictionary
280
     1
281
     1
  3
ACAD_XREC_ROUNDTRIP
360
1DE
  0
DICTIONARY
  5
1ED
330
3D
100
AcDbDictionary
280
     1
281
     1
  3
ACAD_XREC_ROUNDTRIP
360
1EE
  0
DICTIONARY
  5
1E5
330
39
100
AcDbDictionary
280
     1
281
     1
  3
ACAD_XREC_ROUNDTRIP
360
1E6
  0
DICTIONARY
  5
1C9
330
2B
100
AcDbDictionary
280
     1
281
     1
  3
ACAD_XREC_ROUNDTRIP
360
1CA
  0
DICTIONARY
  5
1CB
330
2C
100
AcDbDictionary
280
     1
281
     1
  3
ACAD_XREC_ROUNDTRIP
360
1CC
  0
DICTIONARY
  5
1CD
330
2D
100
AcDbDictionary
280
     1
281
     1
  3
ACAD_XREC_ROUNDTRIP
360
1CE
  0
DICTIONARY
  5
1CF
330
2E
100
AcDbDictionary
280
     1
281
     1
  3
ACAD_XREC_ROUNDTRIP
360
1D0
  0
DICTIONARY
  5
1D5
330
31
100
AcDbDictionary
280
     1
281
     1
  3
ACAD_XREC_ROUNDTRIP
360
1D6
  0
DICTIONARY
  5
1E9
330
3B
100
AcDbDictionary
280
     1
281
     1
  3
ACAD_XREC_ROUNDTRIP
360
1EA
  0
DICTIONARY
  5
1E3
330
38
100
AcDbDictionary
280
     1
281
     1
  3
ACAD_XREC_ROUNDTRIP
360
1E4
  0
DICTIONARY
  5
1EB
330
3C
100
AcDbDictionary
280
     1
281
     1
  3
ACAD_XREC_ROUNDTRIP
360
1EC
  0
DICTIONARY
  5
1D9
330
33
100
AcDbDictionary
280
     1
281
     1
  3
ACAD_XREC_ROUNDTRIP
360
1DA
  0
DICTIONARY
  5
1F7
330
42
100
AcDbDictionary
280
     1
281
     1
  3
ACAD_XREC_ROUNDTRIP
360
1F8
  0
DICTIONARY
  5
1F5
330
41
100
AcDbDictionary
280
     1
281
     1
  3
ACAD_XREC_ROUNDTRIP
360
1F6
  0
DICTIONARY
  5
1EF
330
3E
100
AcDbDictionary
280
     1
281
     1
  3
ACAD_XREC_ROUNDTRIP
360
1F0
  0
DICTIONARY
  5
1F1
330
3F
100
AcDbDictionary
280
     1
281
     1
  3
ACAD_XREC_ROUNDTRIP
360
1F2
  0
DICTIONARY
  5
1E1
330
37
100
AcDbDictionary
280
     1
281
     1
  3
ACAD_XREC_ROUNDTRIP
360
1E2
  0
DICTIONARY
  5
1D3
330
30
100
AcDbDictionary
280
     1
281
     1
  3
ACAD_XREC_ROUNDTRIP
360
1D4
  0
DICTIONARY
  5
1F3
330
40
100
AcDbDictionary
280
     1
281
     1
  3
ACAD_XREC_ROUNDTRIP
360
1F4
  0
XRECORD
  5
1FD
102
{ACAD_REACTORS
330
1FC
102
}
330
1FC
100
AcDbXrecord
280
     1
102
ACAD_ROUNDTRIP_2010_MLEADER_STYLE
  0
CELLSTYLEMAP
  5
1FA
102
{ACAD_REACTORS
330
1F9
102
}
330
1F9
100
AcDbCellStyleMap
 90
        3
300
CELLSTYLE
  1
TABLEFORMAT_BEGIN
 90
        5
170
     1
 91
        0
 92
    32768
 62
   257
 93
        1
300
CONTENTFORMAT
  1
CONTENTFORMAT_BEGIN
 90
        0
 91
        0
 92
        4
 93
        0
300

 40
0.0
140
1.0
 94
        5
 62
     0
340
11
144
6.0
309
CONTENTFORMAT_END
171
     1
301
MARGIN
  1
CELLMARGIN_BEGIN
 40
1.5
 40
1.5
 40
1.5
 40
1.5
 40
1.5
 40
1.5
309
CELLMARGIN_END
 94
        6
 95
        1
302
GRIDFORMAT
  1
GRIDFORMAT_BEGIN
 90
        0
 91
        1
 62
     0
 92
       -2
340
14
 93
        0
 40
0.045
309
GRIDFORMAT_END
 95
        2
302
GRIDFORMAT
  1
GRIDFORMAT_BEGIN
 90
        0
 91
        1
 62
     0
 92
       -2
340
14
 93
        0
 40
0.045
309
GRIDFORMAT_END
 95
        4
302
GRIDFORMAT
  1
GRIDFORMAT_BEGIN
 90
        0
 91
        1
 62
     0
 92
       -2
340
14
 93
        0
 40
0.045
309
GRIDFORMAT_END
 95
        8
302
GRIDFORMAT
  1
GRIDFORMAT_BEGIN
 90
        0
 91
        1
 62
     0
 92
       -2
340
14
 93
        0
 40
0.045
309
GRIDFORMAT_END
 95
       16
302
GRIDFORMAT
  1
GRIDFORMAT_BEGIN
 90
        0
 91
        1
 62
     0
 92
       -2
340
14
 93
        0
 40
0.045
309
GRIDFORMAT_END
 95
       32
302
GRIDFORMAT
  1
GRIDFORMAT_BEGIN
 90
        0
 91
        1
 62
     0
 92
       -2
340
14
 93
        0
 40
0.045
309
GRIDFORMAT_END
309
TABLEFORMAT_END
  1
CELLSTYLE_BEGIN
 90
        1
 91
        1
300
_TITLE
309
CELLSTYLE_END
300
CELLSTYLE
  1
TABLEFORMAT_BEGIN
 90
        5
170
     1
 91
        0
 92
        0
 62
   257
 93
        1
300
CONTENTFORMAT
  1
CONTENTFORMAT_BEGIN
 90
        0
 91
        0
 92
        4
 93
        0
300

 40
0.0
140
1.0
 94
        5
 62
     0
340
11
144
4.5
309
CONTENTFORMAT_END
171
     1
301
MARGIN
  1
CELLMARGIN_BEGIN
 40
1.5
 40
1.5
 40
1.5
 40
1.5
 40
1.5
 40
1.5
309
CELLMARGIN_END
 94
        6
 95
        1
302
GRIDFORMAT
  1
GRIDFORMAT_BEGIN
 90
        0
 91
        1
 62
     0
 92
       -2
340
14
 93
        0
 40
0.045
309
GRIDFORMAT_END
 95
        2
302
GRIDFORMAT
  1
GRIDFORMAT_BEGIN
 90
        0
 91
        1
 62
     0
 92
       -2
340
14
 93
        0
 40
0.045
309
GRIDFORMAT_END
 95
        4
302
GRIDFORMAT
  1
GRIDFORMAT_BEGIN
 90
        0
 91
        1
 62
     0
 92
       -2
340
14
 93
        0
 40
0.045
309
GRIDFORMAT_END
 95
        8
302
GRIDFORMAT
  1
GRIDFORMAT_BEGIN
 90
        0
 91
        1
 62
     0
 92
       -2
340
14
 93
        0
 40
0.045
309
GRIDFORMAT_END
 95
       16
302
GRIDFORMAT
  1
GRIDFORMAT_BEGIN
 90
        0
 91
        1
 62
     0
 92
       -2
340
14
 93
        0
 40
0.045
309
GRIDFORMAT_END
 95
       32
302
GRIDFORMAT
  1
GRIDFORMAT_BEGIN
 90
        0
 91
        1
 62
     0
 92
       -2
340
14
 93
        0
 40
0.045
309
GRIDFORMAT_END
309
TABLEFORMAT_END
  1
CELLSTYLE_BEGIN
 90
        2
 91
        1
300
_HEADER
309
CELLSTYLE_END
300
CELLSTYLE
  1
TABLEFORMAT_BEGIN
 90
        5
170
     1
 91
        0
 92
        0
 62
   257
 93
        1
300
CONTENTFORMAT
  1
CONTENTFORMAT_BEGIN
 90
        0
 91
        0
 92
        4
 93
        0
300

 40
0.0
140
1.0
 94
        2
 62
     0
340
11
144
4.5
309
CONTENTFORMAT_END
171
     1
301
MARGIN
  1
CELLMARGIN_BEGIN
 40
1.5
 40
1.5
 40
1.5
 40
1.5
 40
1.5
 40
1.5
309
CELLMARGIN_END
 94
        6
 95
        1
302
GRIDFORMAT
  1
GRIDFORMAT_BEGIN
 90
        0
 91
        1
 62
     0
 92
       -2
340
14
 93
        0
 40
0.045
309
GRIDFORMAT_END
 95
        2
302
GRIDFORMAT
  1
GRIDFORMAT_BEGIN
 90
        0
 91
        1
 62
     0
 92
       -2
340
14
 93
        0
 40
0.045
309
GRIDFORMAT_END
 95
        4
302
GRIDFORMAT
  1
GRIDFORMAT_BEGIN
 90
        0
 91
        1
 62
     0
 92
       -2
340
14
 93
        0
 40
0.045
309
GRIDFORMAT_END
 95
        8
302
GRIDFORMAT
  1
GRIDFORMAT_BEGIN
 90
        0
 91
        1
 62
     0
 92
       -2
340
14
 93
        0
 40
0.045
309
GRIDFORMAT_END
 95
       16
302
GRIDFORMAT
  1
GRIDFORMAT_BEGIN
 90
        0
 91
        1
 62
     0
 92
       -2
340
14
 93
        0
 40
0.045
309
GRIDFORMAT_END
 95
       32
302
GRIDFORMAT
  1
GRIDFORMAT_BEGIN
 90
        0
 91
        1
 62
     0
 92
       -2
340
14
 93
        0
 40
0.045
309
GRIDFORMAT_END
309
TABLEFORMAT_END
  1
CELLSTYLE_BEGIN
 90
        3
 91
        2
300
_DATA
309
CELLSTYLE_END
  0
XRECORD
  5
1D2
102
{ACAD_REACTORS
330
1D1
102
}
330
1D1
100
AcDbXrecord
280
     1
102
RTVSPropertyOp0
 70
     1
102
RTVSPropertyOp1
 70
     1
102
RTVSPropertyOp2
 70
     1
102
RTVSPropertyOp3
 70
     1
102
RTVSPropertyOp4
 70
     1
102
RTVSPropertyOp5
 70
     1
102
RTVSPropertyOp6
 70
     1
102
RTVSPropertyOp7
 70
     1
102
RTVSPropertyOp8
 70
     1
102
RTVSPropertyOp9
 70
     1
102
RTVSPropertyOp10
 70
     1
102
RTVSPropertyOp11
 70
     1
102
RTVSPropertyOp12
 70
     1
102
RTVSPropertyOp13
 70
     1
102
RTVSPropertyOp14
 70
     1
102
RTVSPropertyOp15
 70
     1
102
RTVSPropertyOp16
 70
     1
102
RTVSPropertyOp17
 70
     1
102
RTVSPropertyOp18
 70
     1
102
RTVSPropertyOp19
 70
     1
102
RTVSPropertyOp20
 70
     1
102
RTVSPropertyOp21
 70
     1
102
RTVSPropertyOp22
 70
     1
102
RTVSPropertyOp23
 70
     1
102
RTVSPropertyOp24
 70
     1
102
RTVSPropertyOp25
 70
     1
102
RTVSPropertyOp26
 70
     1
102
RTVSPropertyOp27
 70
     1
102
RTVSPropertyOp28
 70
     1
102
RTVSPropertyOp29
 70
     1
102
RTVSPropertyOp30
 70
     1
102
RTVSPropertyOp31
 70
     1
102
RTVSPropertyOp32
 70
     1
102
RTVSPropertyOp33
 70
     1
102
RTVSPropertyOp34
 70
     1
102
RTVSPropertyOp35
 70
     1
102
RTVSPropertyOp36
 70
     1
102
RTVSPropertyOp37
 70
     1
102
RTVSPropertyOp38
 70
     1
102
RTVSPropertyOp39
 70
     1
102
RTVSPropertyOp40
 70
     1
102
RTVSPropertyOp41
 70
     1
102
RTVSPropertyOp42
 70
     1
102
RTVSPropertyOp43
 70
     1
102
RTVSPropertyOp44
 70
     1
102
RTVSPropertyOp45
 70
     1
102
RTVSPropertyOp46
 70
     1
102
RTVSPropertyOp47
 70
     1
102
RTVSPropertyOp48
 70
     1
102
RTVSPropertyOp49
 70
     1
102
RTVSPropertyOp50
 70
     1
102
RTVSPropertyOp51
 70
     0
102
RTVSPropertyOp52
 70
     0
102
RTVSPropertyOp53
 70
     1
102
RTVSPropertyOp54
 70
     1
102
RTVSPropertyOp55
 70
     1
102
RTVSPropertyOp56
 70
     1
102
RTVSPropertyOp57
 70
     1
102
RTVSPost2010Prop28
280
     1
102
RTVSPost2010PropOp28
 70
     1
102
RTVSPost2010Prop29
280
     1
102
RTVSPost2010PropOp29
 70
     1
102
RTVSPost2010Prop30
280
     0
102
RTVSPost2010PropOp30
 70
     1
102
RTVSPost2010Prop31
280
     0
102
RTVSPost2010PropOp31
 70
     1
102
RTVSPost2010Prop32
280
     0
102
RTVSPost2010PropOp32
 70
     1
102
RTVSPost2010Prop33
280
     0
102
RTVSPost2010PropOp33
 70
     1
102
RTVSPost2010Prop34
280
     0
102
RTVSPost2010PropOp34
 70
     1
102
RTVSPost2010Prop35
280
     0
102
RTVSPost2010PropOp35
 70
     1
102
RTVSPost2010Prop36
280
     0
102
RTVSPost2010PropOp36
 70
     1
102
RTVSPost2010Prop37
 90
       50
102
RTVSPost2010PropOp37
 70
     1
102
RTVSPost2010Prop38
140
0.0
102
RTVSPost2010PropOp38
 70
     1
102
RTVSPost2010Prop39
140
1.0
102
RTVSPost2010PropOp39
 70
     1
102
RTVSPost2010Prop40
 90
        0
102
RTVSPost2010PropOp40
 70
     1
102
RTVSPost2010Prop41ColorIndex
 90
       18
102
RTVSPost2010Prop41ColorRGB
 90
        0
102
RTVSPost2010PropOp41
 70
     1
102
RTVSPost2010Prop42
 90
       50
102
RTVSPost2010PropOp42
 70
     1
102
RTVSPost2010Prop43
 90
        3
102
RTVSPost2010PropOp43
 70
     1
102
RTVSPost2010Prop44ColorIndex
 90
        5
102
RTVSPost2010Prop44ColorRGB
 90
      255
102
RTVSPost2010PropOp44
 70
     1
102
RTVSPost2010Prop45
280
     0
102
RTVSPost2010PropOp45
 70
     1
102
RTVSPost2010Prop46
 90
       50
102
RTVSPost2010PropOp46
 70
     1
102
RTVSPost2010Prop47
 90
       50
102
RTVSPost2010PropOp47
 70
     1
102
RTVSPost2010Prop48
 90
       50
102
RTVSPost2010PropOp48
 70
     1
102
RTVSPost2010Prop49
280
     0
102
RTVSPost2010PropOp49
 70
     1
102
RTVSPost2010Prop50
 90
       50
102
RTVSPost2010PropOp50
 70
     1
102
RTVSPost2010Prop51ColorIndex
 90
      256
102
RTVSPost2010Prop51ColorRGB
 90
-16777216
102
RTVSPost2010PropOp51
 70
     0
102
RTVSPost2010Prop52
140
1.0
102
RTVSPost2010PropOp52
 70
     0
102
RTVSPost2010Prop53
 90
        2
102
RTVSPost2010PropOp53
 70
     1
102
RTVSPost2010Prop54
  1
strokes_ogs.tif
102
RTVSPost2010PropOp54
 70
     1
102
RTVSPost2010Prop55
280
     0
102
RTVSPost2010PropOp55
 70
     1
102
RTVSPost2010Prop56
140
1.0
102
RTVSPost2010PropOp56
 70
     1
102
RTVSPost2010Prop57
140
1.0
102
RTVSPost2010PropOp57
 70
     1
  0
XRECORD
  5
1D8
102
{ACAD_REACTORS
330
1D7
102
}
330
1D7
100
AcDbXrecord
280
     1
102
RTVSPropertyOp0
 70
     1
102
RTVSPropertyOp1
 70
     1
102
RTVSPropertyOp2
 70
     1
102
RTVSPropertyOp3
 70
     1
102
RTVSPropertyOp4
 70
     1
102
RTVSPropertyOp5
 70
     1
102
RTVSPropertyOp6
 70
     1
102
RTVSPropertyOp7
 70
     1
102
RTVSPropertyOp8
 70
     1
102
RTVSPropertyOp9
 70
     1
102
RTVSPropertyOp10
 70
     1
102
RTVSPropertyOp11
 70
     1
102
RTVSPropertyOp12
 70
     1
102
RTVSPropertyOp13
 70
     1
102
RTVSPropertyOp14
 70
     1
102
RTVSPropertyOp15
 70
     1
102
RTVSPropertyOp16
 70
     1
102
RTVSPropertyOp17
 70
     1
102
RTVSPropertyOp18
 70
     1
102
RTVSPropertyOp19
 70
     1
102
RTVSPropertyOp20
 70
     1
102
RTVSPropertyOp21
 70
     1
102
RTVSPropertyOp22
 70
     1
102
RTVSPropertyOp23
 70
     1
102
RTVSPropertyOp24
 70
     1
102
RTVSPropertyOp25
 70
     1
102
RTVSPropertyOp26
 70
     1
102
RTVSPropertyOp27
 70
     1
102
RTVSPropertyOp28
 70
     1
102
RTVSPropertyOp29
 70
     1
102
RTVSPropertyOp30
 70
     1
102
RTVSPropertyOp31
 70
     1
102
RTVSPropertyOp32
 70
     1
102
RTVSPropertyOp33
 70
     1
102
RTVSPropertyOp34
 70
     1
102
RTVSPropertyOp35
 70
     1
102
RTVSPropertyOp36
 70
     1
102
RTVSPropertyOp37
 70
     1
102
RTVSPropertyOp38
 70
     1
102
RTVSPropertyOp39
 70
     1
102
RTVSPropertyOp40
 70
     1
102
RTVSPropertyOp41
 70
     1
102
RTVSPropertyOp42
 70
     1
102
RTVSPropertyOp43
 70
     1
102
RTVSPropertyOp44
 70
     1
102
RTVSPropertyOp45
 70
     1
102
RTVSPropertyOp46
 70
     1
102
RTVSPropertyOp47
 70
     1
102
RTVSPropertyOp48
 70
     1
102
RTVSPropertyOp49
 70
     1
102
RTVSPropertyOp50
 70
     1
102
RTVSPropertyOp51
 70
     0
102
RTVSPropertyOp52
 70
     0
102
RTVSPropertyOp53
 70
     1
102
RTVSPropertyOp54
 70
     1
102
RTVSPropertyOp55
 70
     1
102
RTVSPropertyOp56
 70
     1
102
RTVSPropertyOp57
 70
     1
102
RTVSPost2010Prop28
280
     0
102
RTVSPost2010PropOp28
 70
     1
102
RTVSPost2010Prop29
280
     1
102
RTVSPost2010PropOp29
 70
     1
102
RTVSPost2010Prop30
280
     1
102
RTVSPost2010PropOp30
 70
     1
102
RTVSPost2010Prop31
280
     0
102
RTVSPost2010PropOp31
 70
     1
102
RTVSPost2010Prop32
280
     0
102
RTVSPost2010PropOp32
 70
     1
102
RTVSPost2010Prop33
280
     0
102
RTVSPost2010PropOp33
 70
     1
102
RTVSPost2010Prop34
280
     0
102
RTVSPost2010PropOp34
 70
     1
102
RTVSPost2010Prop35
280
     0
102
RTVSPost2010PropOp35
 70
     1
102
RTVSPost2010Prop36
280
     0
102
RTVSPost2010PropOp36
 70
     1
102
RTVSPost2010Prop37
 90
       50
102
RTVSPost2010PropOp37
 70
     1
102
RTVSPost2010Prop38
140
0.0
102
RTVSPost2010PropOp38
 70
     1
102
RTVSPost2010Prop39
140
1.0
102
RTVSPost2010PropOp39
 70
     1
102
RTVSPost2010Prop40
 90
        0
102
RTVSPost2010PropOp40
 70
     1
102
RTVSPost2010Prop41ColorIndex
 90
       18
102
RTVSPost2010Prop41ColorRGB
 90
        0
102
RTVSPost2010PropOp41
 70
     1
102
RTVSPost2010Prop42
 90
       50
102
RTVSPost2010PropOp42
 70
     1
102
RTVSPost2010Prop43
 90
        3
102
RTVSPost2010PropOp43
 70
     1
102
RTVSPost2010Prop44ColorIndex
 90
        5
102
RTVSPost2010Prop44ColorRGB
 90
      255
102
RTVSPost2010PropOp44
 70
     1
102
RTVSPost2010Prop45
280
     0
102
RTVSPost2010PropOp45
 70
     1
102
RTVSPost2010Prop46
 90
       50
102
RTVSPost2010PropOp46
 70
     1
102
RTVSPost2010Prop47
 90
       50
102
RTVSPost2010PropOp47
 70
     1
102
RTVSPost2010Prop48
 90
       50
102
RTVSPost2010PropOp48
 70
     1
102
RTVSPost2010Prop49
280
     0
102
RTVSPost2010PropOp49
 70
     1
102
RTVSPost2010Prop50
 90
       50
102
RTVSPost2010PropOp50
 70
     1
102
RTVSPost2010Prop51ColorIndex
 90
      256
102
RTVSPost2010Prop51ColorRGB
 90
-16777216
102
RTVSPost2010PropOp51
 70
     0
102
RTVSPost2010Prop52
140
1.0
102
RTVSPost2010PropOp52
 70
     0
102
RTVSPost2010Prop53
 90
        2
102
RTVSPost2010PropOp53
 70
     1
102
RTVSPost2010Prop54
  1
strokes_ogs.tif
102
RTVSPost2010PropOp54
 70
     1
102
RTVSPost2010Prop55
280
     0
102
RTVSPost2010PropOp55
 70
     1
102
RTVSPost2010Prop56
140
1.0
102
RTVSPost2010PropOp56
 70
     1
102
RTVSPost2010Prop57
140
1.0
102
RTVSPost2010PropOp57
 70
     1
  0
XRECORD
  5
1E0
102
{ACAD_REACTORS
330
1DF
102
}
330
1DF
100
AcDbXrecord
280
     1
102
RTVSPropertyOp0
 70
     1
102
RTVSPropertyOp1
 70
     1
102
RTVSPropertyOp2
 70
     1
102
RTVSPropertyOp3
 70
     1
102
RTVSPropertyOp4
 70
     1
102
RTVSPropertyOp5
 70
     1
102
RTVSPropertyOp6
 70
     1
102
RTVSPropertyOp7
 70
     1
102
RTVSPropertyOp8
 70
     1
102
RTVSPropertyOp9
 70
     1
102
RTVSPropertyOp10
 70
     1
102
RTVSPropertyOp11
 70
     1
102
RTVSPropertyOp12
 70
     1
102
RTVSPropertyOp13
 70
     1
102
RTVSPropertyOp14
 70
     1
102
RTVSPropertyOp15
 70
     1
102
RTVSPropertyOp16
 70
     1
102
RTVSPropertyOp17
 70
     1
102
RTVSPropertyOp18
 70
     1
102
RTVSPropertyOp19
 70
     1
102
RTVSPropertyOp20
 70
     1
102
RTVSPropertyOp21
 70
     1
102
RTVSPropertyOp22
 70
     1
102
RTVSPropertyOp23
 70
     1
102
RTVSPropertyOp24
 70
     1
102
RTVSPropertyOp25
 70
     1
102
RTVSPropertyOp26
 70
     1
102
RTVSPropertyOp27
 70
     1
102
RTVSPropertyOp28
 70
     1
102
RTVSPropertyOp29
 70
     1
102
RTVSPropertyOp30
 70
     1
102
RTVSPropertyOp31
 70
     1
102
RTVSPropertyOp32
 70
     1
102
RTVSPropertyOp33
 70
     1
102
RTVSPropertyOp34
 70
     1
102
RTVSPropertyOp35
 70
     1
102
RTVSPropertyOp36
 70
     1
102
RTVSPropertyOp37
 70
     1
102
RTVSPropertyOp38
 70
     1
102
RTVSPropertyOp39
 70
     1
102
RTVSPropertyOp40
 70
     1
102
RTVSPropertyOp41
 70
     1
102
RTVSPropertyOp42
 70
     1
102
RTVSPropertyOp43
 70
     1
102
RTVSPropertyOp44
 70
     1
102
RTVSPropertyOp45
 70
     1
102
RTVSPropertyOp46
 70
     1
102
RTVSPropertyOp47
 70
     1
102
RTVSPropertyOp48
 70
     1
102
RTVSPropertyOp49
 70
     1
102
RTVSPropertyOp50
 70
     1
102
RTVSPropertyOp51
 70
     0
102
RTVSPropertyOp52
 70
     0
102
RTVSPropertyOp53
 70
     1
102
RTVSPropertyOp54
 70
     1
102
RTVSPropertyOp55
 70
     1
102
RTVSPropertyOp56
 70
     1
102
RTVSPropertyOp57
 70
     1
102
RTVSPost2010Prop28
280
     0
102
RTVSPost2010PropOp28
 70
     1
102
RTVSPost2010Prop29
280
     1
102
RTVSPost2010PropOp29
 70
     1
102
RTVSPost2010Prop30
280
     1
102
RTVSPost2010PropOp30
 70
     1
102
RTVSPost2010Prop31
280
     0
102
RTVSPost2010PropOp31
 70
     1
102
RTVSPost2010Prop32
280
     0
102
RTVSPost2010PropOp32
 70
     1
102
RTVSPost2010Prop33
280
     0
102
RTVSPost2010PropOp33
 70
     1
102
RTVSPost2010Prop34
280
     0
102
RTVSPost2010PropOp34
 70
     1
102
RTVSPost2010Prop35
280
     0
102
RTVSPost2010PropOp35
 70
     1
102
RTVSPost2010Prop36
280
     0
102
RTVSPost2010PropOp36
 70
     1
102
RTVSPost2010Prop37
 90
       50
102
RTVSPost2010PropOp37
 70
     1
102
RTVSPost2010Prop38
140
0.0
102
RTVSPost2010PropOp38
 70
     1
102
RTVSPost2010Prop39
140
1.0
102
RTVSPost2010PropOp39
 70
     1
102
RTVSPost2010Prop40
 90
        0
102
RTVSPost2010PropOp40
 70
     1
102
RTVSPost2010Prop41ColorIndex
 90
       18
102
RTVSPost2010Prop41ColorRGB
 90
        0
102
RTVSPost2010PropOp41
 70
     1
102
RTVSPost2010Prop42
 90
       50
102
RTVSPost2010PropOp42
 70
     1
102
RTVSPost2010Prop43
 90
        3
102
RTVSPost2010PropOp43
 70
     1
102
RTVSPost2010Prop44ColorIndex
 90
        5
102
RTVSPost2010Prop44ColorRGB
 90
      255
102
RTVSPost2010PropOp44
 70
     1
102
RTVSPost2010Prop45
280
     0
102
RTVSPost2010PropOp45
 70
     1
102
RTVSPost2010Prop46
 90
       50
102
RTVSPost2010PropOp46
 70
     1
102
RTVSPost2010Prop47
 90
       50
102
RTVSPost2010PropOp47
 70
     1
102
RTVSPost2010Prop48
 90
       50
102
RTVSPost2010PropOp48
 70
     1
102
RTVSPost2010Prop49
280
     0
102
RTVSPost2010PropOp49
 70
     1
102
RTVSPost2010Prop50
 90
       50
102
RTVSPost2010PropOp50
 70
     1
102
RTVSPost2010Prop51ColorIndex
 90
      256
102
RTVSPost2010Prop51ColorRGB
 90
-16777216
102
RTVSPost2010PropOp51
 70
     0
102
RTVSPost2010Prop52
140
1.0
102
RTVSPost2010PropOp52
 70
     0
102
RTVSPost2010Prop53
 90
        2
102
RTVSPost2010PropOp53
 70
     1
102
RTVSPost2010Prop54
  1
strokes_ogs.tif
102
RTVSPost2010PropOp54
 70
     1
102
RTVSPost2010Prop55
280
     0
102
RTVSPost2010PropOp55
 70
     1
102
RTVSPost2010Prop56
140
1.0
102
RTVSPost2010PropOp56
 70
     1
102
RTVSPost2010Prop57
140
1.0
102
RTVSPost2010PropOp57
 70
     1
  0
XRECORD
  5
1E8
102
{ACAD_REACTORS
330
1E7
102
}
330
1E7
100
AcDbXrecord
280
     1
102
RTVSPropertyOp0
 70
     1
102
RTVSPropertyOp1
 70
     1
102
RTVSPropertyOp2
 70
     1
102
RTVSPropertyOp3
 70
     1
102
RTVSPropertyOp4
 70
     1
102
RTVSPropertyOp5
 70
     1
102
RTVSPropertyOp6
 70
     1
102
RTVSPropertyOp7
 70
     1
102
RTVSPropertyOp8
 70
     1
102
RTVSPropertyOp9
 70
     1
102
RTVSPropertyOp10
 70
     1
102
RTVSPropertyOp11
 70
     1
102
RTVSPropertyOp12
 70
     1
102
RTVSPropertyOp13
 70
     1
102
RTVSPropertyOp14
 70
     1
102
RTVSPropertyOp15
 70
     1
102
RTVSPropertyOp16
 70
     1
102
RTVSPropertyOp17
 70
     1
102
RTVSPropertyOp18
 70
     1
102
RTVSPropertyOp19
 70
     1
102
RTVSPropertyOp20
 70
     1
102
RTVSPropertyOp21
 70
     1
102
RTVSPropertyOp22
 70
     1
102
RTVSPropertyOp23
 70
     1
102
RTVSPropertyOp24
 70
     1
102
RTVSPropertyOp25
 70
     1
102
RTVSPropertyOp26
 70
     1
102
RTVSPropertyOp27
 70
     1
102
RTVSPropertyOp28
 70
     1
102
RTVSPropertyOp29
 70
     1
102
RTVSPropertyOp30
 70
     1
102
RTVSPropertyOp31
 70
     1
102
RTVSPropertyOp32
 70
     1
102
RTVSPropertyOp33
 70
     1
102
RTVSPropertyOp34
 70
     1
102
RTVSPropertyOp35
 70
     1
102
RTVSPropertyOp36
 70
     1
102
RTVSPropertyOp37
 70
     1
102
RTVSPropertyOp38
 70
     1
102
RTVSPropertyOp39
 70
     1
102
RTVSPropertyOp40
 70
     1
102
RTVSPropertyOp41
 70
     1
102
RTVSPropertyOp42
 70
     1
102
RTVSPropertyOp43
 70
     1
102
RTVSPropertyOp44
 70
     1
102
RTVSPropertyOp45
 70
     1
102
RTVSPropertyOp46
 70
     1
102
RTVSPropertyOp47
 70
     1
102
RTVSPropertyOp48
 70
     1
102
RTVSPropertyOp49
 70
     1
102
RTVSPropertyOp50
 70
     1
102
RTVSPropertyOp51
 70
     0
102
RTVSPropertyOp52
 70
     0
102
RTVSPropertyOp53
 70
     1
102
RTVSPropertyOp54
 70
     1
102
RTVSPropertyOp55
 70
     1
102
RTVSPropertyOp56
 70
     1
102
RTVSPropertyOp57
 70
     1
102
RTVSPost2010Prop28
280
     0
102
RTVSPost2010PropOp28
 70
     1
102
RTVSPost2010Prop29
280
     1
102
RTVSPost2010PropOp29
 70
     1
102
RTVSPost2010Prop30
280
     1
102
RTVSPost2010PropOp30
 70
     1
102
RTVSPost2010Prop31
280
     0
102
RTVSPost2010PropOp31
 70
     1
102
RTVSPost2010Prop32
280
     0
102
RTVSPost2010PropOp32
 70
     1
102
RTVSPost2010Prop33
280
     0
102
RTVSPost2010PropOp33
 70
     1
102
RTVSPost2010Prop34
280
     0
102
RTVSPost2010PropOp34
 70
     1
102
RTVSPost2010Prop35
280
     0
102
RTVSPost2010PropOp35
 70
     1
102
RTVSPost2010Prop36
280
     0
102
RTVSPost2010PropOp36
 70
     1
102
RTVSPost2010Prop37
 90
       50
102
RTVSPost2010PropOp37
 70
     1
102
RTVSPost2010Prop38
140
0.0
102
RTVSPost2010PropOp38
 70
     1
102
RTVSPost2010Prop39
140
1.0
102
RTVSPost2010PropOp39
 70
     1
102
RTVSPost2010Prop40
 90
        0
102
RTVSPost2010PropOp40
 70
     1
102
RTVSPost2010Prop41ColorIndex
 90
       18
102
RTVSPost2010Prop41ColorRGB
 90
        0
102
RTVSPost2010PropOp41
 70
     1
102
RTVSPost2010Prop42
 90
       50
102
RTVSPost2010PropOp42
 70
     1
102
RTVSPost2010Prop43
 90
        3
102
RTVSPost2010PropOp43
 70
     1
102
RTVSPost2010Prop44ColorIndex
 90
        5
102
RTVSPost2010Prop44ColorRGB
 90
      255
102
RTVSPost2010PropOp44
 70
     1
102
RTVSPost2010Prop45
280
     0
102
RTVSPost2010PropOp45
 70
     1
102
RTVSPost2010Prop46
 90
       50
102
RTVSPost2010PropOp46
 70
     1
102
RTVSPost2010Prop47
 90
       50
102
RTVSPost2010PropOp47
 70
     1
102
RTVSPost2010Prop48
 90
       50
102
RTVSPost2010PropOp48
 70
     1
102
RTVSPost2010Prop49
280
     0
102
RTVSPost2010PropOp49
 70
     1
102
RTVSPost2010Prop50
 90
       50
102
RTVSPost2010PropOp50
 70
     1
102
RTVSPost2010Prop51ColorIndex
 90
      256
102
RTVSPost2010Prop51ColorRGB
 90
-16777216
102
RTVSPost2010PropOp51
 70
     0
102
RTVSPost2010Prop52
140
1.0
102
RTVSPost2010PropOp52
 70
     0
102
RTVSPost2010Prop53
 90
        2
102
RTVSPost2010PropOp53
 70
     1
102
RTVSPost2010Prop54
  1
strokes_ogs.tif
102
RTVSPost2010PropOp54
 70
     1
102
RTVSPost2010Prop55
280
     0
102
RTVSPost2010PropOp55
 70
     1
102
RTVSPost2010Prop56
140
1.0
102
RTVSPost2010PropOp56
 70
     1
102
RTVSPost2010Prop57
140
1.0
102
RTVSPost2010PropOp57
 70
     1
  0
XRECORD
  5
1DC
102
{ACAD_REACTORS
330
1DB
102
}
330
1DB
100
AcDbXrecord
280
     1
102
RTVSPropertyOp0
 70
     1
102
RTVSPropertyOp1
 70
     1
102
RTVSPropertyOp2
 70
     1
102
RTVSPropertyOp3
 70
     1
102
RTVSPropertyOp4
 70
     1
102
RTVSPropertyOp5
 70
     1
102
RTVSPropertyOp6
 70
     1
102
RTVSPropertyOp7
 70
     1
102
RTVSPropertyOp8
 70
     1
102
RTVSPropertyOp9
 70
     1
102
RTVSPropertyOp10
 70
     1
102
RTVSPropertyOp11
 70
     1
102
RTVSPropertyOp12
 70
     1
102
RTVSPropertyOp13
 70
     1
102
RTVSPropertyOp14
 70
     1
102
RTVSPropertyOp15
 70
     1
102
RTVSPropertyOp16
 70
     1
102
RTVSPropertyOp17
 70
     1
102
RTVSPropertyOp18
 70
     1
102
RTVSPropertyOp19
 70
     1
102
RTVSPropertyOp20
 70
     1
102
RTVSPropertyOp21
 70
     1
102
RTVSPropertyOp22
 70
     1
102
RTVSPropertyOp23
 70
     1
102
RTVSPropertyOp24
 70
     1
102
RTVSPropertyOp25
 70
     1
102
RTVSPropertyOp26
 70
     1
102
RTVSPropertyOp27
 70
     1
102
RTVSPropertyOp28
 70
     1
102
RTVSPropertyOp29
 70
     1
102
RTVSPropertyOp30
 70
     1
102
RTVSPropertyOp31
 70
     1
102
RTVSPropertyOp32
 70
     1
102
RTVSPropertyOp33
 70
     1
102
RTVSPropertyOp34
 70
     1
102
RTVSPropertyOp35
 70
     1
102
RTVSPropertyOp36
 70
     1
102
RTVSPropertyOp37
 70
     1
102
RTVSPropertyOp38
 70
     1
102
RTVSPropertyOp39
 70
     1
102
RTVSPropertyOp40
 70
     1
102
RTVSPropertyOp41
 70
     1
102
RTVSPropertyOp42
 70
     1
102
RTVSPropertyOp43
 70
     1
102
RTVSPropertyOp44
 70
     1
102
RTVSPropertyOp45
 70
     1
102
RTVSPropertyOp46
 70
     1
102
RTVSPropertyOp47
 70
     1
102
RTVSPropertyOp48
 70
     1
102
RTVSPropertyOp49
 70
     1
102
RTVSPropertyOp50
 70
     1
102
RTVSPropertyOp51
 70
     0
102
RTVSPropertyOp52
 70
     0
102
RTVSPropertyOp53
 70
     1
102
RTVSPropertyOp54
 70
     1
102
RTVSPropertyOp55
 70
     1
102
RTVSPropertyOp56
 70
     1
102
RTVSPropertyOp57
 70
     1
102
RTVSPost2010Prop28
280
     0
102
RTVSPost2010PropOp28
 70
     1
102
RTVSPost2010Prop29
280
     1
102
RTVSPost2010PropOp29
 70
     1
102
RTVSPost2010Prop30
280
     1
102
RTVSPost2010PropOp30
 70
     1
102
RTVSPost2010Prop31
280
     0
102
RTVSPost2010PropOp31
 70
     1
102
RTVSPost2010Prop32
280
     0
102
RTVSPost2010PropOp32
 70
     1
102
RTVSPost2010Prop33
280
     0
102
RTVSPost2010PropOp33
 70
     1
102
RTVSPost2010Prop34
280
     0
102
RTVSPost2010PropOp34
 70
     1
102
RTVSPost2010Prop35
280
     0
102
RTVSPost2010PropOp35
 70
     1
102
RTVSPost2010Prop36
280
     0
102
RTVSPost2010PropOp36
 70
     1
102
RTVSPost2010Prop37
 90
       50
102
RTVSPost2010PropOp37
 70
     1
102
RTVSPost2010Prop38
140
0.0
102
RTVSPost2010PropOp38
 70
     1
102
RTVSPost2010Prop39
140
1.0
102
RTVSPost2010PropOp39
 70
     1
102
RTVSPost2010Prop40
 90
        0
102
RTVSPost2010PropOp40
 70
     1
102
RTVSPost2010Prop41ColorIndex
 90
       18
102
RTVSPost2010Prop41ColorRGB
 90
        0
102
RTVSPost2010PropOp41
 70
     1
102
RTVSPost2010Prop42
 90
       50
102
RTVSPost2010PropOp42
 70
     1
102
RTVSPost2010Prop43
 90
        3
102
RTVSPost2010PropOp43
 70
     1
102
RTVSPost2010Prop44ColorIndex
 90
        5
102
RTVSPost2010Prop44ColorRGB
 90
      255
102
RTVSPost2010PropOp44
 70
     1
102
RTVSPost2010Prop45
280
     0
102
RTVSPost2010PropOp45
 70
     1
102
RTVSPost2010Prop46
 90
       50
102
RTVSPost2010PropOp46
 70
     1
102
RTVSPost2010Prop47
 90
       50
102
RTVSPost2010PropOp47
 70
     1
102
RTVSPost2010Prop48
 90
       50
102
RTVSPost2010PropOp48
 70
     1
102
RTVSPost2010Prop49
280
     0
102
RTVSPost2010PropOp49
 70
     1
102
RTVSPost2010Prop50
 90
       50
102
RTVSPost2010PropOp50
 70
     1
102
RTVSPost2010Prop51ColorIndex
 90
      256
102
RTVSPost2010Prop51ColorRGB
 90
-16777216
102
RTVSPost2010PropOp51
 70
     0
102
RTVSPost2010Prop52
140
1.0
102
RTVSPost2010PropOp52
 70
     0
102
RTVSPost2010Prop53
 90
        2
102
RTVSPost2010PropOp53
 70
     1
102
RTVSPost2010Prop54
  1
strokes_ogs.tif
102
RTVSPost2010PropOp54
 70
     1
102
RTVSPost2010Prop55
280
     0
102
RTVSPost2010PropOp55
 70
     1
102
RTVSPost2010Prop56
140
1.0
102
RTVSPost2010PropOp56
 70
     1
102
RTVSPost2010Prop57
140
1.0
102
RTVSPost2010PropOp57
 70
     1
  0
XRECORD
  5
1DE
102
{ACAD_REACTORS
330
1DD
102
}
330
1DD
100
AcDbXrecord
280
     1
102
RTVSPropertyOp0
 70
     1
102
RTVSPropertyOp1
 70
     1
102
RTVSPropertyOp2
 70
     1
102
RTVSPropertyOp3
 70
     1
102
RTVSPropertyOp4
 70
     1
102
RTVSPropertyOp5
 70
     1
102
RTVSPropertyOp6
 70
     1
102
RTVSPropertyOp7
 70
     1
102
RTVSPropertyOp8
 70
     1
102
RTVSPropertyOp9
 70
     1
102
RTVSPropertyOp10
 70
     1
102
RTVSPropertyOp11
 70
     1
102
RTVSPropertyOp12
 70
     1
102
RTVSPropertyOp13
 70
     1
102
RTVSPropertyOp14
 70
     1
102
RTVSPropertyOp15
 70
     1
102
RTVSPropertyOp16
 70
     1
102
RTVSPropertyOp17
 70
     1
102
RTVSPropertyOp18
 70
     1
102
RTVSPropertyOp19
 70
     1
102
RTVSPropertyOp20
 70
     1
102
RTVSPropertyOp21
 70
     1
102
RTVSPropertyOp22
 70
     1
102
RTVSPropertyOp23
 70
     1
102
RTVSPropertyOp24
 70
     1
102
RTVSPropertyOp25
 70
     1
102
RTVSPropertyOp26
 70
     1
102
RTVSPropertyOp27
 70
     1
102
RTVSPropertyOp28
 70
     1
102
RTVSPropertyOp29
 70
     1
102
RTVSPropertyOp30
 70
     1
102
RTVSPropertyOp31
 70
     1
102
RTVSPropertyOp32
 70
     1
102
RTVSPropertyOp33
 70
     1
102
RTVSPropertyOp34
 70
     1
102
RTVSPropertyOp35
 70
     1
102
RTVSPropertyOp36
 70
     1
102
RTVSPropertyOp37
 70
     1
102
RTVSPropertyOp38
 70
     1
102
RTVSPropertyOp39
 70
     1
102
RTVSPropertyOp40
 70
     1
102
RTVSPropertyOp41
 70
     1
102
RTVSPropertyOp42
 70
     1
102
RTVSPropertyOp43
 70
     1
102
RTVSPropertyOp44
 70
     1
102
RTVSPropertyOp45
 70
     1
102
RTVSPropertyOp46
 70
     1
102
RTVSPropertyOp47
 70
     1
102
RTVSPropertyOp48
 70
     1
102
RTVSPropertyOp49
 70
     1
102
RTVSPropertyOp50
 70
     1
102
RTVSPropertyOp51
 70
     0
102
RTVSPropertyOp52
 70
     0
102
RTVSPropertyOp53
 70
     1
102
RTVSPropertyOp54
 70
     1
102
RTVSPropertyOp55
 70
     1
102
RTVSPropertyOp56
 70
     1
102
RTVSPropertyOp57
 70
     1
102
RTVSPost2010Prop28
280
     0
102
RTVSPost2010PropOp28
 70
     1
102
RTVSPost2010Prop29
280
     1
102
RTVSPost2010PropOp29
 70
     1
102
RTVSPost2010Prop30
280
     1
102
RTVSPost2010PropOp30
 70
     1
102
RTVSPost2010Prop31
280
     0
102
RTVSPost2010PropOp31
 70
     1
102
RTVSPost2010Prop32
280
     0
102
RTVSPost2010PropOp32
 70
     1
102
RTVSPost2010Prop33
280
     0
102
RTVSPost2010PropOp33
 70
     1
102
RTVSPost2010Prop34
280
     0
102
RTVSPost2010PropOp34
 70
     1
102
RTVSPost2010Prop35
280
     0
102
RTVSPost2010PropOp35
 70
     1
102
RTVSPost2010Prop36
280
     0
102
RTVSPost2010PropOp36
 70
     1
102
RTVSPost2010Prop37
 90
       50
102
RTVSPost2010PropOp37
 70
     1
102
RTVSPost2010Prop38
140
0.0
102
RTVSPost2010PropOp38
 70
     1
102
RTVSPost2010Prop39
140
1.0
102
RTVSPost2010PropOp39
 70
     1
102
RTVSPost2010Prop40
 90
        0
102
RTVSPost2010PropOp40
 70
     1
102
RTVSPost2010Prop41ColorIndex
 90
       18
102
RTVSPost2010Prop41ColorRGB
 90
        0
102
RTVSPost2010PropOp41
 70
     1
102
RTVSPost2010Prop42
 90
       50
102
RTVSPost2010PropOp42
 70
     1
102
RTVSPost2010Prop43
 90
        3
102
RTVSPost2010PropOp43
 70
     1
102
RTVSPost2010Prop44ColorIndex
 90
        5
102
RTVSPost2010Prop44ColorRGB
 90
      255
102
RTVSPost2010PropOp44
 70
     1
102
RTVSPost2010Prop45
280
     0
102
RTVSPost2010PropOp45
 70
     1
102
RTVSPost2010Prop46
 90
       50
102
RTVSPost2010PropOp46
 70
     1
102
RTVSPost2010Prop47
 90
       50
102
RTVSPost2010PropOp47
 70
     1
102
RTVSPost2010Prop48
 90
       50
102
RTVSPost2010PropOp48
 70
     1
102
RTVSPost2010Prop49
280
     0
102
RTVSPost2010PropOp49
 70
     1
102
RTVSPost2010Prop50
 90
       50
102
RTVSPost2010PropOp50
 70
     1
102
RTVSPost2010Prop51ColorIndex
 90
      256
102
RTVSPost2010Prop51ColorRGB
 90
-16777216
102
RTVSPost2010PropOp51
 70
     0
102
RTVSPost2010Prop52
140
1.0
102
RTVSPost2010PropOp52
 70
     0
102
RTVSPost2010Prop53
 90
        2
102
RTVSPost2010PropOp53
 70
     1
102
RTVSPost2010Prop54
  1
strokes_ogs.tif
102
RTVSPost2010PropOp54
 70
     1
102
RTVSPost2010Prop55
280
     0
102
RTVSPost2010PropOp55
 70
     1
102
RTVSPost2010Prop56
140
1.0
102
RTVSPost2010PropOp56
 70
     1
102
RTVSPost2010Prop57
140
1.0
102
RTVSPost2010PropOp57
 70
     1
  0
XRECORD
  5
1EE
102
{ACAD_REACTORS
330
1ED
102
}
330
1ED
100
AcDbXrecord
280
     1
102
RTVSPropertyOp0
 70
     0
102
RTVSPropertyOp1
 70
     0
102
RTVSPropertyOp2
 70
     0
102
RTVSPropertyOp3
 70
     0
102
RTVSPropertyOp4
 70
     0
102
RTVSPropertyOp5
 70
     0
102
RTVSPropertyOp6
 70
     0
102
RTVSPropertyOp7
 70
     0
102
RTVSPropertyOp8
 70
     0
102
RTVSPropertyOp9
 70
     0
102
RTVSPropertyOp10
 70
     0
102
RTVSPropertyOp11
 70
     0
102
RTVSPropertyOp12
 70
     0
102
RTVSPropertyOp13
 70
     0
102
RTVSPropertyOp14
 70
     2
102
RTVSPropertyOp15
 70
     0
102
RTVSPropertyOp16
 70
     0
102
RTVSPropertyOp17
 70
     0
102
RTVSPropertyOp18
 70
     0
102
RTVSPropertyOp19
 70
     0
102
RTVSPropertyOp20
 70
     0
102
RTVSPropertyOp21
 70
     0
102
RTVSPropertyOp22
 70
     0
102
RTVSPropertyOp23
 70
     0
102
RTVSPropertyOp24
 70
     0
102
RTVSPropertyOp25
 70
     0
102
RTVSPropertyOp26
 70
     0
102
RTVSPropertyOp27
 70
     0
102
RTVSPropertyOp28
 70
     0
102
RTVSPropertyOp29
 70
     0
102
RTVSPropertyOp30
 70
     0
102
RTVSPropertyOp31
 70
     0
102
RTVSPropertyOp32
 70
     0
102
RTVSPropertyOp33
 70
     0
102
RTVSPropertyOp34
 70
     0
102
RTVSPropertyOp35
 70
     0
102
RTVSPropertyOp36
 70
     0
102
RTVSPropertyOp37
 70
     0
102
RTVSPropertyOp38
 70
     0
102
RTVSPropertyOp39
 70
     0
102
RTVSPropertyOp40
 70
     0
102
RTVSPropertyOp41
 70
     0
102
RTVSPropertyOp42
 70
     0
102
RTVSPropertyOp43
 70
     0
102
RTVSPropertyOp44
 70
     0
102
RTVSPropertyOp45
 70
     0
102
RTVSPropertyOp46
 70
     0
102
RTVSPropertyOp47
 70
     0
102
RTVSPropertyOp48
 70
     0
102
RTVSPropertyOp49
 70
     0
102
RTVSPropertyOp50
 70
     0
102
RTVSPropertyOp51
 70
     0
102
RTVSPropertyOp52
 70
     0
102
RTVSPropertyOp53
 70
     0
102
RTVSPropertyOp54
 70
     0
102
RTVSPropertyOp55
 70
     0
102
RTVSPropertyOp56
 70
     0
102
RTVSPropertyOp57
 70
     0
102
RTVSPost2010Prop28
280
     0
102
RTVSPost2010PropOp28
 70
     0
102
RTVSPost2010Prop29
280
     1
102
RTVSPost2010PropOp29
 70
     0
102
RTVSPost2010Prop30
280
     1
102
RTVSPost2010PropOp30
 70
     0
102
RTVSPost2010Prop31
280
     0
102
RTVSPost2010PropOp31
 70
     0
102
RTVSPost2010Prop32
280
     0
102
RTVSPost2010PropOp32
 70
     0
102
RTVSPost2010Prop33
280
     0
102
RTVSPost2010PropOp33
 70
     0
102
RTVSPost2010Prop34
280
     0
102
RTVSPost2010PropOp34
 70
     0
102
RTVSPost2010Prop35
280
     0
102
RTVSPost2010PropOp35
 70
     0
102
RTVSPost2010Prop36
280
     0
102
RTVSPost2010PropOp36
 70
     0
102
RTVSPost2010Prop37
 90
       50
102
RTVSPost2010PropOp37
 70
     0
102
RTVSPost2010Prop38
140
0.0
102
RTVSPost2010PropOp38
 70
     0
102
RTVSPost2010Prop39
140
1.0
102
RTVSPost2010PropOp39
 70
     0
102
RTVSPost2010Prop40
 90
        0
102
RTVSPost2010PropOp40
 70
     0
102
RTVSPost2010Prop41ColorIndex
 90
       18
102
RTVSPost2010Prop41ColorRGB
 90
        0
102
RTVSPost2010PropOp41
 70
     0
102
RTVSPost2010Prop42
 90
       50
102
RTVSPost2010PropOp42
 70
     0
102
RTVSPost2010Prop43
 90
        3
102
RTVSPost2010PropOp43
 70
     0
102
RTVSPost2010Prop44ColorIndex
 90
        5
102
RTVSPost2010Prop44ColorRGB
 90
      255
102
RTVSPost2010PropOp44
 70
     0
102
RTVSPost2010Prop45
280
     0
102
RTVSPost2010PropOp45
 70
     0
102
RTVSPost2010Prop46
 90
       50
102
RTVSPost2010PropOp46
 70
     0
102
RTVSPost2010Prop47
 90
       50
102
RTVSPost2010PropOp47
 70
     0
102
RTVSPost2010Prop48
 90
       50
102
RTVSPost2010PropOp48
 70
     0
102
RTVSPost2010Prop49
280
     0
102
RTVSPost2010PropOp49
 70
     0
102
RTVSPost2010Prop50
 90
       50
102
RTVSPost2010PropOp50
 70
     0
102
RTVSPost2010Prop51ColorIndex
 90
      256
102
RTVSPost2010Prop51ColorRGB
 90
-16777216
102
RTVSPost2010PropOp51
 70
     0
102
RTVSPost2010Prop52
140
1.0
102
RTVSPost2010PropOp52
 70
     0
102
RTVSPost2010Prop53
 90
        2
102
RTVSPost2010PropOp53
 70
     0
102
RTVSPost2010Prop54
  1
strokes_ogs.tif
102
RTVSPost2010PropOp54
 70
     0
102
RTVSPost2010Prop55
280
     0
102
RTVSPost2010PropOp55
 70
     0
102
RTVSPost2010Prop56
140
1.0
102
RTVSPost2010PropOp56
 70
     0
102
RTVSPost2010Prop57
140
1.0
102
RTVSPost2010PropOp57
 70
     0
  0
XRECORD
  5
1E6
102
{ACAD_REACTORS
330
1E5
102
}
330
1E5
100
AcDbXrecord
280
     1
102
RTVSPropertyOp0
 70
     1
102
RTVSPropertyOp1
 70
     1
102
RTVSPropertyOp2
 70
     1
102
RTVSPropertyOp3
 70
     1
102
RTVSPropertyOp4
 70
     1
102
RTVSPropertyOp5
 70
     1
102
RTVSPropertyOp6
 70
     1
102
RTVSPropertyOp7
 70
     1
102
RTVSPropertyOp8
 70
     1
102
RTVSPropertyOp9
 70
     1
102
RTVSPropertyOp10
 70
     1
102
RTVSPropertyOp11
 70
     1
102
RTVSPropertyOp12
 70
     1
102
RTVSPropertyOp13
 70
     1
102
RTVSPropertyOp14
 70
     1
102
RTVSPropertyOp15
 70
     1
102
RTVSPropertyOp16
 70
     1
102
RTVSPropertyOp17
 70
     1
102
RTVSPropertyOp18
 70
     1
102
RTVSPropertyOp19
 70
     1
102
RTVSPropertyOp20
 70
     1
102
RTVSPropertyOp21
 70
     1
102
RTVSPropertyOp22
 70
     1
102
RTVSPropertyOp23
 70
     1
102
RTVSPropertyOp24
 70
     1
102
RTVSPropertyOp25
 70
     1
102
RTVSPropertyOp26
 70
     1
102
RTVSPropertyOp27
 70
     1
102
RTVSPropertyOp28
 70
     1
102
RTVSPropertyOp29
 70
     1
102
RTVSPropertyOp30
 70
     1
102
RTVSPropertyOp31
 70
     1
102
RTVSPropertyOp32
 70
     1
102
RTVSPropertyOp33
 70
     1
102
RTVSPropertyOp34
 70
     1
102
RTVSPropertyOp35
 70
     1
102
RTVSPropertyOp36
 70
     1
102
RTVSPropertyOp37
 70
     1
102
RTVSPropertyOp38
 70
     1
102
RTVSPropertyOp39
 70
     1
102
RTVSPropertyOp40
 70
     1
102
RTVSPropertyOp41
 70
     1
102
RTVSPropertyOp42
 70
     1
102
RTVSPropertyOp43
 70
     1
102
RTVSPropertyOp44
 70
     1
102
RTVSPropertyOp45
 70
     1
102
RTVSPropertyOp46
 70
     1
102
RTVSPropertyOp47
 70
     1
102
RTVSPropertyOp48
 70
     1
102
RTVSPropertyOp49
 70
     1
102
RTVSPropertyOp50
 70
     1
102
RTVSPropertyOp51
 70
     0
102
RTVSPropertyOp52
 70
     0
102
RTVSPropertyOp53
 70
     1
102
RTVSPropertyOp54
 70
     1
102
RTVSPropertyOp55
 70
     1
102
RTVSPropertyOp56
 70
     1
102
RTVSPropertyOp57
 70
     1
102
RTVSPost2010Prop28
280
     0
102
RTVSPost2010PropOp28
 70
     1
102
RTVSPost2010Prop29
280
     1
102
RTVSPost2010PropOp29
 70
     1
102
RTVSPost2010Prop30
280
     1
102
RTVSPost2010PropOp30
 70
     1
102
RTVSPost2010Prop31
280
     0
102
RTVSPost2010PropOp31
 70
     1
102
RTVSPost2010Prop32
280
     0
102
RTVSPost2010PropOp32
 70
     1
102
RTVSPost2010Prop33
280
     0
102
RTVSPost2010PropOp33
 70
     1
102
RTVSPost2010Prop34
280
     0
102
RTVSPost2010PropOp34
 70
     1
102
RTVSPost2010Prop35
280
     0
102
RTVSPost2010PropOp35
 70
     1
102
RTVSPost2010Prop36
280
     0
102
RTVSPost2010PropOp36
 70
     1
102
RTVSPost2010Prop37
 90
       50
102
RTVSPost2010PropOp37
 70
     1
102
RTVSPost2010Prop38
140
0.0
102
RTVSPost2010PropOp38
 70
     1
102
RTVSPost2010Prop39
140
1.0
102
RTVSPost2010PropOp39
 70
     1
102
RTVSPost2010Prop40
 90
        0
102
RTVSPost2010PropOp40
 70
     1
102
RTVSPost2010Prop41ColorIndex
 90
       18
102
RTVSPost2010Prop41ColorRGB
 90
        0
102
RTVSPost2010PropOp41
 70
     1
102
RTVSPost2010Prop42
 90
       50
102
RTVSPost2010PropOp42
 70
     1
102
RTVSPost2010Prop43
 90
        3
102
RTVSPost2010PropOp43
 70
     1
102
RTVSPost2010Prop44ColorIndex
 90
        5
102
RTVSPost2010Prop44ColorRGB
 90
      255
102
RTVSPost2010PropOp44
 70
     1
102
RTVSPost2010Prop45
280
     0
102
RTVSPost2010PropOp45
 70
     1
102
RTVSPost2010Prop46
 90
       50
102
RTVSPost2010PropOp46
 70
     1
102
RTVSPost2010Prop47
 90
       50
102
RTVSPost2010PropOp47
 70
     1
102
RTVSPost2010Prop48
 90
       50
102
RTVSPost2010PropOp48
 70
     1
102
RTVSPost2010Prop49
280
     0
102
RTVSPost2010PropOp49
 70
     1
102
RTVSPost2010Prop50
 90
       50
102
RTVSPost2010PropOp50
 70
     1
102
RTVSPost2010Prop51ColorIndex
 90
      256
102
RTVSPost2010Prop51ColorRGB
 90
-16777216
102
RTVSPost2010PropOp51
 70
     0
102
RTVSPost2010Prop52
140
1.0
102
RTVSPost2010PropOp52
 70
     0
102
RTVSPost2010Prop53
 90
        2
102
RTVSPost2010PropOp53
 70
     1
102
RTVSPost2010Prop54
  1
strokes_ogs.tif
102
RTVSPost2010PropOp54
 70
     1
102
RTVSPost2010Prop55
280
     0
102
RTVSPost2010PropOp55
 70
     1
102
RTVSPost2010Prop56
140
1.0
102
RTVSPost2010PropOp56
 70
     1
102
RTVSPost2010Prop57
140
1.0
102
RTVSPost2010PropOp57
 70
     1
  0
XRECORD
  5
1CA
102
{ACAD_REACTORS
330
1C9
102
}
330
1C9
100
AcDbXrecord
280
     1
102
RTVSPropertyOp0
 70
     1
102
RTVSPropertyOp1
 70
     1
102
RTVSPropertyOp2
 70
     1
102
RTVSPropertyOp3
 70
     1
102
RTVSPropertyOp4
 70
     1
102
RTVSPropertyOp5
 70
     1
102
RTVSPropertyOp6
 70
     1
102
RTVSPropertyOp7
 70
     1
102
RTVSPropertyOp8
 70
     1
102
RTVSPropertyOp9
 70
     1
102
RTVSPropertyOp10
 70
     1
102
RTVSPropertyOp11
 70
     1
102
RTVSPropertyOp12
 70
     1
102
RTVSPropertyOp13
 70
     1
102
RTVSPropertyOp14
 70
     1
102
RTVSPropertyOp15
 70
     1
102
RTVSPropertyOp16
 70
     1
102
RTVSPropertyOp17
 70
     1
102
RTVSPropertyOp18
 70
     1
102
RTVSPropertyOp19
 70
     1
102
RTVSPropertyOp20
 70
     1
102
RTVSPropertyOp21
 70
     1
102
RTVSPropertyOp22
 70
     1
102
RTVSPropertyOp23
 70
     1
102
RTVSPropertyOp24
 70
     1
102
RTVSPropertyOp25
 70
     1
102
RTVSPropertyOp26
 70
     1
102
RTVSPropertyOp27
 70
     1
102
RTVSPropertyOp28
 70
     1
102
RTVSPropertyOp29
 70
     1
102
RTVSPropertyOp30
 70
     1
102
RTVSPropertyOp31
 70
     1
102
RTVSPropertyOp32
 70
     1
102
RTVSPropertyOp33
 70
     1
102
RTVSPropertyOp34
 70
     1
102
RTVSPropertyOp35
 70
     1
102
RTVSPropertyOp36
 70
     1
102
RTVSPropertyOp37
 70
     1
102
RTVSPropertyOp38
 70
     1
102
RTVSPropertyOp39
 70
     1
102
RTVSPropertyOp40
 70
     1
102
RTVSPropertyOp41
 70
     1
102
RTVSPropertyOp42
 70
     1
102
RTVSPropertyOp43
 70
     1
102
RTVSPropertyOp44
 70
     1
102
RTVSPropertyOp45
 70
     1
102
RTVSPropertyOp46
 70
     1
102
RTVSPropertyOp47
 70
     1
102
RTVSPropertyOp48
 70
     1
102
RTVSPropertyOp49
 70
     1
102
RTVSPropertyOp50
 70
     1
102
RTVSPropertyOp51
 70
     0
102
RTVSPropertyOp52
 70
     0
102
RTVSPropertyOp53
 70
     1
102
RTVSPropertyOp54
 70
     1
102
RTVSPropertyOp55
 70
     1
102
RTVSPropertyOp56
 70
     1
102
RTVSPropertyOp57
 70
     1
102
RTVSPost2010Prop28
280
     0
102
RTVSPost2010PropOp28
 70
     1
102
RTVSPost2010Prop29
280
     1
102
RTVSPost2010PropOp29
 70
     1
102
RTVSPost2010Prop30
280
     1
102
RTVSPost2010PropOp30
 70
     1
102
RTVSPost2010Prop31
280
     0
102
RTVSPost2010PropOp31
 70
     1
102
RTVSPost2010Prop32
280
     0
102
RTVSPost2010PropOp32
 70
     1
102
RTVSPost2010Prop33
280
     0
102
RTVSPost2010PropOp33
 70
     1
102
RTVSPost2010Prop34
280
     0
102
RTVSPost2010PropOp34
 70
     1
102
RTVSPost2010Prop35
280
     0
102
RTVSPost2010PropOp35
 70
     1
102
RTVSPost2010Prop36
280
     0
102
RTVSPost2010PropOp36
 70
     1
102
RTVSPost2010Prop37
 90
       50
102
RTVSPost2010PropOp37
 70
     1
102
RTVSPost2010Prop38
140
0.0
102
RTVSPost2010PropOp38
 70
     1
102
RTVSPost2010Prop39
140
1.0
102
RTVSPost2010PropOp39
 70
     1
102
RTVSPost2010Prop40
 90
        0
102
RTVSPost2010PropOp40
 70
     1
102
RTVSPost2010Prop41ColorIndex
 90
       18
102
RTVSPost2010Prop41ColorRGB
 90
        0
102
RTVSPost2010PropOp41
 70
     1
102
RTVSPost2010Prop42
 90
       50
102
RTVSPost2010PropOp42
 70
     1
102
RTVSPost2010Prop43
 90
        3
102
RTVSPost2010PropOp43
 70
     1
102
RTVSPost2010Prop44ColorIndex
 90
        5
102
RTVSPost2010Prop44ColorRGB
 90
      255
102
RTVSPost2010PropOp44
 70
     1
102
RTVSPost2010Prop45
280
     0
102
RTVSPost2010PropOp45
 70
     1
102
RTVSPost2010Prop46
 90
       50
102
RTVSPost2010PropOp46
 70
     1
102
RTVSPost2010Prop47
 90
       50
102
RTVSPost2010PropOp47
 70
     1
102
RTVSPost2010Prop48
 90
       50
102
RTVSPost2010PropOp48
 70
     1
102
RTVSPost2010Prop49
280
     0
102
RTVSPost2010PropOp49
 70
     1
102
RTVSPost2010Prop50
 90
       50
102
RTVSPost2010PropOp50
 70
     1
102
RTVSPost2010Prop51ColorIndex
 90
      256
102
RTVSPost2010Prop51ColorRGB
 90
-16777216
102
RTVSPost2010PropOp51
 70
     0
102
RTVSPost2010Prop52
140
1.0
102
RTVSPost2010PropOp52
 70
     0
102
RTVSPost2010Prop53
 90
        2
102
RTVSPost2010PropOp53
 70
     1
102
RTVSPost2010Prop54
  1
strokes_ogs.tif
102
RTVSPost2010PropOp54
 70
     1
102
RTVSPost2010Prop55
280
     0
102
RTVSPost2010PropOp55
 70
     1
102
RTVSPost2010Prop56
140
1.0
102
RTVSPost2010PropOp56
 70
     1
102
RTVSPost2010Prop57
140
1.0
102
RTVSPost2010PropOp57
 70
     1
  0
XRECORD
  5
1CC
102
{ACAD_REACTORS
330
1CB
102
}
330
1CB
100
AcDbXrecord
280
     1
102
RTVSPropertyOp0
 70
     1
102
RTVSPropertyOp1
 70
     1
102
RTVSPropertyOp2
 70
     1
102
RTVSPropertyOp3
 70
     1
102
RTVSPropertyOp4
 70
     1
102
RTVSPropertyOp5
 70
     1
102
RTVSPropertyOp6
 70
     1
102
RTVSPropertyOp7
 70
     1
102
RTVSPropertyOp8
 70
     1
102
RTVSPropertyOp9
 70
     1
102
RTVSPropertyOp10
 70
     1
102
RTVSPropertyOp11
 70
     1
102
RTVSPropertyOp12
 70
     1
102
RTVSPropertyOp13
 70
     1
102
RTVSPropertyOp14
 70
     1
102
RTVSPropertyOp15
 70
     1
102
RTVSPropertyOp16
 70
     1
102
RTVSPropertyOp17
 70
     1
102
RTVSPropertyOp18
 70
     1
102
RTVSPropertyOp19
 70
     1
102
RTVSPropertyOp20
 70
     1
102
RTVSPropertyOp21
 70
     1
102
RTVSPropertyOp22
 70
     1
102
RTVSPropertyOp23
 70
     1
102
RTVSPropertyOp24
 70
     1
102
RTVSPropertyOp25
 70
     1
102
RTVSPropertyOp26
 70
     1
102
RTVSPropertyOp27
 70
     1
102
RTVSPropertyOp28
 70
     1
102
RTVSPropertyOp29
 70
     1
102
RTVSPropertyOp30
 70
     1
102
RTVSPropertyOp31
 70
     1
102
RTVSPropertyOp32
 70
     1
102
RTVSPropertyOp33
 70
     1
102
RTVSPropertyOp34
 70
     1
102
RTVSPropertyOp35
 70
     1
102
RTVSPropertyOp36
 70
     1
102
RTVSPropertyOp37
 70
     1
102
RTVSPropertyOp38
 70
     1
102
RTVSPropertyOp39
 70
     1
102
RTVSPropertyOp40
 70
     1
102
RTVSPropertyOp41
 70
     1
102
RTVSPropertyOp42
 70
     1
102
RTVSPropertyOp43
 70
     1
102
RTVSPropertyOp44
 70
     1
102
RTVSPropertyOp45
 70
     1
102
RTVSPropertyOp46
 70
     1
102
RTVSPropertyOp47
 70
     1
102
RTVSPropertyOp48
 70
     1
102
RTVSPropertyOp49
 70
     1
102
RTVSPropertyOp50
 70
     1
102
RTVSPropertyOp51
 70
     0
102
RTVSPropertyOp52
 70
     0
102
RTVSPropertyOp53
 70
     1
102
RTVSPropertyOp54
 70
     1
102
RTVSPropertyOp55
 70
     1
102
RTVSPropertyOp56
 70
     1
102
RTVSPropertyOp57
 70
     1
102
RTVSPost2010Prop28
280
     0
102
RTVSPost2010PropOp28
 70
     1
102
RTVSPost2010Prop29
280
     1
102
RTVSPost2010PropOp29
 70
     1
102
RTVSPost2010Prop30
280
     1
102
RTVSPost2010PropOp30
 70
     1
102
RTVSPost2010Prop31
280
     0
102
RTVSPost2010PropOp31
 70
     1
102
RTVSPost2010Prop32
280
     0
102
RTVSPost2010PropOp32
 70
     1
102
RTVSPost2010Prop33
280
     0
102
RTVSPost2010PropOp33
 70
     1
102
RTVSPost2010Prop34
280
     0
102
RTVSPost2010PropOp34
 70
     1
102
RTVSPost2010Prop35
280
     0
102
RTVSPost2010PropOp35
 70
     1
102
RTVSPost2010Prop36
280
     0
102
RTVSPost2010PropOp36
 70
     1
102
RTVSPost2010Prop37
 90
       50
102
RTVSPost2010PropOp37
 70
     1
102
RTVSPost2010Prop38
140
0.0
102
RTVSPost2010PropOp38
 70
     1
102
RTVSPost2010Prop39
140
1.0
102
RTVSPost2010PropOp39
 70
     1
102
RTVSPost2010Prop40
 90
        0
102
RTVSPost2010PropOp40
 70
     1
102
RTVSPost2010Prop41ColorIndex
 90
       18
102
RTVSPost2010Prop41ColorRGB
 90
        0
102
RTVSPost2010PropOp41
 70
     1
102
RTVSPost2010Prop42
 90
       50
102
RTVSPost2010PropOp42
 70
     1
102
RTVSPost2010Prop43
 90
        3
102
RTVSPost2010PropOp43
 70
     1
102
RTVSPost2010Prop44ColorIndex
 90
        5
102
RTVSPost2010Prop44ColorRGB
 90
      255
102
RTVSPost2010PropOp44
 70
     1
102
RTVSPost2010Prop45
280
     0
102
RTVSPost2010PropOp45
 70
     1
102
RTVSPost2010Prop46
 90
       50
102
RTVSPost2010PropOp46
 70
     1
102
RTVSPost2010Prop47
 90
       50
102
RTVSPost2010PropOp47
 70
     1
102
RTVSPost2010Prop48
 90
       50
102
RTVSPost2010PropOp48
 70
     1
102
RTVSPost2010Prop49
280
     0
102
RTVSPost2010PropOp49
 70
     1
102
RTVSPost2010Prop50
 90
       50
102
RTVSPost2010PropOp50
 70
     1
102
RTVSPost2010Prop51ColorIndex
 90
      256
102
RTVSPost2010Prop51ColorRGB
 90
-16777216
102
RTVSPost2010PropOp51
 70
     0
102
RTVSPost2010Prop52
140
1.0
102
RTVSPost2010PropOp52
 70
     0
102
RTVSPost2010Prop53
 90
        2
102
RTVSPost2010PropOp53
 70
     1
102
RTVSPost2010Prop54
  1
strokes_ogs.tif
102
RTVSPost2010PropOp54
 70
     1
102
RTVSPost2010Prop55
280
     0
102
RTVSPost2010PropOp55
 70
     1
102
RTVSPost2010Prop56
140
1.0
102
RTVSPost2010PropOp56
 70
     1
102
RTVSPost2010Prop57
140
1.0
102
RTVSPost2010PropOp57
 70
     1
  0
XRECORD
  5
1CE
102
{ACAD_REACTORS
330
1CD
102
}
330
1CD
100
AcDbXrecord
280
     1
102
RTVSPropertyOp0
 70
     1
102
RTVSPropertyOp1
 70
     1
102
RTVSPropertyOp2
 70
     1
102
RTVSPropertyOp3
 70
     1
102
RTVSPropertyOp4
 70
     1
102
RTVSPropertyOp5
 70
     1
102
RTVSPropertyOp6
 70
     1
102
RTVSPropertyOp7
 70
     1
102
RTVSPropertyOp8
 70
     1
102
RTVSPropertyOp9
 70
     1
102
RTVSPropertyOp10
 70
     1
102
RTVSPropertyOp11
 70
     1
102
RTVSPropertyOp12
 70
     1
102
RTVSPropertyOp13
 70
     1
102
RTVSPropertyOp14
 70
     1
102
RTVSPropertyOp15
 70
     1
102
RTVSPropertyOp16
 70
     1
102
RTVSPropertyOp17
 70
     1
102
RTVSPropertyOp18
 70
     1
102
RTVSPropertyOp19
 70
     1
102
RTVSPropertyOp20
 70
     1
102
RTVSPropertyOp21
 70
     1
102
RTVSPropertyOp22
 70
     1
102
RTVSPropertyOp23
 70
     1
102
RTVSPropertyOp24
 70
     1
102
RTVSPropertyOp25
 70
     1
102
RTVSPropertyOp26
 70
     1
102
RTVSPropertyOp27
 70
     1
102
RTVSPropertyOp28
 70
     1
102
RTVSPropertyOp29
 70
     1
102
RTVSPropertyOp30
 70
     1
102
RTVSPropertyOp31
 70
     1
102
RTVSPropertyOp32
 70
     1
102
RTVSPropertyOp33
 70
     1
102
RTVSPropertyOp34
 70
     1
102
RTVSPropertyOp35
 70
     1
102
RTVSPropertyOp36
 70
     1
102
RTVSPropertyOp37
 70
     1
102
RTVSPropertyOp38
 70
     1
102
RTVSPropertyOp39
 70
     1
102
RTVSPropertyOp40
 70
     1
102
RTVSPropertyOp41
 70
     1
102
RTVSPropertyOp42
 70
     1
102
RTVSPropertyOp43
 70
     1
102
RTVSPropertyOp44
 70
     1
102
RTVSPropertyOp45
 70
     1
102
RTVSPropertyOp46
 70
     1
102
RTVSPropertyOp47
 70
     1
102
RTVSPropertyOp48
 70
     1
102
RTVSPropertyOp49
 70
     1
102
RTVSPropertyOp50
 70
     1
102
RTVSPropertyOp51
 70
     0
102
RTVSPropertyOp52
 70
     0
102
RTVSPropertyOp53
 70
     1
102
RTVSPropertyOp54
 70
     1
102
RTVSPropertyOp55
 70
     1
102
RTVSPropertyOp56
 70
     1
102
RTVSPropertyOp57
 70
     1
102
RTVSPost2010Prop28
280
     0
102
RTVSPost2010PropOp28
 70
     1
102
RTVSPost2010Prop29
280
     1
102
RTVSPost2010PropOp29
 70
     1
102
RTVSPost2010Prop30
280
     1
102
RTVSPost2010PropOp30
 70
     1
102
RTVSPost2010Prop31
280
     0
102
RTVSPost2010PropOp31
 70
     1
102
RTVSPost2010Prop32
280
     0
102
RTVSPost2010PropOp32
 70
     1
102
RTVSPost2010Prop33
280
     0
102
RTVSPost2010PropOp33
 70
     1
102
RTVSPost2010Prop34
280
     0
102
RTVSPost2010PropOp34
 70
     1
102
RTVSPost2010Prop35
280
     0
102
RTVSPost2010PropOp35
 70
     1
102
RTVSPost2010Prop36
280
     0
102
RTVSPost2010PropOp36
 70
     1
102
RTVSPost2010Prop37
 90
       50
102
RTVSPost2010PropOp37
 70
     1
102
RTVSPost2010Prop38
140
0.0
102
RTVSPost2010PropOp38
 70
     1
102
RTVSPost2010Prop39
140
1.0
102
RTVSPost2010PropOp39
 70
     1
102
RTVSPost2010Prop40
 90
        0
102
RTVSPost2010PropOp40
 70
     1
102
RTVSPost2010Prop41ColorIndex
 90
       18
102
RTVSPost2010Prop41ColorRGB
 90
        0
102
RTVSPost2010PropOp41
 70
     1
102
RTVSPost2010Prop42
 90
       50
102
RTVSPost2010PropOp42
 70
     1
102
RTVSPost2010Prop43
 90
        3
102
RTVSPost2010PropOp43
 70
     1
102
RTVSPost2010Prop44ColorIndex
 90
        5
102
RTVSPost2010Prop44ColorRGB
 90
      255
102
RTVSPost2010PropOp44
 70
     1
102
RTVSPost2010Prop45
280
     0
102
RTVSPost2010PropOp45
 70
     1
102
RTVSPost2010Prop46
 90
       50
102
RTVSPost2010PropOp46
 70
     1
102
RTVSPost2010Prop47
 90
       50
102
RTVSPost2010PropOp47
 70
     1
102
RTVSPost2010Prop48
 90
       50
102
RTVSPost2010PropOp48
 70
     1
102
RTVSPost2010Prop49
280
     0
102
RTVSPost2010PropOp49
 70
     1
102
RTVSPost2010Prop50
 90
       50
102
RTVSPost2010PropOp50
 70
     1
102
RTVSPost2010Prop51ColorIndex
 90
      256
102
RTVSPost2010Prop51ColorRGB
 90
-16777216
102
RTVSPost2010PropOp51
 70
     0
102
RTVSPost2010Prop52
140
1.0
102
RTVSPost2010PropOp52
 70
     0
102
RTVSPost2010Prop53
 90
        2
102
RTVSPost2010PropOp53
 70
     1
102
RTVSPost2010Prop54
  1
strokes_ogs.tif
102
RTVSPost2010PropOp54
 70
     1
102
RTVSPost2010Prop55
280
     0
102
RTVSPost2010PropOp55
 70
     1
102
RTVSPost2010Prop56
140
1.0
102
RTVSPost2010PropOp56
 70
     1
102
RTVSPost2010Prop57
140
1.0
102
RTVSPost2010PropOp57
 70
     1
  0
XRECORD
  5
1D0
102
{ACAD_REACTORS
330
1CF
102
}
330
1CF
100
AcDbXrecord
280
     1
102
RTVSPropertyOp0
 70
     1
102
RTVSPropertyOp1
 70
     1
102
RTVSPropertyOp2
 70
     1
102
RTVSPropertyOp3
 70
     1
102
RTVSPropertyOp4
 70
     1
102
RTVSPropertyOp5
 70
     1
102
RTVSPropertyOp6
 70
     1
102
RTVSPropertyOp7
 70
     1
102
RTVSPropertyOp8
 70
     1
102
RTVSPropertyOp9
 70
     1
102
RTVSPropertyOp10
 70
     1
102
RTVSPropertyOp11
 70
     1
102
RTVSPropertyOp12
 70
     1
102
RTVSPropertyOp13
 70
     1
102
RTVSPropertyOp14
 70
     1
102
RTVSPropertyOp15
 70
     1
102
RTVSPropertyOp16
 70
     1
102
RTVSPropertyOp17
 70
     1
102
RTVSPropertyOp18
 70
     1
102
RTVSPropertyOp19
 70
     1
102
RTVSPropertyOp20
 70
     1
102
RTVSPropertyOp21
 70
     1
102
RTVSPropertyOp22
 70
     1
102
RTVSPropertyOp23
 70
     1
102
RTVSPropertyOp24
 70
     1
102
RTVSPropertyOp25
 70
     1
102
RTVSPropertyOp26
 70
     1
102
RTVSPropertyOp27
 70
     1
102
RTVSPropertyOp28
 70
     1
102
RTVSPropertyOp29
 70
     1
102
RTVSPropertyOp30
 70
     1
102
RTVSPropertyOp31
 70
     1
102
RTVSPropertyOp32
 70
     1
102
RTVSPropertyOp33
 70
     1
102
RTVSPropertyOp34
 70
     1
102
RTVSPropertyOp35
 70
     1
102
RTVSPropertyOp36
 70
     1
102
RTVSPropertyOp37
 70
     1
102
RTVSPropertyOp38
 70
     1
102
RTVSPropertyOp39
 70
     1
102
RTVSPropertyOp40
 70
     1
102
RTVSPropertyOp41
 70
     1
102
RTVSPropertyOp42
 70
     1
102
RTVSPropertyOp43
 70
     1
102
RTVSPropertyOp44
 70
     1
102
RTVSPropertyOp45
 70
     1
102
RTVSPropertyOp46
 70
     1
102
RTVSPropertyOp47
 70
     1
102
RTVSPropertyOp48
 70
     1
102
RTVSPropertyOp49
 70
     1
102
RTVSPropertyOp50
 70
     1
102
RTVSPropertyOp51
 70
     0
102
RTVSPropertyOp52
 70
     0
102
RTVSPropertyOp53
 70
     1
102
RTVSPropertyOp54
 70
     1
102
RTVSPropertyOp55
 70
     1
102
RTVSPropertyOp56
 70
     1
102
RTVSPropertyOp57
 70
     1
102
RTVSPost2010Prop28
280
     0
102
RTVSPost2010PropOp28
 70
     1
102
RTVSPost2010Prop29
280
     1
102
RTVSPost2010PropOp29
 70
     1
102
RTVSPost2010Prop30
280
     1
102
RTVSPost2010PropOp30
 70
     1
102
RTVSPost2010Prop31
280
     0
102
RTVSPost2010PropOp31
 70
     1
102
RTVSPost2010Prop32
280
     0
102
RTVSPost2010PropOp32
 70
     1
102
RTVSPost2010Prop33
280
     0
102
RTVSPost2010PropOp33
 70
     1
102
RTVSPost2010Prop34
280
     0
102
RTVSPost2010PropOp34
 70
     1
102
RTVSPost2010Prop35
280
     0
102
RTVSPost2010PropOp35
 70
     1
102
RTVSPost2010Prop36
280
     0
102
RTVSPost2010PropOp36
 70
     1
102
RTVSPost2010Prop37
 90
       50
102
RTVSPost2010PropOp37
 70
     1
102
RTVSPost2010Prop38
140
0.0
102
RTVSPost2010PropOp38
 70
     1
102
RTVSPost2010Prop39
140
1.0
102
RTVSPost2010PropOp39
 70
     1
102
RTVSPost2010Prop40
 90
        0
102
RTVSPost2010PropOp40
 70
     1
102
RTVSPost2010Prop41ColorIndex
 90
       18
102
RTVSPost2010Prop41ColorRGB
 90
        0
102
RTVSPost2010PropOp41
 70
     1
102
RTVSPost2010Prop42
 90
       50
102
RTVSPost2010PropOp42
 70
     1
102
RTVSPost2010Prop43
 90
        3
102
RTVSPost2010PropOp43
 70
     1
102
RTVSPost2010Prop44ColorIndex
 90
        5
102
RTVSPost2010Prop44ColorRGB
 90
      255
102
RTVSPost2010PropOp44
 70
     1
102
RTVSPost2010Prop45
280
     0
102
RTVSPost2010PropOp45
 70
     1
102
RTVSPost2010Prop46
 90
       50
102
RTVSPost2010PropOp46
 70
     1
102
RTVSPost2010Prop47
 90
       50
102
RTVSPost2010PropOp47
 70
     1
102
RTVSPost2010Prop48
 90
       50
102
RTVSPost2010PropOp48
 70
     1
102
RTVSPost2010Prop49
280
     0
102
RTVSPost2010PropOp49
 70
     1
102
RTVSPost2010Prop50
 90
       50
102
RTVSPost2010PropOp50
 70
     1
102
RTVSPost2010Prop51ColorIndex
 90
      256
102
RTVSPost2010Prop51ColorRGB
 90
-16777216
102
RTVSPost2010PropOp51
 70
     0
102
RTVSPost2010Prop52
140
1.0
102
RTVSPost2010PropOp52
 70
     0
102
RTVSPost2010Prop53
 90
        2
102
RTVSPost2010PropOp53
 70
     1
102
RTVSPost2010Prop54
  1
strokes_ogs.tif
102
RTVSPost2010PropOp54
 70
     1
102
RTVSPost2010Prop55
280
     0
102
RTVSPost2010PropOp55
 70
     1
102
RTVSPost2010Prop56
140
1.0
102
RTVSPost2010PropOp56
 70
     1
102
RTVSPost2010Prop57
140
1.0
102
RTVSPost2010PropOp57
 70
     1
  0
XRECORD
  5
1D6
102
{ACAD_REACTORS
330
1D5
102
}
330
1D5
100
AcDbXrecord
280
     1
102
RTVSPropertyOp0
 70
     1
102
RTVSPropertyOp1
 70
     1
102
RTVSPropertyOp2
 70
     1
102
RTVSPropertyOp3
 70
     1
102
RTVSPropertyOp4
 70
     1
102
RTVSPropertyOp5
 70
     1
102
RTVSPropertyOp6
 70
     1
102
RTVSPropertyOp7
 70
     1
102
RTVSPropertyOp8
 70
     1
102
RTVSPropertyOp9
 70
     1
102
RTVSPropertyOp10
 70
     1
102
RTVSPropertyOp11
 70
     1
102
RTVSPropertyOp12
 70
     1
102
RTVSPropertyOp13
 70
     1
102
RTVSPropertyOp14
 70
     1
102
RTVSPropertyOp15
 70
     1
102
RTVSPropertyOp16
 70
     1
102
RTVSPropertyOp17
 70
     1
102
RTVSPropertyOp18
 70
     1
102
RTVSPropertyOp19
 70
     1
102
RTVSPropertyOp20
 70
     1
102
RTVSPropertyOp21
 70
     1
102
RTVSPropertyOp22
 70
     1
102
RTVSPropertyOp23
 70
     1
102
RTVSPropertyOp24
 70
     1
102
RTVSPropertyOp25
 70
     1
102
RTVSPropertyOp26
 70
     1
102
RTVSPropertyOp27
 70
     1
102
RTVSPropertyOp28
 70
     1
102
RTVSPropertyOp29
 70
     1
102
RTVSPropertyOp30
 70
     1
102
RTVSPropertyOp31
 70
     1
102
RTVSPropertyOp32
 70
     1
102
RTVSPropertyOp33
 70
     1
102
RTVSPropertyOp34
 70
     1
102
RTVSPropertyOp35
 70
     1
102
RTVSPropertyOp36
 70
     1
102
RTVSPropertyOp37
 70
     1
102
RTVSPropertyOp38
 70
     1
102
RTVSPropertyOp39
 70
     1
102
RTVSPropertyOp40
 70
     1
102
RTVSPropertyOp41
 70
     1
102
RTVSPropertyOp42
 70
     1
102
RTVSPropertyOp43
 70
     1
102
RTVSPropertyOp44
 70
     1
102
RTVSPropertyOp45
 70
     1
102
RTVSPropertyOp46
 70
     1
102
RTVSPropertyOp47
 70
     1
102
RTVSPropertyOp48
 70
     1
102
RTVSPropertyOp49
 70
     1
102
RTVSPropertyOp50
 70
     1
102
RTVSPropertyOp51
 70
     0
102
RTVSPropertyOp52
 70
     0
102
RTVSPropertyOp53
 70
     1
102
RTVSPropertyOp54
 70
     1
102
RTVSPropertyOp55
 70
     1
102
RTVSPropertyOp56
 70
     1
102
RTVSPropertyOp57
 70
     1
102
RTVSPost2010Prop28
280
     0
102
RTVSPost2010PropOp28
 70
     1
102
RTVSPost2010Prop29
280
     1
102
RTVSPost2010PropOp29
 70
     1
102
RTVSPost2010Prop30
280
     1
102
RTVSPost2010PropOp30
 70
     1
102
RTVSPost2010Prop31
280
     0
102
RTVSPost2010PropOp31
 70
     1
102
RTVSPost2010Prop32
280
     0
102
RTVSPost2010PropOp32
 70
     1
102
RTVSPost2010Prop33
280
     0
102
RTVSPost2010PropOp33
 70
     1
102
RTVSPost2010Prop34
280
     0
102
RTVSPost2010PropOp34
 70
     1
102
RTVSPost2010Prop35
280
     0
102
RTVSPost2010PropOp35
 70
     1
102
RTVSPost2010Prop36
280
     0
102
RTVSPost2010PropOp36
 70
     1
102
RTVSPost2010Prop37
 90
       50
102
RTVSPost2010PropOp37
 70
     1
102
RTVSPost2010Prop38
140
0.0
102
RTVSPost2010PropOp38
 70
     1
102
RTVSPost2010Prop39
140
1.0
102
RTVSPost2010PropOp39
 70
     1
102
RTVSPost2010Prop40
 90
        0
102
RTVSPost2010PropOp40
 70
     1
102
RTVSPost2010Prop41ColorIndex
 90
       18
102
RTVSPost2010Prop41ColorRGB
 90
        0
102
RTVSPost2010PropOp41
 70
     1
102
RTVSPost2010Prop42
 90
       50
102
RTVSPost2010PropOp42
 70
     1
102
RTVSPost2010Prop43
 90
        3
102
RTVSPost2010PropOp43
 70
     1
102
RTVSPost2010Prop44ColorIndex
 90
        5
102
RTVSPost2010Prop44ColorRGB
 90
      255
102
RTVSPost2010PropOp44
 70
     1
102
RTVSPost2010Prop45
280
     0
102
RTVSPost2010PropOp45
 70
     1
102
RTVSPost2010Prop46
 90
       50
102
RTVSPost2010PropOp46
 70
     1
102
RTVSPost2010Prop47
 90
       50
102
RTVSPost2010PropOp47
 70
     1
102
RTVSPost2010Prop48
 90
       50
102
RTVSPost2010PropOp48
 70
     1
102
RTVSPost2010Prop49
280
     0
102
RTVSPost2010PropOp49
 70
     1
102
RTVSPost2010Prop50
 90
       50
102
RTVSPost2010PropOp50
 70
     1
102
RTVSPost2010Prop51ColorIndex
 90
      256
102
RTVSPost2010Prop51ColorRGB
 90
-16777216
102
RTVSPost2010PropOp51
 70
     0
102
RTVSPost2010Prop52
140
1.0
102
RTVSPost2010PropOp52
 70
     0
102
RTVSPost2010Prop53
 90
        2
102
RTVSPost2010PropOp53
 70
     1
102
RTVSPost2010Prop54
  1
strokes_ogs.tif
102
RTVSPost2010PropOp54
 70
     1
102
RTVSPost2010Prop55
280
     0
102
RTVSPost2010PropOp55
 70
     1
102
RTVSPost2010Prop56
140
1.0
102
RTVSPost2010PropOp56
 70
     1
102
RTVSPost2010Prop57
140
1.0
102
RTVSPost2010PropOp57
 70
     1
  0
XRECORD
  5
1EA
102
{ACAD_REACTORS
330
1E9
102
}
330
1E9
100
AcDbXrecord
280
     1
102
RTVSPropertyOp0
 70
     0
102
RTVSPropertyOp1
 70
     0
102
RTVSPropertyOp2
 70
     0
102
RTVSPropertyOp3
 70
     0
102
RTVSPropertyOp4
 70
     0
102
RTVSPropertyOp5
 70
     0
102
RTVSPropertyOp6
 70
     0
102
RTVSPropertyOp7
 70
     0
102
RTVSPropertyOp8
 70
     0
102
RTVSPropertyOp9
 70
     0
102
RTVSPropertyOp10
 70
     0
102
RTVSPropertyOp11
 70
     0
102
RTVSPropertyOp12
 70
     0
102
RTVSPropertyOp13
 70
     0
102
RTVSPropertyOp14
 70
     2
102
RTVSPropertyOp15
 70
     0
102
RTVSPropertyOp16
 70
     0
102
RTVSPropertyOp17
 70
     0
102
RTVSPropertyOp18
 70
     0
102
RTVSPropertyOp19
 70
     0
102
RTVSPropertyOp20
 70
     0
102
RTVSPropertyOp21
 70
     0
102
RTVSPropertyOp22
 70
     0
102
RTVSPropertyOp23
 70
     0
102
RTVSPropertyOp24
 70
     0
102
RTVSPropertyOp25
 70
     0
102
RTVSPropertyOp26
 70
     0
102
RTVSPropertyOp27
 70
     0
102
RTVSPropertyOp28
 70
     0
102
RTVSPropertyOp29
 70
     0
102
RTVSPropertyOp30
 70
     0
102
RTVSPropertyOp31
 70
     0
102
RTVSPropertyOp32
 70
     0
102
RTVSPropertyOp33
 70
     0
102
RTVSPropertyOp34
 70
     0
102
RTVSPropertyOp35
 70
     0
102
RTVSPropertyOp36
 70
     0
102
RTVSPropertyOp37
 70
     0
102
RTVSPropertyOp38
 70
     0
102
RTVSPropertyOp39
 70
     0
102
RTVSPropertyOp40
 70
     0
102
RTVSPropertyOp41
 70
     0
102
RTVSPropertyOp42
 70
     0
102
RTVSPropertyOp43
 70
     0
102
RTVSPropertyOp44
 70
     0
102
RTVSPropertyOp45
 70
     0
102
RTVSPropertyOp46
 70
     0
102
RTVSPropertyOp47
 70
     0
102
RTVSPropertyOp48
 70
     0
102
RTVSPropertyOp49
 70
     0
102
RTVSPropertyOp50
 70
     0
102
RTVSPropertyOp51
 70
     0
102
RTVSPropertyOp52
 70
     0
102
RTVSPropertyOp53
 70
     0
102
RTVSPropertyOp54
 70
     0
102
RTVSPropertyOp55
 70
     0
102
RTVSPropertyOp56
 70
     0
102
RTVSPropertyOp57
 70
     0
102
RTVSPost2010Prop28
280
     0
102
RTVSPost2010PropOp28
 70
     0
102
RTVSPost2010Prop29
280
     1
102
RTVSPost2010PropOp29
 70
     0
102
RTVSPost2010Prop30
280
     1
102
RTVSPost2010PropOp30
 70
     0
102
RTVSPost2010Prop31
280
     0
102
RTVSPost2010PropOp31
 70
     0
102
RTVSPost2010Prop32
280
     0
102
RTVSPost2010PropOp32
 70
     0
102
RTVSPost2010Prop33
280
     0
102
RTVSPost2010PropOp33
 70
     0
102
RTVSPost2010Prop34
280
     0
102
RTVSPost2010PropOp34
 70
     0
102
RTVSPost2010Prop35
280
     0
102
RTVSPost2010PropOp35
 70
     0
102
RTVSPost2010Prop36
280
     0
102
RTVSPost2010PropOp36
 70
     0
102
RTVSPost2010Prop37
 90
       50
102
RTVSPost2010PropOp37
 70
     0
102
RTVSPost2010Prop38
140
0.0
102
RTVSPost2010PropOp38
 70
     0
102
RTVSPost2010Prop39
140
1.0
102
RTVSPost2010PropOp39
 70
     0
102
RTVSPost2010Prop40
 90
        0
102
RTVSPost2010PropOp40
 70
     0
102
RTVSPost2010Prop41ColorIndex
 90
       18
102
RTVSPost2010Prop41ColorRGB
 90
        0
102
RTVSPost2010PropOp41
 70
     0
102
RTVSPost2010Prop42
 90
       50
102
RTVSPost2010PropOp42
 70
     0
102
RTVSPost2010Prop43
 90
        3
102
RTVSPost2010PropOp43
 70
     0
102
RTVSPost2010Prop44ColorIndex
 90
        5
102
RTVSPost2010Prop44ColorRGB
 90
      255
102
RTVSPost2010PropOp44
 70
     0
102
RTVSPost2010Prop45
280
     0
102
RTVSPost2010PropOp45
 70
     0
102
RTVSPost2010Prop46
 90
       50
102
RTVSPost2010PropOp46
 70
     0
102
RTVSPost2010Prop47
 90
       50
102
RTVSPost2010PropOp47
 70
     0
102
RTVSPost2010Prop48
 90
       50
102
RTVSPost2010PropOp48
 70
     0
102
RTVSPost2010Prop49
280
     0
102
RTVSPost2010PropOp49
 70
     0
102
RTVSPost2010Prop50
 90
       50
102
RTVSPost2010PropOp50
 70
     0
102
RTVSPost2010Prop51ColorIndex
 90
      256
102
RTVSPost2010Prop51ColorRGB
 90
-16777216
102
RTVSPost2010PropOp51
 70
     0
102
RTVSPost2010Prop52
140
1.0
102
RTVSPost2010PropOp52
 70
     0
102
RTVSPost2010Prop53
 90
        2
102
RTVSPost2010PropOp53
 70
     0
102
RTVSPost2010Prop54
  1
strokes_ogs.tif
102
RTVSPost2010PropOp54
 70
     0
102
RTVSPost2010Prop55
280
     0
102
RTVSPost2010PropOp55
 70
     0
102
RTVSPost2010Prop56
140
1.0
102
RTVSPost2010PropOp56
 70
     0
102
RTVSPost2010Prop57
140
1.0
102
RTVSPost2010PropOp57
 70
     0
  0
XRECORD
  5
1E4
102
{ACAD_REACTORS
330
1E3
102
}
330
1E3
100
AcDbXrecord
280
     1
102
RTVSPropertyOp0
 70
     1
102
RTVSPropertyOp1
 70
     1
102
RTVSPropertyOp2
 70
     1
102
RTVSPropertyOp3
 70
     1
102
RTVSPropertyOp4
 70
     1
102
RTVSPropertyOp5
 70
     1
102
RTVSPropertyOp6
 70
     1
102
RTVSPropertyOp7
 70
     1
102
RTVSPropertyOp8
 70
     1
102
RTVSPropertyOp9
 70
     1
102
RTVSPropertyOp10
 70
     1
102
RTVSPropertyOp11
 70
     1
102
RTVSPropertyOp12
 70
     1
102
RTVSPropertyOp13
 70
     1
102
RTVSPropertyOp14
 70
     1
102
RTVSPropertyOp15
 70
     1
102
RTVSPropertyOp16
 70
     1
102
RTVSPropertyOp17
 70
     1
102
RTVSPropertyOp18
 70
     1
102
RTVSPropertyOp19
 70
     1
102
RTVSPropertyOp20
 70
     1
102
RTVSPropertyOp21
 70
     1
102
RTVSPropertyOp22
 70
     1
102
RTVSPropertyOp23
 70
     1
102
RTVSPropertyOp24
 70
     1
102
RTVSPropertyOp25
 70
     1
102
RTVSPropertyOp26
 70
     1
102
RTVSPropertyOp27
 70
     1
102
RTVSPropertyOp28
 70
     1
102
RTVSPropertyOp29
 70
     1
102
RTVSPropertyOp30
 70
     1
102
RTVSPropertyOp31
 70
     1
102
RTVSPropertyOp32
 70
     1
102
RTVSPropertyOp33
 70
     1
102
RTVSPropertyOp34
 70
     1
102
RTVSPropertyOp35
 70
     1
102
RTVSPropertyOp36
 70
     1
102
RTVSPropertyOp37
 70
     1
102
RTVSPropertyOp38
 70
     1
102
RTVSPropertyOp39
 70
     1
102
RTVSPropertyOp40
 70
     1
102
RTVSPropertyOp41
 70
     1
102
RTVSPropertyOp42
 70
     1
102
RTVSPropertyOp43
 70
     1
102
RTVSPropertyOp44
 70
     1
102
RTVSPropertyOp45
 70
     1
102
RTVSPropertyOp46
 70
     1
102
RTVSPropertyOp47
 70
     1
102
RTVSPropertyOp48
 70
     1
102
RTVSPropertyOp49
 70
     1
102
RTVSPropertyOp50
 70
     1
102
RTVSPropertyOp51
 70
     0
102
RTVSPropertyOp52
 70
     0
102
RTVSPropertyOp53
 70
     1
102
RTVSPropertyOp54
 70
     1
102
RTVSPropertyOp55
 70
     1
102
RTVSPropertyOp56
 70
     1
102
RTVSPropertyOp57
 70
     1
102
RTVSPost2010Prop28
280
     0
102
RTVSPost2010PropOp28
 70
     1
102
RTVSPost2010Prop29
280
     1
102
RTVSPost2010PropOp29
 70
     1
102
RTVSPost2010Prop30
280
     1
102
RTVSPost2010PropOp30
 70
     1
102
RTVSPost2010Prop31
280
     0
102
RTVSPost2010PropOp31
 70
     1
102
RTVSPost2010Prop32
280
     0
102
RTVSPost2010PropOp32
 70
     1
102
RTVSPost2010Prop33
280
     0
102
RTVSPost2010PropOp33
 70
     1
102
RTVSPost2010Prop34
280
     0
102
RTVSPost2010PropOp34
 70
     1
102
RTVSPost2010Prop35
280
     0
102
RTVSPost2010PropOp35
 70
     1
102
RTVSPost2010Prop36
280
     0
102
RTVSPost2010PropOp36
 70
     1
102
RTVSPost2010Prop37
 90
       50
102
RTVSPost2010PropOp37
 70
     1
102
RTVSPost2010Prop38
140
0.0
102
RTVSPost2010PropOp38
 70
     1
102
RTVSPost2010Prop39
140
1.0
102
RTVSPost2010PropOp39
 70
     1
102
RTVSPost2010Prop40
 90
        0
102
RTVSPost2010PropOp40
 70
     1
102
RTVSPost2010Prop41ColorIndex
 90
       18
102
RTVSPost2010Prop41ColorRGB
 90
        0
102
RTVSPost2010PropOp41
 70
     1
102
RTVSPost2010Prop42
 90
       50
102
RTVSPost2010PropOp42
 70
     1
102
RTVSPost2010Prop43
 90
        3
102
RTVSPost2010PropOp43
 70
     1
102
RTVSPost2010Prop44ColorIndex
 90
        5
102
RTVSPost2010Prop44ColorRGB
 90
      255
102
RTVSPost2010PropOp44
 70
     1
102
RTVSPost2010Prop45
280
     0
102
RTVSPost2010PropOp45
 70
     1
102
RTVSPost2010Prop46
 90
       50
102
RTVSPost2010PropOp46
 70
     1
102
RTVSPost2010Prop47
 90
       50
102
RTVSPost2010PropOp47
 70
     1
102
RTVSPost2010Prop48
 90
       50
102
RTVSPost2010PropOp48
 70
     1
102
RTVSPost2010Prop49
280
     0
102
RTVSPost2010PropOp49
 70
     1
102
RTVSPost2010Prop50
 90
       50
102
RTVSPost2010PropOp50
 70
     1
102
RTVSPost2010Prop51ColorIndex
 90
      256
102
RTVSPost2010Prop51ColorRGB
 90
-16777216
102
RTVSPost2010PropOp51
 70
     0
102
RTVSPost2010Prop52
140
1.0
102
RTVSPost2010PropOp52
 70
     0
102
RTVSPost2010Prop53
 90
        2
102
RTVSPost2010PropOp53
 70
     1
102
RTVSPost2010Prop54
  1
strokes_ogs.tif
102
RTVSPost2010PropOp54
 70
     1
102
RTVSPost2010Prop55
280
     0
102
RTVSPost2010PropOp55
 70
     1
102
RTVSPost2010Prop56
140
1.0
102
RTVSPost2010PropOp56
 70
     1
102
RTVSPost2010Prop57
140
1.0
102
RTVSPost2010PropOp57
 70
     1
  0
XRECORD
  5
1EC
102
{ACAD_REACTORS
330
1EB
102
}
330
1EB
100
AcDbXrecord
280
     1
102
RTVSPropertyOp0
 70
     0
102
RTVSPropertyOp1
 70
     0
102
RTVSPropertyOp2
 70
     0
102
RTVSPropertyOp3
 70
     0
102
RTVSPropertyOp4
 70
     0
102
RTVSPropertyOp5
 70
     0
102
RTVSPropertyOp6
 70
     0
102
RTVSPropertyOp7
 70
     0
102
RTVSPropertyOp8
 70
     0
102
RTVSPropertyOp9
 70
     0
102
RTVSPropertyOp10
 70
     0
102
RTVSPropertyOp11
 70
     0
102
RTVSPropertyOp12
 70
     0
102
RTVSPropertyOp13
 70
     0
102
RTVSPropertyOp14
 70
     2
102
RTVSPropertyOp15
 70
     0
102
RTVSPropertyOp16
 70
     0
102
RTVSPropertyOp17
 70
     0
102
RTVSPropertyOp18
 70
     0
102
RTVSPropertyOp19
 70
     0
102
RTVSPropertyOp20
 70
     0
102
RTVSPropertyOp21
 70
     0
102
RTVSPropertyOp22
 70
     0
102
RTVSPropertyOp23
 70
     0
102
RTVSPropertyOp24
 70
     0
102
RTVSPropertyOp25
 70
     0
102
RTVSPropertyOp26
 70
     0
102
RTVSPropertyOp27
 70
     0
102
RTVSPropertyOp28
 70
     0
102
RTVSPropertyOp29
 70
     0
102
RTVSPropertyOp30
 70
     0
102
RTVSPropertyOp31
 70
     0
102
RTVSPropertyOp32
 70
     0
102
RTVSPropertyOp33
 70
     0
102
RTVSPropertyOp34
 70
     0
102
RTVSPropertyOp35
 70
     0
102
RTVSPropertyOp36
 70
     0
102
RTVSPropertyOp37
 70
     0
102
RTVSPropertyOp38
 70
     0
102
RTVSPropertyOp39
 70
     0
102
RTVSPropertyOp40
 70
     0
102
RTVSPropertyOp41
 70
     0
102
RTVSPropertyOp42
 70
     0
102
RTVSPropertyOp43
 70
     0
102
RTVSPropertyOp44
 70
     0
102
RTVSPropertyOp45
 70
     0
102
RTVSPropertyOp46
 70
     0
102
RTVSPropertyOp47
 70
     0
102
RTVSPropertyOp48
 70
     0
102
RTVSPropertyOp49
 70
     0
102
RTVSPropertyOp50
 70
     0
102
RTVSPropertyOp51
 70
     0
102
RTVSPropertyOp52
 70
     0
102
RTVSPropertyOp53
 70
     0
102
RTVSPropertyOp54
 70
     0
102
RTVSPropertyOp55
 70
     0
102
RTVSPropertyOp56
 70
     0
102
RTVSPropertyOp57
 70
     0
102
RTVSPost2010Prop28
280
     0
102
RTVSPost2010PropOp28
 70
     0
102
RTVSPost2010Prop29
280
     1
102
RTVSPost2010PropOp29
 70
     0
102
RTVSPost2010Prop30
280
     1
102
RTVSPost2010PropOp30
 70
     0
102
RTVSPost2010Prop31
280
     0
102
RTVSPost2010PropOp31
 70
     0
102
RTVSPost2010Prop32
280
     0
102
RTVSPost2010PropOp32
 70
     0
102
RTVSPost2010Prop33
280
     0
102
RTVSPost2010PropOp33
 70
     0
102
RTVSPost2010Prop34
280
     0
102
RTVSPost2010PropOp34
 70
     0
102
RTVSPost2010Prop35
280
     0
102
RTVSPost2010PropOp35
 70
     0
102
RTVSPost2010Prop36
280
     0
102
RTVSPost2010PropOp36
 70
     0
102
RTVSPost2010Prop37
 90
       50
102
RTVSPost2010PropOp37
 70
     0
102
RTVSPost2010Prop38
140
0.0
102
RTVSPost2010PropOp38
 70
     0
102
RTVSPost2010Prop39
140
1.0
102
RTVSPost2010PropOp39
 70
     0
102
RTVSPost2010Prop40
 90
        0
102
RTVSPost2010PropOp40
 70
     0
102
RTVSPost2010Prop41ColorIndex
 90
       18
102
RTVSPost2010Prop41ColorRGB
 90
        0
102
RTVSPost2010PropOp41
 70
     0
102
RTVSPost2010Prop42
 90
       50
102
RTVSPost2010PropOp42
 70
     0
102
RTVSPost2010Prop43
 90
        3
102
RTVSPost2010PropOp43
 70
     0
102
RTVSPost2010Prop44ColorIndex
 90
        5
102
RTVSPost2010Prop44ColorRGB
 90
      255
102
RTVSPost2010PropOp44
 70
     0
102
RTVSPost2010Prop45
280
     0
102
RTVSPost2010PropOp45
 70
     0
102
RTVSPost2010Prop46
 90
       50
102
RTVSPost2010PropOp46
 70
     0
102
RTVSPost2010Prop47
 90
       50
102
RTVSPost2010PropOp47
 70
     0
102
RTVSPost2010Prop48
 90
       50
102
RTVSPost2010PropOp48
 70
     0
102
RTVSPost2010Prop49
280
     0
102
RTVSPost2010PropOp49
 70
     0
102
RTVSPost2010Prop50
 90
       50
102
RTVSPost2010PropOp50
 70
     0
102
RTVSPost2010Prop51ColorIndex
 90
      256
102
RTVSPost2010Prop51ColorRGB
 90
-16777216
102
RTVSPost2010PropOp51
 70
     0
102
RTVSPost2010Prop52
140
1.0
102
RTVSPost2010PropOp52
 70
     0
102
RTVSPost2010Prop53
 90
        2
102
RTVSPost2010PropOp53
 70
     0
102
RTVSPost2010Prop54
  1
strokes_ogs.tif
102
RTVSPost2010PropOp54
 70
     0
102
RTVSPost2010Prop55
280
     0
102
RTVSPost2010PropOp55
 70
     0
102
RTVSPost2010Prop56
140
1.0
102
RTVSPost2010PropOp56
 70
     0
102
RTVSPost2010Prop57
140
1.0
102
RTVSPost2010PropOp57
 70
     0
  0
XRECORD
  5
1DA
102
{ACAD_REACTORS
330
1D9
102
}
330
1D9
100
AcDbXrecord
280
     1
102
RTVSPropertyOp0
 70
     1
102
RTVSPropertyOp1
 70
     1
102
RTVSPropertyOp2
 70
     1
102
RTVSPropertyOp3
 70
     1
102
RTVSPropertyOp4
 70
     1
102
RTVSPropertyOp5
 70
     1
102
RTVSPropertyOp6
 70
     1
102
RTVSPropertyOp7
 70
     1
102
RTVSPropertyOp8
 70
     1
102
RTVSPropertyOp9
 70
     1
102
RTVSPropertyOp10
 70
     1
102
RTVSPropertyOp11
 70
     1
102
RTVSPropertyOp12
 70
     1
102
RTVSPropertyOp13
 70
     1
102
RTVSPropertyOp14
 70
     1
102
RTVSPropertyOp15
 70
     1
102
RTVSPropertyOp16
 70
     1
102
RTVSPropertyOp17
 70
     1
102
RTVSPropertyOp18
 70
     1
102
RTVSPropertyOp19
 70
     1
102
RTVSPropertyOp20
 70
     1
102
RTVSPropertyOp21
 70
     1
102
RTVSPropertyOp22
 70
     1
102
RTVSPropertyOp23
 70
     1
102
RTVSPropertyOp24
 70
     1
102
RTVSPropertyOp25
 70
     1
102
RTVSPropertyOp26
 70
     1
102
RTVSPropertyOp27
 70
     1
102
RTVSPropertyOp28
 70
     1
102
RTVSPropertyOp29
 70
     1
102
RTVSPropertyOp30
 70
     1
102
RTVSPropertyOp31
 70
     1
102
RTVSPropertyOp32
 70
     1
102
RTVSPropertyOp33
 70
     1
102
RTVSPropertyOp34
 70
     1
102
RTVSPropertyOp35
 70
     1
102
RTVSPropertyOp36
 70
     1
102
RTVSPropertyOp37
 70
     1
102
RTVSPropertyOp38
 70
     1
102
RTVSPropertyOp39
 70
     1
102
RTVSPropertyOp40
 70
     1
102
RTVSPropertyOp41
 70
     1
102
RTVSPropertyOp42
 70
     1
102
RTVSPropertyOp43
 70
     1
102
RTVSPropertyOp44
 70
     1
102
RTVSPropertyOp45
 70
     1
102
RTVSPropertyOp46
 70
     1
102
RTVSPropertyOp47
 70
     1
102
RTVSPropertyOp48
 70
     1
102
RTVSPropertyOp49
 70
     1
102
RTVSPropertyOp50
 70
     1
102
RTVSPropertyOp51
 70
     0
102
RTVSPropertyOp52
 70
     0
102
RTVSPropertyOp53
 70
     1
102
RTVSPropertyOp54
 70
     1
102
RTVSPropertyOp55
 70
     1
102
RTVSPropertyOp56
 70
     1
102
RTVSPropertyOp57
 70
     1
102
RTVSPost2010Prop28
280
     0
102
RTVSPost2010PropOp28
 70
     1
102
RTVSPost2010Prop29
280
     1
102
RTVSPost2010PropOp29
 70
     1
102
RTVSPost2010Prop30
280
     1
102
RTVSPost2010PropOp30
 70
     1
102
RTVSPost2010Prop31
280
     0
102
RTVSPost2010PropOp31
 70
     1
102
RTVSPost2010Prop32
280
     0
102
RTVSPost2010PropOp32
 70
     1
102
RTVSPost2010Prop33
280
     0
102
RTVSPost2010PropOp33
 70
     1
102
RTVSPost2010Prop34
280
     0
102
RTVSPost2010PropOp34
 70
     1
102
RTVSPost2010Prop35
280
     0
102
RTVSPost2010PropOp35
 70
     1
102
RTVSPost2010Prop36
280
     0
102
RTVSPost2010PropOp36
 70
     1
102
RTVSPost2010Prop37
 90
       50
102
RTVSPost2010PropOp37
 70
     1
102
RTVSPost2010Prop38
140
0.0
102
RTVSPost2010PropOp38
 70
     1
102
RTVSPost2010Prop39
140
1.0
102
RTVSPost2010PropOp39
 70
     1
102
RTVSPost2010Prop40
 90
        0
102
RTVSPost2010PropOp40
 70
     1
102
RTVSPost2010Prop41ColorIndex
 90
       18
102
RTVSPost2010Prop41ColorRGB
 90
        0
102
RTVSPost2010PropOp41
 70
     1
102
RTVSPost2010Prop42
 90
       50
102
RTVSPost2010PropOp42
 70
     1
102
RTVSPost2010Prop43
 90
        3
102
RTVSPost2010PropOp43
 70
     1
102
RTVSPost2010Prop44ColorIndex
 90
        5
102
RTVSPost2010Prop44ColorRGB
 90
      255
102
RTVSPost2010PropOp44
 70
     1
102
RTVSPost2010Prop45
280
     0
102
RTVSPost2010PropOp45
 70
     1
102
RTVSPost2010Prop46
 90
       50
102
RTVSPost2010PropOp46
 70
     1
102
RTVSPost2010Prop47
 90
       50
102
RTVSPost2010PropOp47
 70
     1
102
RTVSPost2010Prop48
 90
       50
102
RTVSPost2010PropOp48
 70
     1
102
RTVSPost2010Prop49
280
     0
102
RTVSPost2010PropOp49
 70
     1
102
RTVSPost2010Prop50
 90
       50
102
RTVSPost2010PropOp50
 70
     1
102
RTVSPost2010Prop51ColorIndex
 90
      256
102
RTVSPost2010Prop51ColorRGB
 90
-16777216
102
RTVSPost2010PropOp51
 70
     0
102
RTVSPost2010Prop52
140
1.0
102
RTVSPost2010PropOp52
 70
     0
102
RTVSPost2010Prop53
 90
        2
102
RTVSPost2010PropOp53
 70
     1
102
RTVSPost2010Prop54
  1
strokes_ogs.tif
102
RTVSPost2010PropOp54
 70
     1
102
RTVSPost2010Prop55
280
     0
102
RTVSPost2010PropOp55
 70
     1
102
RTVSPost2010Prop56
140
1.0
102
RTVSPost2010PropOp56
 70
     1
102
RTVSPost2010Prop57
140
1.0
102
RTVSPost2010PropOp57
 70
     1
  0
XRECORD
  5
1F8
102
{ACAD_REACTORS
330
1F7
102
}
330
1F7
100
AcDbXrecord
280
     1
102
RTVSPropertyOp0
 70
     1
102
RTVSPropertyOp1
 70
     1
102
RTVSPropertyOp2
 70
     1
102
RTVSPropertyOp3
 70
     1
102
RTVSPropertyOp4
 70
     1
102
RTVSPropertyOp5
 70
     1
102
RTVSPropertyOp6
 70
     1
102
RTVSPropertyOp7
 70
     1
102
RTVSPropertyOp8
 70
     1
102
RTVSPropertyOp9
 70
     1
102
RTVSPropertyOp10
 70
     1
102
RTVSPropertyOp11
 70
     1
102
RTVSPropertyOp12
 70
     1
102
RTVSPropertyOp13
 70
     1
102
RTVSPropertyOp14
 70
     1
102
RTVSPropertyOp15
 70
     1
102
RTVSPropertyOp16
 70
     1
102
RTVSPropertyOp17
 70
     1
102
RTVSPropertyOp18
 70
     1
102
RTVSPropertyOp19
 70
     1
102
RTVSPropertyOp20
 70
     1
102
RTVSPropertyOp21
 70
     1
102
RTVSPropertyOp22
 70
     1
102
RTVSPropertyOp23
 70
     1
102
RTVSPropertyOp24
 70
     1
102
RTVSPropertyOp25
 70
     1
102
RTVSPropertyOp26
 70
     1
102
RTVSPropertyOp27
 70
     1
102
RTVSPropertyOp28
 70
     1
102
RTVSPropertyOp29
 70
     1
102
RTVSPropertyOp30
 70
     1
102
RTVSPropertyOp31
 70
     1
102
RTVSPropertyOp32
 70
     1
102
RTVSPropertyOp33
 70
     1
102
RTVSPropertyOp34
 70
     1
102
RTVSPropertyOp35
 70
     1
102
RTVSPropertyOp36
 70
     1
102
RTVSPropertyOp37
 70
     1
102
RTVSPropertyOp38
 70
     1
102
RTVSPropertyOp39
 70
     1
102
RTVSPropertyOp40
 70
     1
102
RTVSPropertyOp41
 70
     1
102
RTVSPropertyOp42
 70
     1
102
RTVSPropertyOp43
 70
     1
102
RTVSPropertyOp44
 70
     1
102
RTVSPropertyOp45
 70
     1
102
RTVSPropertyOp46
 70
     1
102
RTVSPropertyOp47
 70
     1
102
RTVSPropertyOp48
 70
     1
102
RTVSPropertyOp49
 70
     1
102
RTVSPropertyOp50
 70
     1
102
RTVSPropertyOp51
 70
     0
102
RTVSPropertyOp52
 70
     0
102
RTVSPropertyOp53
 70
     1
102
RTVSPropertyOp54
 70
     1
102
RTVSPropertyOp55
 70
     1
102
RTVSPropertyOp56
 70
     1
102
RTVSPropertyOp57
 70
     1
102
RTVSPost2010Prop28
280
     0
102
RTVSPost2010PropOp28
 70
     1
102
RTVSPost2010Prop29
280
     1
102
RTVSPost2010PropOp29
 70
     1
102
RTVSPost2010Prop30
280
     1
102
RTVSPost2010PropOp30
 70
     1
102
RTVSPost2010Prop31
280
     0
102
RTVSPost2010PropOp31
 70
     1
102
RTVSPost2010Prop32
280
     0
102
RTVSPost2010PropOp32
 70
     1
102
RTVSPost2010Prop33
280
     0
102
RTVSPost2010PropOp33
 70
     1
102
RTVSPost2010Prop34
280
     0
102
RTVSPost2010PropOp34
 70
     1
102
RTVSPost2010Prop35
280
     0
102
RTVSPost2010PropOp35
 70
     1
102
RTVSPost2010Prop36
280
     0
102
RTVSPost2010PropOp36
 70
     1
102
RTVSPost2010Prop37
 90
       50
102
RTVSPost2010PropOp37
 70
     1
102
RTVSPost2010Prop38
140
0.0
102
RTVSPost2010PropOp38
 70
     1
102
RTVSPost2010Prop39
140
1.0
102
RTVSPost2010PropOp39
 70
     1
102
RTVSPost2010Prop40
 90
        0
102
RTVSPost2010PropOp40
 70
     1
102
RTVSPost2010Prop41ColorIndex
 90
       18
102
RTVSPost2010Prop41ColorRGB
 90
        0
102
RTVSPost2010PropOp41
 70
     1
102
RTVSPost2010Prop42
 90
       50
102
RTVSPost2010PropOp42
 70
     1
102
RTVSPost2010Prop43
 90
        3
102
RTVSPost2010PropOp43
 70
     1
102
RTVSPost2010Prop44ColorIndex
 90
        5
102
RTVSPost2010Prop44ColorRGB
 90
      255
102
RTVSPost2010PropOp44
 70
     1
102
RTVSPost2010Prop45
280
     0
102
RTVSPost2010PropOp45
 70
     1
102
RTVSPost2010Prop46
 90
       50
102
RTVSPost2010PropOp46
 70
     1
102
RTVSPost2010Prop47
 90
       50
102
RTVSPost2010PropOp47
 70
     1
102
RTVSPost2010Prop48
 90
       50
102
RTVSPost2010PropOp48
 70
     1
102
RTVSPost2010Prop49
280
     0
102
RTVSPost2010PropOp49
 70
     1
102
RTVSPost2010Prop50
 90
       50
102
RTVSPost2010PropOp50
 70
     1
102
RTVSPost2010Prop51ColorIndex
 90
      256
102
RTVSPost2010Prop51ColorRGB
 90
-16777216
102
RTVSPost2010PropOp51
 70
     0
102
RTVSPost2010Prop52
140
1.0
102
RTVSPost2010PropOp52
 70
     0
102
RTVSPost2010Prop53
 90
        2
102
RTVSPost2010PropOp53
 70
     1
102
RTVSPost2010Prop54
  1
strokes_ogs.tif
102
RTVSPost2010PropOp54
 70
     1
102
RTVSPost2010Prop55
280
     0
102
RTVSPost2010PropOp55
 70
     1
102
RTVSPost2010Prop56
140
1.0
102
RTVSPost2010PropOp56
 70
     1
102
RTVSPost2010Prop57
140
1.0
102
RTVSPost2010PropOp57
 70
     1
  0
XRECORD
  5
1F6
102
{ACAD_REACTORS
330
1F5
102
}
330
1F5
100
AcDbXrecord
280
     1
102
RTVSPropertyOp0
 70
     1
102
RTVSPropertyOp1
 70
     1
102
RTVSPropertyOp2
 70
     1
102
RTVSPropertyOp3
 70
     1
102
RTVSPropertyOp4
 70
     1
102
RTVSPropertyOp5
 70
     1
102
RTVSPropertyOp6
 70
     1
102
RTVSPropertyOp7
 70
     1
102
RTVSPropertyOp8
 70
     1
102
RTVSPropertyOp9
 70
     1
102
RTVSPropertyOp10
 70
     1
102
RTVSPropertyOp11
 70
     1
102
RTVSPropertyOp12
 70
     1
102
RTVSPropertyOp13
 70
     1
102
RTVSPropertyOp14
 70
     1
102
RTVSPropertyOp15
 70
     1
102
RTVSPropertyOp16
 70
     1
102
RTVSPropertyOp17
 70
     1
102
RTVSPropertyOp18
 70
     1
102
RTVSPropertyOp19
 70
     1
102
RTVSPropertyOp20
 70
     1
102
RTVSPropertyOp21
 70
     1
102
RTVSPropertyOp22
 70
     1
102
RTVSPropertyOp23
 70
     1
102
RTVSPropertyOp24
 70
     1
102
RTVSPropertyOp25
 70
     1
102
RTVSPropertyOp26
 70
     1
102
RTVSPropertyOp27
 70
     1
102
RTVSPropertyOp28
 70
     1
102
RTVSPropertyOp29
 70
     1
102
RTVSPropertyOp30
 70
     1
102
RTVSPropertyOp31
 70
     1
102
RTVSPropertyOp32
 70
     1
102
RTVSPropertyOp33
 70
     1
102
RTVSPropertyOp34
 70
     1
102
RTVSPropertyOp35
 70
     1
102
RTVSPropertyOp36
 70
     1
102
RTVSPropertyOp37
 70
     1
102
RTVSPropertyOp38
 70
     1
102
RTVSPropertyOp39
 70
     1
102
RTVSPropertyOp40
 70
     1
102
RTVSPropertyOp41
 70
     1
102
RTVSPropertyOp42
 70
     1
102
RTVSPropertyOp43
 70
     1
102
RTVSPropertyOp44
 70
     1
102
RTVSPropertyOp45
 70
     1
102
RTVSPropertyOp46
 70
     1
102
RTVSPropertyOp47
 70
     1
102
RTVSPropertyOp48
 70
     1
102
RTVSPropertyOp49
 70
     1
102
RTVSPropertyOp50
 70
     1
102
RTVSPropertyOp51
 70
     0
102
RTVSPropertyOp52
 70
     0
102
RTVSPropertyOp53
 70
     1
102
RTVSPropertyOp54
 70
     1
102
RTVSPropertyOp55
 70
     1
102
RTVSPropertyOp56
 70
     1
102
RTVSPropertyOp57
 70
     1
102
RTVSPost2010Prop28
280
     0
102
RTVSPost2010PropOp28
 70
     1
102
RTVSPost2010Prop29
280
     1
102
RTVSPost2010PropOp29
 70
     1
102
RTVSPost2010Prop30
280
     1
102
RTVSPost2010PropOp30
 70
     1
102
RTVSPost2010Prop31
280
     0
102
RTVSPost2010PropOp31
 70
     1
102
RTVSPost2010Prop32
280
     0
102
RTVSPost2010PropOp32
 70
     1
102
RTVSPost2010Prop33
280
     0
102
RTVSPost2010PropOp33
 70
     1
102
RTVSPost2010Prop34
280
     0
102
RTVSPost2010PropOp34
 70
     1
102
RTVSPost2010Prop35
280
     0
102
RTVSPost2010PropOp35
 70
     1
102
RTVSPost2010Prop36
280
     0
102
RTVSPost2010PropOp36
 70
     1
102
RTVSPost2010Prop37
 90
       50
102
RTVSPost2010PropOp37
 70
     1
102
RTVSPost2010Prop38
140
0.0
102
RTVSPost2010PropOp38
 70
     1
102
RTVSPost2010Prop39
140
1.0
102
RTVSPost2010PropOp39
 70
     1
102
RTVSPost2010Prop40
 90
        0
102
RTVSPost2010PropOp40
 70
     1
102
RTVSPost2010Prop41ColorIndex
 90
       18
102
RTVSPost2010Prop41ColorRGB
 90
        0
102
RTVSPost2010PropOp41
 70
     1
102
RTVSPost2010Prop42
 90
       50
102
RTVSPost2010PropOp42
 70
     1
102
RTVSPost2010Prop43
 90
        3
102
RTVSPost2010PropOp43
 70
     1
102
RTVSPost2010Prop44ColorIndex
 90
        5
102
RTVSPost2010Prop44ColorRGB
 90
      255
102
RTVSPost2010PropOp44
 70
     1
102
RTVSPost2010Prop45
280
     0
102
RTVSPost2010PropOp45
 70
     1
102
RTVSPost2010Prop46
 90
       50
102
RTVSPost2010PropOp46
 70
     1
102
RTVSPost2010Prop47
 90
       50
102
RTVSPost2010PropOp47
 70
     1
102
RTVSPost2010Prop48
 90
       50
102
RTVSPost2010PropOp48
 70
     1
102
RTVSPost2010Prop49
280
     0
102
RTVSPost2010PropOp49
 70
     1
102
RTVSPost2010Prop50
 90
       50
102
RTVSPost2010PropOp50
 70
     1
102
RTVSPost2010Prop51ColorIndex
 90
      256
102
RTVSPost2010Prop51ColorRGB
 90
-16777216
102
RTVSPost2010PropOp51
 70
     0
102
RTVSPost2010Prop52
140
1.0
102
RTVSPost2010PropOp52
 70
     0
102
RTVSPost2010Prop53
 90
        2
102
RTVSPost2010PropOp53
 70
     1
102
RTVSPost2010Prop54
  1
strokes_ogs.tif
102
RTVSPost2010PropOp54
 70
     1
102
RTVSPost2010Prop55
280
     0
102
RTVSPost2010PropOp55
 70
     1
102
RTVSPost2010Prop56
140
1.0
102
RTVSPost2010PropOp56
 70
     1
102
RTVSPost2010Prop57
140
1.0
102
RTVSPost2010PropOp57
 70
     1
  0
XRECORD
  5
1F0
102
{ACAD_REACTORS
330
1EF
102
}
330
1EF
100
AcDbXrecord
280
     1
102
RTVSPropertyOp0
 70
     1
102
RTVSPropertyOp1
 70
     1
102
RTVSPropertyOp2
 70
     1
102
RTVSPropertyOp3
 70
     1
102
RTVSPropertyOp4
 70
     1
102
RTVSPropertyOp5
 70
     1
102
RTVSPropertyOp6
 70
     1
102
RTVSPropertyOp7
 70
     1
102
RTVSPropertyOp8
 70
     1
102
RTVSPropertyOp9
 70
     1
102
RTVSPropertyOp10
 70
     1
102
RTVSPropertyOp11
 70
     1
102
RTVSPropertyOp12
 70
     1
102
RTVSPropertyOp13
 70
     1
102
RTVSPropertyOp14
 70
     1
102
RTVSPropertyOp15
 70
     1
102
RTVSPropertyOp16
 70
     1
102
RTVSPropertyOp17
 70
     1
102
RTVSPropertyOp18
 70
     1
102
RTVSPropertyOp19
 70
     1
102
RTVSPropertyOp20
 70
     1
102
RTVSPropertyOp21
 70
     1
102
RTVSPropertyOp22
 70
     1
102
RTVSPropertyOp23
 70
     1
102
RTVSPropertyOp24
 70
     1
102
RTVSPropertyOp25
 70
     1
102
RTVSPropertyOp26
 70
     1
102
RTVSPropertyOp27
 70
     1
102
RTVSPropertyOp28
 70
     1
102
RTVSPropertyOp29
 70
     1
102
RTVSPropertyOp30
 70
     1
102
RTVSPropertyOp31
 70
     1
102
RTVSPropertyOp32
 70
     1
102
RTVSPropertyOp33
 70
     1
102
RTVSPropertyOp34
 70
     1
102
RTVSPropertyOp35
 70
     1
102
RTVSPropertyOp36
 70
     1
102
RTVSPropertyOp37
 70
     1
102
RTVSPropertyOp38
 70
     1
102
RTVSPropertyOp39
 70
     1
102
RTVSPropertyOp40
 70
     1
102
RTVSPropertyOp41
 70
     1
102
RTVSPropertyOp42
 70
     1
102
RTVSPropertyOp43
 70
     1
102
RTVSPropertyOp44
 70
     1
102
RTVSPropertyOp45
 70
     1
102
RTVSPropertyOp46
 70
     1
102
RTVSPropertyOp47
 70
     1
102
RTVSPropertyOp48
 70
     1
102
RTVSPropertyOp49
 70
     1
102
RTVSPropertyOp50
 70
     1
102
RTVSPropertyOp51
 70
     0
102
RTVSPropertyOp52
 70
     0
102
RTVSPropertyOp53
 70
     1
102
RTVSPropertyOp54
 70
     1
102
RTVSPropertyOp55
 70
     1
102
RTVSPropertyOp56
 70
     1
102
RTVSPropertyOp57
 70
     1
102
RTVSPost2010Prop28
280
     0
102
RTVSPost2010PropOp28
 70
     1
102
RTVSPost2010Prop29
280
     1
102
RTVSPost2010PropOp29
 70
     1
102
RTVSPost2010Prop30
280
     1
102
RTVSPost2010PropOp30
 70
     1
102
RTVSPost2010Prop31
280
     0
102
RTVSPost2010PropOp31
 70
     1
102
RTVSPost2010Prop32
280
     0
102
RTVSPost2010PropOp32
 70
     1
102
RTVSPost2010Prop33
280
     0
102
RTVSPost2010PropOp33
 70
     1
102
RTVSPost2010Prop34
280
     0
102
RTVSPost2010PropOp34
 70
     1
102
RTVSPost2010Prop35
280
     0
102
RTVSPost2010PropOp35
 70
     1
102
RTVSPost2010Prop36
280
     0
102
RTVSPost2010PropOp36
 70
     1
102
RTVSPost2010Prop37
 90
       50
102
RTVSPost2010PropOp37
 70
     1
102
RTVSPost2010Prop38
140
0.0
102
RTVSPost2010PropOp38
 70
     1
102
RTVSPost2010Prop39
140
1.0
102
RTVSPost2010PropOp39
 70
     1
102
RTVSPost2010Prop40
 90
        0
102
RTVSPost2010PropOp40
 70
     1
102
RTVSPost2010Prop41ColorIndex
 90
       18
102
RTVSPost2010Prop41ColorRGB
 90
        0
102
RTVSPost2010PropOp41
 70
     1
102
RTVSPost2010Prop42
 90
       50
102
RTVSPost2010PropOp42
 70
     1
102
RTVSPost2010Prop43
 90
        3
102
RTVSPost2010PropOp43
 70
     1
102
RTVSPost2010Prop44ColorIndex
 90
        5
102
RTVSPost2010Prop44ColorRGB
 90
      255
102
RTVSPost2010PropOp44
 70
     1
102
RTVSPost2010Prop45
280
     0
102
RTVSPost2010PropOp45
 70
     1
102
RTVSPost2010Prop46
 90
       50
102
RTVSPost2010PropOp46
 70
     1
102
RTVSPost2010Prop47
 90
       50
102
RTVSPost2010PropOp47
 70
     1
102
RTVSPost2010Prop48
 90
       50
102
RTVSPost2010PropOp48
 70
     1
102
RTVSPost2010Prop49
280
     0
102
RTVSPost2010PropOp49
 70
     1
102
RTVSPost2010Prop50
 90
       50
102
RTVSPost2010PropOp50
 70
     1
102
RTVSPost2010Prop51ColorIndex
 90
      256
102
RTVSPost2010Prop51ColorRGB
 90
-16777216
102
RTVSPost2010PropOp51
 70
     0
102
RTVSPost2010Prop52
140
1.0
102
RTVSPost2010PropOp52
 70
     0
102
RTVSPost2010Prop53
 90
        2
102
RTVSPost2010PropOp53
 70
     1
102
RTVSPost2010Prop54
  1
strokes_ogs.tif
102
RTVSPost2010PropOp54
 70
     1
102
RTVSPost2010Prop55
280
     0
102
RTVSPost2010PropOp55
 70
     1
102
RTVSPost2010Prop56
140
1.0
102
RTVSPost2010PropOp56
 70
     1
102
RTVSPost2010Prop57
140
1.0
102
RTVSPost2010PropOp57
 70
     1
  0
XRECORD
  5
1F2
102
{ACAD_REACTORS
330
1F1
102
}
330
1F1
100
AcDbXrecord
280
     1
102
RTVSPropertyOp0
 70
     1
102
RTVSPropertyOp1
 70
     1
102
RTVSPropertyOp2
 70
     1
102
RTVSPropertyOp3
 70
     1
102
RTVSPropertyOp4
 70
     1
102
RTVSPropertyOp5
 70
     1
102
RTVSPropertyOp6
 70
     1
102
RTVSPropertyOp7
 70
     1
102
RTVSPropertyOp8
 70
     1
102
RTVSPropertyOp9
 70
     1
102
RTVSPropertyOp10
 70
     1
102
RTVSPropertyOp11
 70
     1
102
RTVSPropertyOp12
 70
     1
102
RTVSPropertyOp13
 70
     1
102
RTVSPropertyOp14
 70
     1
102
RTVSPropertyOp15
 70
     1
102
RTVSPropertyOp16
 70
     1
102
RTVSPropertyOp17
 70
     1
102
RTVSPropertyOp18
 70
     1
102
RTVSPropertyOp19
 70
     1
102
RTVSPropertyOp20
 70
     1
102
RTVSPropertyOp21
 70
     1
102
RTVSPropertyOp22
 70
     1
102
RTVSPropertyOp23
 70
     1
102
RTVSPropertyOp24
 70
     1
102
RTVSPropertyOp25
 70
     1
102
RTVSPropertyOp26
 70
     1
102
RTVSPropertyOp27
 70
     1
102
RTVSPropertyOp28
 70
     1
102
RTVSPropertyOp29
 70
     1
102
RTVSPropertyOp30
 70
     1
102
RTVSPropertyOp31
 70
     1
102
RTVSPropertyOp32
 70
     1
102
RTVSPropertyOp33
 70
     1
102
RTVSPropertyOp34
 70
     1
102
RTVSPropertyOp35
 70
     1
102
RTVSPropertyOp36
 70
     1
102
RTVSPropertyOp37
 70
     1
102
RTVSPropertyOp38
 70
     1
102
RTVSPropertyOp39
 70
     1
102
RTVSPropertyOp40
 70
     1
102
RTVSPropertyOp41
 70
     1
102
RTVSPropertyOp42
 70
     1
102
RTVSPropertyOp43
 70
     1
102
RTVSPropertyOp44
 70
     1
102
RTVSPropertyOp45
 70
     1
102
RTVSPropertyOp46
 70
     1
102
RTVSPropertyOp47
 70
     1
102
RTVSPropertyOp48
 70
     1
102
RTVSPropertyOp49
 70
     1
102
RTVSPropertyOp50
 70
     1
102
RTVSPropertyOp51
 70
     0
102
RTVSPropertyOp52
 70
     0
102
RTVSPropertyOp53
 70
     1
102
RTVSPropertyOp54
 70
     1
102
RTVSPropertyOp55
 70
     1
102
RTVSPropertyOp56
 70
     1
102
RTVSPropertyOp57
 70
     1
102
RTVSPost2010Prop28
280
     0
102
RTVSPost2010PropOp28
 70
     1
102
RTVSPost2010Prop29
280
     1
102
RTVSPost2010PropOp29
 70
     1
102
RTVSPost2010Prop30
280
     1
102
RTVSPost2010PropOp30
 70
     1
102
RTVSPost2010Prop31
280
     0
102
RTVSPost2010PropOp31
 70
     1
102
RTVSPost2010Prop32
280
     0
102
RTVSPost2010PropOp32
 70
     1
102
RTVSPost2010Prop33
280
     0
102
RTVSPost2010PropOp33
 70
     1
102
RTVSPost2010Prop34
280
     0
102
RTVSPost2010PropOp34
 70
     1
102
RTVSPost2010Prop35
280
     0
102
RTVSPost2010PropOp35
 70
     1
102
RTVSPost2010Prop36
280
     0
102
RTVSPost2010PropOp36
 70
     1
102
RTVSPost2010Prop37
 90
       50
102
RTVSPost2010PropOp37
 70
     1
102
RTVSPost2010Prop38
140
0.0
102
RTVSPost2010PropOp38
 70
     1
102
RTVSPost2010Prop39
140
1.0
102
RTVSPost2010PropOp39
 70
     1
102
RTVSPost2010Prop40
 90
        0
102
RTVSPost2010PropOp40
 70
     1
102
RTVSPost2010Prop41ColorIndex
 90
       18
102
RTVSPost2010Prop41ColorRGB
 90
        0
102
RTVSPost2010PropOp41
 70
     1
102
RTVSPost2010Prop42
 90
       50
102
RTVSPost2010PropOp42
 70
     1
102
RTVSPost2010Prop43
 90
        3
102
RTVSPost2010PropOp43
 70
     1
102
RTVSPost2010Prop44ColorIndex
 90
        5
102
RTVSPost2010Prop44ColorRGB
 90
      255
102
RTVSPost2010PropOp44
 70
     1
102
RTVSPost2010Prop45
280
     0
102
RTVSPost2010PropOp45
 70
     1
102
RTVSPost2010Prop46
 90
       50
102
RTVSPost2010PropOp46
 70
     1
102
RTVSPost2010Prop47
 90
       50
102
RTVSPost2010PropOp47
 70
     1
102
RTVSPost2010Prop48
 90
       50
102
RTVSPost2010PropOp48
 70
     1
102
RTVSPost2010Prop49
280
     0
102
RTVSPost2010PropOp49
 70
     1
102
RTVSPost2010Prop50
 90
       50
102
RTVSPost2010PropOp50
 70
     1
102
RTVSPost2010Prop51ColorIndex
 90
      256
102
RTVSPost2010Prop51ColorRGB
 90
-16777216
102
RTVSPost2010PropOp51
 70
     0
102
RTVSPost2010Prop52
140
1.0
102
RTVSPost2010PropOp52
 70
     0
102
RTVSPost2010Prop53
 90
        2
102
RTVSPost2010PropOp53
 70
     1
102
RTVSPost2010Prop54
  1
strokes_ogs.tif
102
RTVSPost2010PropOp54
 70
     1
102
RTVSPost2010Prop55
280
     0
102
RTVSPost2010PropOp55
 70
     1
102
RTVSPost2010Prop56
140
1.0
102
RTVSPost2010PropOp56
 70
     1
102
RTVSPost2010Prop57
140
1.0
102
RTVSPost2010PropOp57
 70
     1
  0
XRECORD
  5
1E2
102
{ACAD_REACTORS
330
1E1
102
}
330
1E1
100
AcDbXrecord
280
     1
102
RTVSPropertyOp0
 70
     1
102
RTVSPropertyOp1
 70
     1
102
RTVSPropertyOp2
 70
     1
102
RTVSPropertyOp3
 70
     1
102
RTVSPropertyOp4
 70
     1
102
RTVSPropertyOp5
 70
     1
102
RTVSPropertyOp6
 70
     1
102
RTVSPropertyOp7
 70
     1
102
RTVSPropertyOp8
 70
     1
102
RTVSPropertyOp9
 70
     1
102
RTVSPropertyOp10
 70
     1
102
RTVSPropertyOp11
 70
     1
102
RTVSPropertyOp12
 70
     1
102
RTVSPropertyOp13
 70
     1
102
RTVSPropertyOp14
 70
     1
102
RTVSPropertyOp15
 70
     1
102
RTVSPropertyOp16
 70
     1
102
RTVSPropertyOp17
 70
     1
102
RTVSPropertyOp18
 70
     1
102
RTVSPropertyOp19
 70
     1
102
RTVSPropertyOp20
 70
     1
102
RTVSPropertyOp21
 70
     1
102
RTVSPropertyOp22
 70
     1
102
RTVSPropertyOp23
 70
     1
102
RTVSPropertyOp24
 70
     1
102
RTVSPropertyOp25
 70
     1
102
RTVSPropertyOp26
 70
     1
102
RTVSPropertyOp27
 70
     1
102
RTVSPropertyOp28
 70
     1
102
RTVSPropertyOp29
 70
     1
102
RTVSPropertyOp30
 70
     1
102
RTVSPropertyOp31
 70
     1
102
RTVSPropertyOp32
 70
     1
102
RTVSPropertyOp33
 70
     1
102
RTVSPropertyOp34
 70
     1
102
RTVSPropertyOp35
 70
     1
102
RTVSPropertyOp36
 70
     1
102
RTVSPropertyOp37
 70
     1
102
RTVSPropertyOp38
 70
     1
102
RTVSPropertyOp39
 70
     1
102
RTVSPropertyOp40
 70
     1
102
RTVSPropertyOp41
 70
     1
102
RTVSPropertyOp42
 70
     1
102
RTVSPropertyOp43
 70
     1
102
RTVSPropertyOp44
 70
     1
102
RTVSPropertyOp45
 70
     1
102
RTVSPropertyOp46
 70
     1
102
RTVSPropertyOp47
 70
     1
102
RTVSPropertyOp48
 70
     1
102
RTVSPropertyOp49
 70
     1
102
RTVSPropertyOp50
 70
     1
102
RTVSPropertyOp51
 70
     0
102
RTVSPropertyOp52
 70
     0
102
RTVSPropertyOp53
 70
     1
102
RTVSPropertyOp54
 70
     1
102
RTVSPropertyOp55
 70
     1
102
RTVSPropertyOp56
 70
     1
102
RTVSPropertyOp57
 70
     1
102
RTVSPost2010Prop28
280
     0
102
RTVSPost2010PropOp28
 70
     1
102
RTVSPost2010Prop29
280
     1
102
RTVSPost2010PropOp29
 70
     1
102
RTVSPost2010Prop30
280
     1
102
RTVSPost2010PropOp30
 70
     1
102
RTVSPost2010Prop31
280
     0
102
RTVSPost2010PropOp31
 70
     1
102
RTVSPost2010Prop32
280
     0
102
RTVSPost2010PropOp32
 70
     1
102
RTVSPost2010Prop33
280
     0
102
RTVSPost2010PropOp33
 70
     1
102
RTVSPost2010Prop34
280
     0
102
RTVSPost2010PropOp34
 70
     1
102
RTVSPost2010Prop35
280
     0
102
RTVSPost2010PropOp35
 70
     1
102
RTVSPost2010Prop36
280
     0
102
RTVSPost2010PropOp36
 70
     1
102
RTVSPost2010Prop37
 90
       50
102
RTVSPost2010PropOp37
 70
     1
102
RTVSPost2010Prop38
140
0.0
102
RTVSPost2010PropOp38
 70
     1
102
RTVSPost2010Prop39
140
1.0
102
RTVSPost2010PropOp39
 70
     1
102
RTVSPost2010Prop40
 90
        0
102
RTVSPost2010PropOp40
 70
     1
102
RTVSPost2010Prop41ColorIndex
 90
       18
102
RTVSPost2010Prop41ColorRGB
 90
        0
102
RTVSPost2010PropOp41
 70
     1
102
RTVSPost2010Prop42
 90
       50
102
RTVSPost2010PropOp42
 70
     1
102
RTVSPost2010Prop43
 90
        3
102
RTVSPost2010PropOp43
 70
     1
102
RTVSPost2010Prop44ColorIndex
 90
        5
102
RTVSPost2010Prop44ColorRGB
 90
      255
102
RTVSPost2010PropOp44
 70
     1
102
RTVSPost2010Prop45
280
     0
102
RTVSPost2010PropOp45
 70
     1
102
RTVSPost2010Prop46
 90
       50
102
RTVSPost2010PropOp46
 70
     1
102
RTVSPost2010Prop47
 90
       50
102
RTVSPost2010PropOp47
 70
     1
102
RTVSPost2010Prop48
 90
       50
102
RTVSPost2010PropOp48
 70
     1
102
RTVSPost2010Prop49
280
     0
102
RTVSPost2010PropOp49
 70
     1
102
RTVSPost2010Prop50
 90
       50
102
RTVSPost2010PropOp50
 70
     1
102
RTVSPost2010Prop51ColorIndex
 90
      256
102
RTVSPost2010Prop51ColorRGB
 90
-16777216
102
RTVSPost2010PropOp51
 70
     0
102
RTVSPost2010Prop52
140
1.0
102
RTVSPost2010PropOp52
 70
     0
102
RTVSPost2010Prop53
 90
        2
102
RTVSPost2010PropOp53
 70
     1
102
RTVSPost2010Prop54
  1
strokes_ogs.tif
102
RTVSPost2010PropOp54
 70
     1
102
RTVSPost2010Prop55
280
     0
102
RTVSPost2010PropOp55
 70
     1
102
RTVSPost2010Prop56
140
1.0
102
RTVSPost2010PropOp56
 70
     1
102
RTVSPost2010Prop57
140
1.0
102
RTVSPost2010PropOp57
 70
     1
  0
XRECORD
  5
1D4
102
{ACAD_REACTORS
330
1D3
102
}
330
1D3
100
AcDbXrecord
280
     1
102
RTVSPropertyOp0
 70
     1
102
RTVSPropertyOp1
 70
     1
102
RTVSPropertyOp2
 70
     1
102
RTVSPropertyOp3
 70
     1
102
RTVSPropertyOp4
 70
     1
102
RTVSPropertyOp5
 70
     1
102
RTVSPropertyOp6
 70
     1
102
RTVSPropertyOp7
 70
     1
102
RTVSPropertyOp8
 70
     1
102
RTVSPropertyOp9
 70
     1
102
RTVSPropertyOp10
 70
     1
102
RTVSPropertyOp11
 70
     1
102
RTVSPropertyOp12
 70
     1
102
RTVSPropertyOp13
 70
     1
102
RTVSPropertyOp14
 70
     1
102
RTVSPropertyOp15
 70
     1
102
RTVSPropertyOp16
 70
     1
102
RTVSPropertyOp17
 70
     1
102
RTVSPropertyOp18
 70
     1
102
RTVSPropertyOp19
 70
     1
102
RTVSPropertyOp20
 70
     1
102
RTVSPropertyOp21
 70
     1
102
RTVSPropertyOp22
 70
     1
102
RTVSPropertyOp23
 70
     1
102
RTVSPropertyOp24
 70
     1
102
RTVSPropertyOp25
 70
     1
102
RTVSPropertyOp26
 70
     1
102
RTVSPropertyOp27
 70
     1
102
RTVSPropertyOp28
 70
     1
102
RTVSPropertyOp29
 70
     1
102
RTVSPropertyOp30
 70
     1
102
RTVSPropertyOp31
 70
     1
102
RTVSPropertyOp32
 70
     1
102
RTVSPropertyOp33
 70
     1
102
RTVSPropertyOp34
 70
     1
102
RTVSPropertyOp35
 70
     1
102
RTVSPropertyOp36
 70
     1
102
RTVSPropertyOp37
 70
     1
102
RTVSPropertyOp38
 70
     1
102
RTVSPropertyOp39
 70
     1
102
RTVSPropertyOp40
 70
     1
102
RTVSPropertyOp41
 70
     1
102
RTVSPropertyOp42
 70
     1
102
RTVSPropertyOp43
 70
     1
102
RTVSPropertyOp44
 70
     1
102
RTVSPropertyOp45
 70
     1
102
RTVSPropertyOp46
 70
     1
102
RTVSPropertyOp47
 70
     1
102
RTVSPropertyOp48
 70
     1
102
RTVSPropertyOp49
 70
     1
102
RTVSPropertyOp50
 70
     1
102
RTVSPropertyOp51
 70
     0
102
RTVSPropertyOp52
 70
     0
102
RTVSPropertyOp53
 70
     1
102
RTVSPropertyOp54
 70
     1
102
RTVSPropertyOp55
 70
     1
102
RTVSPropertyOp56
 70
     1
102
RTVSPropertyOp57
 70
     1
102
RTVSPost2010Prop28
280
     0
102
RTVSPost2010PropOp28
 70
     1
102
RTVSPost2010Prop29
280
     1
102
RTVSPost2010PropOp29
 70
     1
102
RTVSPost2010Prop30
280
     1
102
RTVSPost2010PropOp30
 70
     1
102
RTVSPost2010Prop31
280
     0
102
RTVSPost2010PropOp31
 70
     1
102
RTVSPost2010Prop32
280
     0
102
RTVSPost2010PropOp32
 70
     1
102
RTVSPost2010Prop33
280
     0
102
RTVSPost2010PropOp33
 70
     1
102
RTVSPost2010Prop34
280
     0
102
RTVSPost2010PropOp34
 70
     1
102
RTVSPost2010Prop35
280
     0
102
RTVSPost2010PropOp35
 70
     1
102
RTVSPost2010Prop36
280
     0
102
RTVSPost2010PropOp36
 70
     1
102
RTVSPost2010Prop37
 90
       50
102
RTVSPost2010PropOp37
 70
     1
102
RTVSPost2010Prop38
140
0.0
102
RTVSPost2010PropOp38
 70
     1
102
RTVSPost2010Prop39
140
1.0
102
RTVSPost2010PropOp39
 70
     1
102
RTVSPost2010Prop40
 90
        0
102
RTVSPost2010PropOp40
 70
     1
102
RTVSPost2010Prop41ColorIndex
 90
       18
102
RTVSPost2010Prop41ColorRGB
 90
        0
102
RTVSPost2010PropOp41
 70
     1
102
RTVSPost2010Prop42
 90
       50
102
RTVSPost2010PropOp42
 70
     1
102
RTVSPost2010Prop43
 90
        3
102
RTVSPost2010PropOp43
 70
     1
102
RTVSPost2010Prop44ColorIndex
 90
        5
102
RTVSPost2010Prop44ColorRGB
 90
      255
102
RTVSPost2010PropOp44
 70
     1
102
RTVSPost2010Prop45
280
     0
102
RTVSPost2010PropOp45
 70
     1
102
RTVSPost2010Prop46
 90
       50
102
RTVSPost2010PropOp46
 70
     1
102
RTVSPost2010Prop47
 90
       50
102
RTVSPost2010PropOp47
 70
     1
102
RTVSPost2010Prop48
 90
       50
102
RTVSPost2010PropOp48
 70
     1
102
RTVSPost2010Prop49
280
     0
102
RTVSPost2010PropOp49
 70
     1
102
RTVSPost2010Prop50
 90
       50
102
RTVSPost2010PropOp50
 70
     1
102
RTVSPost2010Prop51ColorIndex
 90
      256
102
RTVSPost2010Prop51ColorRGB
 90
-16777216
102
RTVSPost2010PropOp51
 70
     0
102
RTVSPost2010Prop52
140
1.0
102
RTVSPost2010PropOp52
 70
     0
102
RTVSPost2010Prop53
 90
        2
102
RTVSPost2010PropOp53
 70
     1
102
RTVSPost2010Prop54
  1
strokes_ogs.tif
102
RTVSPost2010PropOp54
 70
     1
102
RTVSPost2010Prop55
280
     0
102
RTVSPost2010PropOp55
 70
     1
102
RTVSPost2010Prop56
140
1.0
102
RTVSPost2010PropOp56
 70
     1
102
RTVSPost2010Prop57
140
1.0
102
RTVSPost2010PropOp57
 70
     1
  0
XRECORD
  5
1F4
102
{ACAD_REACTORS
330
1F3
102
}
330
1F3
100
AcDbXrecord
280
     1
102
RTVSPropertyOp0
 70
     1
102
RTVSPropertyOp1
 70
     1
102
RTVSPropertyOp2
 70
     1
102
RTVSPropertyOp3
 70
     1
102
RTVSPropertyOp4
 70
     1
102
RTVSPropertyOp5
 70
     1
102
RTVSPropertyOp6
 70
     1
102
RTVSPropertyOp7
 70
     1
102
RTVSPropertyOp8
 70
     1
102
RTVSPropertyOp9
 70
     1
102
RTVSPropertyOp10
 70
     1
102
RTVSPropertyOp11
 70
     1
102
RTVSPropertyOp12
 70
     1
102
RTVSPropertyOp13
 70
     1
102
RTVSPropertyOp14
 70
     1
102
RTVSPropertyOp15
 70
     1
102
RTVSPropertyOp16
 70
     1
102
RTVSPropertyOp17
 70
     1
102
RTVSPropertyOp18
 70
     1
102
RTVSPropertyOp19
 70
     1
102
RTVSPropertyOp20
 70
     1
102
RTVSPropertyOp21
 70
     1
102
RTVSPropertyOp22
 70
     1
102
RTVSPropertyOp23
 70
     1
102
RTVSPropertyOp24
 70
     1
102
RTVSPropertyOp25
 70
     1
102
RTVSPropertyOp26
 70
     1
102
RTVSPropertyOp27
 70
     1
102
RTVSPropertyOp28
 70
     1
102
RTVSPropertyOp29
 70
     1
102
RTVSPropertyOp30
 70
     1
102
RTVSPropertyOp31
 70
     1
102
RTVSPropertyOp32
 70
     1
102
RTVSPropertyOp33
 70
     1
102
RTVSPropertyOp34
 70
     1
102
RTVSPropertyOp35
 70
     1
102
RTVSPropertyOp36
 70
     1
102
RTVSPropertyOp37
 70
     1
102
RTVSPropertyOp38
 70
     1
102
RTVSPropertyOp39
 70
     1
102
RTVSPropertyOp40
 70
     1
102
RTVSPropertyOp41
 70
     1
102
RTVSPropertyOp42
 70
     1
102
RTVSPropertyOp43
 70
     1
102
RTVSPropertyOp44
 70
     1
102
RTVSPropertyOp45
 70
     1
102
RTVSPropertyOp46
 70
     1
102
RTVSPropertyOp47
 70
     1
102
RTVSPropertyOp48
 70
     1
102
RTVSPropertyOp49
 70
     1
102
RTVSPropertyOp50
 70
     1
102
RTVSPropertyOp51
 70
     0
102
RTVSPropertyOp52
 70
     0
102
RTVSPropertyOp53
 70
     1
102
RTVSPropertyOp54
 70
     1
102
RTVSPropertyOp55
 70
     1
102
RTVSPropertyOp56
 70
     1
102
RTVSPropertyOp57
 70
     1
102
RTVSPost2010Prop28
280
     0
102
RTVSPost2010PropOp28
 70
     1
102
RTVSPost2010Prop29
280
     1
102
RTVSPost2010PropOp29
 70
     1
102
RTVSPost2010Prop30
280
     1
102
RTVSPost2010PropOp30
 70
     1
102
RTVSPost2010Prop31
280
     0
102
RTVSPost2010PropOp31
 70
     1
102
RTVSPost2010Prop32
280
     0
102
RTVSPost2010PropOp32
 70
     1
102
RTVSPost2010Prop33
280
     0
102
RTVSPost2010PropOp33
 70
     1
102
RTVSPost2010Prop34
280
     0
102
RTVSPost2010PropOp34
 70
     1
102
RTVSPost2010Prop35
280
     0
102
RTVSPost2010PropOp35
 70
     1
102
RTVSPost2010Prop36
280
     0
102
RTVSPost2010PropOp36
 70
     1
102
RTVSPost2010Prop37
 90
       50
102
RTVSPost2010PropOp37
 70
     1
102
RTVSPost2010Prop38
140
0.0
102
RTVSPost2010PropOp38
 70
     1
102
RTVSPost2010Prop39
140
1.0
102
RTVSPost2010PropOp39
 70
     1
102
RTVSPost2010Prop40
 90
        0
102
RTVSPost2010PropOp40
 70
     1
102
RTVSPost2010Prop41ColorIndex
 90
       18
102
RTVSPost2010Prop41ColorRGB
 90
        0
102
RTVSPost2010PropOp41
 70
     1
102
RTVSPost2010Prop42
 90
       50
102
RTVSPost2010PropOp42
 70
     1
102
RTVSPost2010Prop43
 90
        3
102
RTVSPost2010PropOp43
 70
     1
102
RTVSPost2010Prop44ColorIndex
 90
        5
102
RTVSPost2010Prop44ColorRGB
 90
      255
102
RTVSPost2010PropOp44
 70
     1
102
RTVSPost2010Prop45
280
     0
102
RTVSPost2010PropOp45
 70
     1
102
RTVSPost2010Prop46
 90
       50
102
RTVSPost2010PropOp46
 70
     1
102
RTVSPost2010Prop47
 90
       50
102
RTVSPost2010PropOp47
 70
     1
102
RTVSPost2010Prop48
 90
       50
102
RTVSPost2010PropOp48
 70
     1
102
RTVSPost2010Prop49
280
     0
102
RTVSPost2010PropOp49
 70
     1
102
RTVSPost2010Prop50
 90
       50
102
RTVSPost2010PropOp50
 70
     1
102
RTVSPost2010Prop51ColorIndex
 90
      256
102
RTVSPost2010Prop51ColorRGB
 90
-16777216
102
RTVSPost2010PropOp51
 70
     0
102
RTVSPost2010Prop52
140
1.0
102
RTVSPost2010PropOp52
 70
     0
102
RTVSPost2010Prop53
 90
        2
102
RTVSPost2010PropOp53
 70
     1
102
RTVSPost2010Prop54
  1
strokes_ogs.tif
102
RTVSPost2010PropOp54
 70
     1
102
RTVSPost2010Prop55
280
     0
102
RTVSPost2010PropOp55
 70
     1
102
RTVSPost2010Prop56
140
1.0
102
RTVSPost2010PropOp56
 70
     1
102
RTVSPost2010Prop57
140
1.0
102
RTVSPost2010PropOp57
 70
     1
  0
ENDSEC
  0
EOF
