  0
SECTION
  2
HEADER
  9
$ACADVER
  1
AC1021
  9
$ACADMAINTVER
 70
    25
  9
$DWGCODEPAGE
  3
ANSI_1252
  9
$INSBASE
 10
0.0
 20
0.0
 30
0.0
  9
$EXTMIN
 10
0.0
 20
0.0
 30
0.0
  9
$EXTMAX
 10
2800.0
 20
2500.0
 30
0.0
  9
$LIMMIN
 10
0.0
 20
0.0
  9
$LIMMAX
 10
2800.0
 20
2500.0
  9
$ORTHOMODE
 70
     0
  9
$REGENMODE
 70
     1
  9
$FILLMODE
 70
     1
  9
$QTEXTMODE
 70
     0
  9
$MIRRTEXT
 70
     1
  9
$LTSCALE
 40
1.0
  9
$ATTMODE
 70
     1
  9
$TEXTSIZE
 40
2.5
  9
$TRACEWID
 40
1.0
  9
$TEXTSTYLE
  7
Standard
  9
$CLAYER
  8
0
  9
$CELTYPE
  6
ByLayer
  9
$CECOLOR
 62
   256
  9
$CELTSCALE
 40
1.0
  9
$DISPSILH
 70
     0
  9
$DIMSCALE
 40
1.0
  9
$DIMASZ
 40
2.5
  9
$DIMEXO
 40
0.625
  9
$DIMDLI
 40
3.75
  9
$DIMRND
 40
0.0
  9
$DIMDLE
 40
0.0
  9
$DIMEXE
 40
1.25
  9
$DIMTP
 40
0.0
  9
$DIMTM
 40
0.0
  9
$DIMTXT
 40
2.5
  9
$DIMCEN
 40
2.5
  9
$DIMTSZ
 40
0.0
  9
$DIMTOL
 70
     0
  9
$DIMLIM
 70
     0
  9
$DIMTIH
 70
     0
  9
$DIMTOH
 70
     0
  9
$DIMSE1
 70
     0
  9
$DIMSE2
 70
     0
  9
$DIMTAD
 70
     1
  9
$DIMZIN
 70
     8
  9
$DIMBLK
  1

  9
$DIMASO
 70
     1
  9
$DIMSHO
 70
     1
  9
$DIMPOST
  1

  9
$DIMAPOST
  1

  9
$DIMALT
 70
     0
  9
$DIMALTD
 70
     3
  9
$DIMALTF
 40
0.0393700787
  9
$DIMLFAC
 40
1.0
  9
$DIMTOFL
 70
     1
  9
$DIMTVP
 40
0.0
  9
$DIMTIX
 70
     0
  9
$DIMSOXD
 70
     0
  9
$DIMSAH
 70
     0
  9
$DIMBLK1
  1

  9
$DIMBLK2
  1

  9
$DIMSTYLE
  2
ISO-25
  9
$DIMCLRD
 70
     0
  9
$DIMCLRE
 70
     0
  9
$DIMCLRT
 70
     0
  9
$DIMTFAC
 40
1.0
  9
$DIMGAP
 40
0.625
  9
$DIMJUST
 70
     0
  9
$DIMSD1
 70
     0
  9
$DIMSD2
 70
     0
  9
$DIMTOLJ
 70
     0
  9
$DIMTZIN
 70
     8
  9
$DIMALTZ
 70
     0
  9
$DIMALTTZ
 70
     0
  9
$DIMUPT
 70
     0
  9
$DIMDEC
 70
     2
  9
$DIMTDEC
 70
     2
  9
$DIMALTU
 70
     2
  9
$DIMALTTD
 70
     3
  9
$DIMTXSTY
  7
Standard
  9
$DIMAUNIT
 70
     0
  9
$DIMADEC
 70
     0
  9
$DIMALTRND
 40
0.0
  9
$DIMAZIN
 70
     0
  9
$DIMDSEP
 70
    44
  9
$DIMATFIT
 70
     3
  9
$DIMFRAC
 70
     0
  9
$DIMLDRBLK
  1

  9
$DIMLUNIT
 70
     2
  9
$DIMLWD
 70
    -2
  9
$DIMLWE
 70
    -2
  9
$DIMTMOVE
 70
     0
  9
$DIMFXL
 40
1.0
  9
$DIMFXLON
 70
     0
  9
$DIMJOGANG
 40
0.7853981634
  9
$DIMTFILL
 70
     0
  9
$DIMTFILLCLR
 70
     0
  9
$DIMARCSYM
 70
     0
  9
$DIMLTYPE
  6

  9
$DIMLTEX1
  6

  9
$DIMLTEX2
  6

  9
$LUNITS
 70
     2
  9
$LUPREC
 70
     4
  9
$SKETCHINC
 40
1.0
  9
$FILLETRAD
 40
10.0
  9
$AUNITS
 70
     0
  9
$AUPREC
 70
     0
  9
$MENU
  1
.
  9
$ELEVATION
 40
0.0
  9
$PELEVATION
 40
0.0
  9
$THICKNESS
 40
0.0
  9
$LIMCHECK
 70
     0
  9
$CHAMFERA
 40
0.0
  9
$CHAMFERB
 40
0.0
  9
$CHAMFERC
 40
0.0
  9
$CHAMFERD
 40
0.0
  9
$SKPOLY
 70
     0
  9
$TDCREATE
 40
2459865.483694074
  9
$TDUCREATE
 40
2459865.400360741
  9
$TDUPDATE
 40
2459865.483701539
  9
$TDUUPDATE
 40
2459865.400368206
  9
$TDINDWG
 40
0.0000000116
  9
$TDUSRTIMER
 40
0.0000000116
  9
$USRTIMER
 70
     1
  9
$ANGBASE
 50
0.0
  9
$ANGDIR
 70
     0
  9
$PDMODE
 70
     0
  9
$PDSIZE
 40
0.0
  9
$PLINEWID
 40
0.0
  9
$SPLFRAME
 70
     0
  9
$SPLINETYPE
 70
     6
  9
$SPLINESEGS
 70
     8
  9
$HANDSEED
  5
294
  9
$SURFTAB1
 70
     6
  9
$SURFTAB2
 70
     6
  9
$SURFTYPE
 70
     6
  9
$SURFU
 70
     6
  9
$SURFV
 70
     6
  9
$UCSBASE
  2

  9
$UCSNAME
  2

  9
$UCSORG
 10
0.0
 20
0.0
 30
0.0
  9
$UCSXDIR
 10
1.0
 20
0.0
 30
0.0
  9
$UCSYDIR
 10
0.0
 20
1.0
 30
0.0
  9
$UCSORTHOREF
  2

  9
$UCSORTHOVIEW
 70
     0
  9
$UCSORGTOP
 10
0.0
 20
0.0
 30
0.0
  9
$UCSORGBOTTOM
 10
0.0
 20
0.0
 30
0.0
  9
$UCSORGLEFT
 10
0.0
 20
0.0
 30
0.0
  9
$UCSORGRIGHT
 10
0.0
 20
0.0
 30
0.0
  9
$UCSORGFRONT
 10
0.0
 20
0.0
 30
0.0
  9
$UCSORGBACK
 10
0.0
 20
0.0
 30
0.0
  9
$PUCSBASE
  2

  9
$PUCSNAME
  2

  9
$PUCSORG
 10
0.0
 20
0.0
 30
0.0
  9
$PUCSXDIR
 10
1.0
 20
0.0
 30
0.0
  9
$PUCSYDIR
 10
0.0
 20
1.0
 30
0.0
  9
$PUCSORTHOREF
  2

  9
$PUCSORTHOVIEW
 70
     0
  9
$PUCSORGTOP
 10
0.0
 20
0.0
 30
0.0
  9
$PUCSORGBOTTOM
 10
0.0
 20
0.0
 30
0.0
  9
$PUCSORGLEFT
 10
0.0
 20
0.0
 30
0.0
  9
$PUCSORGRIGHT
 10
0.0
 20
0.0
 30
0.0
  9
$PUCSORGFRONT
 10
0.0
 20
0.0
 30
0.0
  9
$PUCSORGBACK
 10
0.0
 20
0.0
 30
0.0
  9
$USERI1
 70
     0
  9
$USERI2
 70
     0
  9
$USERI3
 70
     0
  9
$USERI4
 70
     0
  9
$USERI5
 70
     0
  9
$USERR1
 40
0.0
  9
$USERR2
 40
0.0
  9
$USERR3
 40
0.0
  9
$USERR4
 40
0.0
  9
$USERR5
 40
0.0
  9
$WORLDVIEW
 70
     1
  9
$SHADEDGE
 70
     3
  9
$SHADEDIF
 70
    70
  9
$TILEMODE
 70
     1
  9
$MAXACTVP
 70
    64
  9
$PINSBASE
 10
0.0
 20
0.0
 30
0.0
  9
$PLIMCHECK
 70
     0
  9
$PEXTMIN
 10
0.0
 20
0.0
 30
0.0
  9
$PEXTMAX
 10
2800.0
 20
2500.0
 30
0.0
  9
$PLIMMIN
 10
0.0
 20
0.0
  9
$PLIMMAX
 10
2800.0
 20
2500.0
  9
$UNITMODE
 70
     0
  9
$VISRETAIN
 70
     1
  9
$PLINEGEN
 70
     0
  9
$PSLTSCALE
 70
     1
  9
$TREEDEPTH
 70
  3020
  9
$CMLSTYLE
  2
Standard
  9
$CMLJUST
 70
     0
  9
$CMLSCALE
 40
20.0
  9
$PROXYGRAPHICS
 70
     1
  9
$MEASUREMENT
 70
     1
  9
$CELWEIGHT
370
    -1
  9
$ENDCAPS
280
     0
  9
$JOINSTYLE
280
     0
  9
$LWDISPLAY
290
     0
  9
$INSUNITS
 70
     4
  9
$HYPERLINKBASE
  1

  9
$STYLESHEET
  1

  9
$XEDIT
290
     1
  9
$CEPSNTYPE
380
     0
  9
$PSTYLEMODE
290
     1
  9
$FINGERPRINTGUID
  2
{cf7824fa-c7c8-46cb-81d1-0e9d14a5ba8b}
  9
$VERSIONGUID
  2
{FAEB1C32-E019-11D5-929B-00C0DF256EC4}
  9
$EXTNAMES
290
     1
  9
$PSVPSCALE
 40
0.0
  9
$OLESTARTUP
290
     0
  9
$SORTENTS
280
   127
  9
$INDEXCTL
280
     0
  9
$HIDETEXT
280
     1
  9
$XCLIPFRAME
290
     0
  9
$HALOGAP
280
     0
  9
$OBSCOLOR
 70
   257
  9
$OBSLTYPE
280
     0
  9
$INTERSECTIONDISPLAY
280
     0
  9
$INTERSECTIONCOLOR
 70
   257
  9
$DIMASSOC
280
     2
  9
$PROJECTNAME
  1

  9
$CAMERADISPLAY
290
     0
  9
$LENSLENGTH
 40
50.0
  9
$CAMERAHEIGHT
 40
0.0
  9
$STEPSPERSEC
 40
2.0
  9
$STEPSIZE
 40
6.0
  9
$3DDWFPREC
 40
2.0
  9
$PSOLWIDTH
 40
5.0
  9
$PSOLHEIGHT
 40
80.0
  9
$LOFTANG1
 40
1.5707963268
  9
$LOFTANG2
 40
1.5707963268
  9
$LOFTMAG1
 40
0.0
  9
$LOFTMAG2
 40
0.0
  9
$LOFTPARAM
 70
     7
  9
$LOFTNORMALS
280
     1
  9
$LATITUDE
 40
37.795
  9
$LONGITUDE
 40
-122.394
  9
$NORTHDIRECTION
 40
0.0
  9
$TIMEZONE
 70
 -8000
  9
$LIGHTGLYPHDISPLAY
280
     1
  9
$TILEMODELIGHTSYNCH
280
     1
  9
$CMATERIAL
347
44
  9
$SOLIDHIST
280
     0
  9
$SHOWHIST
280
     1
  9
$DWFFRAME
280
     2
  9
$DGNFRAME
280
     2
  9
$REALWORLDSCALE
290
     1
  9
$INTERFERECOLOR
 62
   256
  9
$CSHADOW
280
     0
  9
$SHADOWPLANELOCATION
 40
0.0
  0
ENDSEC
  0
SECTION
  2
CLASSES
  0
CLASS
  1
ACDBDICTIONARYWDFLT
  2
AcDbDictionaryWithDefault
  3
ObjectDBX Classes
 90
        0
 91
        3
280
     0
281
     0
  0
CLASS
  1
VISUALSTYLE
  2
AcDbVisualStyle
  3
ObjectDBX Classes
 90
     4095
 91
        3
280
     0
281
     0
  0
CLASS
  1
MATERIAL
  2
AcDbMaterial
  3
ObjectDBX Classes
 90
     1153
 91
        3
280
     0
281
     0
  0
CLASS
  1
SCALE
  2
AcDbScale
  3
ObjectDBX Classes
 90
     1153
 91
        3
280
     0
281
     0
  0
CLASS
  1
TABLESTYLE
  2
AcDbTableStyle
  3
ObjectDBX Classes
 90
     4095
 91
        3
280
     0
281
     0
  0
CLASS
  1
MLEADERSTYLE
  2
AcDbMLeaderStyle
  3
ACDB_MLEADERSTYLE_CLASS
 90
     4095
 91
        3
280
     0
281
     0
  0
CLASS
  1
SUN
  2
AcDbSun
  3
SCENEOE
 90
     1153
 91
        3
280
     0
281
     0
  0
CLASS
  1
MULTILEADER
  2
AcDbMLeader
  3
ACDB_MLEADER_CLASS
 90
     1025
 91
        3
280
     0
281
     1
  0
CLASS
  1
DICTIONARYVAR
  2
AcDbDictionaryVar
  3
ObjectDBX Classes
 90
        0
 91
        3
280
     0
281
     0
  0
CLASS
  1
CELLSTYLEMAP
  2
AcDbCellStyleMap
  3
ObjectDBX Classes
 90
     1152
 91
        3
280
     0
281
     0
  0
ENDSEC
  0
SECTION
  2
TABLES
  0
TABLE
  2
VPORT
  5
8
330
0
100
AcDbSymbolTable
 70
     1
  0
VPORT
  5
29
330
8
100
AcDbSymbolTableRecord
100
AcDbViewportTableRecord
  2
*Active
 70
     0
 10
0.0
 20
0.0
 11
1.0
 21
1.0
 12
344.1869158879
 22
148.5
 13
0.0
 23
0.0
 14
10.0
 24
10.0
 15
10.0
 25
10.0
 16
0.0
 26
0.0
 36
1.0
 17
0.0
 27
0.0
 37
0.0
 40
297.0
 41
1.9729729729
 42
50.0
 43
0.0
 44
0.0
 50
0.0
 51
0.0
 71
     0
 72
   100
 73
     1
 74
     3
 75
     0
 76
     0
 77
     0
 78
     0
281
     0
 65
     1
110
0.0
120
0.0
130
0.0
111
1.0
121
0.0
131
0.0
112
0.0
122
1.0
132
0.0
 79
     0
146
0.0
348
2F
 60
     3
 61
     5
292
     1
282
     1
141
0.0
142
0.0
 63
   250
361
6D
  0
ENDTAB
  0
TABLE
  2
LTYPE
  5
5
330
0
100
AcDbSymbolTable
 70
     1
  0
LTYPE
  5
14
330
5
100
AcDbSymbolTableRecord
100
AcDbLinetypeTableRecord
  2
ByBlock
 70
     0
  3

 72
    65
 73
     0
 40
0.0
  0
LTYPE
  5
15
330
5
100
AcDbSymbolTableRecord
100
AcDbLinetypeTableRecord
  2
ByLayer
 70
     0
  3

 72
    65
 73
     0
 40
0.0
  0
LTYPE
  5
16
330
5
100
AcDbSymbolTableRecord
100
AcDbLinetypeTableRecord
  2
Continuous
 70
     0
  3
Solid line
 72
    65
 73
     0
 40
0.0
  0
ENDTAB
  0
TABLE
  2
LAYER
  5
2
330
0
100
AcDbSymbolTable
 70
     8
  0
LAYER
  5
10
330
2
100
AcDbSymbolTableRecord
100
AcDbLayerTableRecord
  2
0
 70
     0
 62
     7
  6
Continuous
370
    -3
390
F
347
46
  0
LAYER
  5
6E
330
2
100
AcDbSymbolTableRecord
100
AcDbLayerTableRecord
  2
encadrement
 70
     1
 62
    -7
  6
Continuous
370
    -3
390
F
347
46
  0
LAYER
  5
74
330
2
100
AcDbSymbolTableRecord
100
AcDbLayerTableRecord
  2
Default
 70
     0
 62
     7
  6
Continuous
370
    -3
390
F
347
46
  0
LAYER
  5
7F
330
2
100
AcDbSymbolTableRecord
100
AcDbLayerTableRecord
  2
Cartouche
 70
     0
 62
     7
  6
Continuous
370
    -3
390
F
347
46
  0
LAYER
  5
82
330
2
100
AcDbSymbolTableRecord
100
AcDbLayerTableRecord
  2
60743-BARRE
 70
     0
 62
     7
  6
Continuous
370
    -3
390
F
347
46
  0
LAYER
  5
A1
330
2
100
AcDbSymbolTableRecord
100
AcDbLayerTableRecord
  2
60338-ROSACE
 70
     0
 62
     7
  6
Continuous
370
    -3
390
F
347
46
  0
LAYER
  5
1EF
330
2
100
AcDbSymbolTableRecord
100
AcDbLayerTableRecord
  2
60338-VIS
 70
     0
 62
     7
  6
Continuous
370
    -3
390
F
347
46
  0
LAYER
  5
1F7
330
2
100
AcDbSymbolTableRecord
100
AcDbLayerTableRecord
  2
60338-BASE
 70
     0
 62
     7
  6
Continuous
370
    -3
390
F
347
46
  0
ENDTAB
  0
TABLE
  2
STYLE
  5
3
330
0
100
AcDbSymbolTable
 70
     4
  0
STYLE
  5
11
330
3
100
AcDbSymbolTableRecord
100
AcDbTextStyleTableRecord
  2
Standard
 70
     0
 40
0.0
 41
1.0
 50
0.0
 71
     0
 42
2.5
  3
txt
  4

  0
STYLE
  5
169
330
3
100
AcDbSymbolTableRecord
100
AcDbTextStyleTableRecord
  2
SEACAD_Arial
 70
     0
 40
0.0
 41
1.0
 50
0.0
 71
     0
 42
2.5
  3

  4

1001
ACAD
1000
Arial
1071
        0
  0
STYLE
  5
16C
330
3
100
AcDbSymbolTableRecord
100
AcDbTextStyleTableRecord
  2
SEACAD_ArialB
 70
     0
 40
0.0
 41
1.0
 50
0.0
 71
     0
 42
2.5
  3
arialbd.ttf
  4

1001
ACAD
1000
Arial
1071
 33554432
  0
STYLE
  5
18E
330
3
100
AcDbSymbolTableRecord
100
AcDbTextStyleTableRecord
  2
SEACAD_Solid_Edge_ANSI1_SymbolsB
 70
     0
 40
0.0
 41
1.0
 50
0.0
 71
     0
 42
2.5
  3
semeca1.ttf
  4

1001
ACAD
1000
Solid Edge ANSI1 Symbols
1071
 33554432
  0
ENDTAB
  0
TABLE
  2
VIEW
  5
6
330
0
100
AcDbSymbolTable
 70
     0
  0
ENDTAB
  0
TABLE
  2
UCS
  5
7
330
0
100
AcDbSymbolTable
 70
     0
  0
ENDTAB
  0
TABLE
  2
APPID
  5
9
330
0
100
AcDbSymbolTable
 70
     2
  0
APPID
  5
12
330
9
100
AcDbSymbolTableRecord
100
AcDbRegAppTableRecord
  2
ACAD
 70
     0
  0
APPID
  5
255
330
9
100
AcDbSymbolTableRecord
100
AcDbRegAppTableRecord
  2
ACAD_MLEADERVER
 70
     0
  0
ENDTAB
  0
TABLE
  2
DIMSTYLE
  5
A
330
0
100
AcDbSymbolTable
 70
     3
100
AcDbDimStyleTable
  0
DIMSTYLE
105
27
330
A
100
AcDbSymbolTableRecord
100
AcDbDimStyleTableRecord
  2
ISO-25
 70
     0
 41
2.5
 42
0.625
 43
3.75
 44
1.25
 73
     0
 74
     0
 77
     1
 78
     8
140
2.5
141
2.5
143
0.0393700787
147
0.625
171
     3
172
     1
178
     0
271
     2
272
     2
274
     3
278
    44
283
     0
284
     8
340
11
  0
DIMSTYLE
105
15F
330
A
100
AcDbSymbolTableRecord
100
AcDbDimStyleTableRecord
  2
Standard
 70
     0
178
     0
340
11
  0
DIMSTYLE
105
16A
102
{ACAD_REACTORS
330
16B
330
177
330
182
330
18D
102
}
330
A
100
AcDbSymbolTableRecord
100
AcDbDimStyleTableRecord
  2
ISO
 70
     0
 41
45.0
 42
0.0
 44
15.0
 78
     8
140
30.0
141
0.0
143
0.0393700787
146
0.7
147
7.5
172
     1
173
     1
178
     0
271
     0
272
     3
278
    44
284
     8
340
169
343
164
344
164
  0
ENDTAB
  0
TABLE
  2
BLOCK_RECORD
  5
1
330
0
100
AcDbSymbolTable
 70
    15
  0
BLOCK_RECORD
  5
1F
330
1
100
AcDbSymbolTableRecord
100
AcDbBlockTableRecord
  2
*Model_Space
340
22
 70
     0
280
     1
281
     0
  0
BLOCK_RECORD
  5
1B
330
1
100
AcDbSymbolTableRecord
100
AcDbBlockTableRecord
  2
*Paper_Space
340
1E
 70
     0
280
     1
281
     0
  0
BLOCK_RECORD
  5
75
330
1
100
AcDbSymbolTableRecord
100
AcDbBlockTableRecord
  2
SEANNOT_GROUP
340
0
102
{BLKREFS
331
76
102
}
 70
     0
280
     1
281
     0
  0
BLOCK_RECORD
  5
79
330
1
100
AcDbSymbolTableRecord
100
AcDbBlockTableRecord
  2
_DOT
340
0
 70
     0
280
     1
281
     0
  0
BLOCK_RECORD
  5
80
330
1
100
AcDbSymbolTableRecord
100
AcDbBlockTableRecord
  2
SE
340
0
102
{BLKREFS
331
81
102
}
 70
     0
280
     1
281
     0
  0
BLOCK_RECORD
  5
C0
330
1
100
AcDbSymbolTableRecord
100
AcDbBlockTableRecord
  2
SE1
340
0
102
{BLKREFS
331
C1
102
}
 70
     0
280
     1
281
     0
  0
BLOCK_RECORD
  5
FF
330
1
100
AcDbSymbolTableRecord
100
AcDbBlockTableRecord
  2
SE2
340
0
102
{BLKREFS
331
100
102
}
 70
     0
280
     1
281
     0
  0
BLOCK_RECORD
  5
160
330
1
100
AcDbSymbolTableRecord
100
AcDbBlockTableRecord
  2
_Oblique
340
0
 70
     0
280
     1
281
     0
  0
BLOCK_RECORD
  5
164
330
1
100
AcDbSymbolTableRecord
100
AcDbBlockTableRecord
  2
_SE_FILLED
340
0
 70
     0
280
     1
281
     0
  0
BLOCK_RECORD
  5
16D
330
1
100
AcDbSymbolTableRecord
100
AcDbBlockTableRecord
  2
DMBLK9
340
0
 70
     0
280
     1
281
     0
  0
BLOCK_RECORD
  5
178
330
1
100
AcDbSymbolTableRecord
100
AcDbBlockTableRecord
  2
DMBLK10
340
0
 70
     0
280
     1
281
     0
  0
BLOCK_RECORD
  5
183
330
1
100
AcDbSymbolTableRecord
100
AcDbBlockTableRecord
  2
DMBLK11
340
0
 70
     0
280
     1
281
     0
  0
BLOCK_RECORD
  5
18F
330
1
100
AcDbSymbolTableRecord
100
AcDbBlockTableRecord
  2
DMBLK12
340
0
 70
     0
280
     1
281
     0
  0
BLOCK_RECORD
  5
199
330
1
100
AcDbSymbolTableRecord
100
AcDbBlockTableRecord
  2
GDimGGroup
340
0
102
{BLKREFS
331
19A
102
}
 70
     0
280
     1
281
     0
  0
BLOCK_RECORD
  5
1A5
330
1
100
AcDbSymbolTableRecord
100
AcDbBlockTableRecord
  2
SE3
340
0
102
{BLKREFS
331
1A6
102
}
 70
     0
280
     1
281
     0
  0
BLOCK_RECORD
  5
1D9
330
1
100
AcDbSymbolTableRecord
100
AcDbBlockTableRecord
  2
SE4
340
0
102
{BLKREFS
331
1DA
102
}
 70
     0
280
     1
281
     0
  0
BLOCK_RECORD
  5
217
330
1
100
AcDbSymbolTableRecord
100
AcDbBlockTableRecord
  2
SE5
340
0
102
{BLKREFS
331
218
102
}
 70
     0
280
     1
281
     0
  0
ENDTAB
  0
ENDSEC
  0
SECTION
  2
BLOCKS
  0
BLOCK
  5
20
330
1F
100
AcDbEntity
  8
0
100
AcDbBlockBegin
  2
*Model_Space
 70
     0
 10
0.0
 20
0.0
 30
0.0
  3
*Model_Space
  1

  0
ENDBLK
  5
21
330
1F
100
AcDbEntity
  8
0
100
AcDbBlockEnd
  0
BLOCK
  5
1C
330
1B
100
AcDbEntity
 67
     1
  8
0
100
AcDbBlockBegin
  2
*Paper_Space
 70
     0
 10
0.0
 20
0.0
 30
0.0
  3
*Paper_Space
  1

  0
ENDBLK
  5
1D
330
1B
100
AcDbEntity
 67
     1
  8
0
100
AcDbBlockEnd
  0
BLOCK
  5
77
330
75
100
AcDbEntity
  8
0
100
AcDbBlockBegin
  2
SEANNOT_GROUP
 70
     0
 10
0.0
 20
0.0
 30
0.0
  3
SEANNOT_GROUP
  1

  0
ENDBLK
  5
78
330
75
100
AcDbEntity
  8
0
100
AcDbBlockEnd
  0
BLOCK
  5
7C
330
79
100
AcDbEntity
  8
0
100
AcDbBlockBegin
  2
_DOT
 70
     0
 10
0.0
 20
0.0
 30
0.0
  3
_DOT
  1

  0
LWPOLYLINE
  5
7A
330
79
100
AcDbEntity
  8
0
 62
     0
100
AcDbPolyline
 90
        2
 70
     1
 43
0.333
 10
-0.1665
 20
0.0
 42
1.0
 10
0.1665
 20
0.0
 42
1.0
  0
LINE
  5
7B
330
79
100
AcDbEntity
  8
0
 62
     0
100
AcDbLine
 10
0.0
 20
0.0
 30
0.0
 11
-1.0
 21
0.0
 31
0.0
  0
ENDBLK
  5
7D
330
79
100
AcDbEntity
  8
0
100
AcDbBlockEnd
  0
BLOCK
  5
BE
330
80
100
AcDbEntity
  8
0
100
AcDbBlockBegin
  2
SE
 70
     0
 10
0.0
 20
0.0
 30
0.0
  3
SE
  1

  0
LINE
  5
83
330
80
100
AcDbEntity
  8
60743-BARRE
  6
Continuous
 62
     7
100
AcDbLine
 10
1698.9741337908
 20
1619.1088563917
 30
0.0
 11
1732.9741337908
 21
1619.1088563917
 31
0.0
  0
LINE
  5
84
330
80
100
AcDbEntity
  8
60743-BARRE
  6
Continuous
 62
     7
100
AcDbLine
 10
1675.9741337908
 20
1676.1088563917
 30
0.0
 11
1675.9741337908
 21
1642.1088563917
 31
0.0
  0
LINE
  5
85
330
80
100
AcDbEntity
  8
60743-BARRE
  6
Continuous
 62
     7
100
AcDbLine
 10
1105.9741337908
 20
1676.1088563917
 30
0.0
 11
1105.9741337908
 21
1642.1088563917
 31
0.0
  0
LINE
  5
86
330
80
100
AcDbEntity
  8
60743-BARRE
  6
Continuous
 62
     7
100
AcDbLine
 10
1057.9741337908
 20
1724.1088563917
 30
0.0
 11
1023.9741337908
 21
1724.1088563917
 31
0.0
  0
LINE
  5
87
330
80
100
AcDbEntity
  8
60743-BARRE
  6
Continuous
 62
     7
100
AcDbLine
 10
1057.9741337908
 20
2294.1088563917
 30
0.0
 11
1023.9741337908
 21
2294.1088563917
 31
0.0
  0
LINE
  5
88
330
80
100
AcDbEntity
  8
60743-BARRE
  6
Continuous
 62
     7
100
AcDbLine
 10
1000.9741337908
 20
2351.1088563917
 30
0.0
 11
1000.9741337908
 21
2317.1088563917
 31
0.0
  0
LINE
  5
89
330
80
100
AcDbEntity
  8
60743-BARRE
  6
Continuous
 62
     7
100
AcDbLine
 10
1040.9741337908
 20
1854.1088563917
 30
0.0
 11
1023.9741337908
 21
1837.1088563917
 31
0.0
  0
LINE
  5
8A
330
80
100
AcDbEntity
  8
60743-BARRE
  6
Continuous
 62
     7
100
AcDbLine
 10
1040.9741337908
 20
1854.1088563917
 30
0.0
 11
1023.9741337908
 21
1871.1088563917
 31
0.0
  0
LINE
  5
8B
330
80
100
AcDbEntity
  8
60743-BARRE
  6
Continuous
 62
     7
100
AcDbLine
 10
1235.9741337908
 20
1659.1088563917
 30
0.0
 11
1252.9741337908
 21
1642.1088563917
 31
0.0
  0
LINE
  5
8C
330
80
100
AcDbEntity
  8
60743-BARRE
  6
Continuous
 62
     7
100
AcDbLine
 10
1235.9741337908
 20
1659.1088563917
 30
0.0
 11
1218.9741337908
 21
1642.1088563917
 31
0.0
  0
LINE
  5
8D
330
80
100
AcDbEntity
  8
60743-BARRE
  6
Continuous
 62
     7
100
AcDbLine
 10
1698.9741337908
 20
1619.1088563917
 30
0.0
 11
1698.9741337908
 21
1599.4088563917
 31
0.0
  0
LINE
  5
8E
330
80
100
AcDbEntity
  8
60743-BARRE
  6
Continuous
 62
     7
100
AcDbLine
 10
1732.9741337908
 20
1599.4088563917
 30
0.0
 11
1732.9741337908
 21
1619.1088563917
 31
0.0
  0
ARC
  5
8F
330
80
100
AcDbEntity
  8
60743-BARRE
  6
Continuous
 62
     7
100
AcDbCircle
 10
1675.9741337908
 20
1619.1088563917
 30
0.0
 40
22.99999999999991
100
AcDbArc
 50
0.0
 51
90.0
  0
ARC
  5
90
330
80
100
AcDbEntity
  8
60743-BARRE
  6
Continuous
 62
     7
100
AcDbCircle
 10
1675.9741337908
 20
1619.1088563917
 30
0.0
 40
56.99999999999994
100
AcDbArc
 50
0.0
 51
90.0
  0
LINE
  5
91
330
80
100
AcDbEntity
  8
60743-BARRE
  6
Continuous
 62
     7
100
AcDbLine
 10
1252.9741337908
 20
1642.1088563917
 30
0.0
 11
1675.9741337908
 21
1642.1088563917
 31
0.0
  0
LINE
  5
92
330
80
100
AcDbEntity
  8
60743-BARRE
  6
Continuous
 62
     7
100
AcDbLine
 10
1105.9741337908
 20
1642.1088563917
 30
0.0
 11
1218.9741337908
 21
1642.1088563917
 31
0.0
  0
LINE
  5
93
330
80
100
AcDbEntity
  8
60743-BARRE
  6
Continuous
 62
     7
100
AcDbLine
 10
1675.9741337908
 20
1676.1088563917
 30
0.0
 11
1105.9741337908
 21
1676.1088563917
 31
0.0
  0
ARC
  5
94
330
80
100
AcDbEntity
  8
60743-BARRE
  6
Continuous
 62
     7
100
AcDbCircle
 10
1105.9741337908
 20
1724.1088563917
 30
0.0
 40
48.00000000000013
100
AcDbArc
 50
180.0
 51
270.0
  0
ARC
  5
95
330
80
100
AcDbEntity
  8
60743-BARRE
  6
Continuous
 62
     7
100
AcDbCircle
 10
1105.9741337908
 20
1724.1088563917
 30
0.0
 40
82.00000000000016
100
AcDbArc
 50
180.0
 51
270.0
  0
LINE
  5
96
330
80
100
AcDbEntity
  8
60743-BARRE
  6
Continuous
 62
     7
100
AcDbLine
 10
1023.9741337908
 20
1837.1088563917
 30
0.0
 11
1023.9741337908
 21
1724.1088563917
 31
0.0
  0
LINE
  5
97
330
80
100
AcDbEntity
  8
60743-BARRE
  6
Continuous
 62
     7
100
AcDbLine
 10
1023.9741337908
 20
2294.1088563917
 30
0.0
 11
1023.9741337908
 21
1871.1088563917
 31
0.0
  0
LINE
  5
98
330
80
100
AcDbEntity
  8
60743-BARRE
  6
Continuous
 62
     7
100
AcDbLine
 10
1057.9741337908
 20
1724.1088563917
 30
0.0
 11
1057.9741337908
 21
2294.1088563917
 31
0.0
  0
ARC
  5
99
330
80
100
AcDbEntity
  8
60743-BARRE
  6
Continuous
 62
     7
100
AcDbCircle
 10
1000.9741337908
 20
2294.1088563917
 30
0.0
 40
22.99999999999991
100
AcDbArc
 50
0.0
 51
90.0
  0
ARC
  5
9A
330
80
100
AcDbEntity
  8
60743-BARRE
  6
Continuous
 62
     7
100
AcDbCircle
 10
1000.9741337908
 20
2294.1088563917
 30
0.0
 40
56.99999999999996
100
AcDbArc
 50
0.0
 51
90.0
  0
LINE
  5
9B
330
80
100
AcDbEntity
  8
60743-BARRE
  6
Continuous
 62
     7
100
AcDbLine
 10
981.2741337908
 20
2317.1088563917
 30
0.0
 11
1000.9741337908
 21
2317.1088563917
 31
0.0
  0
LINE
  5
9C
330
80
100
AcDbEntity
  8
60743-BARRE
  6
Continuous
 62
     7
100
AcDbLine
 10
1000.9741337908
 20
2351.1088563917
 30
0.0
 11
981.2741337908
 21
2351.1088563917
 31
0.0
  0
LINE
  5
9D
330
80
100
AcDbEntity
  8
60743-BARRE
  6
Continuous
 62
     7
100
AcDbLine
 10
981.2741337908
 20
1837.1088563917
 30
0.0
 11
1023.9741337908
 21
1837.1088563917
 31
0.0
  0
LINE
  5
9E
330
80
100
AcDbEntity
  8
60743-BARRE
  6
Continuous
 62
     7
100
AcDbLine
 10
1023.9741337908
 20
1871.1088563917
 30
0.0
 11
981.2741337908
 21
1871.1088563917
 31
0.0
  0
LINE
  5
9F
330
80
100
AcDbEntity
  8
60743-BARRE
  6
Continuous
 62
     7
100
AcDbLine
 10
1252.9741337908
 20
1599.4088563917
 30
0.0
 11
1252.9741337908
 21
1642.1088563917
 31
0.0
  0
LINE
  5
A0
330
80
100
AcDbEntity
  8
60743-BARRE
  6
Continuous
 62
     7
100
AcDbLine
 10
1218.9741337908
 20
1642.1088563917
 30
0.0
 11
1218.9741337908
 21
1599.4088563917
 31
0.0
  0
LINE
  5
A2
330
80
100
AcDbEntity
  8
60338-ROSACE
  6
Continuous
 62
     7
100
AcDbLine
 10
1680.5741337908
 20
1599.4088563917
 30
0.0
 11
1751.3741337908
 21
1599.4088563917
 31
0.0
  0
LINE
  5
A3
330
80
100
AcDbEntity
  8
60338-ROSACE
  6
Continuous
 62
     7
100
AcDbLine
 10
1677.9741337908
 20
1596.8088563917
 30
0.0
 11
1753.9741337908
 21
1596.8088563917
 31
0.0
  0
LINE
  5
A4
330
80
100
AcDbEntity
  8
60338-ROSACE
  6
Continuous
 62
     7
100
AcDbLine
 10
1677.9741337908
 20
1584.1088563917
 30
0.0
 11
1753.9741337908
 21
1584.1088563917
 31
0.0
  0
ARC
  5
A5
330
80
100
AcDbEntity
  8
60338-ROSACE
  6
Continuous
 62
     7
100
AcDbCircle
 10
1680.5741337908
 20
1596.8088563917
 30
0.0
 40
2.600000000000001
100
AcDbArc
 50
90.0
 51
180.0
  0
ARC
  5
A6
330
80
100
AcDbEntity
  8
60338-ROSACE
  6
Continuous
 62
     7
100
AcDbCircle
 10
1751.3741337908
 20
1596.8088563917
 30
0.0
 40
2.600000000000047
100
AcDbArc
 50
0.0
 51
90.0
  0
LINE
  5
A7
330
80
100
AcDbEntity
  8
60338-ROSACE
  6
Continuous
 62
     7
100
AcDbLine
 10
1677.9741337908
 20
1596.8088563917
 30
0.0
 11
1677.9741337908
 21
1584.1088563917
 31
0.0
  0
LINE
  5
A8
330
80
100
AcDbEntity
  8
60338-ROSACE
  6
Continuous
 62
     7
100
AcDbLine
 10
1753.9741337908
 20
1584.1088563917
 30
0.0
 11
1753.9741337908
 21
1596.8088563917
 31
0.0
  0
LINE
  5
A9
330
80
100
AcDbEntity
  8
60338-ROSACE
  6
Continuous
 62
     7
100
AcDbLine
 10
1200.5741337908
 20
1599.4088563917
 30
0.0
 11
1271.3741337908
 21
1599.4088563917
 31
0.0
  0
LINE
  5
AA
330
80
100
AcDbEntity
  8
60338-ROSACE
  6
Continuous
 62
     7
100
AcDbLine
 10
1197.9741337908
 20
1596.8088563917
 30
0.0
 11
1273.9741337908
 21
1596.8088563917
 31
0.0
  0
LINE
  5
AB
330
80
100
AcDbEntity
  8
60338-ROSACE
  6
Continuous
 62
     7
100
AcDbLine
 10
1197.9741337908
 20
1584.1088563917
 30
0.0
 11
1273.9741337908
 21
1584.1088563917
 31
0.0
  0
ARC
  5
AC
330
80
100
AcDbEntity
  8
60338-ROSACE
  6
Continuous
 62
     7
100
AcDbCircle
 10
1200.5741337908
 20
1596.8088563917
 30
0.0
 40
2.600000000000002
100
AcDbArc
 50
90.0
 51
180.0
  0
ARC
  5
AD
330
80
100
AcDbEntity
  8
60338-ROSACE
  6
Continuous
 62
     7
100
AcDbCircle
 10
1271.3741337908
 20
1596.8088563917
 30
0.0
 40
2.599999999999991
100
AcDbArc
 50
0.0
 51
90.0
  0
LINE
  5
AE
330
80
100
AcDbEntity
  8
60338-ROSACE
  6
Continuous
 62
     7
100
AcDbLine
 10
1197.9741337908
 20
1596.8088563917
 30
0.0
 11
1197.9741337908
 21
1584.1088563917
 31
0.0
  0
LINE
  5
AF
330
80
100
AcDbEntity
  8
60338-ROSACE
  6
Continuous
 62
     7
100
AcDbLine
 10
1273.9741337908
 20
1584.1088563917
 30
0.0
 11
1273.9741337908
 21
1596.8088563917
 31
0.0
  0
LINE
  5
B0
330
80
100
AcDbEntity
  8
60338-ROSACE
  6
Continuous
 62
     7
100
AcDbLine
 10
981.2741337908
 20
2298.7088563917
 30
0.0
 11
981.2741337908
 21
2369.5088563917
 31
0.0
  0
LINE
  5
B1
330
80
100
AcDbEntity
  8
60338-ROSACE
  6
Continuous
 62
     7
100
AcDbLine
 10
978.6741337908
 20
2296.1088563917
 30
0.0
 11
978.6741337908
 21
2372.1088563917
 31
0.0
  0
LINE
  5
B2
330
80
100
AcDbEntity
  8
60338-ROSACE
  6
Continuous
 62
     7
100
AcDbLine
 10
965.9741337908
 20
2296.1088563917
 30
0.0
 11
965.9741337908
 21
2372.1088563917
 31
0.0
  0
ARC
  5
B3
330
80
100
AcDbEntity
  8
60338-ROSACE
  6
Continuous
 62
     7
100
AcDbCircle
 10
978.6741337908
 20
2369.5088563917
 30
0.0
 40
2.600000000000002
100
AcDbArc
 50
0.0
 51
90.0
  0
ARC
  5
B4
330
80
100
AcDbEntity
  8
60338-ROSACE
  6
Continuous
 62
     7
100
AcDbCircle
 10
978.6741337908
 20
2298.7088563917
 30
0.0
 40
2.600000000000047
100
AcDbArc
 50
270.0
 51
0.0
  0
LINE
  5
B5
330
80
100
AcDbEntity
  8
60338-ROSACE
  6
Continuous
 62
     7
100
AcDbLine
 10
978.6741337908
 20
2372.1088563917
 30
0.0
 11
965.9741337908
 21
2372.1088563917
 31
0.0
  0
LINE
  5
B6
330
80
100
AcDbEntity
  8
60338-ROSACE
  6
Continuous
 62
     7
100
AcDbLine
 10
965.9741337908
 20
2296.1088563917
 30
0.0
 11
978.6741337908
 21
2296.1088563917
 31
0.0
  0
LINE
  5
B7
330
80
100
AcDbEntity
  8
60338-ROSACE
  6
Continuous
 62
     7
100
AcDbLine
 10
981.2741337908
 20
1889.5088563917
 30
0.0
 11
981.2741337908
 21
1818.7088563917
 31
0.0
  0
LINE
  5
B8
330
80
100
AcDbEntity
  8
60338-ROSACE
  6
Continuous
 62
     7
100
AcDbLine
 10
978.6741337908
 20
1892.1088563917
 30
0.0
 11
978.6741337908
 21
1816.1088563917
 31
0.0
  0
LINE
  5
B9
330
80
100
AcDbEntity
  8
60338-ROSACE
  6
Continuous
 62
     7
100
AcDbLine
 10
965.9741337908
 20
1892.1088563917
 30
0.0
 11
965.9741337908
 21
1816.1088563917
 31
0.0
  0
ARC
  5
BA
330
80
100
AcDbEntity
  8
60338-ROSACE
  6
Continuous
 62
     7
100
AcDbCircle
 10
978.6741337908
 20
1889.5088563917
 30
0.0
 40
2.600000000000001
100
AcDbArc
 50
0.0
 51
90.0
  0
ARC
  5
BB
330
80
100
AcDbEntity
  8
60338-ROSACE
  6
Continuous
 62
     7
100
AcDbCircle
 10
978.6741337908
 20
1818.7088563917
 30
0.0
 40
2.600000000000019
100
AcDbArc
 50
270.0
 51
0.0
  0
LINE
  5
BC
330
80
100
AcDbEntity
  8
60338-ROSACE
  6
Continuous
 62
     7
100
AcDbLine
 10
978.6741337908
 20
1892.1088563917
 30
0.0
 11
965.9741337908
 21
1892.1088563917
 31
0.0
  0
LINE
  5
BD
330
80
100
AcDbEntity
  8
60338-ROSACE
  6
Continuous
 62
     7
100
AcDbLine
 10
965.9741337908
 20
1816.1088563917
 30
0.0
 11
978.6741337908
 21
1816.1088563917
 31
0.0
  0
ENDBLK
  5
BF
330
80
100
AcDbEntity
  8
0
100
AcDbBlockEnd
  0
BLOCK
  5
FD
330
C0
100
AcDbEntity
  8
0
100
AcDbBlockBegin
  2
SE1
 70
     0
 10
0.0
 20
0.0
 30
0.0
  3
SE1
  1

  0
ARC
  5
C2
330
C0
100
AcDbEntity
  8
60743-BARRE
  6
Continuous
 62
     7
100
AcDbCircle
 10
1715.9741337908
 20
1305.5976742466
 30
0.0
 40
17.00000000000001
100
AcDbArc
 50
270.0
 51
0.0
  0
ARC
  5
C3
330
C0
100
AcDbEntity
  8
60743-BARRE
  6
Continuous
 62
     7
100
AcDbCircle
 10
1715.9741337908
 20
1305.5976742466
 30
0.0
 40
17.00000000000001
100
AcDbArc
 50
0.0
 51
90.0
  0
LINE
  5
C4
330
C0
100
AcDbEntity
  8
60743-BARRE
  6
Continuous
 62
     7
100
AcDbLine
 10
1675.9741337908
 20
1322.5976742466
 30
0.0
 11
1675.9741337908
 21
1288.5976742466
 31
0.0
  0
LINE
  5
C5
330
C0
100
AcDbEntity
  8
60743-BARRE
  6
Continuous
 62
     7
100
AcDbLine
 10
1105.9741337908
 20
1322.5976742466
 30
0.0
 11
1105.9741337908
 21
1288.5976742466
 31
0.0
  0
ARC
  5
C6
330
C0
100
AcDbEntity
  8
60743-BARRE
  6
Continuous
 62
     7
100
AcDbCircle
 10
1040.9741337908
 20
1305.5976742466
 30
0.0
 40
17.00000000000001
100
AcDbArc
 50
270.0
 51
0.0
  0
ARC
  5
C7
330
C0
100
AcDbEntity
  8
60743-BARRE
  6
Continuous
 62
     7
100
AcDbCircle
 10
1040.9741337908
 20
1305.5976742466
 30
0.0
 40
17.00000000000001
100
AcDbArc
 50
0.0
 51
90.0
  0
LINE
  5
C8
330
C0
100
AcDbEntity
  8
60743-BARRE
  6
Continuous
 62
     7
100
AcDbLine
 10
1000.9741337908
 20
1288.5976742466
 30
0.0
 11
1000.9741337908
 21
1322.5976742466
 31
0.0
  0
LINE
  5
C9
330
C0
100
AcDbEntity
  8
60743-BARRE
  6
Continuous
 62
     7
100
AcDbLine
 10
1715.9741337908
 20
1322.5976742466
 30
0.0
 11
1675.9741337908
 21
1322.5976742466
 31
0.0
  0
LINE
  5
CA
330
C0
100
AcDbEntity
  8
60743-BARRE
  6
Continuous
 62
     7
100
AcDbLine
 10
1675.9741337908
 20
1288.5976742466
 30
0.0
 11
1715.9741337908
 21
1288.5976742466
 31
0.0
  0
LINE
  5
CB
330
C0
100
AcDbEntity
  8
60743-BARRE
  6
Continuous
 62
     7
100
AcDbLine
 10
1235.9741337908
 20
1288.5976742466
 30
0.0
 11
1675.9741337908
 21
1288.5976742466
 31
0.0
  0
LINE
  5
CC
330
C0
100
AcDbEntity
  8
60743-BARRE
  6
Continuous
 62
     7
100
AcDbLine
 10
1105.9741337908
 20
1288.5976742466
 30
0.0
 11
1235.9741337908
 21
1288.5976742466
 31
0.0
  0
LINE
  5
CD
330
C0
100
AcDbEntity
  8
60743-BARRE
  6
Continuous
 62
     7
100
AcDbLine
 10
1235.9741337908
 20
1322.5976742466
 30
0.0
 11
1105.9741337908
 21
1322.5976742466
 31
0.0
  0
LINE
  5
CE
330
C0
100
AcDbEntity
  8
60743-BARRE
  6
Continuous
 62
     7
100
AcDbLine
 10
1675.9741337908
 20
1322.5976742466
 30
0.0
 11
1235.9741337908
 21
1322.5976742466
 31
0.0
  0
LINE
  5
CF
330
C0
100
AcDbEntity
  8
60743-BARRE
  6
Continuous
 62
     7
100
AcDbLine
 10
1040.9741337908
 20
1288.5976742466
 30
0.0
 11
1105.9741337908
 21
1288.5976742466
 31
0.0
  0
LINE
  5
D0
330
C0
100
AcDbEntity
  8
60743-BARRE
  6
Continuous
 62
     7
100
AcDbLine
 10
1105.9741337908
 20
1322.5976742466
 30
0.0
 11
1040.9741337908
 21
1322.5976742466
 31
0.0
  0
LINE
  5
D1
330
C0
100
AcDbEntity
  8
60743-BARRE
  6
Continuous
 62
     7
100
AcDbLine
 10
1040.9741337908
 20
1322.5976742466
 30
0.0
 11
1000.9741337908
 21
1322.5976742466
 31
0.0
  0
LINE
  5
D2
330
C0
100
AcDbEntity
  8
60743-BARRE
  6
Continuous
 62
     7
100
AcDbLine
 10
1000.9741337908
 20
1288.5976742466
 30
0.0
 11
1040.9741337908
 21
1288.5976742466
 31
0.0
  0
LINE
  5
D3
330
C0
100
AcDbEntity
  8
60743-BARRE
  6
Continuous
 62
     7
100
AcDbLine
 10
981.2741337908
 20
1288.5976742466
 30
0.0
 11
1000.9741337908
 21
1288.5976742466
 31
0.0
  0
LINE
  5
D4
330
C0
100
AcDbEntity
  8
60743-BARRE
  6
Continuous
 62
     7
100
AcDbLine
 10
1000.9741337908
 20
1322.5976742466
 30
0.0
 11
981.2741337908
 21
1322.5976742466
 31
0.0
  0
ARC
  5
D5
330
C0
100
AcDbEntity
  8
60338-ROSACE
  6
Continuous
 62
     7
100
AcDbCircle
 10
1715.9741337908
 20
1305.5976742466
 30
0.0
 40
17.5
100
AcDbArc
 50
0.0
 51
103.7291326754
  0
ARC
  5
D6
330
C0
100
AcDbEntity
  8
60338-ROSACE
  6
Continuous
 62
     7
100
AcDbCircle
 10
1715.9741337908
 20
1305.5976742466
 30
0.0
 40
17.5
100
AcDbArc
 50
256.2708673246
 51
0.0
  0
ARC
  5
D7
330
C0
100
AcDbEntity
  8
60338-ROSACE
  6
Continuous
 62
     7
100
AcDbCircle
 10
1715.9741337908
 20
1305.5976742466
 30
0.0
 40
35.4
100
AcDbArc
 50
0.0
 51
151.2998372693
  0
ARC
  5
D8
330
C0
100
AcDbEntity
  8
60338-ROSACE
  6
Continuous
 62
     7
100
AcDbCircle
 10
1715.9741337908
 20
1305.5976742466
 30
0.0
 40
35.4
100
AcDbArc
 50
208.7001627307
 51
0.0
  0
ARC
  5
D9
330
C0
100
AcDbEntity
  8
60338-ROSACE
  6
Continuous
 62
     7
100
AcDbCircle
 10
1715.9741337908
 20
1305.5976742466
 30
0.0
 40
38.00000000000001
100
AcDbArc
 50
0.0
 51
153.425030481
  0
ARC
  5
DA
330
C0
100
AcDbEntity
  8
60338-ROSACE
  6
Continuous
 62
     7
100
AcDbCircle
 10
1715.9741337908
 20
1305.5976742466
 30
0.0
 40
38.00000000000001
100
AcDbArc
 50
206.574969519
 51
0.0
  0
ARC
  5
DB
330
C0
100
AcDbEntity
  8
60338-ROSACE
  6
Continuous
 62
     7
100
AcDbCircle
 10
1715.9741337908
 20
1305.5976742466
 30
0.0
 40
17.19999999999999
100
AcDbArc
 50
279.8163386
 51
308.8163386
  0
LINE
  5
DC
330
C0
100
AcDbEntity
  8
60338-ROSACE
  6
Continuous
 62
     7
100
AcDbLine
 10
1718.9065702788
 20
1288.6494939241
 30
0.0
 11
1718.9577174268
 21
1288.3538861278
 31
0.0
  0
LINE
  5
DD
330
C0
100
AcDbEntity
  8
60338-ROSACE
  6
Continuous
 62
     7
100
AcDbLine
 10
1726.7555413991
 20
1292.1961351565
 30
0.0
 11
1726.9435892063
 21
1291.9623873817
 31
0.0
  0
ARC
  5
DE
330
C0
100
AcDbEntity
  8
60338-ROSACE
  6
Continuous
 62
     7
100
AcDbCircle
 10
1715.9741337908
 20
1305.5976742466
 30
0.0
 40
17.19999999999999
100
AcDbArc
 50
261.2539867168
 51
263.8163386
  0
LINE
  5
DF
330
C0
100
AcDbEntity
  8
60338-ROSACE
  6
Continuous
 62
     7
100
AcDbLine
 10
1714.1214210525
 20
1288.497748647
 30
0.0
 11
1714.0891062954
 21
1288.1994941308
 31
0.0
  0
LINE
  5
E0
330
C0
100
AcDbEntity
  8
60338-ROSACE
  6
Continuous
 62
     7
100
AcDbLine
 10
1713.0327312716
 20
1322.5976742466
 30
0.0
 11
1712.9905501547
 21
1322.8414623654
 31
0.0
  0
ARC
  5
E1
330
C0
100
AcDbEntity
  8
60338-ROSACE
  6
Continuous
 62
     7
100
AcDbCircle
 10
1715.9741337908
 20
1305.5976742466
 30
0.0
 40
17.19999999999999
100
AcDbArc
 50
54.8163386
 51
83.8163386
  0
LINE
  5
E2
330
C0
100
AcDbEntity
  8
60338-ROSACE
  6
Continuous
 62
     7
100
AcDbLine
 10
1725.8847612995
 20
1319.6553932075
 30
0.0
 11
1726.0576210817
 21
1319.90058598
 31
0.0
  0
LINE
  5
E3
330
C0
100
AcDbEntity
  8
60338-ROSACE
  6
Continuous
 62
     7
100
AcDbLine
 10
1717.8268465291
 20
1322.6975998461
 30
0.0
 11
1717.8591612862
 21
1322.9958543624
 31
0.0
  0
ARC
  5
E4
330
C0
100
AcDbEntity
  8
60338-ROSACE
  6
Continuous
 62
     7
100
AcDbCircle
 10
1715.9741337908
 20
1305.5976742466
 30
0.0
 40
17.2
100
AcDbArc
 50
9.8163386
 51
38.8163386
  0
LINE
  5
E5
330
C0
100
AcDbEntity
  8
60338-ROSACE
  6
Continuous
 62
     7
100
AcDbLine
 10
1732.9223141133
 20
1308.5301107346
 30
0.0
 11
1733.2179219096
 21
1308.5812578826
 31
0.0
  0
LINE
  5
E6
330
C0
100
AcDbEntity
  8
60338-ROSACE
  6
Continuous
 62
     7
100
AcDbLine
 10
1729.3756728808
 20
1316.3790818549
 30
0.0
 11
1729.6094206557
 21
1316.5671296621
 31
0.0
  0
ARC
  5
E7
330
C0
100
AcDbEntity
  8
60338-ROSACE
  6
Continuous
 62
     7
100
AcDbCircle
 10
1715.9741337908
 20
1305.5976742466
 30
0.0
 40
17.2
100
AcDbArc
 50
324.8163386
 51
353.8163386
  0
LINE
  5
E8
330
C0
100
AcDbEntity
  8
60338-ROSACE
  6
Continuous
 62
     7
100
AcDbLine
 10
1730.0318527517
 20
1295.6870467378
 30
0.0
 11
1730.2770455242
 21
1295.5141869557
 31
0.0
  0
LINE
  5
E9
330
C0
100
AcDbEntity
  8
60338-ROSACE
  6
Continuous
 62
     7
100
AcDbLine
 10
1733.0740593903
 20
1303.7449615083
 30
0.0
 11
1733.3723139066
 21
1303.7126467512
 31
0.0
  0
ARC
  5
EA
330
C0
100
AcDbEntity
  8
60338-ROSACE
  6
Continuous
 62
     7
100
AcDbCircle
 10
1235.9741337908
 20
1305.5976742466
 30
0.0
 40
17.5
100
AcDbArc
 50
76.2708673246
 51
103.7291326754
  0
ARC
  5
EB
330
C0
100
AcDbEntity
  8
60338-ROSACE
  6
Continuous
 62
     7
100
AcDbCircle
 10
1235.9741337908
 20
1305.5976742466
 30
0.0
 40
17.5
100
AcDbArc
 50
256.2708673246
 51
283.7291326754
  0
ARC
  5
EC
330
C0
100
AcDbEntity
  8
60338-ROSACE
  6
Continuous
 62
     7
100
AcDbCircle
 10
1235.9741337908
 20
1305.5976742466
 30
0.0
 40
35.4
100
AcDbArc
 50
28.7001627307
 51
151.2998372693
  0
ARC
  5
ED
330
C0
100
AcDbEntity
  8
60338-ROSACE
  6
Continuous
 62
     7
100
AcDbCircle
 10
1235.9741337908
 20
1305.5976742466
 30
0.0
 40
35.4
100
AcDbArc
 50
208.7001627307
 51
331.2998372693
  0
ARC
  5
EE
330
C0
100
AcDbEntity
  8
60338-ROSACE
  6
Continuous
 62
     7
100
AcDbCircle
 10
1235.9741337908
 20
1305.5976742466
 30
0.0
 40
38.00000000000001
100
AcDbArc
 50
26.574969519
 51
153.425030481
  0
ARC
  5
EF
330
C0
100
AcDbEntity
  8
60338-ROSACE
  6
Continuous
 62
     7
100
AcDbCircle
 10
1235.9741337908
 20
1305.5976742466
 30
0.0
 40
38.00000000000001
100
AcDbArc
 50
206.574969519
 51
333.425030481
  0
LINE
  5
F0
330
C0
100
AcDbEntity
  8
60338-ROSACE
  6
Continuous
 62
     7
100
AcDbLine
 10
1238.91553631
 20
1288.5976742466
 30
0.0
 11
1238.9577174268
 21
1288.3538861278
 31
0.0
  0
ARC
  5
F1
330
C0
100
AcDbEntity
  8
60338-ROSACE
  6
Continuous
 62
     7
100
AcDbCircle
 10
1235.9741337908
 20
1305.5976742466
 30
0.0
 40
17.2
100
AcDbArc
 50
261.2539867168
 51
263.8163386
  0
LINE
  5
F2
330
C0
100
AcDbEntity
  8
60338-ROSACE
  6
Continuous
 62
     7
100
AcDbLine
 10
1234.1214210525
 20
1288.497748647
 30
0.0
 11
1234.0891062954
 21
1288.1994941308
 31
0.0
  0
LINE
  5
F3
330
C0
100
AcDbEntity
  8
60338-ROSACE
  6
Continuous
 62
     7
100
AcDbLine
 10
1233.0327312716
 20
1322.5976742466
 30
0.0
 11
1232.9905501547
 21
1322.8414623654
 31
0.0
  0
ARC
  5
F4
330
C0
100
AcDbEntity
  8
60338-ROSACE
  6
Continuous
 62
     7
100
AcDbCircle
 10
1235.9741337908
 20
1305.5976742466
 30
0.0
 40
17.2
100
AcDbArc
 50
81.2539867168
 51
83.8163386
  0
LINE
  5
F5
330
C0
100
AcDbEntity
  8
60338-ROSACE
  6
Continuous
 62
     7
100
AcDbLine
 10
1237.8268465291
 20
1322.6975998461
 30
0.0
 11
1237.8591612862
 21
1322.9958543624
 31
0.0
  0
LINE
  5
F6
330
C0
100
AcDbEntity
  8
60338-ROSACE
  6
Continuous
 62
     7
100
AcDbLine
 10
981.2741337908
 20
1270.1976742466
 30
0.0
 11
981.2741337908
 21
1340.9976742466
 31
0.0
  0
LINE
  5
F7
330
C0
100
AcDbEntity
  8
60338-ROSACE
  6
Continuous
 62
     7
100
AcDbLine
 10
978.6741337908
 20
1267.5976742466
 30
0.0
 11
978.6741337908
 21
1343.5976742466
 31
0.0
  0
LINE
  5
F8
330
C0
100
AcDbEntity
  8
60338-ROSACE
  6
Continuous
 62
     7
100
AcDbLine
 10
965.9741337908
 20
1267.5976742466
 30
0.0
 11
965.9741337908
 21
1343.5976742466
 31
0.0
  0
ARC
  5
F9
330
C0
100
AcDbEntity
  8
60338-ROSACE
  6
Continuous
 62
     7
100
AcDbCircle
 10
978.6741337908
 20
1340.9976742466
 30
0.0
 40
2.600000000000002
100
AcDbArc
 50
0.0
 51
90.0
  0
ARC
  5
FA
330
C0
100
AcDbEntity
  8
60338-ROSACE
  6
Continuous
 62
     7
100
AcDbCircle
 10
978.6741337908
 20
1270.1976742466
 30
0.0
 40
2.600000000000005
100
AcDbArc
 50
270.0
 51
0.0
  0
LINE
  5
FB
330
C0
100
AcDbEntity
  8
60338-ROSACE
  6
Continuous
 62
     7
100
AcDbLine
 10
978.6741337908
 20
1343.5976742466
 30
0.0
 11
965.9741337908
 21
1343.5976742466
 31
0.0
  0
LINE
  5
FC
330
C0
100
AcDbEntity
  8
60338-ROSACE
  6
Continuous
 62
     7
100
AcDbLine
 10
965.9741337908
 20
1267.5976742466
 30
0.0
 11
978.6741337908
 21
1267.5976742466
 31
0.0
  0
ENDBLK
  5
FE
330
C0
100
AcDbEntity
  8
0
100
AcDbBlockEnd
  0
BLOCK
  5
15D
330
FF
100
AcDbEntity
  8
0
100
AcDbBlockBegin
  2
SE2
 70
     0
 10
0.0
 20
0.0
 30
0.0
  3
SE2
  1

  0
ELLIPSE
  5
101
330
FF
100
AcDbEntity
  8
60743-BARRE
  6
Continuous
 62
     7
100
AcDbEllipse
 10
2616.0970760189
 20
152.2491796505
 30
0.0
 11
8.499999889701309
 21
-14.72243192801652
 31
0.0
210
0.0
220
0.0
230
1.0
 40
0.5773502742
 41
6.282965900968745
 42
6.283185307179586
  0
ELLIPSE
  5
102
330
FF
100
AcDbEntity
  8
60743-BARRE
  6
Continuous
 62
     7
100
AcDbEllipse
 10
2616.0970760189
 20
152.2491796505
 30
0.0
 11
8.499999889701309
 21
-14.72243192801652
 31
0.0
210
0.0
220
0.0
230
1.0
 40
0.5773502742
 41
0.0
 42
3.137617845183546
  0
ELLIPSE
  5
103
330
FF
100
AcDbEntity
  8
60743-BARRE
  6
Continuous
 62
     7
100
AcDbEllipse
 10
2559.528533524
 20
152.2491796505
 30
0.0
 11
-8.499999889701259
 21
-14.72243192801649
 31
0.0
210
0.0
220
0.0
230
1.0
 40
0.5773502742
 41
0.0
 42
0.0001917369356507
  0
ELLIPSE
  5
104
330
FF
100
AcDbEntity
  8
60743-BARRE
  6
Continuous
 62
     7
100
AcDbEllipse
 10
2559.528533524
 20
152.2491796505
 30
0.0
 11
-8.499999889701259
 21
-14.72243192801649
 31
0.0
210
0.0
220
0.0
230
1.0
 40
0.5773502742
 41
3.145071370630641
 42
6.283185307179586
  0
ELLIPSE
  5
105
330
FF
100
AcDbEntity
  8
60743-BARRE
  6
Continuous
 62
     7
100
AcDbEllipse
 10
2156.4776682476
 20
384.9507011887
 30
0.0
 11
-8.499999889701309
 21
-14.72243192801643
 31
0.0
210
0.0
220
0.0
230
1.0
 40
0.5773502742
 41
3.14159265358978
 42
6.283185307179586
  0
ELLIPSE
  5
106
330
FF
100
AcDbEntity
  8
60743-BARRE
  6
Continuous
 62
     7
100
AcDbEllipse
 10
2064.5537866934
 20
384.9507011887
 30
0.0
 11
8.499999889701231
 21
-14.7224319280165
 31
0.0
210
0.0
220
0.0
230
1.0
 40
0.5773502742
 41
0.0000000000000211
 42
3.141592653589793
  0
ELLIPSE
  5
107
330
FF
100
AcDbEntity
  8
60743-BARRE
  6
Continuous
 62
     7
100
AcDbEllipse
 10
1661.502921417
 20
152.2491796505
 30
0.0
 11
8.499999889701259
 21
-14.72243192801648
 31
0.0
210
0.0
220
0.0
230
1.0
 40
0.5773502742
 41
6.282965900937373
 42
6.283185307179586
  0
ELLIPSE
  5
108
330
FF
100
AcDbEntity
  8
60743-BARRE
  6
Continuous
 62
     7
100
AcDbEllipse
 10
1661.502921417
 20
152.2491796505
 30
0.0
 11
8.499999889701259
 21
-14.72243192801648
 31
0.0
210
0.0
220
0.0
230
1.0
 40
0.5773502742
 41
0.0
 42
3.137617845182904
  0
ELLIPSE
  5
109
330
FF
100
AcDbEntity
  8
60743-BARRE
  6
Continuous
 62
     7
100
AcDbEllipse
 10
1604.9343789221
 20
152.2491796505
 30
0.0
 11
-8.499999889701195
 21
-14.7224319280165
 31
0.0
210
0.0
220
0.0
230
1.0
 40
0.5773502742
 41
0.0
 42
0.0001917368985925
  0
ELLIPSE
  5
10A
330
FF
100
AcDbEntity
  8
60743-BARRE
  6
Continuous
 62
     7
100
AcDbEllipse
 10
1604.9343789221
 20
152.2491796505
 30
0.0
 11
-8.499999889701195
 21
-14.7224319280165
 31
0.0
210
0.0
220
0.0
230
1.0
 40
0.5773502742
 41
3.145071370627544
 42
6.283185307179558
  0
LINE
  5
10B
330
FF
100
AcDbEntity
  8
60743-BARRE
  6
Continuous
 62
     7
100
AcDbLine
 10
1972.6299051391
 20
345.7588663425
 30
0.0
 11
1972.6299051391
 21
351.5083334142
 31
0.0
  0
ELLIPSE
  5
10C
330
FF
100
AcDbEntity
  8
60743-BARRE
  6
Continuous
 62
     7
100
AcDbEllipse
 10
1972.6299051391
 20
331.8784243467
 30
0.0
 11
24.0416305603427
 21
1.023486850826316E-13
 31
0.0
210
0.0
220
0.0
230
1.0
 40
0.5773502742
 41
1.570796326794894
 42
2.35619447721603
  0
ELLIPSE
  5
10D
330
FF
100
AcDbEntity
  8
60743-BARRE
  6
Continuous
 62
     7
100
AcDbEllipse
 10
2248.4015498019
 20
331.8784243467
 30
0.0
 11
-24.04163056034266
 21
-3.382710778154774E-14
 31
0.0
210
0.0
220
0.0
230
1.0
 40
0.5773502742
 41
3.926990829963565
 42
4.712388980384689
  0
LINE
  5
10E
330
FF
100
AcDbEntity
  8
60743-BARRE
  6
Continuous
 62
     7
100
AcDbLine
 10
2248.4015498019
 20
351.5083334142
 30
0.0
 11
2248.4015498019
 21
345.7588663425
 31
0.0
  0
LINE
  5
10F
330
FF
100
AcDbEntity
  8
60743-BARRE
  6
Continuous
 62
     7
100
AcDbLine
 10
2624.5970759086
 20
137.5267477225
 30
0.0
 11
2640.6037354906
 21
146.7681967811
 31
0.0
  0
LINE
  5
110
330
FF
100
AcDbEntity
  8
60743-BARRE
  6
Continuous
 62
     7
100
AcDbLine
 10
2623.6037357112
 20
176.2130606371
 30
0.0
 11
2607.5970761292
 21
166.9716115785
 31
0.0
  0
ARC
  5
111
330
FF
100
AcDbEntity
  8
60743-BARRE
  6
Continuous
 62
     7
100
AcDbCircle
 10
2587.8128047714
 20
208.4888997645
 30
0.0
 40
45.99024474253844
100
AcDbArc
 50
244.5207567897
 51
295.4792432103
  0
ARC
  5
112
330
FF
100
AcDbEntity
  8
60743-BARRE
  6
Continuous
 62
     7
100
AcDbCircle
 10
2587.8128047714
 20
208.0066649576
 30
0.0
 40
79.50158071740051
100
AcDbArc
 50
242.4394313057
 51
297.5605686943
  0
LINE
  5
113
330
FF
100
AcDbEntity
  8
60743-BARRE
  6
Continuous
 62
     7
100
AcDbLine
 10
2147.9776683579
 20
370.2282692607
 30
0.0
 11
2551.0285336343
 21
137.5267477225
 31
0.0
  0
LINE
  5
114
330
FF
100
AcDbEntity
  8
60743-BARRE
  6
Continuous
 62
     7
100
AcDbLine
 10
2248.4015498019
 20
351.5083334142
 30
0.0
 11
2164.9776681373
 21
399.6731331167
 31
0.0
  0
LINE
  5
115
330
FF
100
AcDbEntity
  8
60743-BARRE
  6
Continuous
 62
     7
100
AcDbLine
 10
2568.0285334137
 20
166.9716115785
 30
0.0
 11
2265.4015495813
 21
341.6933791352
 31
0.0
  0
SPLINE
  5
116
330
FF
100
AcDbEntity
  8
60743-BARRE
  6
Continuous
 62
     7
100
AcDbSpline
210
0.0
220
0.0
230
1.0
 70
     8
 71
     3
 72
    26
 73
    22
 74
     0
 42
0.000000001
 43
0.0000000001
 40
0.0
 40
0.0
 40
0.0
 40
0.0
 40
0.0308804571603273
 40
0.0871767479074525
 40
0.143379315026815
 40
0.1994735509553047
 40
0.2554067089540445
 40
0.3111703002743677
 40
0.3667834543332372
 40
0.4222814583664323
 40
0.4777086138199471
 40
0.5331141266061897
 40
0.588548139026053
 40
0.6440480526077875
 40
0.6996676158765179
 40
0.7554597740075202
 40
0.8114742141349941
 40
0.8677527965574736
 40
0.9243214117023532
 40
0.9811764941381402
 40
1.0
 40
1.0
 40
1.0
 40
1.0
 10
2164.977668137322
 20
399.6731331167401
 30
0.0
 10
2163.949142988165
 20
400.2529106693332
 30
0.0
 10
2161.475385992624
 20
401.6358444989849
 30
0.0
 10
2156.763125573977
 20
403.8958729705948
 30
0.0
 10
2151.106653882011
 20
406.1622928816382
 30
0.0
 10
2145.1581218632
 20
408.1267713168066
 30
0.0
 10
2139.016408955936
 20
409.7587867145253
 30
0.0
 10
2132.706019757188
 20
411.0619203274177
 30
0.0
 10
2126.269945337026
 20
412.0322197982008
 30
0.0
 10
2119.744813091544
 20
412.6688828668384
 30
0.0
 10
2113.168137744713
 20
412.9710145313625
 30
0.0
 10
2106.576782538615
 20
412.9383157046738
 30
0.0
 10
2100.008098657097
 20
412.5708779070245
 30
0.0
 10
2093.498961916235
 20
411.8692043006537
 30
0.0
 10
2087.086166872047
 20
410.8343219623325
 30
0.0
 10
2080.803883680519
 20
409.4664656970157
 30
0.0
 10
2074.69196100713
 20
407.7686292160519
 30
0.0
 10
2068.768106068767
 20
405.7326214245923
 30
0.0
 10
2063.134676512143
 20
403.3911948089155
 30
0.0
 10
2058.827363148348
 20
401.2442417463253
 30
0.0
 10
2056.678536033271
 20
400.0286116941858
 30
0.0
 10
2056.053786803669
 20
399.6731331167404
 30
0.0
  0
ARC
  5
117
330
FF
100
AcDbEntity
  8
60743-BARRE
  6
Continuous
 62
     7
100
AcDbCircle
 10
2110.5157274705
 20
293.7116816258
 30
0.0
 40
85.19498341063826
100
AcDbArc
 50
63.9139805133
 51
116.0860194867
  0
LINE
  5
118
330
FF
100
AcDbEntity
  8
60743-BARRE
  6
Continuous
 62
     7
100
AcDbLine
 10
1670.0029213067
 20
137.5267477225
 30
0.0
 11
2073.0537865831
 21
370.2282692607
 31
0.0
  0
LINE
  5
119
330
FF
100
AcDbEntity
  8
60743-BARRE
  6
Continuous
 62
     7
100
AcDbLine
 10
1955.6299053597
 20
341.6933791352
 30
0.0
 11
1653.0029215273
 21
166.9716115785
 31
0.0
  0
LINE
  5
11A
330
FF
100
AcDbEntity
  8
60743-BARRE
  6
Continuous
 62
     7
100
AcDbLine
 10
2056.0537868037
 20
399.6731331167
 30
0.0
 11
1972.6299051391
 21
351.5083334142
 31
0.0
  0
ARC
  5
11B
330
FF
100
AcDbEntity
  8
60743-BARRE
  6
Continuous
 62
     7
100
AcDbCircle
 10
1633.2186501696
 20
208.4888997645
 30
0.0
 40
45.99024474253853
100
AcDbArc
 50
244.5207567897
 51
295.4792432103
  0
ARC
  5
11C
330
FF
100
AcDbEntity
  8
60743-BARRE
  6
Continuous
 62
     7
100
AcDbCircle
 10
1633.2186501696
 20
208.0066649576
 30
0.0
 40
79.50158071739898
100
AcDbArc
 50
242.4394313057
 51
297.5605686943
  0
LINE
  5
11D
330
FF
100
AcDbEntity
  8
60743-BARRE
  6
Continuous
 62
     7
100
AcDbLine
 10
1580.4277194504
 20
146.7681967811
 30
0.0
 11
1596.4343790324
 21
137.5267477225
 31
0.0
  0
LINE
  5
11E
330
FF
100
AcDbEntity
  8
60743-BARRE
  6
Continuous
 62
     7
100
AcDbLine
 10
1613.4343788118
 20
166.9716115785
 30
0.0
 11
1597.4277192298
 21
176.2130606371
 31
0.0
  0
LINE
  5
11F
330
FF
100
AcDbEntity
  8
60743-BARRE
  6
Continuous
 62
     7
100
AcDbLine
 10
1919.8389744199
 20
342.7273728133
 30
0.0
 11
1938.6299046979
 21
331.8784243467
 31
0.0
  0
LINE
  5
120
330
FF
100
AcDbEntity
  8
60743-BARRE
  6
Continuous
 62
     7
100
AcDbLine
 10
1972.6299051391
 20
351.5083334142
 30
0.0
 11
1936.8389741993
 21
372.1722366693
 31
0.0
  0
LINE
  5
121
330
FF
100
AcDbEntity
  8
60743-BARRE
  6
Continuous
 62
     7
100
AcDbLine
 10
2284.1924807417
 20
372.1722366693
 30
0.0
 11
2248.4015498019
 21
351.5083334142
 31
0.0
  0
LINE
  5
122
330
FF
100
AcDbEntity
  8
60743-BARRE
  6
Continuous
 62
     7
100
AcDbLine
 10
2282.4015502431
 20
331.8784243467
 30
0.0
 11
2301.1924805211
 21
342.7273728133
 31
0.0
  0
ELLIPSE
  5
123
330
FF
100
AcDbEntity
  8
60338-ROSACE
  6
Continuous
 62
     7
100
AcDbEllipse
 10
2630.0270796083
 20
160.2916708335
 30
0.0
 11
-8.749999886457207
 21
15.15544463178168
 31
0.0
210
0.0
220
0.0
230
1.0
 40
0.5773502742
 41
0.0000000000000096
 42
0.2396185686290285
  0
ELLIPSE
  5
124
330
FF
100
AcDbEntity
  8
60338-ROSACE
  6
Continuous
 62
     7
100
AcDbEllipse
 10
2630.0270796083
 20
160.2916708335
 30
0.0
 11
-8.749999886457207
 21
15.15544463178168
 31
0.0
210
0.0
220
0.0
230
1.0
 40
0.5773502742
 41
2.90197408496068
 42
6.283185307179586
  0
ELLIPSE
  5
125
330
FF
100
AcDbEntity
  8
60338-ROSACE
  6
Continuous
 62
     7
100
AcDbEllipse
 10
2630.0270796083
 20
160.2916708335
 30
0.0
 11
-17.69999977031907
 21
30.65729942657548
 31
0.0
210
0.0
220
0.0
230
1.0
 40
0.5773502742
 41
0.0
 42
1.062877093449141
  0
ELLIPSE
  5
126
330
FF
100
AcDbEntity
  8
60338-ROSACE
  6
Continuous
 62
     7
100
AcDbEllipse
 10
2630.0270796083
 20
160.2916708335
 30
0.0
 11
-17.69999977031907
 21
30.65729942657548
 31
0.0
210
0.0
220
0.0
230
1.0
 40
0.5773502742
 41
2.074316051329166
 42
6.283185307179586
  0
ELLIPSE
  5
127
330
FF
100
AcDbEntity
  8
60338-ROSACE
  6
Continuous
 62
     7
100
AcDbEllipse
 10
2631.8655572393
 20
161.3531163703
 30
0.0
 11
-18.99999975344986
 21
32.90896548615446
 31
0.0
210
0.0
220
0.0
230
1.0
 40
0.5773502742
 41
0.0
 42
0.0174347533445587
  0
ELLIPSE
  5
128
330
FF
100
AcDbEntity
  8
60338-ROSACE
  6
Continuous
 62
     7
100
AcDbEllipse
 10
2631.8655572393
 20
161.3531163703
 30
0.0
 11
-18.99999975344986
 21
32.90896548615446
 31
0.0
210
0.0
220
0.0
230
1.0
 40
0.5773502742
 41
3.141592653589793
 42
3.170440165733305
  0
ELLIPSE
  5
129
330
FF
100
AcDbEntity
  8
60338-ROSACE
  6
Continuous
 62
     7
100
AcDbEllipse
 10
2631.8655572393
 20
161.3531163703
 30
0.0
 11
-18.99999975344986
 21
32.90896548615446
 31
0.0
210
0.0
220
0.0
230
1.0
 40
0.5773502742
 41
3.170440165733305
 42
6.283185307179586
  0
ELLIPSE
  5
12A
330
FF
100
AcDbEntity
  8
60338-ROSACE
  6
Continuous
 62
     7
100
AcDbEllipse
 10
2640.8458133604
 20
166.5378695695
 30
0.0
 11
-18.99999975344983
 21
32.90896548615448
 31
0.0
210
0.0
220
0.0
230
1.0
 40
0.5773502742
 41
3.141592653589793
 42
6.283185307179586
  0
LINE
  5
12B
330
FF
100
AcDbEntity
  8
60338-ROSACE
  6
Continuous
 62
     7
100
AcDbLine
 10
2639.6142160956
 20
145.7223913431
 30
0.0
 11
2639.5479335593
 21
145.6841231036
 31
0.0
  0
LINE
  5
12C
330
FF
100
AcDbEntity
  8
60338-ROSACE
  6
Continuous
 62
     7
100
AcDbLine
 10
2622.8264403057
 20
176.0693918212
 30
0.0
 11
2621.6605485569
 21
175.3962639178
 31
0.0
  0
ELLIPSE
  5
12D
330
FF
100
AcDbEntity
  8
60338-ROSACE
  6
Continuous
 62
     7
100
AcDbEllipse
 10
2631.7241358831
 20
161.2714667136
 30
0.0
 11
8.749999886489826
 21
-15.15544463183283
 31
0.0
210
0.0
220
0.0
230
1.0
 40
0.5773502742
 41
3.238719936350938
 42
3.305928364451127
  0
SPLINE
  5
12E
330
FF
100
AcDbEntity
  8
60338-ROSACE
  6
Continuous
 62
     7
100
AcDbSpline
210
0.0
220
0.0
230
1.0
 70
     8
 71
     3
 72
    17
 73
    13
 74
     0
 42
0.000000001
 43
0.0000000001
 40
0.0
 40
0.0
 40
0.0
 40
0.0
 40
0.010271063708028
 40
0.0461317190949406
 40
0.0820506644574878
 40
0.1184061971416552
 40
0.1553921531945309
 40
0.1929749958696483
 40
0.2309733063423443
 40
0.269180832745421
 40
0.3074358592465808
 40
0.3414879418965616
 40
0.3414879418965616
 40
0.3414879418965616
 40
0.3414879418965616
 10
2612.520071873488
 20
193.9919728910512
 30
0.0
 10
2612.264300274916
 20
193.8552701469565
 30
0.0
 10
2611.284223494615
 20
193.326203875149
 30
0.0
 10
2609.654492725303
 20
191.8449320661851
 30
0.0
 10
2607.854828634868
 20
189.6702533417805
 30
0.0
 10
2606.391460388057
 20
187.0700189520817
 30
0.0
 10
2605.283868253101
 20
184.1257637090812
 30
0.0
 10
2604.547789062251
 20
180.8505512740743
 30
0.0
 10
2604.198190929413
 20
177.2923655451315
 30
0.0
 10
2604.241726428028
 20
173.5048011519952
 30
0.0
 10
2604.66022285606
 20
169.6916807488997
 30
0.0
 10
2605.16122639302
 20
167.1303566605288
 30
0.0
 10
2605.445974851687
 20
165.9157107365115
 30
0.0
  0
SPLINE
  5
12F
330
FF
100
AcDbEntity
  8
60338-ROSACE
  6
Continuous
 62
     7
100
AcDbSpline
210
0.0
220
0.0
230
1.0
 70
     8
 71
     3
 72
    18
 73
    14
 74
     0
 42
0.000000001
 43
0.0000000001
 40
0.6414089428581857
 40
0.6414089428581857
 40
0.6414089428581857
 40
0.6414089428581857
 40
0.6503659662419408
 40
0.6886080510274837
 40
0.7269495776710461
 40
0.7653932713407391
 40
0.8039121916872775
 40
0.8423825933706659
 40
0.8806072680748146
 40
0.9183292951371878
 40
0.9553478534127025
 40
0.991675309204563
 40
1.0
 40
1.0
 40
1.0
 40
1.0
 10
2622.437086969109
 20
136.3521327112677
 30
0.0
 10
2622.675765149098
 20
136.1259928266557
 30
0.0
 10
2623.939824259936
 20
134.9511753669816
 30
0.0
 10
2626.287014199005
 20
132.9872476987351
 30
0.0
 10
2629.526270815882
 20
130.7440742544429
 30
0.0
 10
2632.81771291805
 20
128.9278938727703
 30
0.0
 10
2636.11937800015
 20
127.5725367779835
 30
0.0
 10
2639.38609698238
 20
126.7076509650774
 30
0.0
 10
2642.559877964452
 20
126.3583323284756
 30
0.0
 10
2645.598659689162
 20
126.5277967769574
 30
0.0
 10
2648.380443085486
 20
127.2334989144945
 30
0.0
 10
2650.397182712694
 20
128.0723393289069
 30
0.0
 10
2651.265719258691
 20
128.7180108263049
 30
0.0
 10
2651.454325103546
 20
128.8592204831101
 30
0.0
  0
LINE
  5
130
330
FF
100
AcDbEntity
  8
60338-ROSACE
  6
Continuous
 62
     7
100
AcDbLine
 10
2650.8655569928
 20
128.4441508841
 30
0.0
 11
2659.8458131139
 21
133.6289040833
 31
0.0
  0
LINE
  5
131
330
FF
100
AcDbEntity
  8
60338-ROSACE
  6
Continuous
 62
     7
100
AcDbLine
 10
2621.845813607
 20
199.4468350556
 30
0.0
 11
2612.8655574859
 21
194.2620818565
 31
0.0
  0
ELLIPSE
  5
132
330
FF
100
AcDbEntity
  8
60338-ROSACE
  6
Continuous
 62
     7
100
AcDbEllipse
 10
2290.6158246387
 20
356.2508468657
 30
0.0
 11
-8.749999886457195
 21
15.15544463178167
 31
0.0
210
0.0
220
0.0
230
1.0
 40
0.5773502742
 41
0.0
 42
0.2396185686291141
  0
ELLIPSE
  5
133
330
FF
100
AcDbEntity
  8
60338-ROSACE
  6
Continuous
 62
     7
100
AcDbEllipse
 10
2290.6158246387
 20
356.2508468657
 30
0.0
 11
-8.749999886457195
 21
15.15544463178167
 31
0.0
210
0.0
220
0.0
230
1.0
 40
0.5773502742
 41
2.901974084960729
 42
6.283185307179586
  0
ELLIPSE
  5
134
330
FF
100
AcDbEntity
  8
60338-ROSACE
  6
Continuous
 62
     7
100
AcDbEllipse
 10
2290.6158246387
 20
356.2508468657
 30
0.0
 11
-17.69999977031902
 21
30.65729942657547
 31
0.0
210
0.0
220
0.0
230
1.0
 40
0.5773502742
 41
0.0
 42
1.069883991285317
  0
ELLIPSE
  5
135
330
FF
100
AcDbEntity
  8
60338-ROSACE
  6
Continuous
 62
     7
100
AcDbEllipse
 10
2290.6158246387
 20
356.2508468657
 30
0.0
 11
-17.69999977031902
 21
30.65729942657547
 31
0.0
210
0.0
220
0.0
230
1.0
 40
0.5773502742
 41
2.071708662304487
 42
6.283185307179586
  0
ELLIPSE
  5
136
330
FF
100
AcDbEntity
  8
60338-ROSACE
  6
Continuous
 62
     7
100
AcDbEllipse
 10
2292.4543022698
 20
357.3122924025
 30
0.0
 11
-18.99999975344983
 21
32.90896548615449
 31
0.0
210
0.0
220
0.0
230
1.0
 40
0.5773502742
 41
0.0000000000000112
 42
0.017434753344495
  0
ELLIPSE
  5
137
330
FF
100
AcDbEntity
  8
60338-ROSACE
  6
Continuous
 62
     7
100
AcDbEllipse
 10
2292.4543022698
 20
357.3122924025
 30
0.0
 11
-18.99999975344983
 21
32.90896548615449
 31
0.0
210
0.0
220
0.0
230
1.0
 40
0.5773502742
 41
3.141592653589793
 42
3.170440165733067
  0
ELLIPSE
  5
138
330
FF
100
AcDbEntity
  8
60338-ROSACE
  6
Continuous
 62
     7
100
AcDbEllipse
 10
2292.4543022698
 20
357.3122924025
 30
0.0
 11
-18.99999975344983
 21
32.90896548615449
 31
0.0
210
0.0
220
0.0
230
1.0
 40
0.5773502742
 41
3.170440165733066
 42
6.283185307179586
  0
ELLIPSE
  5
139
330
FF
100
AcDbEntity
  8
60338-ROSACE
  6
Continuous
 62
     7
100
AcDbEllipse
 10
2301.4345583909
 20
362.4970456017
 30
0.0
 11
-18.99999975344985
 21
32.90896548615444
 31
0.0
210
0.0
220
0.0
230
1.0
 40
0.5773502742
 41
3.141592653589793
 42
6.283185307179586
  0
LINE
  5
13A
330
FF
100
AcDbEntity
  8
60338-ROSACE
  6
Continuous
 62
     7
100
AcDbLine
 10
2300.2029611261
 20
341.6815673753
 30
0.0
 11
2300.1366785898
 21
341.6432991358
 31
0.0
  0
LINE
  5
13B
330
FF
100
AcDbEntity
  8
60338-ROSACE
  6
Continuous
 62
     7
100
AcDbLine
 10
2283.4151853361
 20
372.0285678534
 30
0.0
 11
2282.2492935873
 21
371.35543995
 31
0.0
  0
ELLIPSE
  5
13C
330
FF
100
AcDbEntity
  8
60338-ROSACE
  6
Continuous
 62
     7
100
AcDbEllipse
 10
2292.3128809136
 20
357.2306427458
 30
0.0
 11
8.74999988645158
 21
-15.15544463177077
 31
0.0
210
0.0
220
0.0
230
1.0
 40
0.5773502742
 41
3.238719936347575
 42
3.305928364451507
  0
SPLINE
  5
13D
330
FF
100
AcDbEntity
  8
60338-ROSACE
  6
Continuous
 62
     7
100
AcDbSpline
210
0.0
220
0.0
230
1.0
 70
     8
 71
     3
 72
    17
 73
    13
 74
     0
 42
0.000000001
 43
0.0000000001
 40
0.0
 40
0.0
 40
0.0
 40
0.0
 40
0.0102710637080301
 40
0.0461317190949428
 40
0.0820506644574894
 40
0.1184061971416567
 40
0.1553921531945329
 40
0.1929749958696501
 40
0.2309733063423461
 40
0.2691808327454228
 40
0.3074358592465826
 40
0.3429433246386054
 40
0.3429433246386054
 40
0.3429433246386054
 40
0.3429433246386054
 10
2273.108816903945
 20
389.9511489232659
 30
0.0
 10
2272.853045305374
 20
389.8144461791711
 30
0.0
 10
2271.872968525073
 20
389.2853799073632
 30
0.0
 10
2270.24323775576
 20
387.8041080983998
 30
0.0
 10
2268.443573665326
 20
385.6294293739948
 30
0.0
 10
2266.980205418513
 20
383.0291949842967
 30
0.0
 10
2265.872613283559
 20
380.0849397412954
 30
0.0
 10
2265.136534092707
 20
376.809727306289
 30
0.0
 10
2264.786935959871
 20
373.2515415773454
 30
0.0
 10
2264.830471458485
 20
369.46397718421
 30
0.0
 10
2265.254479124699
 20
365.6006412635024
 30
0.0
 10
2265.770231659016
 20
362.9863981384327
 30
0.0
 10
2266.071497593662
 20
361.7190995475038
 30
0.0
  0
SPLINE
  5
13E
330
FF
100
AcDbEntity
  8
60338-ROSACE
  6
Continuous
 62
     7
100
AcDbSpline
210
0.0
220
0.0
230
1.0
 70
     8
 71
     3
 72
     9
 73
     5
 74
     0
 42
0.000000001
 43
0.0000000001
 40
0.6421927089394017
 40
0.6421927089394017
 40
0.6421927089394017
 40
0.6421927089394017
 40
0.6503659662419414
 40
0.6757380038473153
 40
0.6757380038473153
 40
0.6757380038473153
 40
0.6757380038473153
 10
2283.088514733579
 20
332.2520184313188
 30
0.0
 10
2283.306499480278
 20
332.0461770723409
 30
0.0
 10
2284.205256652265
 20
331.2122881937585
 30
0.0
 10
2285.119702659699
 20
330.4244527385114
 30
0.0
 10
2285.818388369727
 20
329.8567220305061
 30
0.0
  0
SPLINE
  5
13F
330
FF
100
AcDbEntity
  8
60338-ROSACE
  6
Continuous
 62
     7
100
AcDbSpline
210
0.0
220
0.0
230
1.0
 70
     8
 71
     3
 72
    13
 73
     9
 74
     0
 42
0.000000001
 43
0.0000000001
 40
0.8042023293724425
 40
0.8042023293724425
 40
0.8042023293724425
 40
0.8042023293724425
 40
0.8423825933706669
 40
0.8806072680748154
 40
0.9183292951371885
 40
0.9553478534127029
 40
0.9916753092045637
 40
1.0
 40
1.0
 40
1.0
 40
1.0
 10
2296.729499970569
 20
323.6043911337189
 30
0.0
 10
2297.816721037038
 20
323.2382087445613
 30
0.0
 10
2299.982890053205
 20
322.6659411987749
 30
0.0
 10
2303.148622994911
 20
322.3175083606896
 30
0.0
 10
2306.187404719619
 20
322.486972809172
 30
0.0
 10
2308.969188115943
 20
323.1926749467091
 30
0.0
 10
2310.985927743151
 20
324.0315153611214
 30
0.0
 10
2311.854464289148
 20
324.6771868585195
 30
0.0
 10
2312.043070134003
 20
324.8183965153246
 30
0.0
  0
LINE
  5
140
330
FF
100
AcDbEntity
  8
60338-ROSACE
  6
Continuous
 62
     7
100
AcDbLine
 10
2311.4543020232
 20
324.4033269164
 30
0.0
 11
2320.4345581443
 21
329.5880801155
 31
0.0
  0
LINE
  5
141
330
FF
100
AcDbEntity
  8
60338-ROSACE
  6
Continuous
 62
     7
100
AcDbLine
 10
2282.4345586374
 20
395.4060110879
 30
0.0
 11
2273.4543025163
 21
390.2212578887
 31
0.0
  0
ELLIPSE
  5
142
330
FF
100
AcDbEntity
  8
60338-ROSACE
  6
Continuous
 62
     7
100
AcDbEllipse
 10
1591.0043753327
 20
160.2916708335
 30
0.0
 11
-8.749999886457207
 21
-15.15544463178168
 31
0.0
210
0.0
220
0.0
230
1.0
 40
0.5773502742
 41
0.0
 42
0.2396185686290917
  0
ELLIPSE
  5
143
330
FF
100
AcDbEntity
  8
60338-ROSACE
  6
Continuous
 62
     7
100
AcDbEllipse
 10
1591.0043753327
 20
160.2916708335
 30
0.0
 11
-8.749999886457207
 21
-15.15544463178168
 31
0.0
210
0.0
220
0.0
230
1.0
 40
0.5773502742
 41
2.901974084960671
 42
6.283185307179574
  0
ELLIPSE
  5
144
330
FF
100
AcDbEntity
  8
60338-ROSACE
  6
Continuous
 62
     7
100
AcDbEllipse
 10
1591.0043753327
 20
160.2916708335
 30
0.0
 11
-17.69999977031908
 21
-30.6572994265755
 31
0.0
210
0.0
220
0.0
230
1.0
 40
0.5773502742
 41
0.0
 42
1.067136348025406
  0
ELLIPSE
  5
145
330
FF
100
AcDbEntity
  8
60338-ROSACE
  6
Continuous
 62
     7
100
AcDbEllipse
 10
1591.0043753327
 20
160.2916708335
 30
0.0
 11
-17.69999977031908
 21
-30.6572994265755
 31
0.0
210
0.0
220
0.0
230
1.0
 40
0.5773502742
 41
2.078145879661388
 42
6.283185307179581
  0
ELLIPSE
  5
146
330
FF
100
AcDbEntity
  8
60338-ROSACE
  6
Continuous
 62
     7
100
AcDbEllipse
 10
1589.1658977017
 20
161.3531163703
 30
0.0
 11
-18.99999975344987
 21
-32.90896548615449
 31
0.0
210
0.0
220
0.0
230
1.0
 40
0.5773502742
 41
0.0
 42
0.0164448816747625
  0
ELLIPSE
  5
147
330
FF
100
AcDbEntity
  8
60338-ROSACE
  6
Continuous
 62
     7
100
AcDbEllipse
 10
1589.1658977017
 20
161.3531163703
 30
0.0
 11
-18.99999975344987
 21
-32.90896548615449
 31
0.0
210
0.0
220
0.0
230
1.0
 40
0.5773502742
 41
3.129689524481954
 42
3.141592653589793
  0
ELLIPSE
  5
148
330
FF
100
AcDbEntity
  8
60338-ROSACE
  6
Continuous
 62
     7
100
AcDbEllipse
 10
1589.1658977017
 20
161.3531163703
 30
0.0
 11
-18.99999975344987
 21
-32.90896548615449
 31
0.0
210
0.0
220
0.0
230
1.0
 40
0.5773502742
 41
3.141592653589793
 42
6.283185307179576
  0
ELLIPSE
  5
149
330
FF
100
AcDbEntity
  8
60338-ROSACE
  6
Continuous
 62
     7
100
AcDbEllipse
 10
1580.1856415806
 20
166.5378695695
 30
0.0
 11
-18.99999975344985
 21
-32.90896548615446
 31
0.0
210
0.0
220
0.0
230
1.0
 40
0.5773502742
 41
3.141592653589793
 42
6.283185307179586
  0
SPLINE
  5
14A
330
FF
100
AcDbEntity
  8
60338-ROSACE
  6
Continuous
 62
     7
100
AcDbSpline
210
0.0
220
0.0
230
1.0
 70
     8
 71
     3
 72
    17
 73
    13
 74
     0
 42
0.000000001
 43
0.0000000001
 40
0.0
 40
0.0
 40
0.0
 40
0.0
 40
0.0150790671178278
 40
0.0635774315471212
 40
0.1121608776327304
 40
0.161341283403177
 40
0.211375851881743
 40
0.2622149205414022
 40
0.3136113443855721
 40
0.3652867643379775
 40
0.4170234935660267
 40
0.4650361955710706
 40
0.4650361955710706
 40
0.4650361955710706
 40
0.4650361955710706
 10
1570.552514414532
 20
128.293809690633
 30
0.0
 10
1570.820131376141
 20
128.1279946570615
 30
0.0
 10
1571.786970736604
 20
127.5349740529085
 30
0.0
 10
1573.90693150017
 20
126.8602229114774
 30
0.0
 10
1576.693773484864
 20
126.3975421005893
 30
0.0
 10
1579.679347305317
 20
126.4377203195484
 30
0.0
 10
1582.784847934723
 20
126.9583738895743
 30
0.0
 10
1585.990485956554
 20
127.9661025781461
 30
0.0
 10
1589.247200928796
 20
129.4498024856094
 30
0.0
 10
1592.505173478818
 20
131.388214298151
 30
0.0
 10
1595.637639345649
 20
133.6931847506495
 30
0.0
 10
1597.642448788615
 20
135.4505138415959
 30
0.0
 10
1598.588527779608
 20
136.3465936054139
 30
0.0
  0
SPLINE
  5
14B
330
FF
100
AcDbEntity
  8
60338-ROSACE
  6
Continuous
 62
     7
100
AcDbSpline
210
0.0
220
0.0
230
1.0
 70
     8
 71
     3
 72
    11
 73
     7
 74
     0
 42
0.000000001
 43
0.0000000001
 40
0.8706788379304033
 40
0.8706788379304033
 40
0.8706788379304033
 40
0.8706788379304033
 40
0.8808102886935218
 40
0.9325318652514077
 40
0.984388170308927
 40
1.0
 40
1.0
 40
1.0
 40
1.0
 10
1615.584170121729
 20
165.911116624797
 30
0.0
 10
1615.646828843838
 20
166.1780447339803
 30
0.0
 10
1616.014853401174
 20
167.8040248038176
 30
0.0
 10
1616.526806167487
 20
170.7434411811937
 30
0.0
 10
1616.776919941633
 20
173.8386185424622
 30
0.0
 10
1616.794167476473
 20
175.3865163989491
 30
0.0
 10
1616.797477755658
 20
175.8051056026751
 30
0.0
  0
SPLINE
  5
14C
330
FF
100
AcDbEntity
  8
60338-ROSACE
  6
Continuous
 62
     7
100
AcDbSpline
210
0.0
220
0.0
230
1.0
 70
     8
 71
     3
 72
    15
 73
    11
 74
     0
 42
0.000000001
 43
0.0000000001
 40
0.0
 40
0.0
 40
0.0
 40
0.0
 40
0.0820687974756966
 40
0.2373630221581269
 40
0.3927203237189954
 40
0.5472324963446836
 40
0.6998795183430827
 40
0.8497710570684569
 40
0.9967920414406177
 40
1.0
 40
1.0
 40
1.0
 40
1.0
 10
1616.797477755658
 20
175.8051056026751
 30
0.0
 10
1616.78732985856
 20
176.534547954801
 30
0.0
 10
1616.752852196667
 20
178.3228821779743
 30
0.0
 10
1616.391930633067
 20
181.410791187326
 30
0.0
 10
1615.575385891201
 20
184.6947904350772
 30
0.0
 10
1614.351266413815
 20
187.6791640701003
 30
0.0
 10
1612.744220139306
 20
190.2936303992677
 30
0.0
 10
1610.787336183536
 20
192.4045945386413
 30
0.0
 10
1609.253616512391
 20
193.702330642433
 30
0.0
 10
1608.437048304213
 20
194.0973181975676
 30
0.0
 10
1608.416836423912
 20
194.107087707856
 30
0.0
  0
LINE
  5
14D
330
FF
100
AcDbEntity
  8
60338-ROSACE
  6
Continuous
 62
     7
100
AcDbLine
 10
1608.1658974551
 20
194.2620818565
 30
0.0
 11
1599.185641334
 21
199.4468350556
 31
0.0
  0
LINE
  5
14E
330
FF
100
AcDbEntity
  8
60338-ROSACE
  6
Continuous
 62
     7
100
AcDbLine
 10
1561.1856418271
 20
133.6289040833
 30
0.0
 11
1570.1658979482
 21
128.4441508841
 31
0.0
  0
ELLIPSE
  5
14F
330
FF
100
AcDbEntity
  8
60338-ROSACE
  6
Continuous
 62
     7
100
AcDbEllipse
 10
1930.4156303023
 20
356.2508468657
 30
0.0
 11
-8.749999886457195
 21
-15.15544463178167
 31
0.0
210
0.0
220
0.0
230
1.0
 40
0.5773502742
 41
0.0
 42
0.2396185686290646
  0
ELLIPSE
  5
150
330
FF
100
AcDbEntity
  8
60338-ROSACE
  6
Continuous
 62
     7
100
AcDbEllipse
 10
1930.4156303023
 20
356.2508468657
 30
0.0
 11
-8.749999886457195
 21
-15.15544463178167
 31
0.0
210
0.0
220
0.0
230
1.0
 40
0.5773502742
 41
2.901974084960742
 42
6.283185307179586
  0
ELLIPSE
  5
151
330
FF
100
AcDbEntity
  8
60338-ROSACE
  6
Continuous
 62
     7
100
AcDbEllipse
 10
1930.4156303023
 20
356.2508468657
 30
0.0
 11
-17.69999977031906
 21
-30.6572994265755
 31
0.0
210
0.0
220
0.0
230
1.0
 40
0.5773502742
 41
0.0
 42
1.069883991285316
  0
ELLIPSE
  5
152
330
FF
100
AcDbEntity
  8
60338-ROSACE
  6
Continuous
 62
     7
100
AcDbEllipse
 10
1930.4156303023
 20
356.2508468657
 30
0.0
 11
-17.69999977031906
 21
-30.6572994265755
 31
0.0
210
0.0
220
0.0
230
1.0
 40
0.5773502742
 41
2.071708662304477
 42
6.283185307179586
  0
ELLIPSE
  5
153
330
FF
100
AcDbEntity
  8
60338-ROSACE
  6
Continuous
 62
     7
100
AcDbEllipse
 10
1928.5771526712
 20
357.3122924025
 30
0.0
 11
-18.99999975344987
 21
-32.90896548615451
 31
0.0
210
0.0
220
0.0
230
1.0
 40
0.5773502742
 41
0.0
 42
0.0164448816750056
  0
ELLIPSE
  5
154
330
FF
100
AcDbEntity
  8
60338-ROSACE
  6
Continuous
 62
     7
100
AcDbEllipse
 10
1928.5771526712
 20
357.3122924025
 30
0.0
 11
-18.99999975344987
 21
-32.90896548615451
 31
0.0
210
0.0
220
0.0
230
1.0
 40
0.5773502742
 41
3.129689524482542
 42
3.141592653589793
  0
ELLIPSE
  5
155
330
FF
100
AcDbEntity
  8
60338-ROSACE
  6
Continuous
 62
     7
100
AcDbEllipse
 10
1928.5771526712
 20
357.3122924025
 30
0.0
 11
-18.99999975344987
 21
-32.90896548615451
 31
0.0
210
0.0
220
0.0
230
1.0
 40
0.5773502742
 41
3.141592653589793
 42
6.283185307179586
  0
ELLIPSE
  5
156
330
FF
100
AcDbEntity
  8
60338-ROSACE
  6
Continuous
 62
     7
100
AcDbEllipse
 10
1919.5968965501
 20
362.4970456017
 30
0.0
 11
-18.99999975344989
 21
-32.90896548615448
 31
0.0
210
0.0
220
0.0
230
1.0
 40
0.5773502742
 41
3.141592653589793
 42
6.283185307179586
  0
SPLINE
  5
157
330
FF
100
AcDbEntity
  8
60338-ROSACE
  6
Continuous
 62
     7
100
AcDbSpline
210
0.0
220
0.0
230
1.0
 70
     8
 71
     3
 72
    13
 73
     9
 74
     0
 42
0.000000001
 43
0.0000000001
 40
0.0
 40
0.0
 40
0.0
 40
0.0
 40
0.0150790671178271
 40
0.0635774315471194
 40
0.112160877632729
 40
0.1613412834031759
 40
0.2113758518817426
 40
0.2479101175116648
 40
0.2479101175116648
 40
0.2479101175116648
 40
0.2479101175116648
 10
1909.963769384075
 20
324.2529857228477
 30
0.0
 10
1910.231386345683
 20
324.0871706892761
 30
0.0
 10
1911.198225706146
 20
323.4941500851228
 30
0.0
 10
1913.318186469713
 20
322.8193989436922
 30
0.0
 10
1916.105028454406
 20
322.3567181328036
 30
0.0
 10
1919.09060227486
 20
322.3968963517628
 30
0.0
 10
1921.900052401718
 20
322.8679154926086
 30
0.0
 10
1923.718151451932
 20
323.4021822662071
 30
0.0
 10
1924.487770726704
 20
323.6677303088171
 30
0.0
  0
SPLINE
  5
158
330
FF
100
AcDbEntity
  8
60338-ROSACE
  6
Continuous
 62
     7
100
AcDbSpline
210
0.0
220
0.0
230
1.0
 70
     8
 71
     3
 72
     8
 73
     4
 74
     0
 42
0.000000001
 43
0.0000000001
 40
0.4210049881172147
 40
0.4210049881172147
 40
0.4210049881172147
 40
0.4210049881172147
 40
0.4642100003458262
 40
0.4642100003458262
 40
0.4642100003458262
 40
0.4642100003458262
 10
1935.353312990547
 20
329.9711277958182
 30
0.0
 10
1936.231836706352
 20
330.6907018363123
 30
0.0
 10
1937.098997466743
 20
331.4547601209313
 30
0.0
 10
1937.950926037585
 20
332.2595554648314
 30
0.0
  0
SPLINE
  5
159
330
FF
100
AcDbEntity
  8
60338-ROSACE
  6
Continuous
 62
     7
100
AcDbSpline
210
0.0
220
0.0
230
1.0
 70
     8
 71
     3
 72
    11
 73
     7
 74
     0
 42
0.000000001
 43
0.0000000001
 40
0.8689349356467103
 40
0.8689349356467103
 40
0.8689349356467103
 40
0.8689349356467103
 40
0.8808102886935218
 40
0.9325318652514071
 40
0.9843881703089267
 40
1.0
 40
1.0
 40
1.0
 40
1.0
 10
1954.962858082384
 20
361.7324033994404
 30
0.0
 10
1955.037260249856
 20
362.0455125411996
 30
0.0
 10
1955.418256811133
 20
363.7181204998273
 30
0.0
 10
1955.938061137029
 20
366.702617213408
 30
0.0
 10
1956.188174911175
 20
369.7977945746765
 30
0.0
 10
1956.205422446016
 20
371.3456924311635
 30
0.0
 10
1956.2087327252
 20
371.7642816348894
 30
0.0
  0
SPLINE
  5
15A
330
FF
100
AcDbEntity
  8
60338-ROSACE
  6
Continuous
 62
     7
100
AcDbSpline
210
0.0
220
0.0
230
1.0
 70
     8
 71
     3
 72
    15
 73
    11
 74
     0
 42
0.000000001
 43
0.0000000001
 40
0.0
 40
0.0
 40
0.0
 40
0.0
 40
0.0820687974756958
 40
0.2373630221581247
 40
0.3927203237189922
 40
0.5472324963446804
 40
0.6998795183430776
 40
0.8497710570684504
 40
0.9967920414406116
 40
1.0
 40
1.0
 40
1.0
 40
1.0
 10
1956.2087327252
 20
371.7642816348894
 30
0.0
 10
1956.198584828102
 20
372.4937239870153
 30
0.0
 10
1956.16410716621
 20
374.2820582101885
 30
0.0
 10
1955.80318560261
 20
377.3699672195404
 30
0.0
 10
1954.986640860743
 20
380.6539664672914
 30
0.0
 10
1953.762521383358
 20
383.6383401023149
 30
0.0
 10
1952.155475108848
 20
386.252806431482
 30
0.0
 10
1950.198591153079
 20
388.363770570856
 30
0.0
 10
1948.664871481934
 20
389.6615066746473
 30
0.0
 10
1947.848303273755
 20
390.0564942297821
 30
0.0
 10
1947.828091393455
 20
390.0662637400706
 30
0.0
  0
LINE
  5
15B
330
FF
100
AcDbEntity
  8
60338-ROSACE
  6
Continuous
 62
     7
100
AcDbLine
 10
1947.5771524246
 20
390.2212578887
 30
0.0
 11
1938.5968963036
 21
395.4060110879
 31
0.0
  0
LINE
  5
15C
330
FF
100
AcDbEntity
  8
60338-ROSACE
  6
Continuous
 62
     7
100
AcDbLine
 10
1900.5968967967
 20
329.5880801155
 30
0.0
 11
1909.5771529177
 21
324.4033269164
 31
0.0
  0
ENDBLK
  5
15E
330
FF
100
AcDbEntity
  8
0
100
AcDbBlockEnd
  0
BLOCK
  5
161
330
160
100
AcDbEntity
  8
0
100
AcDbBlockBegin
  2
_Oblique
 70
     0
 10
0.0
 20
0.0
 30
0.0
  3
_Oblique
  1

  0
LINE
  5
163
330
160
100
AcDbEntity
  8
0
  6
ByBlock
 62
     0
370
    -2
100
AcDbLine
 10
-0.5
 20
-0.5
 30
0.0
 11
0.5
 21
0.5
 31
0.0
  0
ENDBLK
  5
162
330
160
100
AcDbEntity
  8
0
100
AcDbBlockEnd
  0
BLOCK
  5
167
330
164
100
AcDbEntity
  8
0
100
AcDbBlockBegin
  2
_SE_FILLED
 70
     0
 10
0.0
 20
0.0
 30
0.0
  3
_SE_FILLED
  1

  0
SOLID
  5
165
330
164
100
AcDbEntity
  8
0
 62
     0
100
AcDbTrace
 10
0.0
 20
0.0
 30
0.0
 11
-1.0
 21
-0.1665
 31
0.0
 12
-1.0
 22
0.1665
 32
0.0
 13
0.0
 23
0.0
 33
0.0
  0
LINE
  5
166
330
164
100
AcDbEntity
  8
0
 62
     0
100
AcDbLine
 10
0.0
 20
0.0
 30
0.0
 11
-1.0
 21
0.0
 31
0.0
  0
ENDBLK
  5
168
330
164
100
AcDbEntity
  8
0
100
AcDbBlockEnd
  0
BLOCK
  5
175
330
16D
100
AcDbEntity
  8
0
100
AcDbBlockBegin
  2
DMBLK9
 70
     0
 10
0.0
 20
0.0
 30
0.0
  3
DMBLK9
  1

  0
HATCH
  5
16E
330
16D
100
AcDbEntity
  8
Cartouche
  6
Continuous
 62
     7
100
AcDbHatch
 10
0.0
 20
0.0
 30
0.0
210
0.0
220
0.0
230
1.0
  2
SOLID
 70
     1
 71
     0
 91
        1
 92
        1
 93
        3
 72
     1
 10
1010.974135578922
 20
2406.205808919446
 11
965.9741337907827
 21
2398.705808621423
 72
     1
 10
965.9741337907827
 20
2398.705808621423
 11
1010.974135578922
 21
2391.2058083234
 72
     1
 10
1010.974135578922
 20
2391.2058083234
 11
1010.974135578922
 21
2406.205808919446
 97
        0
 75
     0
 76
     1
 98
        0
  0
HATCH
  5
16F
330
16D
100
AcDbEntity
  8
Cartouche
  6
Continuous
 62
     7
100
AcDbHatch
 10
0.0
 20
0.0
 30
0.0
210
0.0
220
0.0
230
1.0
  2
SOLID
 70
     1
 71
     0
 91
        1
 92
        1
 93
        3
 72
     1
 10
1670.974132002643
 20
2406.205808919446
 11
1670.974132002643
 21
2391.2058083234
 72
     1
 10
1670.974132002643
 20
2391.2058083234
 11
1715.974133790783
 21
2398.705808621423
 72
     1
 10
1715.974133790783
 20
2398.705808621423
 11
1670.974132002643
 21
2406.205808919446
 97
        0
 75
     0
 76
     1
 98
        0
  0
LINE
  5
170
330
16D
100
AcDbEntity
  8
Cartouche
  6
Continuous
 62
     7
100
AcDbLine
 10
965.9741337908
 20
2372.1088563917
 30
0.0
 11
965.9741337908
 21
2413.7058082861
 31
0.0
  0
LINE
  5
171
330
16D
100
AcDbEntity
  8
Cartouche
  6
Continuous
 62
     7
100
AcDbLine
 10
1715.9741337908
 20
1584.1088563917
 30
0.0
 11
1715.9741337908
 21
2413.7058082861
 31
0.0
  0
LINE
  5
172
330
16D
100
AcDbEntity
  8
Cartouche
  6
Continuous
 62
     7
100
AcDbLine
 10
965.9741337908
 20
2398.7058086214
 30
0.0
 11
1296.4741404665
 21
2398.7058086214
 31
0.0
  0
LINE
  5
173
330
16D
100
AcDbEntity
  8
Cartouche
  6
Continuous
 62
     7
100
AcDbLine
 10
1385.4741271151
 20
2398.7058086214
 30
0.0
 11
1715.9741337908
 21
2398.7058086214
 31
0.0
  0
TEXT
  5
174
330
16D
100
AcDbEntity
  8
Cartouche
  6
Continuous
 62
     7
100
AcDbText
 10
1306.9741337908
 20
2383.7058086214
 30
0.0
 40
30.0
  1
750
  7
SEACAD_ArialB
 11
1306.9741337908
 21
2413.7058086214
 31
0.0
100
AcDbText
 73
     3
  0
ENDBLK
  5
176
330
16D
100
AcDbEntity
  8
0
100
AcDbBlockEnd
  0
BLOCK
  5
180
330
178
100
AcDbEntity
  8
0
100
AcDbBlockBegin
  2
DMBLK10
 70
     0
 10
0.0
 20
0.0
 30
0.0
  3
DMBLK10
  1

  0
HATCH
  5
179
330
178
100
AcDbEntity
  8
Cartouche
  6
Continuous
 62
     7
100
AcDbHatch
 10
0.0
 20
0.0
 30
0.0
210
0.0
220
0.0
230
1.0
  2
SOLID
 70
     1
 71
     0
 91
        1
 92
        1
 93
        3
 72
     1
 10
853.6887507451094
 20
2289.108854603545
 11
868.6887513411558
 21
2289.108854603545
 72
     1
 10
868.6887513411558
 20
2289.108854603545
 11
861.1887510431326
 21
2334.108856391685
 72
     1
 10
861.1887510431326
 20
2334.108856391685
 11
853.6887507451094
 21
2289.108854603545
 97
        0
 75
     0
 76
     1
 98
        0
  0
HATCH
  5
17A
330
178
100
AcDbEntity
  8
Cartouche
  6
Continuous
 62
     7
100
AcDbHatch
 10
0.0
 20
0.0
 30
0.0
210
0.0
220
0.0
230
1.0
  2
SOLID
 70
     1
 71
     0
 91
        1
 92
        1
 93
        3
 72
     1
 10
853.6887507451095
 20
1629.108858179824
 11
861.1887510431327
 21
1584.108856391685
 72
     1
 10
861.1887510431327
 20
1584.108856391685
 11
868.6887513411559
 21
1629.108858179824
 72
     1
 10
868.6887513411559
 20
1629.108858179824
 11
853.6887507451095
 21
1629.108858179824
 97
        0
 75
     0
 76
     1
 98
        0
  0
LINE
  5
17B
330
178
100
AcDbEntity
  8
Cartouche
  6
Continuous
 62
     7
100
AcDbLine
 10
965.9741337908
 20
2334.1088563917
 30
0.0
 11
846.1887513784
 21
2334.1088563917
 31
0.0
  0
LINE
  5
17C
330
178
100
AcDbEntity
  8
Cartouche
  6
Continuous
 62
     7
100
AcDbLine
 10
1677.9741362346
 20
1584.1088563917
 30
0.0
 11
846.1887513784
 21
1584.1088563917
 31
0.0
  0
LINE
  5
17D
330
178
100
AcDbEntity
  8
Cartouche
  6
Continuous
 62
     7
100
AcDbLine
 10
861.1887510431
 20
2334.1088563917
 30
0.0
 11
861.1887510431
 21
1937.1573597906
 31
0.0
  0
LINE
  5
17E
330
178
100
AcDbEntity
  8
Cartouche
  6
Continuous
 62
     7
100
AcDbLine
 10
861.1887510431
 20
1886.1573607443
 30
0.0
 11
861.1887510431
 21
1584.1088563917
 31
0.0
  0
TEXT
  5
17F
330
178
100
AcDbEntity
  8
Cartouche
  6
Continuous
 62
     7
100
AcDbText
 10
827.1887510431
 20
1896.6573602674
 30
0.0
 40
30.0
  1
750
  7
SEACAD_ArialB
 11
827.1887510431
 21
1926.6573602674
 31
0.0
100
AcDbText
 73
     3
  0
ENDBLK
  5
181
330
178
100
AcDbEntity
  8
0
100
AcDbBlockEnd
  0
BLOCK
  5
18B
330
183
100
AcDbEntity
  8
0
100
AcDbBlockBegin
  2
DMBLK11
 70
     0
 10
0.0
 20
0.0
 30
0.0
  3
DMBLK11
  1

  0
HATCH
  5
184
330
183
100
AcDbEntity
  8
Cartouche
  6
Continuous
 62
     7
100
AcDbHatch
 10
0.0
 20
0.0
 30
0.0
210
0.0
220
0.0
230
1.0
  2
SOLID
 70
     1
 71
     0
 91
        1
 92
        1
 93
        3
 72
     1
 10
1838.688752652458
 20
1539.108854603545
 11
1831.188752354435
 21
1584.108856391685
 72
     1
 10
1831.188752354435
 20
1584.108856391685
 11
1823.688752056412
 21
1539.108854603545
 72
     1
 10
1823.688752056412
 20
1539.108854603545
 11
1838.688752652458
 21
1539.108854603545
 97
        0
 75
     0
 76
     1
 98
        0
  0
HATCH
  5
185
330
183
100
AcDbEntity
  8
Cartouche
  6
Continuous
 62
     7
100
AcDbHatch
 10
0.0
 20
0.0
 30
0.0
210
0.0
220
0.0
230
1.0
  2
SOLID
 70
     1
 71
     0
 91
        1
 92
        1
 93
        3
 72
     1
 10
1838.688752652458
 20
1721.108858179824
 11
1823.688752056412
 21
1721.108858179824
 72
     1
 10
1823.688752056412
 20
1721.108858179824
 11
1831.188752354435
 21
1676.108856391685
 72
     1
 10
1831.188752354435
 20
1676.108856391685
 11
1838.688752652458
 21
1721.108858179824
 97
        0
 75
     0
 76
     1
 98
        0
  0
LINE
  5
186
330
183
100
AcDbEntity
  8
Cartouche
  6
Continuous
 62
     7
100
AcDbLine
 10
1753.974131347
 20
1584.1088563917
 30
0.0
 11
1846.1887520192
 21
1584.1088563917
 31
0.0
  0
LINE
  5
187
330
183
100
AcDbEntity
  8
Cartouche
  6
Continuous
 62
     7
100
AcDbLine
 10
1675.9741337908
 20
1676.1088563917
 30
0.0
 11
1846.1887520192
 21
1676.1088563917
 31
0.0
  0
LINE
  5
188
330
183
100
AcDbEntity
  8
Cartouche
  6
Continuous
 62
     7
100
AcDbLine
 10
1831.1887523544
 20
1494.1088528154
 30
0.0
 11
1831.1887523544
 21
1604.6088569579
 31
0.0
  0
LINE
  5
189
330
183
100
AcDbEntity
  8
Cartouche
  6
Continuous
 62
     7
100
AcDbLine
 10
1831.1887523544
 20
1655.6088558254
 30
0.0
 11
1831.1887523544
 21
1766.108859968
 31
0.0
  0
TEXT
  5
18A
330
183
100
AcDbEntity
  8
Cartouche
  6
Continuous
 62
     7
100
AcDbText
 10
1808.5220856878
 20
1615.1088564811
 30
0.0
 40
30.0
  1
92
  7
SEACAD_ArialB
 11
1808.5220856878
 21
1645.1088564811
 31
0.0
100
AcDbText
 73
     3
  0
ENDBLK
  5
18C
330
183
100
AcDbEntity
  8
0
100
AcDbBlockEnd
  0
BLOCK
  5
197
330
18F
100
AcDbEntity
  8
0
100
AcDbBlockBegin
  2
DMBLK12
 70
     0
 10
0.0
 20
0.0
 30
0.0
  3
DMBLK12
  1

  0
LINE
  5
190
330
18F
100
AcDbEntity
  8
Cartouche
  6
Continuous
 62
     7
100
AcDbLine
 10
1632.5954648777
 20
1402.7161507884
 30
0.0
 11
1740.7271738409
 21
1276.765629183
 31
0.0
  0
LINE
  5
191
330
18F
100
AcDbEntity
  8
Cartouche
  6
Continuous
 62
     7
100
AcDbLine
 10
1740.7271754328
 20
1276.7656273288
 30
0.0
 11
1791.1887509174
 21
1217.9885876032
 31
0.0
  0
HATCH
  5
192
330
18F
100
AcDbEntity
  8
Cartouche
  6
Continuous
 62
     7
100
AcDbHatch
 10
0.0
 20
0.0
 30
0.0
210
0.0
220
0.0
230
1.0
  2
SOLID
 70
     1
 71
     0
 91
        1
 92
        1
 93
        3
 72
     1
 10
1667.598814315261
 20
1373.458404915664
 11
1656.217742711252
 21
1363.687467037148
 72
     1
 10
1656.217742711253
 20
1363.687467037148
 11
1691.221092148806
 21
1334.42972116438
 72
     1
 10
1691.221092148806
 20
1334.42972116438
 11
1667.598814315261
 21
1373.458404915664
 97
        0
 75
     0
 76
     1
 98
        0
  0
HATCH
  5
193
330
18F
100
AcDbEntity
  8
Cartouche
  6
Continuous
 62
     7
100
AcDbHatch
 10
0.0
 20
0.0
 30
0.0
210
0.0
220
0.0
230
1.0
  2
SOLID
 70
     1
 71
     0
 91
        1
 92
        1
 93
        3
 72
     1
 10
1775.730524870313
 20
1247.507881456002
 11
1740.72717543276
 21
1276.765627328769
 72
     1
 10
1740.72717543276
 20
1276.765627328769
 11
1764.349453266304
 21
1237.736943577486
 72
     1
 10
1764.349453266304
 20
1237.736943577486
 11
1775.730524870313
 21
1247.507881456002
 97
        0
 75
     0
 76
     1
 98
        0
  0
LINE
  5
194
330
18F
100
AcDbEntity
  8
Cartouche
  6
Continuous
 62
     7
100
AcDbLine
 10
1791.1887493255
 20
1217.9885894574
 30
0.0
 11
1851.1887479844
 21
1217.9885894574
 31
0.0
  0
TEXT
  5
195
330
18F
100
AcDbEntity
  8
Cartouche
  6
Continuous
 62
     7
100
AcDbText
 10
1861.6887479844
 20
1202.9885894574
 30
0.0
 40
30.0
  1
O
  7
SEACAD_Solid_Edge_ANSI1_SymbolsB
 11
1861.6887479844
 21
1232.9885894574
 31
0.0
100
AcDbText
 73
     3
  0
TEXT
  5
196
330
18F
100
AcDbEntity
  8
Cartouche
  6
Continuous
 62
     7
100
AcDbText
 10
1914.4049051897
 20
1202.9885894574
 30
0.0
 40
30.0
  1
76
  7
SEACAD_ArialB
 11
1914.4049051897
 21
1232.9885894574
 31
0.0
100
AcDbText
 73
     3
  0
ENDBLK
  5
198
330
18F
100
AcDbEntity
  8
0
100
AcDbBlockEnd
  0
BLOCK
  5
1A3
330
199
100
AcDbEntity
  8
0
100
AcDbBlockBegin
  2
GDimGGroup
 70
     0
 10
0.0
 20
0.0
 30
0.0
  3
GDimGGroup
  1

  0
HATCH
  5
19B
330
199
100
AcDbEntity
  8
Cartouche
  6
Continuous
 62
     7
100
AcDbHatch
 10
0.0
 20
0.0
 30
0.0
210
0.0
220
0.0
230
1.0
  2
SOLID
 70
     1
 71
     0
 91
        1
 92
        1
 93
        3
 72
     1
 10
1072.499999509505
 20
1367.597676034714
 11
1079.999999807529
 21
1322.597674246575
 72
     1
 10
1079.999999807529
 20
1322.597674246575
 11
1087.500000105552
 21
1367.597676034714
 72
     1
 10
1087.500000105552
 20
1367.597676034714
 11
1072.499999509505
 21
1367.597676034714
 97
        0
 75
     0
 76
     1
 98
        0
  0
HATCH
  5
19C
330
199
100
AcDbEntity
  8
Cartouche
  6
Continuous
 62
     7
100
AcDbHatch
 10
0.0
 20
0.0
 30
0.0
210
0.0
220
0.0
230
1.0
  2
SOLID
 70
     1
 71
     0
 91
        1
 92
        1
 93
        3
 72
     1
 10
1072.499999509505
 20
1243.597672458436
 11
1087.500000105552
 21
1243.597672458436
 72
     1
 10
1087.500000105552
 20
1243.597672458436
 11
1079.999999807529
 21
1288.597674246575
 72
     1
 10
1079.999999807529
 20
1288.597674246575
 11
1072.499999509505
 21
1243.597672458436
 97
        0
 75
     0
 76
     1
 98
        0
  0
LINE
  5
19D
330
199
100
AcDbEntity
  8
Cartouche
  6
Continuous
 62
     7
100
AcDbLine
 10
1105.9741337908
 20
1322.5976742466
 30
0.0
 11
1065.0000001428
 21
1322.5976742466
 31
0.0
  0
LINE
  5
19E
330
199
100
AcDbEntity
  8
Cartouche
  6
Continuous
 62
     7
100
AcDbLine
 10
1105.9741337908
 20
1288.5976742466
 30
0.0
 11
1065.0000001428
 21
1288.5976742466
 31
0.0
  0
LINE
  5
19F
330
199
100
AcDbEntity
  8
Cartouche
  6
Continuous
 62
     7
100
AcDbLine
 10
1079.9999998075
 20
1190.0000042875
 30
0.0
 11
1028.3811331851
 21
1190.0000042875
 31
0.0
  0
LINE
  5
1A0
330
199
100
AcDbEntity
  8
Cartouche
  6
Continuous
 62
     7
100
AcDbLine
 10
1079.9999998075
 20
1412.5976778229
 30
0.0
 11
1079.9999998075
 21
1190.0000042875
 31
0.0
  0
TEXT
  5
1A1
330
199
100
AcDbEntity
  8
Cartouche
  6
Continuous
 62
     7
100
AcDbText
 10
919.8316426465
 20
1175.0000042875
 30
0.0
 40
30.0
  1
O
  7
SEACAD_Solid_Edge_ANSI1_SymbolsB
 11
919.8316426465
 21
1205.0000042875
 31
0.0
100
AcDbText
 73
     3
  0
TEXT
  5
1A2
330
199
100
AcDbEntity
  8
Cartouche
  6
Continuous
 62
     7
100
AcDbText
 10
972.5477998517
 20
1175.0000042875
 30
0.0
 40
30.0
  1
34
  7
SEACAD_ArialB
 11
972.5477998517
 21
1205.0000042875
 31
0.0
100
AcDbText
 73
     3
  0
ENDBLK
  5
1A4
330
199
100
AcDbEntity
  8
0
100
AcDbBlockEnd
  0
BLOCK
  5
1D7
330
1A5
100
AcDbEntity
  8
0
100
AcDbBlockBegin
  2
SE3
 70
     0
 10
0.0
 20
0.0
 30
0.0
  3
SE3
  1

  0
LINE
  5
1A7
330
1A5
100
AcDbEntity
  8
60743-BARRE
  6
Continuous
 62
     7
100
AcDbLine
 10
796.1584132096
 20
1288.5976742466
 30
0.0
 11
796.1584132096
 21
1322.5976742466
 31
0.0
  0
ARC
  5
1A8
330
1A5
100
AcDbEntity
  8
60743-BARRE
  6
Continuous
 62
     7
100
AcDbCircle
 10
756.1584132096
 20
1305.5976742466
 30
0.0
 40
17.00000000000001
100
AcDbArc
 50
90.0
 51
270.0
  0
LINE
  5
1A9
330
1A5
100
AcDbEntity
  8
60743-BARRE
  6
Continuous
 62
     7
100
AcDbLine
 10
691.1584132096
 20
1322.5976742466
 30
0.0
 11
691.1584132096
 21
1288.5976742466
 31
0.0
  0
LINE
  5
1AA
330
1A5
100
AcDbEntity
  8
60743-BARRE
  6
Continuous
 62
     7
100
AcDbLine
 10
121.1584132096
 20
1322.5976742466
 30
0.0
 11
121.1584132096
 21
1288.5976742466
 31
0.0
  0
ARC
  5
1AB
330
1A5
100
AcDbEntity
  8
60743-BARRE
  6
Continuous
 62
     7
100
AcDbCircle
 10
81.1584132096
 20
1305.5976742466
 30
0.0
 40
17.00000000000001
100
AcDbArc
 50
90.0
 51
270.0
  0
LINE
  5
1AC
330
1A5
100
AcDbEntity
  8
60743-BARRE
  6
Continuous
 62
     7
100
AcDbLine
 10
796.1584132096
 20
1288.5976742466
 30
0.0
 11
815.8584132096
 21
1288.5976742466
 31
0.0
  0
LINE
  5
1AD
330
1A5
100
AcDbEntity
  8
60743-BARRE
  6
Continuous
 62
     7
100
AcDbLine
 10
815.8584132096
 20
1322.5976742466
 30
0.0
 11
796.1584132096
 21
1322.5976742466
 31
0.0
  0
LINE
  5
1AE
330
1A5
100
AcDbEntity
  8
60743-BARRE
  6
Continuous
 62
     7
100
AcDbLine
 10
796.1584132096
 20
1322.5976742466
 30
0.0
 11
756.1584132096
 21
1322.5976742466
 31
0.0
  0
LINE
  5
1AF
330
1A5
100
AcDbEntity
  8
60743-BARRE
  6
Continuous
 62
     7
100
AcDbLine
 10
756.1584132096
 20
1288.5976742466
 30
0.0
 11
796.1584132096
 21
1288.5976742466
 31
0.0
  0
LINE
  5
1B0
330
1A5
100
AcDbEntity
  8
60743-BARRE
  6
Continuous
 62
     7
100
AcDbLine
 10
691.1584132096
 20
1288.5976742466
 30
0.0
 11
756.1584132096
 21
1288.5976742466
 31
0.0
  0
LINE
  5
1B1
330
1A5
100
AcDbEntity
  8
60743-BARRE
  6
Continuous
 62
     7
100
AcDbLine
 10
756.1584132096
 20
1322.5976742466
 30
0.0
 11
691.1584132096
 21
1322.5976742466
 31
0.0
  0
LINE
  5
1B2
330
1A5
100
AcDbEntity
  8
60743-BARRE
  6
Continuous
 62
     7
100
AcDbLine
 10
561.1584132096
 20
1288.5976742466
 30
0.0
 11
691.1584132096
 21
1288.5976742466
 31
0.0
  0
LINE
  5
1B3
330
1A5
100
AcDbEntity
  8
60743-BARRE
  6
Continuous
 62
     7
100
AcDbLine
 10
121.1584132096
 20
1288.5976742466
 30
0.0
 11
561.1584132096
 21
1288.5976742466
 31
0.0
  0
LINE
  5
1B4
330
1A5
100
AcDbEntity
  8
60743-BARRE
  6
Continuous
 62
     7
100
AcDbLine
 10
561.1584132096
 20
1322.5976742466
 30
0.0
 11
121.1584132096
 21
1322.5976742466
 31
0.0
  0
LINE
  5
1B5
330
1A5
100
AcDbEntity
  8
60743-BARRE
  6
Continuous
 62
     7
100
AcDbLine
 10
691.1584132096
 20
1322.5976742466
 30
0.0
 11
561.1584132096
 21
1322.5976742466
 31
0.0
  0
LINE
  5
1B6
330
1A5
100
AcDbEntity
  8
60743-BARRE
  6
Continuous
 62
     7
100
AcDbLine
 10
121.1584132096
 20
1322.5976742466
 30
0.0
 11
81.1584132096
 21
1322.5976742466
 31
0.0
  0
LINE
  5
1B7
330
1A5
100
AcDbEntity
  8
60743-BARRE
  6
Continuous
 62
     7
100
AcDbLine
 10
81.1584132096
 20
1288.5976742466
 30
0.0
 11
121.1584132096
 21
1288.5976742466
 31
0.0
  0
LINE
  5
1B8
330
1A5
100
AcDbEntity
  8
60338-ROSACE
  6
Continuous
 62
     7
100
AcDbLine
 10
815.8584132096
 20
1340.9976742466
 30
0.0
 11
815.8584132096
 21
1270.1976742466
 31
0.0
  0
LINE
  5
1B9
330
1A5
100
AcDbEntity
  8
60338-ROSACE
  6
Continuous
 62
     7
100
AcDbLine
 10
818.4584132096
 20
1343.5976742466
 30
0.0
 11
818.4584132096
 21
1267.5976742466
 31
0.0
  0
LINE
  5
1BA
330
1A5
100
AcDbEntity
  8
60338-ROSACE
  6
Continuous
 62
     7
100
AcDbLine
 10
831.1584132096
 20
1343.5976742466
 30
0.0
 11
831.1584132096
 21
1267.5976742466
 31
0.0
  0
ARC
  5
1BB
330
1A5
100
AcDbEntity
  8
60338-ROSACE
  6
Continuous
 62
     7
100
AcDbCircle
 10
818.4584132096
 20
1270.1976742466
 30
0.0
 40
2.600000000000001
100
AcDbArc
 50
180.0
 51
270.0
  0
ARC
  5
1BC
330
1A5
100
AcDbEntity
  8
60338-ROSACE
  6
Continuous
 62
     7
100
AcDbCircle
 10
818.4584132096
 20
1340.9976742466
 30
0.0
 40
2.599999999999998
100
AcDbArc
 50
90.0
 51
180.0
  0
LINE
  5
1BD
330
1A5
100
AcDbEntity
  8
60338-ROSACE
  6
Continuous
 62
     7
100
AcDbLine
 10
818.4584132096
 20
1267.5976742466
 30
0.0
 11
831.1584132096
 21
1267.5976742466
 31
0.0
  0
LINE
  5
1BE
330
1A5
100
AcDbEntity
  8
60338-ROSACE
  6
Continuous
 62
     7
100
AcDbLine
 10
831.1584132096
 20
1343.5976742466
 30
0.0
 11
818.4584132096
 21
1343.5976742466
 31
0.0
  0
ARC
  5
1BF
330
1A5
100
AcDbEntity
  8
60338-ROSACE
  6
Continuous
 62
     7
100
AcDbCircle
 10
81.1584132096
 20
1305.5976742466
 30
0.0
 40
17.5
100
AcDbArc
 50
76.2708673246
 51
283.7291326754
  0
ARC
  5
1C0
330
1A5
100
AcDbEntity
  8
60338-ROSACE
  6
Continuous
 62
     7
100
AcDbCircle
 10
81.1584132096
 20
1305.5976742466
 30
0.0
 40
35.4
100
AcDbArc
 50
28.7001627307
 51
331.2998372693
  0
ARC
  5
1C1
330
1A5
100
AcDbEntity
  8
60338-ROSACE
  6
Continuous
 62
     7
100
AcDbCircle
 10
81.1584132096
 20
1305.5976742466
 30
0.0
 40
38.00000000000001
100
AcDbArc
 50
26.574969519
 51
333.425030481
  0
ARC
  5
1C2
330
1A5
100
AcDbEntity
  8
60338-ROSACE
  6
Continuous
 62
     7
100
AcDbCircle
 10
81.1584132096
 20
1305.5976742466
 30
0.0
 40
17.2
100
AcDbArc
 50
255.5
 51
278.7460132832
  0
LINE
  5
1C3
330
1A5
100
AcDbEntity
  8
60338-ROSACE
  6
Continuous
 62
     7
100
AcDbLine
 10
76.8518771399
 20
1288.9455348321
 30
0.0
 11
76.7767631387
 21
1288.65509054
 31
0.0
  0
ARC
  5
1C4
330
1A5
100
AcDbEntity
  8
60338-ROSACE
  6
Continuous
 62
     7
100
AcDbCircle
 10
81.1584132096
 20
1305.5976742466
 30
0.0
 40
17.19999999999998
100
AcDbArc
 50
210.5
 51
239.5
  0
LINE
  5
1C5
330
1A5
100
AcDbEntity
  8
60338-ROSACE
  6
Continuous
 62
     7
100
AcDbLine
 10
66.33839165
 20
1296.8680144037
 30
0.0
 11
66.0799029019
 21
1296.7157528948
 31
0.0
  0
LINE
  5
1C6
330
1A5
100
AcDbEntity
  8
60338-ROSACE
  6
Continuous
 62
     7
100
AcDbLine
 10
72.4287533667
 20
1290.777652687
 30
0.0
 11
72.2764918578
 21
1290.5191639388
 31
0.0
  0
ARC
  5
1C7
330
1A5
100
AcDbEntity
  8
60338-ROSACE
  6
Continuous
 62
     7
100
AcDbCircle
 10
81.1584132096
 20
1305.5976742466
 30
0.0
 40
17.19999999999997
100
AcDbArc
 50
165.5
 51
194.5
  0
LINE
  5
1C8
330
1A5
100
AcDbEntity
  8
60338-ROSACE
  6
Continuous
 62
     7
100
AcDbLine
 10
64.5062737951
 20
1309.9042103163
 30
0.0
 11
64.215829503
 21
1309.9793243175
 31
0.0
  0
LINE
  5
1C9
330
1A5
100
AcDbEntity
  8
60338-ROSACE
  6
Continuous
 62
     7
100
AcDbLine
 10
64.5062737951
 20
1301.2911381768
 30
0.0
 11
64.215829503
 21
1301.2160241756
 31
0.0
  0
ARC
  5
1CA
330
1A5
100
AcDbEntity
  8
60338-ROSACE
  6
Continuous
 62
     7
100
AcDbCircle
 10
81.1584132096
 20
1305.5976742466
 30
0.0
 40
17.19999999999997
100
AcDbArc
 50
120.5
 51
149.5
  0
LINE
  5
1CB
330
1A5
100
AcDbEntity
  8
60338-ROSACE
  6
Continuous
 62
     7
100
AcDbLine
 10
72.4287533667
 20
1320.4176958062
 30
0.0
 11
72.2764918578
 21
1320.6761845543
 31
0.0
  0
LINE
  5
1CC
330
1A5
100
AcDbEntity
  8
60338-ROSACE
  6
Continuous
 62
     7
100
AcDbLine
 10
66.33839165
 20
1314.3273340895
 30
0.0
 11
66.0799029019
 21
1314.4795955984
 31
0.0
  0
ARC
  5
1CD
330
1A5
100
AcDbEntity
  8
60338-ROSACE
  6
Continuous
 62
     7
100
AcDbCircle
 10
81.1584132096
 20
1305.5976742466
 30
0.0
 40
17.2
100
AcDbArc
 50
81.2539867168
 51
104.5
  0
LINE
  5
1CE
330
1A5
100
AcDbEntity
  8
60338-ROSACE
  6
Continuous
 62
     7
100
AcDbLine
 10
76.8518771399
 20
1322.2498136611
 30
0.0
 11
76.7767631387
 21
1322.5402579532
 31
0.0
  0
ARC
  5
1CF
330
1A5
100
AcDbEntity
  8
60338-ROSACE
  6
Continuous
 62
     7
100
AcDbCircle
 10
561.1584132096
 20
1305.5976742466
 30
0.0
 40
17.5
100
AcDbArc
 50
76.2708673246
 51
103.7291326754
  0
ARC
  5
1D0
330
1A5
100
AcDbEntity
  8
60338-ROSACE
  6
Continuous
 62
     7
100
AcDbCircle
 10
561.1584132096
 20
1305.5976742466
 30
0.0
 40
17.5
100
AcDbArc
 50
256.2708673246
 51
283.7291326754
  0
ARC
  5
1D1
330
1A5
100
AcDbEntity
  8
60338-ROSACE
  6
Continuous
 62
     7
100
AcDbCircle
 10
561.1584132096
 20
1305.5976742466
 30
0.0
 40
35.4
100
AcDbArc
 50
28.7001627307
 51
151.2998372693
  0
ARC
  5
1D2
330
1A5
100
AcDbEntity
  8
60338-ROSACE
  6
Continuous
 62
     7
100
AcDbCircle
 10
561.1584132096
 20
1305.5976742466
 30
0.0
 40
35.4
100
AcDbArc
 50
208.7001627307
 51
331.2998372693
  0
ARC
  5
1D3
330
1A5
100
AcDbEntity
  8
60338-ROSACE
  6
Continuous
 62
     7
100
AcDbCircle
 10
561.1584132096
 20
1305.5976742466
 30
0.0
 40
38.00000000000001
100
AcDbArc
 50
26.574969519
 51
153.425030481
  0
ARC
  5
1D4
330
1A5
100
AcDbEntity
  8
60338-ROSACE
  6
Continuous
 62
     7
100
AcDbCircle
 10
561.1584132096
 20
1305.5976742466
 30
0.0
 40
38.00000000000001
100
AcDbArc
 50
206.574969519
 51
333.425030481
  0
ARC
  5
1D5
330
1A5
100
AcDbEntity
  8
60338-ROSACE
  6
Continuous
 62
     7
100
AcDbCircle
 10
561.1584132096
 20
1305.5976742466
 30
0.0
 40
17.2
100
AcDbArc
 50
261.2539867168
 51
278.7460132832
  0
ARC
  5
1D6
330
1A5
100
AcDbEntity
  8
60338-ROSACE
  6
Continuous
 62
     7
100
AcDbCircle
 10
561.1584132096
 20
1305.5976742466
 30
0.0
 40
17.2
100
AcDbArc
 50
81.2539867168
 51
98.7460132832
  0
ENDBLK
  5
1D8
330
1A5
100
AcDbEntity
  8
0
100
AcDbBlockEnd
  0
BLOCK
  5
215
330
1D9
100
AcDbEntity
  8
0
100
AcDbBlockBegin
  2
SE4
 70
     0
 10
0.0
 20
0.0
 30
0.0
  3
SE4
  1

  0
ARC
  5
1DB
330
1D9
100
AcDbEntity
  8
60743-BARRE
  6
Continuous
 62
     7
100
AcDbCircle
 10
2030.6376249623
 20
1305.5976742466
 30
0.0
 40
17.00000000000001
100
AcDbArc
 50
90.0
 51
270.0
  0
LINE
  5
1DC
330
1D9
100
AcDbEntity
  8
60743-BARRE
  6
Continuous
 62
     7
100
AcDbLine
 10
2095.6376249623
 20
1322.5976742466
 30
0.0
 11
2095.6376249623
 21
1288.5976742466
 31
0.0
  0
LINE
  5
1DD
330
1D9
100
AcDbEntity
  8
60743-BARRE
  6
Continuous
 62
     7
100
AcDbLine
 10
2665.6376249623
 20
1322.5976742466
 30
0.0
 11
2665.6376249623
 21
1288.5976742466
 31
0.0
  0
LINE
  5
1DE
330
1D9
100
AcDbEntity
  8
60743-BARRE
  6
Continuous
 62
     7
100
AcDbLine
 10
2030.6376249623
 20
1288.5976742466
 30
0.0
 11
2095.6376249623
 21
1288.5976742466
 31
0.0
  0
LINE
  5
1DF
330
1D9
100
AcDbEntity
  8
60743-BARRE
  6
Continuous
 62
     7
100
AcDbLine
 10
2095.6376249623
 20
1322.5976742466
 30
0.0
 11
2030.6376249623
 21
1322.5976742466
 31
0.0
  0
LINE
  5
1E0
330
1D9
100
AcDbEntity
  8
60743-BARRE
  6
Continuous
 62
     7
100
AcDbLine
 10
2191.6523340264
 20
1322.5976742466
 30
0.0
 11
2095.6376249623
 21
1322.5976742466
 31
0.0
  0
LINE
  5
1E1
330
1D9
100
AcDbEntity
  8
60743-BARRE
  6
Continuous
 62
     7
100
AcDbLine
 10
2665.6376249623
 20
1322.5976742466
 30
0.0
 11
2259.6229158982
 21
1322.5976742466
 31
0.0
  0
LINE
  5
1E2
330
1D9
100
AcDbEntity
  8
60743-BARRE
  6
Continuous
 62
     7
100
AcDbLine
 10
2259.6229158982
 20
1288.5976742466
 30
0.0
 11
2665.6376249623
 21
1288.5976742466
 31
0.0
  0
LINE
  5
1E3
330
1D9
100
AcDbEntity
  8
60743-BARRE
  6
Continuous
 62
     7
100
AcDbLine
 10
2095.6376249623
 20
1288.5976742466
 30
0.0
 11
2191.6523340264
 21
1288.5976742466
 31
0.0
  0
LINE
  5
1E4
330
1D9
100
AcDbEntity
  8
60743-BARRE
  6
Continuous
 62
     7
100
AcDbLine
 10
2671.6523340264
 20
1322.5976742466
 30
0.0
 11
2665.6376249623
 21
1322.5976742466
 31
0.0
  0
LINE
  5
1E5
330
1D9
100
AcDbEntity
  8
60743-BARRE
  6
Continuous
 62
     7
100
AcDbLine
 10
2665.6376249623
 20
1288.5976742466
 30
0.0
 11
2671.6523340264
 21
1288.5976742466
 31
0.0
  0
LINE
  5
1E6
330
1D9
100
AcDbEntity
  8
60743-BARRE
  6
Continuous
 62
     7
100
AcDbLine
 10
1970.9376249623
 20
1288.5976742466
 30
0.0
 11
2030.6376249623
 21
1288.5976742466
 31
0.0
  0
LINE
  5
1E7
330
1D9
100
AcDbEntity
  8
60743-BARRE
  6
Continuous
 62
     7
100
AcDbLine
 10
2030.6376249623
 20
1322.5976742466
 30
0.0
 11
1970.9376249623
 21
1322.5976742466
 31
0.0
  0
LINE
  5
1E8
330
1D9
100
AcDbEntity
  8
60338-ROSACE
  6
Continuous
 62
     7
100
AcDbLine
 10
1970.9376249623
 20
1270.1976742466
 30
0.0
 11
1970.9376249623
 21
1340.9976742466
 31
0.0
  0
LINE
  5
1E9
330
1D9
100
AcDbEntity
  8
60338-ROSACE
  6
Continuous
 62
     7
100
AcDbLine
 10
1968.3376249623
 20
1267.5976742466
 30
0.0
 11
1968.3376249623
 21
1343.5976742466
 31
0.0
  0
LINE
  5
1EA
330
1D9
100
AcDbEntity
  8
60338-ROSACE
  6
Continuous
 62
     7
100
AcDbLine
 10
1955.6376249623
 20
1267.5976742466
 30
0.0
 11
1955.6376249623
 21
1343.5976742466
 31
0.0
  0
ARC
  5
1EB
330
1D9
100
AcDbEntity
  8
60338-ROSACE
  6
Continuous
 62
     7
100
AcDbCircle
 10
1968.3376249623
 20
1340.9976742466
 30
0.0
 40
2.600000000000002
100
AcDbArc
 50
0.0
 51
90.0
  0
ARC
  5
1EC
330
1D9
100
AcDbEntity
  8
60338-ROSACE
  6
Continuous
 62
     7
100
AcDbCircle
 10
1968.3376249623
 20
1270.1976742466
 30
0.0
 40
2.599999999999998
100
AcDbArc
 50
270.0
 51
0.0
  0
LINE
  5
1ED
330
1D9
100
AcDbEntity
  8
60338-ROSACE
  6
Continuous
 62
     7
100
AcDbLine
 10
1968.3376249623
 20
1343.5976742466
 30
0.0
 11
1955.6376249623
 21
1343.5976742466
 31
0.0
  0
LINE
  5
1EE
330
1D9
100
AcDbEntity
  8
60338-ROSACE
  6
Continuous
 62
     7
100
AcDbLine
 10
1955.6376249623
 20
1267.5976742466
 30
0.0
 11
1968.3376249623
 21
1267.5976742466
 31
0.0
  0
CIRCLE
  5
1F0
330
1D9
100
AcDbEntity
  8
60338-VIS
  6
Continuous
 62
     7
100
AcDbCircle
 10
2225.6376249623
 20
1305.5976742466
 30
0.0
 40
11.75
  0
LINE
  5
1F1
330
1D9
100
AcDbEntity
  8
60338-VIS
  6
Continuous
 62
     7
100
AcDbLine
 10
2221.368814423
 20
1307.361360702
 30
0.0
 11
2225.0306169674
 21
1310.1764158453
 31
0.0
  0
LINE
  5
1F2
330
1D9
100
AcDbEntity
  8
60338-VIS
  6
Continuous
 62
     7
100
AcDbLine
 10
2225.0306169674
 20
1310.1764158453
 30
0.0
 11
2229.2994275067
 21
1308.4127293898
 31
0.0
  0
LINE
  5
1F3
330
1D9
100
AcDbEntity
  8
60338-VIS
  6
Continuous
 62
     7
100
AcDbLine
 10
2229.2994275067
 20
1308.4127293898
 30
0.0
 11
2229.9064355016
 21
1303.8339877911
 31
0.0
  0
LINE
  5
1F4
330
1D9
100
AcDbEntity
  8
60338-VIS
  6
Continuous
 62
     7
100
AcDbLine
 10
2229.9064355016
 20
1303.8339877911
 30
0.0
 11
2226.2446329572
 21
1301.0189326479
 31
0.0
  0
LINE
  5
1F5
330
1D9
100
AcDbEntity
  8
60338-VIS
  6
Continuous
 62
     7
100
AcDbLine
 10
2226.2446329572
 20
1301.0189326479
 30
0.0
 11
2221.9758224179
 21
1302.7826191034
 31
0.0
  0
LINE
  5
1F6
330
1D9
100
AcDbEntity
  8
60338-VIS
  6
Continuous
 62
     7
100
AcDbLine
 10
2221.9758224179
 20
1302.7826191034
 30
0.0
 11
2221.368814423
 21
1307.361360702
 31
0.0
  0
CIRCLE
  5
1F8
330
1D9
100
AcDbEntity
  8
60338-BASE
  6
Continuous
 62
     7
100
AcDbCircle
 10
2225.6376249623
 20
1305.5976742466
 30
0.0
 40
35.075
  0
CIRCLE
  5
1F9
330
1D9
100
AcDbEntity
  8
60338-BASE
  6
Continuous
 62
     7
100
AcDbCircle
 10
2225.6376249623
 20
1305.5976742466
 30
0.0
 40
33.5
  0
CIRCLE
  5
1FA
330
1D9
100
AcDbEntity
  8
60338-BASE
  6
Continuous
 62
     7
100
AcDbCircle
 10
2229.0545731975
 20
1279.8231817247
 30
0.0
 40
3.75
  0
CIRCLE
  5
1FB
330
1D9
100
AcDbEntity
  8
60338-BASE
  6
Continuous
 62
     7
100
AcDbCircle
 10
2205.0247337863
 20
1289.7512640106
 30
0.0
 40
3.75
  0
CIRCLE
  5
1FC
330
1D9
100
AcDbEntity
  8
60338-BASE
  6
Continuous
 62
     7
100
AcDbCircle
 10
2249.6674643735
 20
1295.6695919607
 30
0.0
 40
3.75
  0
CIRCLE
  5
1FD
330
1D9
100
AcDbEntity
  8
60338-BASE
  6
Continuous
 62
     7
100
AcDbCircle
 10
2246.2505161383
 20
1321.4440844826
 30
0.0
 40
3.75
  0
CIRCLE
  5
1FE
330
1D9
100
AcDbEntity
  8
60338-BASE
  6
Continuous
 62
     7
100
AcDbCircle
 10
2222.2206767271
 20
1331.3721667684
 30
0.0
 40
3.75
  0
CIRCLE
  5
1FF
330
1D9
100
AcDbEntity
  8
60338-BASE
  6
Continuous
 62
     7
100
AcDbCircle
 10
2225.6376249623
 20
1305.5976742466
 30
0.0
 40
11.75
  0
CIRCLE
  5
200
330
1D9
100
AcDbEntity
  8
60338-ROSACE
  6
Continuous
 62
     7
100
AcDbCircle
 10
2705.6376249623
 20
1305.5976742466
 30
0.0
 40
38.0
  0
CIRCLE
  5
201
330
1D9
100
AcDbEntity
  8
60338-ROSACE
  6
Continuous
 62
     7
100
AcDbCircle
 10
2705.6376249623
 20
1305.5976742466
 30
0.0
 40
35.59999999999999
  0
CIRCLE
  5
202
330
1D9
100
AcDbEntity
  8
60338-ROSACE
  6
Continuous
 62
     7
100
AcDbCircle
 10
2705.6376249623
 20
1305.5976742466
 30
0.0
 40
35.4
  0
CIRCLE
  5
203
330
1D9
100
AcDbEntity
  8
60338-VIS
  6
Continuous
 62
     7
100
AcDbCircle
 10
2705.6376249623
 20
1305.5976742466
 30
0.0
 40
11.75
  0
LINE
  5
204
330
1D9
100
AcDbEntity
  8
60338-VIS
  6
Continuous
 62
     7
100
AcDbLine
 10
2709.9064355016
 20
1303.8339877911
 30
0.0
 11
2706.2446329572
 21
1301.0189326479
 31
0.0
  0
LINE
  5
205
330
1D9
100
AcDbEntity
  8
60338-VIS
  6
Continuous
 62
     7
100
AcDbLine
 10
2706.2446329572
 20
1301.0189326479
 30
0.0
 11
2701.9758224179
 21
1302.7826191034
 31
0.0
  0
LINE
  5
206
330
1D9
100
AcDbEntity
  8
60338-VIS
  6
Continuous
 62
     7
100
AcDbLine
 10
2701.9758224179
 20
1302.7826191034
 30
0.0
 11
2701.368814423
 21
1307.361360702
 31
0.0
  0
LINE
  5
207
330
1D9
100
AcDbEntity
  8
60338-VIS
  6
Continuous
 62
     7
100
AcDbLine
 10
2701.368814423
 20
1307.361360702
 30
0.0
 11
2705.0306169674
 21
1310.1764158453
 31
0.0
  0
LINE
  5
208
330
1D9
100
AcDbEntity
  8
60338-VIS
  6
Continuous
 62
     7
100
AcDbLine
 10
2705.0306169674
 20
1310.1764158453
 30
0.0
 11
2709.2994275067
 21
1308.4127293898
 31
0.0
  0
LINE
  5
209
330
1D9
100
AcDbEntity
  8
60338-VIS
  6
Continuous
 62
     7
100
AcDbLine
 10
2709.2994275067
 20
1308.4127293898
 30
0.0
 11
2709.9064355016
 21
1303.8339877911
 31
0.0
  0
CIRCLE
  5
20A
330
1D9
100
AcDbEntity
  8
60338-BASE
  6
Continuous
 62
     7
100
AcDbCircle
 10
2705.6376249623
 20
1305.5976742466
 30
0.0
 40
35.075
  0
CIRCLE
  5
20B
330
1D9
100
AcDbEntity
  8
60338-BASE
  6
Continuous
 62
     7
100
AcDbCircle
 10
2705.6376249623
 20
1305.5976742466
 30
0.0
 40
33.5
  0
CIRCLE
  5
20C
330
1D9
100
AcDbEntity
  8
60338-BASE
  6
Continuous
 62
     7
100
AcDbCircle
 10
2709.0545731975
 20
1279.8231817247
 30
0.0
 40
3.75
  0
CIRCLE
  5
20D
330
1D9
100
AcDbEntity
  8
60338-BASE
  6
Continuous
 62
     7
100
AcDbCircle
 10
2685.0247337863
 20
1289.7512640106
 30
0.0
 40
3.75
  0
CIRCLE
  5
20E
330
1D9
100
AcDbEntity
  8
60338-BASE
  6
Continuous
 62
     7
100
AcDbCircle
 10
2729.6674643735
 20
1295.6695919607
 30
0.0
 40
3.75
  0
CIRCLE
  5
20F
330
1D9
100
AcDbEntity
  8
60338-BASE
  6
Continuous
 62
     7
100
AcDbCircle
 10
2726.2505161383
 20
1321.4440844826
 30
0.0
 40
3.75
  0
CIRCLE
  5
210
330
1D9
100
AcDbEntity
  8
60338-BASE
  6
Continuous
 62
     7
100
AcDbCircle
 10
2702.2206767271
 20
1331.3721667684
 30
0.0
 40
3.75
  0
CIRCLE
  5
211
330
1D9
100
AcDbEntity
  8
60338-BASE
  6
Continuous
 62
     7
100
AcDbCircle
 10
2705.6376249623
 20
1305.5976742466
 30
0.0
 40
11.75
  0
CIRCLE
  5
212
330
1D9
100
AcDbEntity
  8
60338-ROSACE
  6
Continuous
 62
     7
100
AcDbCircle
 10
2225.6376249623
 20
1305.5976742466
 30
0.0
 40
38.0
  0
CIRCLE
  5
213
330
1D9
100
AcDbEntity
  8
60338-ROSACE
  6
Continuous
 62
     7
100
AcDbCircle
 10
2225.6376249623
 20
1305.5976742466
 30
0.0
 40
35.59999999999999
  0
CIRCLE
  5
214
330
1D9
100
AcDbEntity
  8
60338-ROSACE
  6
Continuous
 62
     7
100
AcDbCircle
 10
2225.6376249623
 20
1305.5976742466
 30
0.0
 40
35.4
  0
ENDBLK
  5
216
330
1D9
100
AcDbEntity
  8
0
100
AcDbBlockEnd
  0
BLOCK
  5
253
330
217
100
AcDbEntity
  8
0
100
AcDbBlockBegin
  2
SE5
 70
     0
 10
0.0
 20
0.0
 30
0.0
  3
SE5
  1

  0
LINE
  5
219
330
217
100
AcDbEntity
  8
60743-BARRE
  6
Continuous
 62
     7
100
AcDbLine
 10
1698.9741337908
 20
1072.7195750001
 30
0.0
 11
1732.9741337908
 21
1072.7195750001
 31
0.0
  0
LINE
  5
21A
330
217
100
AcDbEntity
  8
60743-BARRE
  6
Continuous
 62
     7
100
AcDbLine
 10
1675.9741337908
 20
1015.7195750001
 30
0.0
 11
1675.9741337908
 21
1049.7195750001
 31
0.0
  0
LINE
  5
21B
330
217
100
AcDbEntity
  8
60743-BARRE
  6
Continuous
 62
     7
100
AcDbLine
 10
1105.9741337908
 20
1015.7195750001
 30
0.0
 11
1105.9741337908
 21
1049.7195750001
 31
0.0
  0
LINE
  5
21C
330
217
100
AcDbEntity
  8
60743-BARRE
  6
Continuous
 62
     7
100
AcDbLine
 10
1057.9741337908
 20
967.7195750001
 30
0.0
 11
1023.9741337908
 21
967.7195750001
 31
0.0
  0
LINE
  5
21D
330
217
100
AcDbEntity
  8
60743-BARRE
  6
Continuous
 62
     7
100
AcDbLine
 10
1057.9741337908
 20
397.7195750001
 30
0.0
 11
1023.9741337908
 21
397.7195750001
 31
0.0
  0
LINE
  5
21E
330
217
100
AcDbEntity
  8
60743-BARRE
  6
Continuous
 62
     7
100
AcDbLine
 10
1000.9741337908
 20
340.7195750001
 30
0.0
 11
1000.9741337908
 21
374.7195750001
 31
0.0
  0
LINE
  5
21F
330
217
100
AcDbEntity
  8
60743-BARRE
  6
Continuous
 62
     7
100
AcDbLine
 10
1040.9741337908
 20
837.7195750001
 30
0.0
 11
1023.9741337908
 21
854.7195750001
 31
0.0
  0
LINE
  5
220
330
217
100
AcDbEntity
  8
60743-BARRE
  6
Continuous
 62
     7
100
AcDbLine
 10
1040.9741337908
 20
837.7195750001
 30
0.0
 11
1023.9741337908
 21
820.7195750001
 31
0.0
  0
LINE
  5
221
330
217
100
AcDbEntity
  8
60743-BARRE
  6
Continuous
 62
     7
100
AcDbLine
 10
1235.9741337908
 20
1032.7195750001
 30
0.0
 11
1252.9741337908
 21
1049.7195750001
 31
0.0
  0
LINE
  5
222
330
217
100
AcDbEntity
  8
60743-BARRE
  6
Continuous
 62
     7
100
AcDbLine
 10
1235.9741337908
 20
1032.7195750001
 30
0.0
 11
1218.9741337908
 21
1049.7195750001
 31
0.0
  0
LINE
  5
223
330
217
100
AcDbEntity
  8
60743-BARRE
  6
Continuous
 62
     7
100
AcDbLine
 10
1732.9741337908
 20
1072.7195750001
 30
0.0
 11
1732.9741337908
 21
1092.4195750001
 31
0.0
  0
LINE
  5
224
330
217
100
AcDbEntity
  8
60743-BARRE
  6
Continuous
 62
     7
100
AcDbLine
 10
1698.9741337908
 20
1092.4195750001
 30
0.0
 11
1698.9741337908
 21
1072.7195750001
 31
0.0
  0
ARC
  5
225
330
217
100
AcDbEntity
  8
60743-BARRE
  6
Continuous
 62
     7
100
AcDbCircle
 10
1675.9741337908
 20
1072.7195750001
 30
0.0
 40
22.99999999999991
100
AcDbArc
 50
270.0
 51
0.0
  0
ARC
  5
226
330
217
100
AcDbEntity
  8
60743-BARRE
  6
Continuous
 62
     7
100
AcDbCircle
 10
1675.9741337908
 20
1072.7195750001
 30
0.0
 40
56.99999999999994
100
AcDbArc
 50
270.0
 51
0.0
  0
LINE
  5
227
330
217
100
AcDbEntity
  8
60743-BARRE
  6
Continuous
 62
     7
100
AcDbLine
 10
1105.9741337908
 20
1015.7195750001
 30
0.0
 11
1675.9741337908
 21
1015.7195750001
 31
0.0
  0
LINE
  5
228
330
217
100
AcDbEntity
  8
60743-BARRE
  6
Continuous
 62
     7
100
AcDbLine
 10
1218.9741337908
 20
1049.7195750001
 30
0.0
 11
1105.9741337908
 21
1049.7195750001
 31
0.0
  0
LINE
  5
229
330
217
100
AcDbEntity
  8
60743-BARRE
  6
Continuous
 62
     7
100
AcDbLine
 10
1675.9741337908
 20
1049.7195750001
 30
0.0
 11
1252.9741337908
 21
1049.7195750001
 31
0.0
  0
ARC
  5
22A
330
217
100
AcDbEntity
  8
60743-BARRE
  6
Continuous
 62
     7
100
AcDbCircle
 10
1105.9741337908
 20
967.7195750001
 30
0.0
 40
48.00000000000013
100
AcDbArc
 50
90.0
 51
180.0
  0
ARC
  5
22B
330
217
100
AcDbEntity
  8
60743-BARRE
  6
Continuous
 62
     7
100
AcDbCircle
 10
1105.9741337908
 20
967.7195750001
 30
0.0
 40
82.00000000000016
100
AcDbArc
 50
90.0
 51
180.0
  0
LINE
  5
22C
330
217
100
AcDbEntity
  8
60743-BARRE
  6
Continuous
 62
     7
100
AcDbLine
 10
1057.9741337908
 20
397.7195750001
 30
0.0
 11
1057.9741337908
 21
967.7195750001
 31
0.0
  0
LINE
  5
22D
330
217
100
AcDbEntity
  8
60743-BARRE
  6
Continuous
 62
     7
100
AcDbLine
 10
1023.9741337908
 20
820.7195750001
 30
0.0
 11
1023.9741337908
 21
397.7195750001
 31
0.0
  0
LINE
  5
22E
330
217
100
AcDbEntity
  8
60743-BARRE
  6
Continuous
 62
     7
100
AcDbLine
 10
1023.9741337908
 20
967.7195750001
 30
0.0
 11
1023.9741337908
 21
854.7195750001
 31
0.0
  0
ARC
  5
22F
330
217
100
AcDbEntity
  8
60743-BARRE
  6
Continuous
 62
     7
100
AcDbCircle
 10
1000.9741337908
 20
397.7195750001
 30
0.0
 40
22.99999999999994
100
AcDbArc
 50
270.0
 51
0.0
  0
ARC
  5
230
330
217
100
AcDbEntity
  8
60743-BARRE
  6
Continuous
 62
     7
100
AcDbCircle
 10
1000.9741337908
 20
397.7195750001
 30
0.0
 40
56.99999999999994
100
AcDbArc
 50
270.0
 51
0.0
  0
LINE
  5
231
330
217
100
AcDbEntity
  8
60743-BARRE
  6
Continuous
 62
     7
100
AcDbLine
 10
981.2741337908
 20
340.7195750001
 30
0.0
 11
1000.9741337908
 21
340.7195750001
 31
0.0
  0
LINE
  5
232
330
217
100
AcDbEntity
  8
60743-BARRE
  6
Continuous
 62
     7
100
AcDbLine
 10
1000.9741337908
 20
374.7195750001
 30
0.0
 11
981.2741337908
 21
374.7195750001
 31
0.0
  0
LINE
  5
233
330
217
100
AcDbEntity
  8
60743-BARRE
  6
Continuous
 62
     7
100
AcDbLine
 10
981.2741337908
 20
820.7195750001
 30
0.0
 11
1023.9741337908
 21
820.7195750001
 31
0.0
  0
LINE
  5
234
330
217
100
AcDbEntity
  8
60743-BARRE
  6
Continuous
 62
     7
100
AcDbLine
 10
1023.9741337908
 20
854.7195750001
 30
0.0
 11
981.2741337908
 21
854.7195750001
 31
0.0
  0
LINE
  5
235
330
217
100
AcDbEntity
  8
60743-BARRE
  6
Continuous
 62
     7
100
AcDbLine
 10
1218.9741337908
 20
1092.4195750001
 30
0.0
 11
1218.9741337908
 21
1049.7195750001
 31
0.0
  0
LINE
  5
236
330
217
100
AcDbEntity
  8
60743-BARRE
  6
Continuous
 62
     7
100
AcDbLine
 10
1252.9741337908
 20
1049.7195750001
 30
0.0
 11
1252.9741337908
 21
1092.4195750001
 31
0.0
  0
LINE
  5
237
330
217
100
AcDbEntity
  8
60338-ROSACE
  6
Continuous
 62
     7
100
AcDbLine
 10
1680.5741337908
 20
1092.4195750001
 30
0.0
 11
1751.3741337908
 21
1092.4195750001
 31
0.0
  0
LINE
  5
238
330
217
100
AcDbEntity
  8
60338-ROSACE
  6
Continuous
 62
     7
100
AcDbLine
 10
1677.9741337908
 20
1095.0195750001
 30
0.0
 11
1753.9741337908
 21
1095.0195750001
 31
0.0
  0
LINE
  5
239
330
217
100
AcDbEntity
  8
60338-ROSACE
  6
Continuous
 62
     7
100
AcDbLine
 10
1677.9741337908
 20
1107.7195750001
 30
0.0
 11
1753.9741337908
 21
1107.7195750001
 31
0.0
  0
ARC
  5
23A
330
217
100
AcDbEntity
  8
60338-ROSACE
  6
Continuous
 62
     7
100
AcDbCircle
 10
1751.3741337908
 20
1095.0195750001
 30
0.0
 40
2.600000000000001
100
AcDbArc
 50
270.0
 51
0.0
  0
ARC
  5
23B
330
217
100
AcDbEntity
  8
60338-ROSACE
  6
Continuous
 62
     7
100
AcDbCircle
 10
1680.5741337908
 20
1095.0195750001
 30
0.0
 40
2.600000000000047
100
AcDbArc
 50
180.0
 51
270.0
  0
LINE
  5
23C
330
217
100
AcDbEntity
  8
60338-ROSACE
  6
Continuous
 62
     7
100
AcDbLine
 10
1753.9741337908
 20
1095.0195750001
 30
0.0
 11
1753.9741337908
 21
1107.7195750001
 31
0.0
  0
LINE
  5
23D
330
217
100
AcDbEntity
  8
60338-ROSACE
  6
Continuous
 62
     7
100
AcDbLine
 10
1677.9741337908
 20
1107.7195750001
 30
0.0
 11
1677.9741337908
 21
1095.0195750001
 31
0.0
  0
LINE
  5
23E
330
217
100
AcDbEntity
  8
60338-ROSACE
  6
Continuous
 62
     7
100
AcDbLine
 10
1200.5741337908
 20
1092.4195750001
 30
0.0
 11
1271.3741337908
 21
1092.4195750001
 31
0.0
  0
LINE
  5
23F
330
217
100
AcDbEntity
  8
60338-ROSACE
  6
Continuous
 62
     7
100
AcDbLine
 10
1197.9741337908
 20
1095.0195750001
 30
0.0
 11
1273.9741337908
 21
1095.0195750001
 31
0.0
  0
LINE
  5
240
330
217
100
AcDbEntity
  8
60338-ROSACE
  6
Continuous
 62
     7
100
AcDbLine
 10
1197.9741337908
 20
1107.7195750001
 30
0.0
 11
1273.9741337908
 21
1107.7195750001
 31
0.0
  0
ARC
  5
241
330
217
100
AcDbEntity
  8
60338-ROSACE
  6
Continuous
 62
     7
100
AcDbCircle
 10
1271.3741337908
 20
1095.0195750001
 30
0.0
 40
2.600000000000002
100
AcDbArc
 50
270.0
 51
0.0
  0
ARC
  5
242
330
217
100
AcDbEntity
  8
60338-ROSACE
  6
Continuous
 62
     7
100
AcDbCircle
 10
1200.5741337908
 20
1095.0195750001
 30
0.0
 40
2.600000000000019
100
AcDbArc
 50
180.0
 51
270.0
  0
LINE
  5
243
330
217
100
AcDbEntity
  8
60338-ROSACE
  6
Continuous
 62
     7
100
AcDbLine
 10
1273.9741337908
 20
1095.0195750001
 30
0.0
 11
1273.9741337908
 21
1107.7195750001
 31
0.0
  0
LINE
  5
244
330
217
100
AcDbEntity
  8
60338-ROSACE
  6
Continuous
 62
     7
100
AcDbLine
 10
1197.9741337908
 20
1107.7195750001
 30
0.0
 11
1197.9741337908
 21
1095.0195750001
 31
0.0
  0
LINE
  5
245
330
217
100
AcDbEntity
  8
60338-ROSACE
  6
Continuous
 62
     7
100
AcDbLine
 10
981.2741337908
 20
393.1195750001
 30
0.0
 11
981.2741337908
 21
322.3195750001
 31
0.0
  0
LINE
  5
246
330
217
100
AcDbEntity
  8
60338-ROSACE
  6
Continuous
 62
     7
100
AcDbLine
 10
978.6741337908
 20
395.7195750001
 30
0.0
 11
978.6741337908
 21
319.7195750001
 31
0.0
  0
LINE
  5
247
330
217
100
AcDbEntity
  8
60338-ROSACE
  6
Continuous
 62
     7
100
AcDbLine
 10
965.9741337908
 20
395.7195750001
 30
0.0
 11
965.9741337908
 21
319.7195750001
 31
0.0
  0
ARC
  5
248
330
217
100
AcDbEntity
  8
60338-ROSACE
  6
Continuous
 62
     7
100
AcDbCircle
 10
978.6741337908
 20
393.1195750001
 30
0.0
 40
2.600000000000002
100
AcDbArc
 50
0.0
 51
90.0
  0
ARC
  5
249
330
217
100
AcDbEntity
  8
60338-ROSACE
  6
Continuous
 62
     7
100
AcDbCircle
 10
978.6741337908
 20
322.3195750001
 30
0.0
 40
2.600000000000047
100
AcDbArc
 50
270.0
 51
0.0
  0
LINE
  5
24A
330
217
100
AcDbEntity
  8
60338-ROSACE
  6
Continuous
 62
     7
100
AcDbLine
 10
978.6741337908
 20
395.7195750001
 30
0.0
 11
965.9741337908
 21
395.7195750001
 31
0.0
  0
LINE
  5
24B
330
217
100
AcDbEntity
  8
60338-ROSACE
  6
Continuous
 62
     7
100
AcDbLine
 10
965.9741337908
 20
319.7195750001
 30
0.0
 11
978.6741337908
 21
319.7195750001
 31
0.0
  0
LINE
  5
24C
330
217
100
AcDbEntity
  8
60338-ROSACE
  6
Continuous
 62
     7
100
AcDbLine
 10
981.2741337908
 20
802.3195750001
 30
0.0
 11
981.2741337908
 21
873.1195750001
 31
0.0
  0
LINE
  5
24D
330
217
100
AcDbEntity
  8
60338-ROSACE
  6
Continuous
 62
     7
100
AcDbLine
 10
978.6741337908
 20
799.7195750001
 30
0.0
 11
978.6741337908
 21
875.7195750001
 31
0.0
  0
LINE
  5
24E
330
217
100
AcDbEntity
  8
60338-ROSACE
  6
Continuous
 62
     7
100
AcDbLine
 10
965.9741337908
 20
799.7195750001
 30
0.0
 11
965.9741337908
 21
875.7195750001
 31
0.0
  0
ARC
  5
24F
330
217
100
AcDbEntity
  8
60338-ROSACE
  6
Continuous
 62
     7
100
AcDbCircle
 10
978.6741337908
 20
873.1195750001
 30
0.0
 40
2.600000000000001
100
AcDbArc
 50
0.0
 51
90.0
  0
ARC
  5
250
330
217
100
AcDbEntity
  8
60338-ROSACE
  6
Continuous
 62
     7
100
AcDbCircle
 10
978.6741337908
 20
802.3195750001
 30
0.0
 40
2.600000000000047
100
AcDbArc
 50
270.0
 51
0.0
  0
LINE
  5
251
330
217
100
AcDbEntity
  8
60338-ROSACE
  6
Continuous
 62
     7
100
AcDbLine
 10
978.6741337908
 20
875.7195750001
 30
0.0
 11
965.9741337908
 21
875.7195750001
 31
0.0
  0
LINE
  5
252
330
217
100
AcDbEntity
  8
60338-ROSACE
  6
Continuous
 62
     7
100
AcDbLine
 10
965.9741337908
 20
799.7195750001
 30
0.0
 11
978.6741337908
 21
799.7195750001
 31
0.0
  0
ENDBLK
  5
254
330
217
100
AcDbEntity
  8
0
100
AcDbBlockEnd
  0
ENDSEC
  0
SECTION
  2
ENTITIES
  0
LINE
  5
6F
330
1F
100
AcDbEntity
  8
encadrement
  6
Continuous
 62
     7
100
AcDbLine
 10
10.0
 20
80.035459542
 30
0.0
 11
200.0
 21
80.035459542
 31
0.0
  0
LINE
  5
70
330
1F
100
AcDbEntity
  8
encadrement
  6
Continuous
 62
     7
100
AcDbLine
 10
10.0
 20
65.035459542
 30
0.0
 11
200.0
 21
65.035459542
 31
0.0
  0
LINE
  5
71
330
1F
100
AcDbEntity
  8
encadrement
  6
Continuous
 62
     7
100
AcDbLine
 10
10.0
 20
55.035459542
 30
0.0
 11
200.0
 21
55.035459542
 31
0.0
  0
LINE
  5
72
330
1F
100
AcDbEntity
  8
encadrement
  6
Continuous
 62
     7
100
AcDbLine
 10
10.0
 20
45.035459542
 30
0.0
 11
200.0
 21
45.035459542
 31
0.0
  0
LINE
  5
73
330
1F
100
AcDbEntity
  8
encadrement
  6
Continuous
 62
     7
100
AcDbLine
 10
10.0
 20
35.035459542
 30
0.0
 11
200.0
 21
35.035459542
 31
0.0
  0
INSERT
  5
76
330
1F
100
AcDbEntity
  8
Default
100
AcDbBlockReference
  2
SEANNOT_GROUP
 10
0.0
 20
0.0
 30
0.0
  0
MULTILEADER
  5
7E
330
1F
100
AcDbEntity
  8
Default
  6
Continuous
 62
     7
 92
      492
310
EC010000030000000C00000013000000993A00001001000026000000569956687A8117400C1F12E11C364EC0000000000000000000000000000000000000000000000000000000000000F03F000000000000F03F00000000000000000000000000000000420041005200520045002000200043004F0055004400C900450020
310
0039003000B000200041004C00550020004700410049004E00C90045002000410042005300200041004E00540049002D004200410043005400C9005200490045004E0000002F000000010000000000000000002440000000000000F03F0000000000000000000000000000F03F000000000000000000000000000000000000
310
00000100000000000000000000002200000041007200690061006C0000000000000000000000C800000026000000569956687A811740B942BCA341D652C0000000000000000000000000000000000000000000000000000000000000F03F000000000000F03F000000000000000000000000000000005200E90066002E0020
310
0036003000370034003300000000000A000000010000000000000000002440000000000000F03F0000000000000000000000000000F03F00000000000000000000000000000000000000000100000000000000000000002200000041007200690061006C0000000000000000000000
100
AcDbMLeader
300
CONTEXT_DATA{
 40
1.0
 10
4.8964435103
 20
-52.5577563227
 30
0.0
 41
10.0
140
15.0
145
3.5
174
     1
175
     1
176
     0
177
     0
290
     1
304
{\pxsm0.9;\fArial|b1||i0||c0|p34;\W1.;BARRE  COUDÉE 90° ALU GAINÉE ABS ANTI-BACTÉRIEN\PRéf. 60743\P}
 11
0.0
 21
0.0
 31
1.0
340
11
 12
6.8964435103
 22
-47.4727563227
 32
0.0
 13
1.0
 23
0.0
 33
0.0
 42
0.0
 43
0.0
 44
0.0
 45
1.0
170
     1
 90
-1073741824
171
     1
172
     1
 91
-939524096
141
1.5
 92
        0
291
     0
292
     0
173
     0
293
     0
142
0.0
143
0.0
294
     0
295
     0
296
     0
110
0.0
120
0.0
130
0.0
111
1.0
121
0.0
131
0.0
112
0.0
122
1.0
132
0.0
297
     0
301
}
340
6C
 90
 35052449
170
     0
 91
-1056964608
341
14
171
    -2
290
     1
291
     1
 41
0.0
342
79
 42
4.0
172
     2
343
11
173
     1
 95
        1
174
     1
175
     0
 92
-1073741824
292
     0
 93
-1023410169
 10
1.0
 20
1.0
 30
1.0
 43
0.0
176
     0
293
     0
294
     0
178
     0
179
     1
 45
1.0
1001
ACAD_MLEADERVER
1070
     2
  0
INSERT
  5
81
330
1F
100
AcDbEntity
  8
Cartouche
100
AcDbBlockReference
  2
SE
 10
0.0
 20
0.0
 30
0.0
  0
INSERT
  5
C1
330
1F
100
AcDbEntity
  8
Cartouche
100
AcDbBlockReference
  2
SE1
 10
0.0
 20
0.0
 30
0.0
  0
INSERT
  5
100
330
1F
100
AcDbEntity
  8
Cartouche
100
AcDbBlockReference
  2
SE2
 10
0.0
 20
0.0
 30
0.0
  0
DIMENSION
  5
16B
330
1F
100
AcDbEntity
  8
Cartouche
  6
Continuous
 62
     7
100
AcDbDimension
  2
DMBLK9
 10
1715.9741337908
 20
2398.7058086214
 30
0.0
 11
1340.9741337908
 21
2398.7058086214
 31
0.0
 70
   160
  1
\A1;<>
 71
     5
 42
-1.0
 73
     0
 74
     0
 75
     0
  3
ISO
100
AcDbAlignedDimension
 13
965.9741337908
 23
2372.1088563917
 33
0.0
 14
1715.9741337908
 24
1584.1088563917
 34
0.0
100
AcDbRotatedDimension
  0
DIMENSION
  5
177
330
1F
100
AcDbEntity
  8
Cartouche
  6
Continuous
 62
     7
100
AcDbDimension
  2
DMBLK10
 10
861.1887510431
 20
1584.1088563917
 30
0.0
 11
861.1887510431
 21
1911.6573602674
 31
0.0
 70
   160
  1
\A1;<>
 71
     5
 42
-1.0
 73
     0
 74
     0
 75
     0
  3
ISO
100
AcDbAlignedDimension
 13
965.9741337908
 23
2334.1088563917
 33
0.0
 14
1753.9741337908
 24
1584.1088563917
 34
0.0
 50
90.0
100
AcDbRotatedDimension
  0
DIMENSION
  5
182
330
1F
100
AcDbEntity
  8
Cartouche
  6
Continuous
 62
     7
100
AcDbDimension
  2
DMBLK11
 10
1831.1887523544
 20
1676.1088563917
 30
0.0
 11
1831.1887523544
 21
1630.1088564811
 31
0.0
 70
   160
  1
\A1;<>
 71
     5
 42
-1.0
 73
     0
 74
     0
 75
     0
  3
ISO
100
AcDbAlignedDimension
 13
1677.9741337908
 23
1584.1088563917
 33
0.0
 14
1675.9741337908
 24
1676.1088563917
 34
0.0
 50
90.0
100
AcDbRotatedDimension
  0
DIMENSION
  5
18D
330
1F
100
AcDbEntity
  8
Cartouche
  6
Continuous
 62
     7
100
AcDbDimension
  2
DMBLK12
 10
1691.2210921488
 20
1334.4297211644
 30
0.0
 11
1851.1887479844
 21
1217.9885894574
 31
0.0
 70
   163
  1
\A1;<>
 71
     5
 42
-1.0
 73
     0
 74
     0
 75
     0
  3
ISO
100
AcDbDiametricDimension
 15
1740.7271754328
 25
1276.7656273288
 35
0.0
 40
0.0
1001
ACAD
1000
DSTYLE
1002
{
1070
   172
1070
     0
1070
     0
1002
}
  0
INSERT
  5
19A
330
1F
100
AcDbEntity
  8
Cartouche
100
AcDbBlockReference
  2
GDimGGroup
 10
0.0
 20
0.0
 30
0.0
  0
INSERT
  5
1A6
330
1F
100
AcDbEntity
  8
Cartouche
100
AcDbBlockReference
  2
SE3
 10
0.0
 20
0.0
 30
0.0
  0
INSERT
  5
1DA
330
1F
100
AcDbEntity
  8
Cartouche
100
AcDbBlockReference
  2
SE4
 10
0.0
 20
0.0
 30
0.0
  0
INSERT
  5
218
330
1F
100
AcDbEntity
  8
Cartouche
100
AcDbBlockReference
  2
SE5
 10
0.0
 20
0.0
 30
0.0
  0
ENDSEC
  0
SECTION
  2
OBJECTS
  0
DICTIONARY
  5
C
330
0
100
AcDbDictionary
281
     1
  3
ACAD_DETAILVIEWSTYLE
350
290
  3
ACAD_GROUP
350
D
  3
ACAD_LAYOUT
350
1A
  3
ACAD_MATERIAL
350
43
  3
ACAD_MLEADERSTYLE
350
6B
  3
ACAD_MLINESTYLE
350
17
  3
ACAD_PLOTSETTINGS
350
19
  3
ACAD_PLOTSTYLENAME
350
E
  3
ACAD_SCALELIST
350
47
  3
ACAD_SECTIONVIEWSTYLE
350
291
  3
ACAD_TABLESTYLE
350
69
  3
ACAD_VISUALSTYLE
350
2A
  3
ACDB_RECOMPOSE_DATA
350
28D
  3
AcDbVariableDictionary
350
256
  0
SUN
  5
6D
330
29
100
AcDbSun
 90
        1
290
     0
 63
     7
421
 16777215
 40
1.0
291
     1
 91
  2455826
 92
 54000000
292
     0
 70
     2
 71
   256
280
     1
  0
DICTIONARY
  5
290
102
{ACAD_REACTORS
330
C
102
}
330
C
100
AcDbDictionary
281
     1
  0
DICTIONARY
  5
D
102
{ACAD_REACTORS
330
C
102
}
330
C
100
AcDbDictionary
281
     1
  0
DICTIONARY
  5
1A
102
{ACAD_REACTORS
330
C
102
}
330
C
100
AcDbDictionary
281
     1
  3
Layout1
350
1E
  3
Model
350
22
  0
DICTIONARY
  5
43
102
{ACAD_REACTORS
330
C
102
}
330
C
100
AcDbDictionary
281
     1
  3
ByBlock
350
45
  3
ByLayer
350
44
  3
Global
350
46
  0
DICTIONARY
  5
6B
102
{ACAD_REACTORS
330
C
102
}
330
C
100
AcDbDictionary
281
     1
  3
Standard
350
6C
  0
DICTIONARY
  5
17
102
{ACAD_REACTORS
330
C
102
}
330
C
100
AcDbDictionary
281
     1
  3
Standard
350
18
  0
DICTIONARY
  5
19
102
{ACAD_REACTORS
330
C
102
}
330
C
100
AcDbDictionary
281
     1
  0
ACDBDICTIONARYWDFLT
  5
E
102
{ACAD_REACTORS
330
C
102
}
330
C
100
AcDbDictionary
281
     1
  3
Normal
350
F
100
AcDbDictionaryWithDefault
340
F
  0
DICTIONARY
  5
47
102
{ACAD_REACTORS
330
C
102
}
330
C
100
AcDbDictionary
281
     1
  3
A0
350
48
  3
A1
350
49
  3
A2
350
4A
  3
A3
350
4B
  3
A4
350
4C
  3
A5
350
4D
  3
A6
350
4E
  3
A7
350
4F
  3
A8
350
50
  3
A9
350
51
  3
B0
350
52
  3
B1
350
53
  3
B2
350
54
  3
B3
350
55
  3
B4
350
56
  3
B5
350
57
  3
B6
350
58
  3
B7
350
59
  3
B8
350
5A
  3
B9
350
5B
  3
C0
350
5C
  3
C1
350
5D
  3
C2
350
5E
  3
C3
350
5F
  3
C4
350
60
  3
C5
350
61
  3
C6
350
62
  3
C7
350
63
  3
C8
350
64
  3
C9
350
65
  3
D0
350
66
  3
D1
350
67
  3
D2
350
68
  0
DICTIONARY
  5
291
102
{ACAD_REACTORS
330
C
102
}
330
C
100
AcDbDictionary
281
     1
  0
DICTIONARY
  5
69
102
{ACAD_REACTORS
330
C
102
}
330
C
100
AcDbDictionary
281
     1
  3
Standard
350
6A
  0
DICTIONARY
  5
2A
102
{ACAD_REACTORS
330
C
102
}
330
C
100
AcDbDictionary
281
     1
  3
2dWireframe
350
2F
  3
Basic
350
32
  3
Brighten
350
36
  3
ColorChange
350
3A
  3
Conceptual
350
34
  3
Dim
350
35
  3
EdgeColorOff
350
3D
  3
Facepattern
350
39
  3
Flat
350
2B
  3
FlatWithEdges
350
2C
  3
Gouraud
350
2D
  3
GouraudWithEdges
350
2E
  3
Hidden
350
31
  3
JitterOff
350
3B
  3
Linepattern
350
38
  3
OverhangOff
350
3C
  3
Realistic
350
33
  3
Shaded
350
42
  3
Shaded with edges
350
41
  3
Shades of Gray
350
3E
  3
Sketchy
350
3F
  3
Thicken
350
37
  3
Wireframe
350
30
  3
X-Ray
350
40
  0
XRECORD
  5
28D
102
{ACAD_REACTORS
330
C
102
}
330
C
100
AcDbXrecord
280
     1
 90
        1
330
6A
  0
DICTIONARY
  5
256
102
{ACAD_REACTORS
330
C
102
}
330
C
100
AcDbDictionary
281
     1
  3
CANNOSCALE
350
257
  3
CENTEREXE
350
292
  3
CENTERLTYPEFILE
350
293
  3
CMLEADERSTYLE
350
28F
  3
CTABLESTYLE
350
28E
  3
XCLIPFRAME
350
258
  0
LAYOUT
  5
1E
102
{ACAD_REACTORS
330
1A
102
}
330
1A
100
AcDbPlotSettings
  1

  2
none_device
  4

  6

 40
0.0
 41
0.0
 42
0.0
 43
0.0
 44
0.0
 45
0.0
 46
0.0
 47
0.0
 48
0.0
 49
0.0
140
0.0
141
0.0
142
1.0
143
1.0
 70
   688
 72
     1
 73
     0
 74
     5
  7

 75
    16
 76
     0
 77
     2
 78
   300
147
1.0
148
0.0
149
0.0
100
AcDbLayout
  1
Layout1
 70
     1
 71
     1
 10
0.0
 20
0.0
 11
2800.0
 21
2500.0
 12
0.0
 22
0.0
 32
0.0
 14
0.0
 24
0.0
 34
0.0
 15
2800.0
 25
2500.0
 35
0.0
146
0.0
 13
0.0
 23
0.0
 33
0.0
 16
1.0
 26
0.0
 36
0.0
 17
0.0
 27
1.0
 37
0.0
 76
     0
330
1B
  0
LAYOUT
  5
22
102
{ACAD_REACTORS
330
1A
102
}
330
1A
100
AcDbPlotSettings
  1

  2
none_device
  4
Letter_(8.50_x_11.00_Inches)
  6

 40
6.35
 41
6.35
 42
6.35000508
 43
6.35000508
 44
215.9
 45
279.4
 46
0.0
 47
0.0
 48
0.0
 49
0.0
140
0.0
141
0.0
142
1.0
143
1.0
 70
  1712
 72
     1
 73
     0
 74
     0
  7

 75
     0
 76
     0
 77
     2
 78
   300
147
1.0
148
0.0
149
0.0
100
AcDbLayout
  1
Model
 70
     1
 71
     0
 10
0.0
 20
0.0
 11
2800.0
 21
2500.0
 12
0.0
 22
0.0
 32
0.0
 14
0.0
 24
0.0
 34
0.0
 15
2800.0
 25
2500.0
 35
0.0
146
0.0
 13
0.0
 23
0.0
 33
0.0
 16
1.0
 26
0.0
 36
0.0
 17
0.0
 27
1.0
 37
0.0
 76
     0
330
1F
331
29
  0
MATERIAL
  5
45
102
{ACAD_REACTORS
330
43
102
}
330
43
100
AcDbMaterial
  1
ByBlock
 72
     1
 94
      127
  0
MATERIAL
  5
44
102
{ACAD_REACTORS
330
43
102
}
330
43
100
AcDbMaterial
  1
ByLayer
 72
     1
 94
      127
  0
MATERIAL
  5
46
102
{ACAD_REACTORS
330
43
102
}
330
43
100
AcDbMaterial
  1
Global
 72
     1
 94
      127
  0
MLEADERSTYLE
  5
6C
102
{ACAD_REACTORS
330
6B
102
}
102
{ACAD_XDICTIONARY
360
28B
102
}
330
6B
100
AcDbMLeaderStyle
170
     2
171
     1
172
     0
 90
        2
 40
0.0
 41
0.0
173
     1
 91
-1056964608
340
14
 92
       -2
290
     1
 42
2.0
291
     1
 43
8.0
  3
Standard
341
0
 44
4.0
300

342
11
174
     1
178
     6
175
     1
176
     0
 93
-1056964608
 45
4.0
292
     0
297
     0
 46
4.0
343
0
 94
-1056964608
 47
1.0
 49
1.0
140
1.0
293
     1
141
0.0
294
     1
177
     0
142
1.0
295
     0
296
     0
143
3.75
1001
ACAD_MLEADERVER
1070
     2
  0
MLINESTYLE
  5
18
102
{ACAD_REACTORS
330
17
102
}
330
17
100
AcDbMlineStyle
  2
Standard
 70
     0
  3

 62
   256
 51
90.0
 52
90.0
 71
     2
 49
0.5
 62
   256
  6
BYLAYER
 49
-0.5
 62
   256
  6
BYLAYER
  0
ACDBPLACEHOLDER
  5
F
102
{ACAD_REACTORS
330
E
102
}
330
E
  0
SCALE
  5
48
102
{ACAD_REACTORS
330
47
102
}
330
47
100
AcDbScale
 70
     0
300
1:1
140
1.0
141
1.0
290
     1
  0
SCALE
  5
49
102
{ACAD_REACTORS
330
47
102
}
330
47
100
AcDbScale
 70
     0
300
1:2
140
1.0
141
2.0
290
     0
  0
SCALE
  5
4A
102
{ACAD_REACTORS
330
47
102
}
330
47
100
AcDbScale
 70
     0
300
1:4
140
1.0
141
4.0
290
     0
  0
SCALE
  5
4B
102
{ACAD_REACTORS
330
47
102
}
330
47
100
AcDbScale
 70
     0
300
1:5
140
1.0
141
5.0
290
     0
  0
SCALE
  5
4C
102
{ACAD_REACTORS
330
47
102
}
330
47
100
AcDbScale
 70
     0
300
1:8
140
1.0
141
8.0
290
     0
  0
SCALE
  5
4D
102
{ACAD_REACTORS
330
47
102
}
330
47
100
AcDbScale
 70
     0
300
1:10
140
1.0
141
10.0
290
     0
  0
SCALE
  5
4E
102
{ACAD_REACTORS
330
47
102
}
330
47
100
AcDbScale
 70
     0
300
1:16
140
1.0
141
16.0
290
     0
  0
SCALE
  5
4F
102
{ACAD_REACTORS
330
47
102
}
330
47
100
AcDbScale
 70
     0
300
1:20
140
1.0
141
20.0
290
     0
  0
SCALE
  5
50
102
{ACAD_REACTORS
330
47
102
}
330
47
100
AcDbScale
 70
     0
300
1:30
140
1.0
141
30.0
290
     0
  0
SCALE
  5
51
102
{ACAD_REACTORS
330
47
102
}
330
47
100
AcDbScale
 70
     0
300
1:40
140
1.0
141
40.0
290
     0
  0
SCALE
  5
52
102
{ACAD_REACTORS
330
47
102
}
330
47
100
AcDbScale
 70
     0
300
1:50
140
1.0
141
50.0
290
     0
  0
SCALE
  5
53
102
{ACAD_REACTORS
330
47
102
}
330
47
100
AcDbScale
 70
     0
300
1:100
140
1.0
141
100.0
290
     0
  0
SCALE
  5
54
102
{ACAD_REACTORS
330
47
102
}
330
47
100
AcDbScale
 70
     0
300
2:1
140
2.0
141
1.0
290
     0
  0
SCALE
  5
55
102
{ACAD_REACTORS
330
47
102
}
330
47
100
AcDbScale
 70
     0
300
4:1
140
4.0
141
1.0
290
     0
  0
SCALE
  5
56
102
{ACAD_REACTORS
330
47
102
}
330
47
100
AcDbScale
 70
     0
300
8:1
140
8.0
141
1.0
290
     0
  0
SCALE
  5
57
102
{ACAD_REACTORS
330
47
102
}
330
47
100
AcDbScale
 70
     0
300
10:1
140
10.0
141
1.0
290
     0
  0
SCALE
  5
58
102
{ACAD_REACTORS
330
47
102
}
330
47
100
AcDbScale
 70
     0
300
100:1
140
100.0
141
1.0
290
     0
  0
SCALE
  5
59
102
{ACAD_REACTORS
330
47
102
}
330
47
100
AcDbScale
 70
     0
300
1/128" = 1'-0"
140
0.0078125
141
12.0
290
     0
  0
SCALE
  5
5A
102
{ACAD_REACTORS
330
47
102
}
330
47
100
AcDbScale
 70
     0
300
1/64" = 1'-0"
140
0.015625
141
12.0
290
     0
  0
SCALE
  5
5B
102
{ACAD_REACTORS
330
47
102
}
330
47
100
AcDbScale
 70
     0
300
1/32" = 1'-0"
140
0.03125
141
12.0
290
     0
  0
SCALE
  5
5C
102
{ACAD_REACTORS
330
47
102
}
330
47
100
AcDbScale
 70
     0
300
1/16" = 1'-0"
140
0.0625
141
12.0
290
     0
  0
SCALE
  5
5D
102
{ACAD_REACTORS
330
47
102
}
330
47
100
AcDbScale
 70
     0
300
3/32" = 1'-0"
140
0.09375
141
12.0
290
     0
  0
SCALE
  5
5E
102
{ACAD_REACTORS
330
47
102
}
330
47
100
AcDbScale
 70
     0
300
1/8" = 1'-0"
140
0.125
141
12.0
290
     0
  0
SCALE
  5
5F
102
{ACAD_REACTORS
330
47
102
}
330
47
100
AcDbScale
 70
     0
300
3/16" = 1'-0"
140
0.1875
141
12.0
290
     0
  0
SCALE
  5
60
102
{ACAD_REACTORS
330
47
102
}
330
47
100
AcDbScale
 70
     0
300
1/4" = 1'-0"
140
0.25
141
12.0
290
     0
  0
SCALE
  5
61
102
{ACAD_REACTORS
330
47
102
}
330
47
100
AcDbScale
 70
     0
300
3/8" = 1'-0"
140
0.375
141
12.0
290
     0
  0
SCALE
  5
62
102
{ACAD_REACTORS
330
47
102
}
330
47
100
AcDbScale
 70
     0
300
1/2" = 1'-0"
140
0.5
141
12.0
290
     0
  0
SCALE
  5
63
102
{ACAD_REACTORS
330
47
102
}
330
47
100
AcDbScale
 70
     0
300
3/4" = 1'-0"
140
0.75
141
12.0
290
     0
  0
SCALE
  5
64
102
{ACAD_REACTORS
330
47
102
}
330
47
100
AcDbScale
 70
     0
300
1" = 1'-0"
140
1.0
141
12.0
290
     0
  0
SCALE
  5
65
102
{ACAD_REACTORS
330
47
102
}
330
47
100
AcDbScale
 70
     0
300
1-1/2" = 1'-0"
140
1.5
141
12.0
290
     0
  0
SCALE
  5
66
102
{ACAD_REACTORS
330
47
102
}
330
47
100
AcDbScale
 70
     0
300
3" = 1'-0"
140
3.0
141
12.0
290
     0
  0
SCALE
  5
67
102
{ACAD_REACTORS
330
47
102
}
330
47
100
AcDbScale
 70
     0
300
6" = 1'-0"
140
6.0
141
12.0
290
     0
  0
SCALE
  5
68
102
{ACAD_REACTORS
330
47
102
}
330
47
100
AcDbScale
 70
     0
300
1'-0" = 1'-0"
140
12.0
141
12.0
290
     0
  0
TABLESTYLE
  5
6A
102
{ACAD_REACTORS
330
69
102
}
102
{ACAD_XDICTIONARY
360
289
102
}
330
69
100
AcDbTableStyle
  3
Standard
 70
     0
 71
     0
 40
0.06
 41
0.06
280
     0
281
     0
  7
Standard
140
4.5
170
     2
 62
     0
 63
   257
283
     0
 90
        4
 91
        0
  1

274
    -2
284
     1
 64
     0
275
    -2
285
     1
 65
     0
276
    -2
286
     1
 66
     0
277
    -2
287
     1
 67
     0
278
    -2
288
     1
 68
     0
279
    -2
289
     1
 69
     0
  7
Standard
140
6.0
170
     5
 62
     0
 63
   257
283
     0
 90
        4
 91
        0
  1

274
    -2
284
     1
 64
     0
275
    -2
285
     1
 65
     0
276
    -2
286
     1
 66
     0
277
    -2
287
     1
 67
     0
278
    -2
288
     1
 68
     0
279
    -2
289
     1
 69
     0
  7
Standard
140
4.5
170
     5
 62
     0
 63
   257
283
     0
 90
        4
 91
        0
  1

274
    -2
284
     1
 64
     0
275
    -2
285
     1
 65
     0
276
    -2
286
     1
 66
     0
277
    -2
287
     1
 67
     0
278
    -2
288
     1
 68
     0
279
    -2
289
     1
 69
     0
  0
VISUALSTYLE
  5
2F
102
{ACAD_REACTORS
330
2A
102
}
102
{ACAD_XDICTIONARY
360
261
102
}
330
2A
100
AcDbVisualStyle
  2
2dWireframe
 70
     4
 71
     0
 72
     2
 73
     0
 90
        0
 40
0.6
 41
30.0
 62
     5
 63
     7
421
 16777215
 74
     1
 91
        4
 64
     7
 65
   257
 75
     1
175
     1
 42
1.0
 92
        0
 66
   257
 43
1.0
 76
     1
 77
     6
 78
     2
 67
     7
 79
     5
170
     0
171
     0
290
     0
174
     0
 93
        1
 44
0.0
173
     0
291
     0
 45
0.0
  0
VISUALSTYLE
  5
32
102
{ACAD_REACTORS
330
2A
102
}
102
{ACAD_XDICTIONARY
360
267
102
}
330
2A
100
AcDbVisualStyle
  2
Basic
 70
     7
 71
     1
 72
     0
 73
     1
 90
        0
 40
0.6
 41
30.0
 62
     5
 63
     7
421
 16777215
 74
     0
 91
        4
 64
     7
 65
   257
 75
     1
175
     1
 42
1.0
 92
        8
 66
     7
 43
1.0
 76
     1
 77
     6
 78
     2
 67
     7
 79
     5
170
     0
171
     0
290
     0
174
     0
 93
        1
 44
0.0
173
     0
291
     1
 45
0.0
  0
VISUALSTYLE
  5
36
102
{ACAD_REACTORS
330
2A
102
}
102
{ACAD_XDICTIONARY
360
26F
102
}
330
2A
100
AcDbVisualStyle
  2
Brighten
 70
    12
 71
     2
 72
     2
 73
     0
 90
        0
 40
0.6
 41
30.0
 62
     5
 63
     7
421
 16777215
 74
     1
 91
        4
 64
     7
 65
   257
 75
     1
175
     1
 42
1.0
 92
        8
 66
     7
 43
1.0
 76
     1
 77
     6
 78
     2
 67
     7
 79
     5
170
     0
171
     0
290
     0
174
     0
 93
        1
 44
50.0
173
     0
291
     1
 45
0.0
  0
VISUALSTYLE
  5
3A
102
{ACAD_REACTORS
330
2A
102
}
102
{ACAD_XDICTIONARY
360
277
102
}
330
2A
100
AcDbVisualStyle
  2
ColorChange
 70
    16
 71
     2
 72
     2
 73
     3
 90
        0
 40
0.6
 41
30.0
 62
     5
 63
     8
421
  8421504
 74
     1
 91
        4
 64
     7
 65
   257
 75
     1
175
     1
 42
1.0
 92
        8
 66
     8
424
  8421504
 43
1.0
 76
     1
 77
     6
 78
     2
 67
     7
 79
     5
170
     0
171
     0
290
     0
174
     0
 93
        1
 44
0.0
173
     0
291
     1
 45
0.0
  0
VISUALSTYLE
  5
34
102
{ACAD_REACTORS
330
2A
102
}
102
{ACAD_XDICTIONARY
360
26B
102
}
330
2A
100
AcDbVisualStyle
  2
Conceptual
 70
     9
 71
     3
 72
     2
 73
     0
 90
        0
 40
0.6
 41
30.0
 62
     5
 63
     7
421
 16777215
 74
     2
 91
        2
 64
     7
 65
   257
 75
     1
175
     1
 42
179.0
 92
        8
 66
     7
 43
1.0
 76
     1
 77
     6
 78
     2
 67
     7
 79
     3
170
     0
171
     0
290
     0
174
     0
 93
        1
 44
0.0
173
     0
291
     0
 45
0.0
  0
VISUALSTYLE
  5
35
102
{ACAD_REACTORS
330
2A
102
}
102
{ACAD_XDICTIONARY
360
26D
102
}
330
2A
100
AcDbVisualStyle
  2
Dim
 70
    11
 71
     2
 72
     2
 73
     0
 90
        0
 40
0.6
 41
30.0
 62
     5
 63
     7
421
 16777215
 74
     1
 91
        4
 64
     7
 65
   257
 75
     1
175
     1
 42
1.0
 92
        8
 66
     7
 43
1.0
 76
     1
 77
     6
 78
     2
 67
     7
 79
     5
170
     0
171
     0
290
     0
174
     0
 93
        1
 44
-50.0
173
     0
291
     1
 45
0.0
  0
VISUALSTYLE
  5
3D
102
{ACAD_REACTORS
330
2A
102
}
102
{ACAD_XDICTIONARY
360
27D
102
}
330
2A
100
AcDbVisualStyle
  2
EdgeColorOff
 70
    22
 71
     2
 72
     2
 73
     0
 90
        0
 40
0.6
 41
30.0
 62
     5
 63
     7
421
 16777215
 74
     1
 91
        4
 64
     7
 65
   257
 75
     1
175
     1
 42
1.0
 92
        8
 66
     7
 43
1.0
 76
     1
 77
     6
 78
     2
 67
     7
 79
     5
170
     0
171
     0
290
     0
174
     0
 93
        1
 44
0.0
173
     0
291
     1
 45
0.0
  0
VISUALSTYLE
  5
39
102
{ACAD_REACTORS
330
2A
102
}
102
{ACAD_XDICTIONARY
360
275
102
}
330
2A
100
AcDbVisualStyle
  2
Facepattern
 70
    15
 71
     2
 72
     2
 73
     0
 90
        0
 40
0.6
 41
30.0
 62
     5
 63
     7
421
 16777215
 74
     1
 91
        4
 64
     7
 65
   257
 75
     1
175
     1
 42
1.0
 92
        8
 66
     7
 43
1.0
 76
     1
 77
     6
 78
     2
 67
     7
 79
     5
170
     0
171
     0
290
     0
174
     0
 93
        1
 44
0.0
173
     0
291
     1
 45
0.0
  0
VISUALSTYLE
  5
2B
102
{ACAD_REACTORS
330
2A
102
}
102
{ACAD_XDICTIONARY
360
259
102
}
330
2A
100
AcDbVisualStyle
  2
Flat
 70
     0
 71
     2
 72
     1
 73
     1
 90
        2
 40
0.6
 41
30.0
 62
     5
 63
     7
421
 16777215
 74
     0
 91
        0
 64
     7
 65
   257
 75
     1
175
     1
 42
1.0
 92
        8
 66
     7
 43
1.0
 76
     1
 77
     6
 78
     2
 67
     7
 79
     5
170
     0
171
     0
290
     0
174
     0
 93
       13
 44
0.0
173
     0
291
     1
 45
0.0
  0
VISUALSTYLE
  5
2C
102
{ACAD_REACTORS
330
2A
102
}
102
{ACAD_XDICTIONARY
360
25B
102
}
330
2A
100
AcDbVisualStyle
  2
FlatWithEdges
 70
     1
 71
     2
 72
     1
 73
     1
 90
        2
 40
0.6
 41
30.0
 62
     5
 63
     7
421
 16777215
 74
     1
 91
        0
 64
     7
 65
   257
 75
     1
175
     1
 42
1.0
 92
        0
 66
   257
 43
1.0
 76
     1
 77
     6
 78
     2
 67
     7
 79
     5
170
     0
171
     0
290
     0
174
     0
 93
       13
 44
0.0
173
     0
291
     1
 45
0.0
  0
VISUALSTYLE
  5
2D
102
{ACAD_REACTORS
330
2A
102
}
102
{ACAD_XDICTIONARY
360
25D
102
}
330
2A
100
AcDbVisualStyle
  2
Gouraud
 70
     2
 71
     2
 72
     2
 73
     1
 90
        2
 40
0.6
 41
30.0
 62
     5
 63
     7
421
 16777215
 74
     0
 91
        0
 64
     7
 65
   257
 75
     1
175
     1
 42
1.0
 92
        0
 66
     7
 43
1.0
 76
     1
 77
     6
 78
     2
 67
     7
 79
     5
170
     0
171
     0
290
     0
174
     0
 93
       13
 44
0.0
173
     0
291
     1
 45
0.0
  0
VISUALSTYLE
  5
2E
102
{ACAD_REACTORS
330
2A
102
}
102
{ACAD_XDICTIONARY
360
25F
102
}
330
2A
100
AcDbVisualStyle
  2
GouraudWithEdges
 70
     3
 71
     2
 72
     2
 73
     1
 90
        2
 40
0.6
 41
30.0
 62
     5
 63
     7
421
 16777215
 74
     1
 91
        0
 64
     7
 65
   257
 75
     1
175
     1
 42
1.0
 92
        0
 66
   257
 43
1.0
 76
     1
 77
     6
 78
     2
 67
     7
 79
     5
170
     0
171
     0
290
     0
174
     0
 93
       13
 44
0.0
173
     0
291
     1
 45
0.0
  0
VISUALSTYLE
  5
31
102
{ACAD_REACTORS
330
2A
102
}
102
{ACAD_XDICTIONARY
360
265
102
}
330
2A
100
AcDbVisualStyle
  2
Hidden
 70
     6
 71
     1
 72
     2
 73
     2
 90
        0
 40
0.6
 41
30.0
 62
     5
 63
     7
421
 16777215
 74
     2
 91
        2
 64
     7
 65
   257
 75
     2
175
     1
 42
40.0
 92
        0
 66
   257
 43
1.0
 76
     1
 77
     6
 78
     2
 67
     7
 79
     3
170
     0
171
     0
290
     0
174
     0
 93
        1
 44
0.0
173
     0
291
     0
 45
0.0
  0
VISUALSTYLE
  5
3B
102
{ACAD_REACTORS
330
2A
102
}
102
{ACAD_XDICTIONARY
360
279
102
}
330
2A
100
AcDbVisualStyle
  2
JitterOff
 70
    20
 71
     2
 72
     2
 73
     0
 90
        0
 40
0.6
 41
30.0
 62
     5
 63
     7
421
 16777215
 74
     1
 91
        4
 64
     7
 65
   257
 75
     1
175
     1
 42
1.0
 92
       10
 66
     7
 43
1.0
 76
     1
 77
     6
 78
     2
 67
     7
 79
     5
170
     0
171
     0
290
     0
174
     0
 93
        1
 44
0.0
173
     0
291
     1
 45
0.0
  0
VISUALSTYLE
  5
38
102
{ACAD_REACTORS
330
2A
102
}
102
{ACAD_XDICTIONARY
360
273
102
}
330
2A
100
AcDbVisualStyle
  2
Linepattern
 70
    14
 71
     2
 72
     2
 73
     0
 90
        0
 40
0.6
 41
30.0
 62
     5
 63
     7
421
 16777215
 74
     1
 91
        4
 64
     7
 65
   257
 75
     7
175
     7
 42
1.0
 92
        8
 66
     7
 43
1.0
 76
     1
 77
     6
 78
     2
 67
     7
 79
     5
170
     0
171
     0
290
     0
174
     0
 93
        1
 44
0.0
173
     0
291
     1
 45
0.0
  0
VISUALSTYLE
  5
3C
102
{ACAD_REACTORS
330
2A
102
}
102
{ACAD_XDICTIONARY
360
27B
102
}
330
2A
100
AcDbVisualStyle
  2
OverhangOff
 70
    21
 71
     2
 72
     2
 73
     0
 90
        0
 40
0.6
 41
30.0
 62
     5
 63
     7
421
 16777215
 74
     1
 91
        4
 64
     7
 65
   257
 75
     1
175
     1
 42
1.0
 92
        9
 66
     7
 43
1.0
 76
     1
 77
     6
 78
     2
 67
     7
 79
     5
170
     0
171
     0
290
     0
174
     0
 93
        1
 44
0.0
173
     0
291
     1
 45
0.0
  0
VISUALSTYLE
  5
33
102
{ACAD_REACTORS
330
2A
102
}
102
{ACAD_XDICTIONARY
360
269
102
}
330
2A
100
AcDbVisualStyle
  2
Realistic
 70
     8
 71
     2
 72
     3
 73
     0
 90
        2
 40
0.6
 41
30.0
 62
     5
 63
     7
421
 16777215
 74
     0
 91
        0
 64
     7
 65
   257
 75
     1
175
     1
 42
1.0
 92
        8
 66
   257
 43
1.0
 76
     1
 77
     6
 78
     2
 67
     7
 79
     3
170
     0
171
     0
290
     0
174
     0
 93
       13
 44
0.0
173
     0
291
     0
 45
0.0
  0
VISUALSTYLE
  5
42
102
{ACAD_REACTORS
330
2A
102
}
102
{ACAD_XDICTIONARY
360
287
102
}
330
2A
100
AcDbVisualStyle
  2
Shaded
 70
    27
 71
     2
 72
     2
 73
     1
 90
        2
 40
0.6
 41
30.0
 62
     5
 63
     7
421
 16777215
 74
     0
 91
        4
 64
     7
 65
   257
 75
     1
175
     1
 42
1.0
 92
        8
 66
   257
 43
1.0
 76
     1
 77
     6
 78
     2
 67
     8
425
  7895160
 79
     3
170
     0
171
     0
290
     0
174
     0
 93
        5
 44
0.0
173
     0
291
     0
 45
0.0
  0
VISUALSTYLE
  5
41
102
{ACAD_REACTORS
330
2A
102
}
102
{ACAD_XDICTIONARY
360
285
102
}
330
2A
100
AcDbVisualStyle
  2
Shaded with edges
 70
    26
 71
     2
 72
     2
 73
     1
 90
        2
 40
0.6
 41
30.0
 62
     5
 63
     7
421
 16777215
 74
     1
 91
       10
 64
     7
 65
   257
 75
     2
175
     1
 42
1.0
 92
        8
 66
   257
 43
1.0
 76
     1
 77
     6
 78
     2
 67
     7
 79
     3
170
     0
171
     0
290
     0
174
     0
 93
        5
 44
0.0
173
     0
291
     0
 45
0.0
  0
VISUALSTYLE
  5
3E
102
{ACAD_REACTORS
330
2A
102
}
102
{ACAD_XDICTIONARY
360
27F
102
}
330
2A
100
AcDbVisualStyle
  2
Shades of Gray
 70
    23
 71
     2
 72
     2
 73
     3
 90
        0
 40
0.6
 41
30.0
 62
     5
 63
     7
421
 16777215
 74
     2
 91
        2
 64
     7
 65
     7
 75
     1
175
     1
 42
40.0
 92
        8
 66
     7
 43
1.0
 76
     1
 77
     6
 78
     2
 67
     7
 79
     3
170
     0
171
     0
290
     0
174
     0
 93
        1
 44
0.0
173
     0
291
     0
 45
0.0
  0
VISUALSTYLE
  5
3F
102
{ACAD_REACTORS
330
2A
102
}
102
{ACAD_XDICTIONARY
360
281
102
}
330
2A
100
AcDbVisualStyle
  2
Sketchy
 70
    24
 71
     1
 72
     2
 73
     2
 90
        0
 40
0.6
 41
30.0
 62
     5
 63
     7
421
 16777215
 74
     2
 91
        2
 64
     7
 65
     7
 75
     1
175
     1
 42
40.0
 92
       11
 66
     7
 43
1.0
 76
     1
 77
     6
 78
     2
 67
     7
 79
     6
170
     0
171
     0
290
     0
174
     0
 93
        1
 44
0.0
173
     0
291
     0
 45
0.0
  0
VISUALSTYLE
  5
37
102
{ACAD_REACTORS
330
2A
102
}
102
{ACAD_XDICTIONARY
360
271
102
}
330
2A
100
AcDbVisualStyle
  2
Thicken
 70
    13
 71
     2
 72
     2
 73
     0
 90
        0
 40
0.6
 41
30.0
 62
     5
 63
     7
421
 16777215
 74
     1
 91
        4
 64
     7
 65
   257
 75
     1
175
     1
 42
1.0
 92
       12
 66
     7
 43
1.0
 76
     1
 77
     6
 78
     2
 67
     7
 79
     5
170
     0
171
     0
290
     0
174
     0
 93
        1
 44
0.0
173
     0
291
     1
 45
0.0
  0
VISUALSTYLE
  5
30
102
{ACAD_REACTORS
330
2A
102
}
102
{ACAD_XDICTIONARY
360
263
102
}
330
2A
100
AcDbVisualStyle
  2
Wireframe
 70
     5
 71
     0
 72
     2
 73
     0
 90
        0
 40
0.6
 41
30.0
 62
     5
 63
     7
421
 16777215
 74
     1
 91
        4
 64
     7
 65
   257
 75
     1
175
     1
 42
1.0
 92
        0
 66
   257
 43
1.0
 76
     1
 77
     6
 78
     2
 67
     7
 79
     3
170
     0
171
     0
290
     0
174
     0
 93
        1
 44
0.0
173
     0
291
     0
 45
0.0
  0
VISUALSTYLE
  5
40
102
{ACAD_REACTORS
330
2A
102
}
102
{ACAD_XDICTIONARY
360
283
102
}
330
2A
100
AcDbVisualStyle
  2
X-Ray
 70
    25
 71
     2
 72
     2
 73
     1
 90
        1
 40
0.5
 41
30.0
 62
     5
 63
     7
421
 16777215
 74
     1
 91
        0
 64
     7
 65
   257
 75
     1
175
     1
 42
1.0
 92
        8
 66
     7
 43
1.0
 76
     1
 77
     6
 78
     2
 67
     7
 79
     3
170
     0
171
     0
290
     0
174
     0
 93
       13
 44
0.0
173
     0
291
     0
 45
0.0
  0
DICTIONARYVAR
  5
257
102
{ACAD_REACTORS
330
256
102
}
330
256
100
DictionaryVariables
280
     0
  1
1:1
  0
DICTIONARYVAR
  5
292
102
{ACAD_REACTORS
330
256
102
}
330
256
100
DictionaryVariables
280
     0
  1
3.500000
  0
DICTIONARYVAR
  5
293
102
{ACAD_REACTORS
330
256
102
}
330
256
100
DictionaryVariables
280
     0
  1
acadiso.lin
  0
DICTIONARYVAR
  5
28F
102
{ACAD_REACTORS
330
256
102
}
330
256
100
DictionaryVariables
280
     0
  1
Standard
  0
DICTIONARYVAR
  5
28E
102
{ACAD_REACTORS
330
256
102
}
330
256
100
DictionaryVariables
280
     0
  1
Standard
  0
DICTIONARYVAR
  5
258
102
{ACAD_REACTORS
330
256
102
}
330
256
100
DictionaryVariables
280
     0
  1
2
  0
DICTIONARY
  5
28B
330
6C
100
AcDbDictionary
280
     1
281
     1
  3
ACAD_XREC_ROUNDTRIP
360
28C
  0
DICTIONARY
  5
289
330
6A
100
AcDbDictionary
280
     1
281
     1
  3
ACAD_ROUNDTRIP_2008_TABLESTYLE_CELLSTYLEMAP
360
28A
  0
DICTIONARY
  5
261
330
2F
100
AcDbDictionary
280
     1
281
     1
  3
ACAD_XREC_ROUNDTRIP
360
262
  0
DICTIONARY
  5
267
330
32
100
AcDbDictionary
280
     1
281
     1
  3
ACAD_XREC_ROUNDTRIP
360
268
  0
DICTIONARY
  5
26F
330
36
100
AcDbDictionary
280
     1
281
     1
  3
ACAD_XREC_ROUNDTRIP
360
270
  0
DICTIONARY
  5
277
330
3A
100
AcDbDictionary
280
     1
281
     1
  3
ACAD_XREC_ROUNDTRIP
360
278
  0
DICTIONARY
  5
26B
330
34
100
AcDbDictionary
280
     1
281
     1
  3
ACAD_XREC_ROUNDTRIP
360
26C
  0
DICTIONARY
  5
26D
330
35
100
AcDbDictionary
280
     1
281
     1
  3
ACAD_XREC_ROUNDTRIP
360
26E
  0
DICTIONARY
  5
27D
330
3D
100
AcDbDictionary
280
     1
281
     1
  3
ACAD_XREC_ROUNDTRIP
360
27E
  0
DICTIONARY
  5
275
330
39
100
AcDbDictionary
280
     1
281
     1
  3
ACAD_XREC_ROUNDTRIP
360
276
  0
DICTIONARY
  5
259
330
2B
100
AcDbDictionary
280
     1
281
     1
  3
ACAD_XREC_ROUNDTRIP
360
25A
  0
DICTIONARY
  5
25B
330
2C
100
AcDbDictionary
280
     1
281
     1
  3
ACAD_XREC_ROUNDTRIP
360
25C
  0
DICTIONARY
  5
25D
330
2D
100
AcDbDictionary
280
     1
281
     1
  3
ACAD_XREC_ROUNDTRIP
360
25E
  0
DICTIONARY
  5
25F
330
2E
100
AcDbDictionary
280
     1
281
     1
  3
ACAD_XREC_ROUNDTRIP
360
260
  0
DICTIONARY
  5
265
330
31
100
AcDbDictionary
280
     1
281
     1
  3
ACAD_XREC_ROUNDTRIP
360
266
  0
DICTIONARY
  5
279
330
3B
100
AcDbDictionary
280
     1
281
     1
  3
ACAD_XREC_ROUNDTRIP
360
27A
  0
DICTIONARY
  5
273
330
38
100
AcDbDictionary
280
     1
281
     1
  3
ACAD_XREC_ROUNDTRIP
360
274
  0
DICTIONARY
  5
27B
330
3C
100
AcDbDictionary
280
     1
281
     1
  3
ACAD_XREC_ROUNDTRIP
360
27C
  0
DICTIONARY
  5
269
330
33
100
AcDbDictionary
280
     1
281
     1
  3
ACAD_XREC_ROUNDTRIP
360
26A
  0
DICTIONARY
  5
287
330
42
100
AcDbDictionary
280
     1
281
     1
  3
ACAD_XREC_ROUNDTRIP
360
288
  0
DICTIONARY
  5
285
330
41
100
AcDbDictionary
280
     1
281
     1
  3
ACAD_XREC_ROUNDTRIP
360
286
  0
DICTIONARY
  5
27F
330
3E
100
AcDbDictionary
280
     1
281
     1
  3
ACAD_XREC_ROUNDTRIP
360
280
  0
DICTIONARY
  5
281
330
3F
100
AcDbDictionary
280
     1
281
     1
  3
ACAD_XREC_ROUNDTRIP
360
282
  0
DICTIONARY
  5
271
330
37
100
AcDbDictionary
280
     1
281
     1
  3
ACAD_XREC_ROUNDTRIP
360
272
  0
DICTIONARY
  5
263
330
30
100
AcDbDictionary
280
     1
281
     1
  3
ACAD_XREC_ROUNDTRIP
360
264
  0
DICTIONARY
  5
283
330
40
100
AcDbDictionary
280
     1
281
     1
  3
ACAD_XREC_ROUNDTRIP
360
284
  0
XRECORD
  5
28C
102
{ACAD_REACTORS
330
28B
102
}
330
28B
100
AcDbXrecord
280
     1
102
ACAD_ROUNDTRIP_2010_MLEADER_STYLE
  0
CELLSTYLEMAP
  5
28A
102
{ACAD_REACTORS
330
289
102
}
330
289
100
AcDbCellStyleMap
 90
        3
300
CELLSTYLE
  1
TABLEFORMAT_BEGIN
 90
        5
170
     1
 91
        0
 92
    32768
 62
   257
 93
        1
300
CONTENTFORMAT
  1
CONTENTFORMAT_BEGIN
 90
        0
 91
        0
 92
        4
 93
        0
300

 40
0.0
140
1.0
 94
        5
 62
     0
340
11
144
6.0
309
CONTENTFORMAT_END
171
     1
301
MARGIN
  1
CELLMARGIN_BEGIN
 40
1.5
 40
1.5
 40
1.5
 40
1.5
 40
1.5
 40
1.5
309
CELLMARGIN_END
 94
        6
 95
        1
302
GRIDFORMAT
  1
GRIDFORMAT_BEGIN
 90
        0
 91
        1
 62
     0
 92
       -2
340
14
 93
        0
 40
0.045
309
GRIDFORMAT_END
 95
        2
302
GRIDFORMAT
  1
GRIDFORMAT_BEGIN
 90
        0
 91
        1
 62
     0
 92
       -2
340
14
 93
        0
 40
0.045
309
GRIDFORMAT_END
 95
        4
302
GRIDFORMAT
  1
GRIDFORMAT_BEGIN
 90
        0
 91
        1
 62
     0
 92
       -2
340
14
 93
        0
 40
0.045
309
GRIDFORMAT_END
 95
        8
302
GRIDFORMAT
  1
GRIDFORMAT_BEGIN
 90
        0
 91
        1
 62
     0
 92
       -2
340
14
 93
        0
 40
0.045
309
GRIDFORMAT_END
 95
       16
302
GRIDFORMAT
  1
GRIDFORMAT_BEGIN
 90
        0
 91
        1
 62
     0
 92
       -2
340
14
 93
        0
 40
0.045
309
GRIDFORMAT_END
 95
       32
302
GRIDFORMAT
  1
GRIDFORMAT_BEGIN
 90
        0
 91
        1
 62
     0
 92
       -2
340
14
 93
        0
 40
0.045
309
GRIDFORMAT_END
309
TABLEFORMAT_END
  1
CELLSTYLE_BEGIN
 90
        1
 91
        1
300
_TITLE
309
CELLSTYLE_END
300
CELLSTYLE
  1
TABLEFORMAT_BEGIN
 90
        5
170
     1
 91
        0
 92
        0
 62
   257
 93
        1
300
CONTENTFORMAT
  1
CONTENTFORMAT_BEGIN
 90
        0
 91
        0
 92
        4
 93
        0
300

 40
0.0
140
1.0
 94
        5
 62
     0
340
11
144
4.5
309
CONTENTFORMAT_END
171
     1
301
MARGIN
  1
CELLMARGIN_BEGIN
 40
1.5
 40
1.5
 40
1.5
 40
1.5
 40
1.5
 40
1.5
309
CELLMARGIN_END
 94
        6
 95
        1
302
GRIDFORMAT
  1
GRIDFORMAT_BEGIN
 90
        0
 91
        1
 62
     0
 92
       -2
340
14
 93
        0
 40
0.045
309
GRIDFORMAT_END
 95
        2
302
GRIDFORMAT
  1
GRIDFORMAT_BEGIN
 90
        0
 91
        1
 62
     0
 92
       -2
340
14
 93
        0
 40
0.045
309
GRIDFORMAT_END
 95
        4
302
GRIDFORMAT
  1
GRIDFORMAT_BEGIN
 90
        0
 91
        1
 62
     0
 92
       -2
340
14
 93
        0
 40
0.045
309
GRIDFORMAT_END
 95
        8
302
GRIDFORMAT
  1
GRIDFORMAT_BEGIN
 90
        0
 91
        1
 62
     0
 92
       -2
340
14
 93
        0
 40
0.045
309
GRIDFORMAT_END
 95
       16
302
GRIDFORMAT
  1
GRIDFORMAT_BEGIN
 90
        0
 91
        1
 62
     0
 92
       -2
340
14
 93
        0
 40
0.045
309
GRIDFORMAT_END
 95
       32
302
GRIDFORMAT
  1
GRIDFORMAT_BEGIN
 90
        0
 91
        1
 62
     0
 92
       -2
340
14
 93
        0
 40
0.045
309
GRIDFORMAT_END
309
TABLEFORMAT_END
  1
CELLSTYLE_BEGIN
 90
        2
 91
        1
300
_HEADER
309
CELLSTYLE_END
300
CELLSTYLE
  1
TABLEFORMAT_BEGIN
 90
        5
170
     1
 91
        0
 92
        0
 62
   257
 93
        1
300
CONTENTFORMAT
  1
CONTENTFORMAT_BEGIN
 90
        0
 91
        0
 92
        4
 93
        0
300

 40
0.0
140
1.0
 94
        2
 62
     0
340
11
144
4.5
309
CONTENTFORMAT_END
171
     1
301
MARGIN
  1
CELLMARGIN_BEGIN
 40
1.5
 40
1.5
 40
1.5
 40
1.5
 40
1.5
 40
1.5
309
CELLMARGIN_END
 94
        6
 95
        1
302
GRIDFORMAT
  1
GRIDFORMAT_BEGIN
 90
        0
 91
        1
 62
     0
 92
       -2
340
14
 93
        0
 40
0.045
309
GRIDFORMAT_END
 95
        2
302
GRIDFORMAT
  1
GRIDFORMAT_BEGIN
 90
        0
 91
        1
 62
     0
 92
       -2
340
14
 93
        0
 40
0.045
309
GRIDFORMAT_END
 95
        4
302
GRIDFORMAT
  1
GRIDFORMAT_BEGIN
 90
        0
 91
        1
 62
     0
 92
       -2
340
14
 93
        0
 40
0.045
309
GRIDFORMAT_END
 95
        8
302
GRIDFORMAT
  1
GRIDFORMAT_BEGIN
 90
        0
 91
        1
 62
     0
 92
       -2
340
14
 93
        0
 40
0.045
309
GRIDFORMAT_END
 95
       16
302
GRIDFORMAT
  1
GRIDFORMAT_BEGIN
 90
        0
 91
        1
 62
     0
 92
       -2
340
14
 93
        0
 40
0.045
309
GRIDFORMAT_END
 95
       32
302
GRIDFORMAT
  1
GRIDFORMAT_BEGIN
 90
        0
 91
        1
 62
     0
 92
       -2
340
14
 93
        0
 40
0.045
309
GRIDFORMAT_END
309
TABLEFORMAT_END
  1
CELLSTYLE_BEGIN
 90
        3
 91
        2
300
_DATA
309
CELLSTYLE_END
  0
XRECORD
  5
262
102
{ACAD_REACTORS
330
261
102
}
330
261
100
AcDbXrecord
280
     1
102
RTVSPropertyOp0
 70
     1
102
RTVSPropertyOp1
 70
     1
102
RTVSPropertyOp2
 70
     1
102
RTVSPropertyOp3
 70
     1
102
RTVSPropertyOp4
 70
     1
102
RTVSPropertyOp5
 70
     1
102
RTVSPropertyOp6
 70
     1
102
RTVSPropertyOp7
 70
     1
102
RTVSPropertyOp8
 70
     1
102
RTVSPropertyOp9
 70
     1
102
RTVSPropertyOp10
 70
     1
102
RTVSPropertyOp11
 70
     1
102
RTVSPropertyOp12
 70
     1
102
RTVSPropertyOp13
 70
     1
102
RTVSPropertyOp14
 70
     1
102
RTVSPropertyOp15
 70
     1
102
RTVSPropertyOp16
 70
     1
102
RTVSPropertyOp17
 70
     1
102
RTVSPropertyOp18
 70
     1
102
RTVSPropertyOp19
 70
     1
102
RTVSPropertyOp20
 70
     1
102
RTVSPropertyOp21
 70
     1
102
RTVSPropertyOp22
 70
     1
102
RTVSPropertyOp23
 70
     1
102
RTVSPropertyOp24
 70
     1
102
RTVSPropertyOp25
 70
     1
102
RTVSPropertyOp26
 70
     1
102
RTVSPropertyOp27
 70
     1
102
RTVSPropertyOp28
 70
     1
102
RTVSPropertyOp29
 70
     1
102
RTVSPropertyOp30
 70
     1
102
RTVSPropertyOp31
 70
     1
102
RTVSPropertyOp32
 70
     1
102
RTVSPropertyOp33
 70
     1
102
RTVSPropertyOp34
 70
     1
102
RTVSPropertyOp35
 70
     1
102
RTVSPropertyOp36
 70
     1
102
RTVSPropertyOp37
 70
     1
102
RTVSPropertyOp38
 70
     1
102
RTVSPropertyOp39
 70
     1
102
RTVSPropertyOp40
 70
     1
102
RTVSPropertyOp41
 70
     1
102
RTVSPropertyOp42
 70
     1
102
RTVSPropertyOp43
 70
     1
102
RTVSPropertyOp44
 70
     1
102
RTVSPropertyOp45
 70
     1
102
RTVSPropertyOp46
 70
     1
102
RTVSPropertyOp47
 70
     1
102
RTVSPropertyOp48
 70
     1
102
RTVSPropertyOp49
 70
     1
102
RTVSPropertyOp50
 70
     1
102
RTVSPropertyOp51
 70
     0
102
RTVSPropertyOp52
 70
     0
102
RTVSPropertyOp53
 70
     1
102
RTVSPropertyOp54
 70
     1
102
RTVSPropertyOp55
 70
     1
102
RTVSPropertyOp56
 70
     1
102
RTVSPropertyOp57
 70
     1
102
RTVSPost2010Prop28
280
     1
102
RTVSPost2010PropOp28
 70
     1
102
RTVSPost2010Prop29
280
     1
102
RTVSPost2010PropOp29
 70
     1
102
RTVSPost2010Prop30
280
     0
102
RTVSPost2010PropOp30
 70
     1
102
RTVSPost2010Prop31
280
     0
102
RTVSPost2010PropOp31
 70
     1
102
RTVSPost2010Prop32
280
     0
102
RTVSPost2010PropOp32
 70
     1
102
RTVSPost2010Prop33
280
     0
102
RTVSPost2010PropOp33
 70
     1
102
RTVSPost2010Prop34
280
     0
102
RTVSPost2010PropOp34
 70
     1
102
RTVSPost2010Prop35
280
     0
102
RTVSPost2010PropOp35
 70
     1
102
RTVSPost2010Prop36
280
     0
102
RTVSPost2010PropOp36
 70
     1
102
RTVSPost2010Prop37
 90
       50
102
RTVSPost2010PropOp37
 70
     1
102
RTVSPost2010Prop38
140
0.0
102
RTVSPost2010PropOp38
 70
     1
102
RTVSPost2010Prop39
140
1.0
102
RTVSPost2010PropOp39
 70
     1
102
RTVSPost2010Prop40
 90
        0
102
RTVSPost2010PropOp40
 70
     1
102
RTVSPost2010Prop41ColorIndex
 90
       18
102
RTVSPost2010Prop41ColorRGB
 90
        0
102
RTVSPost2010PropOp41
 70
     1
102
RTVSPost2010Prop42
 90
       50
102
RTVSPost2010PropOp42
 70
     1
102
RTVSPost2010Prop43
 90
        3
102
RTVSPost2010PropOp43
 70
     1
102
RTVSPost2010Prop44ColorIndex
 90
        5
102
RTVSPost2010Prop44ColorRGB
 90
      255
102
RTVSPost2010PropOp44
 70
     1
102
RTVSPost2010Prop45
280
     0
102
RTVSPost2010PropOp45
 70
     1
102
RTVSPost2010Prop46
 90
       50
102
RTVSPost2010PropOp46
 70
     1
102
RTVSPost2010Prop47
 90
       50
102
RTVSPost2010PropOp47
 70
     1
102
RTVSPost2010Prop48
 90
       50
102
RTVSPost2010PropOp48
 70
     1
102
RTVSPost2010Prop49
280
     0
102
RTVSPost2010PropOp49
 70
     1
102
RTVSPost2010Prop50
 90
       50
102
RTVSPost2010PropOp50
 70
     1
102
RTVSPost2010Prop51ColorIndex
 90
      256
102
RTVSPost2010Prop51ColorRGB
 90
-16777216
102
RTVSPost2010PropOp51
 70
     0
102
RTVSPost2010Prop52
140
1.0
102
RTVSPost2010PropOp52
 70
     0
102
RTVSPost2010Prop53
 90
        2
102
RTVSPost2010PropOp53
 70
     1
102
RTVSPost2010Prop54
  1
strokes_ogs.tif
102
RTVSPost2010PropOp54
 70
     1
102
RTVSPost2010Prop55
280
     0
102
RTVSPost2010PropOp55
 70
     1
102
RTVSPost2010Prop56
140
1.0
102
RTVSPost2010PropOp56
 70
     1
102
RTVSPost2010Prop57
140
1.0
102
RTVSPost2010PropOp57
 70
     1
  0
XRECORD
  5
268
102
{ACAD_REACTORS
330
267
102
}
330
267
100
AcDbXrecord
280
     1
102
RTVSPropertyOp0
 70
     1
102
RTVSPropertyOp1
 70
     1
102
RTVSPropertyOp2
 70
     1
102
RTVSPropertyOp3
 70
     1
102
RTVSPropertyOp4
 70
     1
102
RTVSPropertyOp5
 70
     1
102
RTVSPropertyOp6
 70
     1
102
RTVSPropertyOp7
 70
     1
102
RTVSPropertyOp8
 70
     1
102
RTVSPropertyOp9
 70
     1
102
RTVSPropertyOp10
 70
     1
102
RTVSPropertyOp11
 70
     1
102
RTVSPropertyOp12
 70
     1
102
RTVSPropertyOp13
 70
     1
102
RTVSPropertyOp14
 70
     1
102
RTVSPropertyOp15
 70
     1
102
RTVSPropertyOp16
 70
     1
102
RTVSPropertyOp17
 70
     1
102
RTVSPropertyOp18
 70
     1
102
RTVSPropertyOp19
 70
     1
102
RTVSPropertyOp20
 70
     1
102
RTVSPropertyOp21
 70
     1
102
RTVSPropertyOp22
 70
     1
102
RTVSPropertyOp23
 70
     1
102
RTVSPropertyOp24
 70
     1
102
RTVSPropertyOp25
 70
     1
102
RTVSPropertyOp26
 70
     1
102
RTVSPropertyOp27
 70
     1
102
RTVSPropertyOp28
 70
     1
102
RTVSPropertyOp29
 70
     1
102
RTVSPropertyOp30
 70
     1
102
RTVSPropertyOp31
 70
     1
102
RTVSPropertyOp32
 70
     1
102
RTVSPropertyOp33
 70
     1
102
RTVSPropertyOp34
 70
     1
102
RTVSPropertyOp35
 70
     1
102
RTVSPropertyOp36
 70
     1
102
RTVSPropertyOp37
 70
     1
102
RTVSPropertyOp38
 70
     1
102
RTVSPropertyOp39
 70
     1
102
RTVSPropertyOp40
 70
     1
102
RTVSPropertyOp41
 70
     1
102
RTVSPropertyOp42
 70
     1
102
RTVSPropertyOp43
 70
     1
102
RTVSPropertyOp44
 70
     1
102
RTVSPropertyOp45
 70
     1
102
RTVSPropertyOp46
 70
     1
102
RTVSPropertyOp47
 70
     1
102
RTVSPropertyOp48
 70
     1
102
RTVSPropertyOp49
 70
     1
102
RTVSPropertyOp50
 70
     1
102
RTVSPropertyOp51
 70
     0
102
RTVSPropertyOp52
 70
     0
102
RTVSPropertyOp53
 70
     1
102
RTVSPropertyOp54
 70
     1
102
RTVSPropertyOp55
 70
     1
102
RTVSPropertyOp56
 70
     1
102
RTVSPropertyOp57
 70
     1
102
RTVSPost2010Prop28
280
     0
102
RTVSPost2010PropOp28
 70
     1
102
RTVSPost2010Prop29
280
     1
102
RTVSPost2010PropOp29
 70
     1
102
RTVSPost2010Prop30
280
     1
102
RTVSPost2010PropOp30
 70
     1
102
RTVSPost2010Prop31
280
     0
102
RTVSPost2010PropOp31
 70
     1
102
RTVSPost2010Prop32
280
     0
102
RTVSPost2010PropOp32
 70
     1
102
RTVSPost2010Prop33
280
     0
102
RTVSPost2010PropOp33
 70
     1
102
RTVSPost2010Prop34
280
     0
102
RTVSPost2010PropOp34
 70
     1
102
RTVSPost2010Prop35
280
     0
102
RTVSPost2010PropOp35
 70
     1
102
RTVSPost2010Prop36
280
     0
102
RTVSPost2010PropOp36
 70
     1
102
RTVSPost2010Prop37
 90
       50
102
RTVSPost2010PropOp37
 70
     1
102
RTVSPost2010Prop38
140
0.0
102
RTVSPost2010PropOp38
 70
     1
102
RTVSPost2010Prop39
140
1.0
102
RTVSPost2010PropOp39
 70
     1
102
RTVSPost2010Prop40
 90
        0
102
RTVSPost2010PropOp40
 70
     1
102
RTVSPost2010Prop41ColorIndex
 90
       18
102
RTVSPost2010Prop41ColorRGB
 90
        0
102
RTVSPost2010PropOp41
 70
     1
102
RTVSPost2010Prop42
 90
       50
102
RTVSPost2010PropOp42
 70
     1
102
RTVSPost2010Prop43
 90
        3
102
RTVSPost2010PropOp43
 70
     1
102
RTVSPost2010Prop44ColorIndex
 90
        5
102
RTVSPost2010Prop44ColorRGB
 90
      255
102
RTVSPost2010PropOp44
 70
     1
102
RTVSPost2010Prop45
280
     0
102
RTVSPost2010PropOp45
 70
     1
102
RTVSPost2010Prop46
 90
       50
102
RTVSPost2010PropOp46
 70
     1
102
RTVSPost2010Prop47
 90
       50
102
RTVSPost2010PropOp47
 70
     1
102
RTVSPost2010Prop48
 90
       50
102
RTVSPost2010PropOp48
 70
     1
102
RTVSPost2010Prop49
280
     0
102
RTVSPost2010PropOp49
 70
     1
102
RTVSPost2010Prop50
 90
       50
102
RTVSPost2010PropOp50
 70
     1
102
RTVSPost2010Prop51ColorIndex
 90
      256
102
RTVSPost2010Prop51ColorRGB
 90
-16777216
102
RTVSPost2010PropOp51
 70
     0
102
RTVSPost2010Prop52
140
1.0
102
RTVSPost2010PropOp52
 70
     0
102
RTVSPost2010Prop53
 90
        2
102
RTVSPost2010PropOp53
 70
     1
102
RTVSPost2010Prop54
  1
strokes_ogs.tif
102
RTVSPost2010PropOp54
 70
     1
102
RTVSPost2010Prop55
280
     0
102
RTVSPost2010PropOp55
 70
     1
102
RTVSPost2010Prop56
140
1.0
102
RTVSPost2010PropOp56
 70
     1
102
RTVSPost2010Prop57
140
1.0
102
RTVSPost2010PropOp57
 70
     1
  0
XRECORD
  5
270
102
{ACAD_REACTORS
330
26F
102
}
330
26F
100
AcDbXrecord
280
     1
102
RTVSPropertyOp0
 70
     1
102
RTVSPropertyOp1
 70
     1
102
RTVSPropertyOp2
 70
     1
102
RTVSPropertyOp3
 70
     1
102
RTVSPropertyOp4
 70
     1
102
RTVSPropertyOp5
 70
     1
102
RTVSPropertyOp6
 70
     1
102
RTVSPropertyOp7
 70
     1
102
RTVSPropertyOp8
 70
     1
102
RTVSPropertyOp9
 70
     1
102
RTVSPropertyOp10
 70
     1
102
RTVSPropertyOp11
 70
     1
102
RTVSPropertyOp12
 70
     1
102
RTVSPropertyOp13
 70
     1
102
RTVSPropertyOp14
 70
     1
102
RTVSPropertyOp15
 70
     1
102
RTVSPropertyOp16
 70
     1
102
RTVSPropertyOp17
 70
     1
102
RTVSPropertyOp18
 70
     1
102
RTVSPropertyOp19
 70
     1
102
RTVSPropertyOp20
 70
     1
102
RTVSPropertyOp21
 70
     1
102
RTVSPropertyOp22
 70
     1
102
RTVSPropertyOp23
 70
     1
102
RTVSPropertyOp24
 70
     1
102
RTVSPropertyOp25
 70
     1
102
RTVSPropertyOp26
 70
     1
102
RTVSPropertyOp27
 70
     1
102
RTVSPropertyOp28
 70
     1
102
RTVSPropertyOp29
 70
     1
102
RTVSPropertyOp30
 70
     1
102
RTVSPropertyOp31
 70
     1
102
RTVSPropertyOp32
 70
     1
102
RTVSPropertyOp33
 70
     1
102
RTVSPropertyOp34
 70
     1
102
RTVSPropertyOp35
 70
     1
102
RTVSPropertyOp36
 70
     1
102
RTVSPropertyOp37
 70
     1
102
RTVSPropertyOp38
 70
     1
102
RTVSPropertyOp39
 70
     1
102
RTVSPropertyOp40
 70
     1
102
RTVSPropertyOp41
 70
     1
102
RTVSPropertyOp42
 70
     1
102
RTVSPropertyOp43
 70
     1
102
RTVSPropertyOp44
 70
     1
102
RTVSPropertyOp45
 70
     1
102
RTVSPropertyOp46
 70
     1
102
RTVSPropertyOp47
 70
     1
102
RTVSPropertyOp48
 70
     1
102
RTVSPropertyOp49
 70
     1
102
RTVSPropertyOp50
 70
     1
102
RTVSPropertyOp51
 70
     0
102
RTVSPropertyOp52
 70
     0
102
RTVSPropertyOp53
 70
     1
102
RTVSPropertyOp54
 70
     1
102
RTVSPropertyOp55
 70
     1
102
RTVSPropertyOp56
 70
     1
102
RTVSPropertyOp57
 70
     1
102
RTVSPost2010Prop28
280
     0
102
RTVSPost2010PropOp28
 70
     1
102
RTVSPost2010Prop29
280
     1
102
RTVSPost2010PropOp29
 70
     1
102
RTVSPost2010Prop30
280
     1
102
RTVSPost2010PropOp30
 70
     1
102
RTVSPost2010Prop31
280
     0
102
RTVSPost2010PropOp31
 70
     1
102
RTVSPost2010Prop32
280
     0
102
RTVSPost2010PropOp32
 70
     1
102
RTVSPost2010Prop33
280
     0
102
RTVSPost2010PropOp33
 70
     1
102
RTVSPost2010Prop34
280
     0
102
RTVSPost2010PropOp34
 70
     1
102
RTVSPost2010Prop35
280
     0
102
RTVSPost2010PropOp35
 70
     1
102
RTVSPost2010Prop36
280
     0
102
RTVSPost2010PropOp36
 70
     1
102
RTVSPost2010Prop37
 90
       50
102
RTVSPost2010PropOp37
 70
     1
102
RTVSPost2010Prop38
140
0.0
102
RTVSPost2010PropOp38
 70
     1
102
RTVSPost2010Prop39
140
1.0
102
RTVSPost2010PropOp39
 70
     1
102
RTVSPost2010Prop40
 90
        0
102
RTVSPost2010PropOp40
 70
     1
102
RTVSPost2010Prop41ColorIndex
 90
       18
102
RTVSPost2010Prop41ColorRGB
 90
        0
102
RTVSPost2010PropOp41
 70
     1
102
RTVSPost2010Prop42
 90
       50
102
RTVSPost2010PropOp42
 70
     1
102
RTVSPost2010Prop43
 90
        3
102
RTVSPost2010PropOp43
 70
     1
102
RTVSPost2010Prop44ColorIndex
 90
        5
102
RTVSPost2010Prop44ColorRGB
 90
      255
102
RTVSPost2010PropOp44
 70
     1
102
RTVSPost2010Prop45
280
     0
102
RTVSPost2010PropOp45
 70
     1
102
RTVSPost2010Prop46
 90
       50
102
RTVSPost2010PropOp46
 70
     1
102
RTVSPost2010Prop47
 90
       50
102
RTVSPost2010PropOp47
 70
     1
102
RTVSPost2010Prop48
 90
       50
102
RTVSPost2010PropOp48
 70
     1
102
RTVSPost2010Prop49
280
     0
102
RTVSPost2010PropOp49
 70
     1
102
RTVSPost2010Prop50
 90
       50
102
RTVSPost2010PropOp50
 70
     1
102
RTVSPost2010Prop51ColorIndex
 90
      256
102
RTVSPost2010Prop51ColorRGB
 90
-16777216
102
RTVSPost2010PropOp51
 70
     0
102
RTVSPost2010Prop52
140
1.0
102
RTVSPost2010PropOp52
 70
     0
102
RTVSPost2010Prop53
 90
        2
102
RTVSPost2010PropOp53
 70
     1
102
RTVSPost2010Prop54
  1
strokes_ogs.tif
102
RTVSPost2010PropOp54
 70
     1
102
RTVSPost2010Prop55
280
     0
102
RTVSPost2010PropOp55
 70
     1
102
RTVSPost2010Prop56
140
1.0
102
RTVSPost2010PropOp56
 70
     1
102
RTVSPost2010Prop57
140
1.0
102
RTVSPost2010PropOp57
 70
     1
  0
XRECORD
  5
278
102
{ACAD_REACTORS
330
277
102
}
330
277
100
AcDbXrecord
280
     1
102
RTVSPropertyOp0
 70
     1
102
RTVSPropertyOp1
 70
     1
102
RTVSPropertyOp2
 70
     1
102
RTVSPropertyOp3
 70
     1
102
RTVSPropertyOp4
 70
     1
102
RTVSPropertyOp5
 70
     1
102
RTVSPropertyOp6
 70
     1
102
RTVSPropertyOp7
 70
     1
102
RTVSPropertyOp8
 70
     1
102
RTVSPropertyOp9
 70
     1
102
RTVSPropertyOp10
 70
     1
102
RTVSPropertyOp11
 70
     1
102
RTVSPropertyOp12
 70
     1
102
RTVSPropertyOp13
 70
     1
102
RTVSPropertyOp14
 70
     1
102
RTVSPropertyOp15
 70
     1
102
RTVSPropertyOp16
 70
     1
102
RTVSPropertyOp17
 70
     1
102
RTVSPropertyOp18
 70
     1
102
RTVSPropertyOp19
 70
     1
102
RTVSPropertyOp20
 70
     1
102
RTVSPropertyOp21
 70
     1
102
RTVSPropertyOp22
 70
     1
102
RTVSPropertyOp23
 70
     1
102
RTVSPropertyOp24
 70
     1
102
RTVSPropertyOp25
 70
     1
102
RTVSPropertyOp26
 70
     1
102
RTVSPropertyOp27
 70
     1
102
RTVSPropertyOp28
 70
     1
102
RTVSPropertyOp29
 70
     1
102
RTVSPropertyOp30
 70
     1
102
RTVSPropertyOp31
 70
     1
102
RTVSPropertyOp32
 70
     1
102
RTVSPropertyOp33
 70
     1
102
RTVSPropertyOp34
 70
     1
102
RTVSPropertyOp35
 70
     1
102
RTVSPropertyOp36
 70
     1
102
RTVSPropertyOp37
 70
     1
102
RTVSPropertyOp38
 70
     1
102
RTVSPropertyOp39
 70
     1
102
RTVSPropertyOp40
 70
     1
102
RTVSPropertyOp41
 70
     1
102
RTVSPropertyOp42
 70
     1
102
RTVSPropertyOp43
 70
     1
102
RTVSPropertyOp44
 70
     1
102
RTVSPropertyOp45
 70
     1
102
RTVSPropertyOp46
 70
     1
102
RTVSPropertyOp47
 70
     1
102
RTVSPropertyOp48
 70
     1
102
RTVSPropertyOp49
 70
     1
102
RTVSPropertyOp50
 70
     1
102
RTVSPropertyOp51
 70
     0
102
RTVSPropertyOp52
 70
     0
102
RTVSPropertyOp53
 70
     1
102
RTVSPropertyOp54
 70
     1
102
RTVSPropertyOp55
 70
     1
102
RTVSPropertyOp56
 70
     1
102
RTVSPropertyOp57
 70
     1
102
RTVSPost2010Prop28
280
     0
102
RTVSPost2010PropOp28
 70
     1
102
RTVSPost2010Prop29
280
     1
102
RTVSPost2010PropOp29
 70
     1
102
RTVSPost2010Prop30
280
     1
102
RTVSPost2010PropOp30
 70
     1
102
RTVSPost2010Prop31
280
     0
102
RTVSPost2010PropOp31
 70
     1
102
RTVSPost2010Prop32
280
     0
102
RTVSPost2010PropOp32
 70
     1
102
RTVSPost2010Prop33
280
     0
102
RTVSPost2010PropOp33
 70
     1
102
RTVSPost2010Prop34
280
     0
102
RTVSPost2010PropOp34
 70
     1
102
RTVSPost2010Prop35
280
     0
102
RTVSPost2010PropOp35
 70
     1
102
RTVSPost2010Prop36
280
     0
102
RTVSPost2010PropOp36
 70
     1
102
RTVSPost2010Prop37
 90
       50
102
RTVSPost2010PropOp37
 70
     1
102
RTVSPost2010Prop38
140
0.0
102
RTVSPost2010PropOp38
 70
     1
102
RTVSPost2010Prop39
140
1.0
102
RTVSPost2010PropOp39
 70
     1
102
RTVSPost2010Prop40
 90
        0
102
RTVSPost2010PropOp40
 70
     1
102
RTVSPost2010Prop41ColorIndex
 90
       18
102
RTVSPost2010Prop41ColorRGB
 90
        0
102
RTVSPost2010PropOp41
 70
     1
102
RTVSPost2010Prop42
 90
       50
102
RTVSPost2010PropOp42
 70
     1
102
RTVSPost2010Prop43
 90
        3
102
RTVSPost2010PropOp43
 70
     1
102
RTVSPost2010Prop44ColorIndex
 90
        5
102
RTVSPost2010Prop44ColorRGB
 90
      255
102
RTVSPost2010PropOp44
 70
     1
102
RTVSPost2010Prop45
280
     0
102
RTVSPost2010PropOp45
 70
     1
102
RTVSPost2010Prop46
 90
       50
102
RTVSPost2010PropOp46
 70
     1
102
RTVSPost2010Prop47
 90
       50
102
RTVSPost2010PropOp47
 70
     1
102
RTVSPost2010Prop48
 90
       50
102
RTVSPost2010PropOp48
 70
     1
102
RTVSPost2010Prop49
280
     0
102
RTVSPost2010PropOp49
 70
     1
102
RTVSPost2010Prop50
 90
       50
102
RTVSPost2010PropOp50
 70
     1
102
RTVSPost2010Prop51ColorIndex
 90
      256
102
RTVSPost2010Prop51ColorRGB
 90
-16777216
102
RTVSPost2010PropOp51
 70
     0
102
RTVSPost2010Prop52
140
1.0
102
RTVSPost2010PropOp52
 70
     0
102
RTVSPost2010Prop53
 90
        2
102
RTVSPost2010PropOp53
 70
     1
102
RTVSPost2010Prop54
  1
strokes_ogs.tif
102
RTVSPost2010PropOp54
 70
     1
102
RTVSPost2010Prop55
280
     0
102
RTVSPost2010PropOp55
 70
     1
102
RTVSPost2010Prop56
140
1.0
102
RTVSPost2010PropOp56
 70
     1
102
RTVSPost2010Prop57
140
1.0
102
RTVSPost2010PropOp57
 70
     1
  0
XRECORD
  5
26C
102
{ACAD_REACTORS
330
26B
102
}
330
26B
100
AcDbXrecord
280
     1
102
RTVSPropertyOp0
 70
     1
102
RTVSPropertyOp1
 70
     1
102
RTVSPropertyOp2
 70
     1
102
RTVSPropertyOp3
 70
     1
102
RTVSPropertyOp4
 70
     1
102
RTVSPropertyOp5
 70
     1
102
RTVSPropertyOp6
 70
     1
102
RTVSPropertyOp7
 70
     1
102
RTVSPropertyOp8
 70
     1
102
RTVSPropertyOp9
 70
     1
102
RTVSPropertyOp10
 70
     1
102
RTVSPropertyOp11
 70
     1
102
RTVSPropertyOp12
 70
     1
102
RTVSPropertyOp13
 70
     1
102
RTVSPropertyOp14
 70
     1
102
RTVSPropertyOp15
 70
     1
102
RTVSPropertyOp16
 70
     1
102
RTVSPropertyOp17
 70
     1
102
RTVSPropertyOp18
 70
     1
102
RTVSPropertyOp19
 70
     1
102
RTVSPropertyOp20
 70
     1
102
RTVSPropertyOp21
 70
     1
102
RTVSPropertyOp22
 70
     1
102
RTVSPropertyOp23
 70
     1
102
RTVSPropertyOp24
 70
     1
102
RTVSPropertyOp25
 70
     1
102
RTVSPropertyOp26
 70
     1
102
RTVSPropertyOp27
 70
     1
102
RTVSPropertyOp28
 70
     1
102
RTVSPropertyOp29
 70
     1
102
RTVSPropertyOp30
 70
     1
102
RTVSPropertyOp31
 70
     1
102
RTVSPropertyOp32
 70
     1
102
RTVSPropertyOp33
 70
     1
102
RTVSPropertyOp34
 70
     1
102
RTVSPropertyOp35
 70
     1
102
RTVSPropertyOp36
 70
     1
102
RTVSPropertyOp37
 70
     1
102
RTVSPropertyOp38
 70
     1
102
RTVSPropertyOp39
 70
     1
102
RTVSPropertyOp40
 70
     1
102
RTVSPropertyOp41
 70
     1
102
RTVSPropertyOp42
 70
     1
102
RTVSPropertyOp43
 70
     1
102
RTVSPropertyOp44
 70
     1
102
RTVSPropertyOp45
 70
     1
102
RTVSPropertyOp46
 70
     1
102
RTVSPropertyOp47
 70
     1
102
RTVSPropertyOp48
 70
     1
102
RTVSPropertyOp49
 70
     1
102
RTVSPropertyOp50
 70
     1
102
RTVSPropertyOp51
 70
     0
102
RTVSPropertyOp52
 70
     0
102
RTVSPropertyOp53
 70
     1
102
RTVSPropertyOp54
 70
     1
102
RTVSPropertyOp55
 70
     1
102
RTVSPropertyOp56
 70
     1
102
RTVSPropertyOp57
 70
     1
102
RTVSPost2010Prop28
280
     0
102
RTVSPost2010PropOp28
 70
     1
102
RTVSPost2010Prop29
280
     1
102
RTVSPost2010PropOp29
 70
     1
102
RTVSPost2010Prop30
280
     1
102
RTVSPost2010PropOp30
 70
     1
102
RTVSPost2010Prop31
280
     0
102
RTVSPost2010PropOp31
 70
     1
102
RTVSPost2010Prop32
280
     0
102
RTVSPost2010PropOp32
 70
     1
102
RTVSPost2010Prop33
280
     0
102
RTVSPost2010PropOp33
 70
     1
102
RTVSPost2010Prop34
280
     0
102
RTVSPost2010PropOp34
 70
     1
102
RTVSPost2010Prop35
280
     0
102
RTVSPost2010PropOp35
 70
     1
102
RTVSPost2010Prop36
280
     0
102
RTVSPost2010PropOp36
 70
     1
102
RTVSPost2010Prop37
 90
       50
102
RTVSPost2010PropOp37
 70
     1
102
RTVSPost2010Prop38
140
0.0
102
RTVSPost2010PropOp38
 70
     1
102
RTVSPost2010Prop39
140
1.0
102
RTVSPost2010PropOp39
 70
     1
102
RTVSPost2010Prop40
 90
        0
102
RTVSPost2010PropOp40
 70
     1
102
RTVSPost2010Prop41ColorIndex
 90
       18
102
RTVSPost2010Prop41ColorRGB
 90
        0
102
RTVSPost2010PropOp41
 70
     1
102
RTVSPost2010Prop42
 90
       50
102
RTVSPost2010PropOp42
 70
     1
102
RTVSPost2010Prop43
 90
        3
102
RTVSPost2010PropOp43
 70
     1
102
RTVSPost2010Prop44ColorIndex
 90
        5
102
RTVSPost2010Prop44ColorRGB
 90
      255
102
RTVSPost2010PropOp44
 70
     1
102
RTVSPost2010Prop45
280
     0
102
RTVSPost2010PropOp45
 70
     1
102
RTVSPost2010Prop46
 90
       50
102
RTVSPost2010PropOp46
 70
     1
102
RTVSPost2010Prop47
 90
       50
102
RTVSPost2010PropOp47
 70
     1
102
RTVSPost2010Prop48
 90
       50
102
RTVSPost2010PropOp48
 70
     1
102
RTVSPost2010Prop49
280
     0
102
RTVSPost2010PropOp49
 70
     1
102
RTVSPost2010Prop50
 90
       50
102
RTVSPost2010PropOp50
 70
     1
102
RTVSPost2010Prop51ColorIndex
 90
      256
102
RTVSPost2010Prop51ColorRGB
 90
-16777216
102
RTVSPost2010PropOp51
 70
     0
102
RTVSPost2010Prop52
140
1.0
102
RTVSPost2010PropOp52
 70
     0
102
RTVSPost2010Prop53
 90
        2
102
RTVSPost2010PropOp53
 70
     1
102
RTVSPost2010Prop54
  1
strokes_ogs.tif
102
RTVSPost2010PropOp54
 70
     1
102
RTVSPost2010Prop55
280
     0
102
RTVSPost2010PropOp55
 70
     1
102
RTVSPost2010Prop56
140
1.0
102
RTVSPost2010PropOp56
 70
     1
102
RTVSPost2010Prop57
140
1.0
102
RTVSPost2010PropOp57
 70
     1
  0
XRECORD
  5
26E
102
{ACAD_REACTORS
330
26D
102
}
330
26D
100
AcDbXrecord
280
     1
102
RTVSPropertyOp0
 70
     1
102
RTVSPropertyOp1
 70
     1
102
RTVSPropertyOp2
 70
     1
102
RTVSPropertyOp3
 70
     1
102
RTVSPropertyOp4
 70
     1
102
RTVSPropertyOp5
 70
     1
102
RTVSPropertyOp6
 70
     1
102
RTVSPropertyOp7
 70
     1
102
RTVSPropertyOp8
 70
     1
102
RTVSPropertyOp9
 70
     1
102
RTVSPropertyOp10
 70
     1
102
RTVSPropertyOp11
 70
     1
102
RTVSPropertyOp12
 70
     1
102
RTVSPropertyOp13
 70
     1
102
RTVSPropertyOp14
 70
     1
102
RTVSPropertyOp15
 70
     1
102
RTVSPropertyOp16
 70
     1
102
RTVSPropertyOp17
 70
     1
102
RTVSPropertyOp18
 70
     1
102
RTVSPropertyOp19
 70
     1
102
RTVSPropertyOp20
 70
     1
102
RTVSPropertyOp21
 70
     1
102
RTVSPropertyOp22
 70
     1
102
RTVSPropertyOp23
 70
     1
102
RTVSPropertyOp24
 70
     1
102
RTVSPropertyOp25
 70
     1
102
RTVSPropertyOp26
 70
     1
102
RTVSPropertyOp27
 70
     1
102
RTVSPropertyOp28
 70
     1
102
RTVSPropertyOp29
 70
     1
102
RTVSPropertyOp30
 70
     1
102
RTVSPropertyOp31
 70
     1
102
RTVSPropertyOp32
 70
     1
102
RTVSPropertyOp33
 70
     1
102
RTVSPropertyOp34
 70
     1
102
RTVSPropertyOp35
 70
     1
102
RTVSPropertyOp36
 70
     1
102
RTVSPropertyOp37
 70
     1
102
RTVSPropertyOp38
 70
     1
102
RTVSPropertyOp39
 70
     1
102
RTVSPropertyOp40
 70
     1
102
RTVSPropertyOp41
 70
     1
102
RTVSPropertyOp42
 70
     1
102
RTVSPropertyOp43
 70
     1
102
RTVSPropertyOp44
 70
     1
102
RTVSPropertyOp45
 70
     1
102
RTVSPropertyOp46
 70
     1
102
RTVSPropertyOp47
 70
     1
102
RTVSPropertyOp48
 70
     1
102
RTVSPropertyOp49
 70
     1
102
RTVSPropertyOp50
 70
     1
102
RTVSPropertyOp51
 70
     0
102
RTVSPropertyOp52
 70
     0
102
RTVSPropertyOp53
 70
     1
102
RTVSPropertyOp54
 70
     1
102
RTVSPropertyOp55
 70
     1
102
RTVSPropertyOp56
 70
     1
102
RTVSPropertyOp57
 70
     1
102
RTVSPost2010Prop28
280
     0
102
RTVSPost2010PropOp28
 70
     1
102
RTVSPost2010Prop29
280
     1
102
RTVSPost2010PropOp29
 70
     1
102
RTVSPost2010Prop30
280
     1
102
RTVSPost2010PropOp30
 70
     1
102
RTVSPost2010Prop31
280
     0
102
RTVSPost2010PropOp31
 70
     1
102
RTVSPost2010Prop32
280
     0
102
RTVSPost2010PropOp32
 70
     1
102
RTVSPost2010Prop33
280
     0
102
RTVSPost2010PropOp33
 70
     1
102
RTVSPost2010Prop34
280
     0
102
RTVSPost2010PropOp34
 70
     1
102
RTVSPost2010Prop35
280
     0
102
RTVSPost2010PropOp35
 70
     1
102
RTVSPost2010Prop36
280
     0
102
RTVSPost2010PropOp36
 70
     1
102
RTVSPost2010Prop37
 90
       50
102
RTVSPost2010PropOp37
 70
     1
102
RTVSPost2010Prop38
140
0.0
102
RTVSPost2010PropOp38
 70
     1
102
RTVSPost2010Prop39
140
1.0
102
RTVSPost2010PropOp39
 70
     1
102
RTVSPost2010Prop40
 90
        0
102
RTVSPost2010PropOp40
 70
     1
102
RTVSPost2010Prop41ColorIndex
 90
       18
102
RTVSPost2010Prop41ColorRGB
 90
        0
102
RTVSPost2010PropOp41
 70
     1
102
RTVSPost2010Prop42
 90
       50
102
RTVSPost2010PropOp42
 70
     1
102
RTVSPost2010Prop43
 90
        3
102
RTVSPost2010PropOp43
 70
     1
102
RTVSPost2010Prop44ColorIndex
 90
        5
102
RTVSPost2010Prop44ColorRGB
 90
      255
102
RTVSPost2010PropOp44
 70
     1
102
RTVSPost2010Prop45
280
     0
102
RTVSPost2010PropOp45
 70
     1
102
RTVSPost2010Prop46
 90
       50
102
RTVSPost2010PropOp46
 70
     1
102
RTVSPost2010Prop47
 90
       50
102
RTVSPost2010PropOp47
 70
     1
102
RTVSPost2010Prop48
 90
       50
102
RTVSPost2010PropOp48
 70
     1
102
RTVSPost2010Prop49
280
     0
102
RTVSPost2010PropOp49
 70
     1
102
RTVSPost2010Prop50
 90
       50
102
RTVSPost2010PropOp50
 70
     1
102
RTVSPost2010Prop51ColorIndex
 90
      256
102
RTVSPost2010Prop51ColorRGB
 90
-16777216
102
RTVSPost2010PropOp51
 70
     0
102
RTVSPost2010Prop52
140
1.0
102
RTVSPost2010PropOp52
 70
     0
102
RTVSPost2010Prop53
 90
        2
102
RTVSPost2010PropOp53
 70
     1
102
RTVSPost2010Prop54
  1
strokes_ogs.tif
102
RTVSPost2010PropOp54
 70
     1
102
RTVSPost2010Prop55
280
     0
102
RTVSPost2010PropOp55
 70
     1
102
RTVSPost2010Prop56
140
1.0
102
RTVSPost2010PropOp56
 70
     1
102
RTVSPost2010Prop57
140
1.0
102
RTVSPost2010PropOp57
 70
     1
  0
XRECORD
  5
27E
102
{ACAD_REACTORS
330
27D
102
}
330
27D
100
AcDbXrecord
280
     1
102
RTVSPropertyOp0
 70
     0
102
RTVSPropertyOp1
 70
     0
102
RTVSPropertyOp2
 70
     0
102
RTVSPropertyOp3
 70
     0
102
RTVSPropertyOp4
 70
     0
102
RTVSPropertyOp5
 70
     0
102
RTVSPropertyOp6
 70
     0
102
RTVSPropertyOp7
 70
     0
102
RTVSPropertyOp8
 70
     0
102
RTVSPropertyOp9
 70
     0
102
RTVSPropertyOp10
 70
     0
102
RTVSPropertyOp11
 70
     0
102
RTVSPropertyOp12
 70
     0
102
RTVSPropertyOp13
 70
     0
102
RTVSPropertyOp14
 70
     2
102
RTVSPropertyOp15
 70
     0
102
RTVSPropertyOp16
 70
     0
102
RTVSPropertyOp17
 70
     0
102
RTVSPropertyOp18
 70
     0
102
RTVSPropertyOp19
 70
     0
102
RTVSPropertyOp20
 70
     0
102
RTVSPropertyOp21
 70
     0
102
RTVSPropertyOp22
 70
     0
102
RTVSPropertyOp23
 70
     0
102
RTVSPropertyOp24
 70
     0
102
RTVSPropertyOp25
 70
     0
102
RTVSPropertyOp26
 70
     0
102
RTVSPropertyOp27
 70
     0
102
RTVSPropertyOp28
 70
     0
102
RTVSPropertyOp29
 70
     0
102
RTVSPropertyOp30
 70
     0
102
RTVSPropertyOp31
 70
     0
102
RTVSPropertyOp32
 70
     0
102
RTVSPropertyOp33
 70
     0
102
RTVSPropertyOp34
 70
     0
102
RTVSPropertyOp35
 70
     0
102
RTVSPropertyOp36
 70
     0
102
RTVSPropertyOp37
 70
     0
102
RTVSPropertyOp38
 70
     0
102
RTVSPropertyOp39
 70
     0
102
RTVSPropertyOp40
 70
     0
102
RTVSPropertyOp41
 70
     0
102
RTVSPropertyOp42
 70
     0
102
RTVSPropertyOp43
 70
     0
102
RTVSPropertyOp44
 70
     0
102
RTVSPropertyOp45
 70
     0
102
RTVSPropertyOp46
 70
     0
102
RTVSPropertyOp47
 70
     0
102
RTVSPropertyOp48
 70
     0
102
RTVSPropertyOp49
 70
     0
102
RTVSPropertyOp50
 70
     0
102
RTVSPropertyOp51
 70
     0
102
RTVSPropertyOp52
 70
     0
102
RTVSPropertyOp53
 70
     0
102
RTVSPropertyOp54
 70
     0
102
RTVSPropertyOp55
 70
     0
102
RTVSPropertyOp56
 70
     0
102
RTVSPropertyOp57
 70
     0
102
RTVSPost2010Prop28
280
     0
102
RTVSPost2010PropOp28
 70
     0
102
RTVSPost2010Prop29
280
     1
102
RTVSPost2010PropOp29
 70
     0
102
RTVSPost2010Prop30
280
     1
102
RTVSPost2010PropOp30
 70
     0
102
RTVSPost2010Prop31
280
     0
102
RTVSPost2010PropOp31
 70
     0
102
RTVSPost2010Prop32
280
     0
102
RTVSPost2010PropOp32
 70
     0
102
RTVSPost2010Prop33
280
     0
102
RTVSPost2010PropOp33
 70
     0
102
RTVSPost2010Prop34
280
     0
102
RTVSPost2010PropOp34
 70
     0
102
RTVSPost2010Prop35
280
     0
102
RTVSPost2010PropOp35
 70
     0
102
RTVSPost2010Prop36
280
     0
102
RTVSPost2010PropOp36
 70
     0
102
RTVSPost2010Prop37
 90
       50
102
RTVSPost2010PropOp37
 70
     0
102
RTVSPost2010Prop38
140
0.0
102
RTVSPost2010PropOp38
 70
     0
102
RTVSPost2010Prop39
140
1.0
102
RTVSPost2010PropOp39
 70
     0
102
RTVSPost2010Prop40
 90
        0
102
RTVSPost2010PropOp40
 70
     0
102
RTVSPost2010Prop41ColorIndex
 90
       18
102
RTVSPost2010Prop41ColorRGB
 90
        0
102
RTVSPost2010PropOp41
 70
     0
102
RTVSPost2010Prop42
 90
       50
102
RTVSPost2010PropOp42
 70
     0
102
RTVSPost2010Prop43
 90
        3
102
RTVSPost2010PropOp43
 70
     0
102
RTVSPost2010Prop44ColorIndex
 90
        5
102
RTVSPost2010Prop44ColorRGB
 90
      255
102
RTVSPost2010PropOp44
 70
     0
102
RTVSPost2010Prop45
280
     0
102
RTVSPost2010PropOp45
 70
     0
102
RTVSPost2010Prop46
 90
       50
102
RTVSPost2010PropOp46
 70
     0
102
RTVSPost2010Prop47
 90
       50
102
RTVSPost2010PropOp47
 70
     0
102
RTVSPost2010Prop48
 90
       50
102
RTVSPost2010PropOp48
 70
     0
102
RTVSPost2010Prop49
280
     0
102
RTVSPost2010PropOp49
 70
     0
102
RTVSPost2010Prop50
 90
       50
102
RTVSPost2010PropOp50
 70
     0
102
RTVSPost2010Prop51ColorIndex
 90
      256
102
RTVSPost2010Prop51ColorRGB
 90
-16777216
102
RTVSPost2010PropOp51
 70
     0
102
RTVSPost2010Prop52
140
1.0
102
RTVSPost2010PropOp52
 70
     0
102
RTVSPost2010Prop53
 90
        2
102
RTVSPost2010PropOp53
 70
     0
102
RTVSPost2010Prop54
  1
strokes_ogs.tif
102
RTVSPost2010PropOp54
 70
     0
102
RTVSPost2010Prop55
280
     0
102
RTVSPost2010PropOp55
 70
     0
102
RTVSPost2010Prop56
140
1.0
102
RTVSPost2010PropOp56
 70
     0
102
RTVSPost2010Prop57
140
1.0
102
RTVSPost2010PropOp57
 70
     0
  0
XRECORD
  5
276
102
{ACAD_REACTORS
330
275
102
}
330
275
100
AcDbXrecord
280
     1
102
RTVSPropertyOp0
 70
     1
102
RTVSPropertyOp1
 70
     1
102
RTVSPropertyOp2
 70
     1
102
RTVSPropertyOp3
 70
     1
102
RTVSPropertyOp4
 70
     1
102
RTVSPropertyOp5
 70
     1
102
RTVSPropertyOp6
 70
     1
102
RTVSPropertyOp7
 70
     1
102
RTVSPropertyOp8
 70
     1
102
RTVSPropertyOp9
 70
     1
102
RTVSPropertyOp10
 70
     1
102
RTVSPropertyOp11
 70
     1
102
RTVSPropertyOp12
 70
     1
102
RTVSPropertyOp13
 70
     1
102
RTVSPropertyOp14
 70
     1
102
RTVSPropertyOp15
 70
     1
102
RTVSPropertyOp16
 70
     1
102
RTVSPropertyOp17
 70
     1
102
RTVSPropertyOp18
 70
     1
102
RTVSPropertyOp19
 70
     1
102
RTVSPropertyOp20
 70
     1
102
RTVSPropertyOp21
 70
     1
102
RTVSPropertyOp22
 70
     1
102
RTVSPropertyOp23
 70
     1
102
RTVSPropertyOp24
 70
     1
102
RTVSPropertyOp25
 70
     1
102
RTVSPropertyOp26
 70
     1
102
RTVSPropertyOp27
 70
     1
102
RTVSPropertyOp28
 70
     1
102
RTVSPropertyOp29
 70
     1
102
RTVSPropertyOp30
 70
     1
102
RTVSPropertyOp31
 70
     1
102
RTVSPropertyOp32
 70
     1
102
RTVSPropertyOp33
 70
     1
102
RTVSPropertyOp34
 70
     1
102
RTVSPropertyOp35
 70
     1
102
RTVSPropertyOp36
 70
     1
102
RTVSPropertyOp37
 70
     1
102
RTVSPropertyOp38
 70
     1
102
RTVSPropertyOp39
 70
     1
102
RTVSPropertyOp40
 70
     1
102
RTVSPropertyOp41
 70
     1
102
RTVSPropertyOp42
 70
     1
102
RTVSPropertyOp43
 70
     1
102
RTVSPropertyOp44
 70
     1
102
RTVSPropertyOp45
 70
     1
102
RTVSPropertyOp46
 70
     1
102
RTVSPropertyOp47
 70
     1
102
RTVSPropertyOp48
 70
     1
102
RTVSPropertyOp49
 70
     1
102
RTVSPropertyOp50
 70
     1
102
RTVSPropertyOp51
 70
     0
102
RTVSPropertyOp52
 70
     0
102
RTVSPropertyOp53
 70
     1
102
RTVSPropertyOp54
 70
     1
102
RTVSPropertyOp55
 70
     1
102
RTVSPropertyOp56
 70
     1
102
RTVSPropertyOp57
 70
     1
102
RTVSPost2010Prop28
280
     0
102
RTVSPost2010PropOp28
 70
     1
102
RTVSPost2010Prop29
280
     1
102
RTVSPost2010PropOp29
 70
     1
102
RTVSPost2010Prop30
280
     1
102
RTVSPost2010PropOp30
 70
     1
102
RTVSPost2010Prop31
280
     0
102
RTVSPost2010PropOp31
 70
     1
102
RTVSPost2010Prop32
280
     0
102
RTVSPost2010PropOp32
 70
     1
102
RTVSPost2010Prop33
280
     0
102
RTVSPost2010PropOp33
 70
     1
102
RTVSPost2010Prop34
280
     0
102
RTVSPost2010PropOp34
 70
     1
102
RTVSPost2010Prop35
280
     0
102
RTVSPost2010PropOp35
 70
     1
102
RTVSPost2010Prop36
280
     0
102
RTVSPost2010PropOp36
 70
     1
102
RTVSPost2010Prop37
 90
       50
102
RTVSPost2010PropOp37
 70
     1
102
RTVSPost2010Prop38
140
0.0
102
RTVSPost2010PropOp38
 70
     1
102
RTVSPost2010Prop39
140
1.0
102
RTVSPost2010PropOp39
 70
     1
102
RTVSPost2010Prop40
 90
        0
102
RTVSPost2010PropOp40
 70
     1
102
RTVSPost2010Prop41ColorIndex
 90
       18
102
RTVSPost2010Prop41ColorRGB
 90
        0
102
RTVSPost2010PropOp41
 70
     1
102
RTVSPost2010Prop42
 90
       50
102
RTVSPost2010PropOp42
 70
     1
102
RTVSPost2010Prop43
 90
        3
102
RTVSPost2010PropOp43
 70
     1
102
RTVSPost2010Prop44ColorIndex
 90
        5
102
RTVSPost2010Prop44ColorRGB
 90
      255
102
RTVSPost2010PropOp44
 70
     1
102
RTVSPost2010Prop45
280
     0
102
RTVSPost2010PropOp45
 70
     1
102
RTVSPost2010Prop46
 90
       50
102
RTVSPost2010PropOp46
 70
     1
102
RTVSPost2010Prop47
 90
       50
102
RTVSPost2010PropOp47
 70
     1
102
RTVSPost2010Prop48
 90
       50
102
RTVSPost2010PropOp48
 70
     1
102
RTVSPost2010Prop49
280
     0
102
RTVSPost2010PropOp49
 70
     1
102
RTVSPost2010Prop50
 90
       50
102
RTVSPost2010PropOp50
 70
     1
102
RTVSPost2010Prop51ColorIndex
 90
      256
102
RTVSPost2010Prop51ColorRGB
 90
-16777216
102
RTVSPost2010PropOp51
 70
     0
102
RTVSPost2010Prop52
140
1.0
102
RTVSPost2010PropOp52
 70
     0
102
RTVSPost2010Prop53
 90
        2
102
RTVSPost2010PropOp53
 70
     1
102
RTVSPost2010Prop54
  1
strokes_ogs.tif
102
RTVSPost2010PropOp54
 70
     1
102
RTVSPost2010Prop55
280
     0
102
RTVSPost2010PropOp55
 70
     1
102
RTVSPost2010Prop56
140
1.0
102
RTVSPost2010PropOp56
 70
     1
102
RTVSPost2010Prop57
140
1.0
102
RTVSPost2010PropOp57
 70
     1
  0
XRECORD
  5
25A
102
{ACAD_REACTORS
330
259
102
}
330
259
100
AcDbXrecord
280
     1
102
RTVSPropertyOp0
 70
     1
102
RTVSPropertyOp1
 70
     1
102
RTVSPropertyOp2
 70
     1
102
RTVSPropertyOp3
 70
     1
102
RTVSPropertyOp4
 70
     1
102
RTVSPropertyOp5
 70
     1
102
RTVSPropertyOp6
 70
     1
102
RTVSPropertyOp7
 70
     1
102
RTVSPropertyOp8
 70
     1
102
RTVSPropertyOp9
 70
     1
102
RTVSPropertyOp10
 70
     1
102
RTVSPropertyOp11
 70
     1
102
RTVSPropertyOp12
 70
     1
102
RTVSPropertyOp13
 70
     1
102
RTVSPropertyOp14
 70
     1
102
RTVSPropertyOp15
 70
     1
102
RTVSPropertyOp16
 70
     1
102
RTVSPropertyOp17
 70
     1
102
RTVSPropertyOp18
 70
     1
102
RTVSPropertyOp19
 70
     1
102
RTVSPropertyOp20
 70
     1
102
RTVSPropertyOp21
 70
     1
102
RTVSPropertyOp22
 70
     1
102
RTVSPropertyOp23
 70
     1
102
RTVSPropertyOp24
 70
     1
102
RTVSPropertyOp25
 70
     1
102
RTVSPropertyOp26
 70
     1
102
RTVSPropertyOp27
 70
     1
102
RTVSPropertyOp28
 70
     1
102
RTVSPropertyOp29
 70
     1
102
RTVSPropertyOp30
 70
     1
102
RTVSPropertyOp31
 70
     1
102
RTVSPropertyOp32
 70
     1
102
RTVSPropertyOp33
 70
     1
102
RTVSPropertyOp34
 70
     1
102
RTVSPropertyOp35
 70
     1
102
RTVSPropertyOp36
 70
     1
102
RTVSPropertyOp37
 70
     1
102
RTVSPropertyOp38
 70
     1
102
RTVSPropertyOp39
 70
     1
102
RTVSPropertyOp40
 70
     1
102
RTVSPropertyOp41
 70
     1
102
RTVSPropertyOp42
 70
     1
102
RTVSPropertyOp43
 70
     1
102
RTVSPropertyOp44
 70
     1
102
RTVSPropertyOp45
 70
     1
102
RTVSPropertyOp46
 70
     1
102
RTVSPropertyOp47
 70
     1
102
RTVSPropertyOp48
 70
     1
102
RTVSPropertyOp49
 70
     1
102
RTVSPropertyOp50
 70
     1
102
RTVSPropertyOp51
 70
     0
102
RTVSPropertyOp52
 70
     0
102
RTVSPropertyOp53
 70
     1
102
RTVSPropertyOp54
 70
     1
102
RTVSPropertyOp55
 70
     1
102
RTVSPropertyOp56
 70
     1
102
RTVSPropertyOp57
 70
     1
102
RTVSPost2010Prop28
280
     0
102
RTVSPost2010PropOp28
 70
     1
102
RTVSPost2010Prop29
280
     1
102
RTVSPost2010PropOp29
 70
     1
102
RTVSPost2010Prop30
280
     1
102
RTVSPost2010PropOp30
 70
     1
102
RTVSPost2010Prop31
280
     0
102
RTVSPost2010PropOp31
 70
     1
102
RTVSPost2010Prop32
280
     0
102
RTVSPost2010PropOp32
 70
     1
102
RTVSPost2010Prop33
280
     0
102
RTVSPost2010PropOp33
 70
     1
102
RTVSPost2010Prop34
280
     0
102
RTVSPost2010PropOp34
 70
     1
102
RTVSPost2010Prop35
280
     0
102
RTVSPost2010PropOp35
 70
     1
102
RTVSPost2010Prop36
280
     0
102
RTVSPost2010PropOp36
 70
     1
102
RTVSPost2010Prop37
 90
       50
102
RTVSPost2010PropOp37
 70
     1
102
RTVSPost2010Prop38
140
0.0
102
RTVSPost2010PropOp38
 70
     1
102
RTVSPost2010Prop39
140
1.0
102
RTVSPost2010PropOp39
 70
     1
102
RTVSPost2010Prop40
 90
        0
102
RTVSPost2010PropOp40
 70
     1
102
RTVSPost2010Prop41ColorIndex
 90
       18
102
RTVSPost2010Prop41ColorRGB
 90
        0
102
RTVSPost2010PropOp41
 70
     1
102
RTVSPost2010Prop42
 90
       50
102
RTVSPost2010PropOp42
 70
     1
102
RTVSPost2010Prop43
 90
        3
102
RTVSPost2010PropOp43
 70
     1
102
RTVSPost2010Prop44ColorIndex
 90
        5
102
RTVSPost2010Prop44ColorRGB
 90
      255
102
RTVSPost2010PropOp44
 70
     1
102
RTVSPost2010Prop45
280
     0
102
RTVSPost2010PropOp45
 70
     1
102
RTVSPost2010Prop46
 90
       50
102
RTVSPost2010PropOp46
 70
     1
102
RTVSPost2010Prop47
 90
       50
102
RTVSPost2010PropOp47
 70
     1
102
RTVSPost2010Prop48
 90
       50
102
RTVSPost2010PropOp48
 70
     1
102
RTVSPost2010Prop49
280
     0
102
RTVSPost2010PropOp49
 70
     1
102
RTVSPost2010Prop50
 90
       50
102
RTVSPost2010PropOp50
 70
     1
102
RTVSPost2010Prop51ColorIndex
 90
      256
102
RTVSPost2010Prop51ColorRGB
 90
-16777216
102
RTVSPost2010PropOp51
 70
     0
102
RTVSPost2010Prop52
140
1.0
102
RTVSPost2010PropOp52
 70
     0
102
RTVSPost2010Prop53
 90
        2
102
RTVSPost2010PropOp53
 70
     1
102
RTVSPost2010Prop54
  1
strokes_ogs.tif
102
RTVSPost2010PropOp54
 70
     1
102
RTVSPost2010Prop55
280
     0
102
RTVSPost2010PropOp55
 70
     1
102
RTVSPost2010Prop56
140
1.0
102
RTVSPost2010PropOp56
 70
     1
102
RTVSPost2010Prop57
140
1.0
102
RTVSPost2010PropOp57
 70
     1
  0
XRECORD
  5
25C
102
{ACAD_REACTORS
330
25B
102
}
330
25B
100
AcDbXrecord
280
     1
102
RTVSPropertyOp0
 70
     1
102
RTVSPropertyOp1
 70
     1
102
RTVSPropertyOp2
 70
     1
102
RTVSPropertyOp3
 70
     1
102
RTVSPropertyOp4
 70
     1
102
RTVSPropertyOp5
 70
     1
102
RTVSPropertyOp6
 70
     1
102
RTVSPropertyOp7
 70
     1
102
RTVSPropertyOp8
 70
     1
102
RTVSPropertyOp9
 70
     1
102
RTVSPropertyOp10
 70
     1
102
RTVSPropertyOp11
 70
     1
102
RTVSPropertyOp12
 70
     1
102
RTVSPropertyOp13
 70
     1
102
RTVSPropertyOp14
 70
     1
102
RTVSPropertyOp15
 70
     1
102
RTVSPropertyOp16
 70
     1
102
RTVSPropertyOp17
 70
     1
102
RTVSPropertyOp18
 70
     1
102
RTVSPropertyOp19
 70
     1
102
RTVSPropertyOp20
 70
     1
102
RTVSPropertyOp21
 70
     1
102
RTVSPropertyOp22
 70
     1
102
RTVSPropertyOp23
 70
     1
102
RTVSPropertyOp24
 70
     1
102
RTVSPropertyOp25
 70
     1
102
RTVSPropertyOp26
 70
     1
102
RTVSPropertyOp27
 70
     1
102
RTVSPropertyOp28
 70
     1
102
RTVSPropertyOp29
 70
     1
102
RTVSPropertyOp30
 70
     1
102
RTVSPropertyOp31
 70
     1
102
RTVSPropertyOp32
 70
     1
102
RTVSPropertyOp33
 70
     1
102
RTVSPropertyOp34
 70
     1
102
RTVSPropertyOp35
 70
     1
102
RTVSPropertyOp36
 70
     1
102
RTVSPropertyOp37
 70
     1
102
RTVSPropertyOp38
 70
     1
102
RTVSPropertyOp39
 70
     1
102
RTVSPropertyOp40
 70
     1
102
RTVSPropertyOp41
 70
     1
102
RTVSPropertyOp42
 70
     1
102
RTVSPropertyOp43
 70
     1
102
RTVSPropertyOp44
 70
     1
102
RTVSPropertyOp45
 70
     1
102
RTVSPropertyOp46
 70
     1
102
RTVSPropertyOp47
 70
     1
102
RTVSPropertyOp48
 70
     1
102
RTVSPropertyOp49
 70
     1
102
RTVSPropertyOp50
 70
     1
102
RTVSPropertyOp51
 70
     0
102
RTVSPropertyOp52
 70
     0
102
RTVSPropertyOp53
 70
     1
102
RTVSPropertyOp54
 70
     1
102
RTVSPropertyOp55
 70
     1
102
RTVSPropertyOp56
 70
     1
102
RTVSPropertyOp57
 70
     1
102
RTVSPost2010Prop28
280
     0
102
RTVSPost2010PropOp28
 70
     1
102
RTVSPost2010Prop29
280
     1
102
RTVSPost2010PropOp29
 70
     1
102
RTVSPost2010Prop30
280
     1
102
RTVSPost2010PropOp30
 70
     1
102
RTVSPost2010Prop31
280
     0
102
RTVSPost2010PropOp31
 70
     1
102
RTVSPost2010Prop32
280
     0
102
RTVSPost2010PropOp32
 70
     1
102
RTVSPost2010Prop33
280
     0
102
RTVSPost2010PropOp33
 70
     1
102
RTVSPost2010Prop34
280
     0
102
RTVSPost2010PropOp34
 70
     1
102
RTVSPost2010Prop35
280
     0
102
RTVSPost2010PropOp35
 70
     1
102
RTVSPost2010Prop36
280
     0
102
RTVSPost2010PropOp36
 70
     1
102
RTVSPost2010Prop37
 90
       50
102
RTVSPost2010PropOp37
 70
     1
102
RTVSPost2010Prop38
140
0.0
102
RTVSPost2010PropOp38
 70
     1
102
RTVSPost2010Prop39
140
1.0
102
RTVSPost2010PropOp39
 70
     1
102
RTVSPost2010Prop40
 90
        0
102
RTVSPost2010PropOp40
 70
     1
102
RTVSPost2010Prop41ColorIndex
 90
       18
102
RTVSPost2010Prop41ColorRGB
 90
        0
102
RTVSPost2010PropOp41
 70
     1
102
RTVSPost2010Prop42
 90
       50
102
RTVSPost2010PropOp42
 70
     1
102
RTVSPost2010Prop43
 90
        3
102
RTVSPost2010PropOp43
 70
     1
102
RTVSPost2010Prop44ColorIndex
 90
        5
102
RTVSPost2010Prop44ColorRGB
 90
      255
102
RTVSPost2010PropOp44
 70
     1
102
RTVSPost2010Prop45
280
     0
102
RTVSPost2010PropOp45
 70
     1
102
RTVSPost2010Prop46
 90
       50
102
RTVSPost2010PropOp46
 70
     1
102
RTVSPost2010Prop47
 90
       50
102
RTVSPost2010PropOp47
 70
     1
102
RTVSPost2010Prop48
 90
       50
102
RTVSPost2010PropOp48
 70
     1
102
RTVSPost2010Prop49
280
     0
102
RTVSPost2010PropOp49
 70
     1
102
RTVSPost2010Prop50
 90
       50
102
RTVSPost2010PropOp50
 70
     1
102
RTVSPost2010Prop51ColorIndex
 90
      256
102
RTVSPost2010Prop51ColorRGB
 90
-16777216
102
RTVSPost2010PropOp51
 70
     0
102
RTVSPost2010Prop52
140
1.0
102
RTVSPost2010PropOp52
 70
     0
102
RTVSPost2010Prop53
 90
        2
102
RTVSPost2010PropOp53
 70
     1
102
RTVSPost2010Prop54
  1
strokes_ogs.tif
102
RTVSPost2010PropOp54
 70
     1
102
RTVSPost2010Prop55
280
     0
102
RTVSPost2010PropOp55
 70
     1
102
RTVSPost2010Prop56
140
1.0
102
RTVSPost2010PropOp56
 70
     1
102
RTVSPost2010Prop57
140
1.0
102
RTVSPost2010PropOp57
 70
     1
  0
XRECORD
  5
25E
102
{ACAD_REACTORS
330
25D
102
}
330
25D
100
AcDbXrecord
280
     1
102
RTVSPropertyOp0
 70
     1
102
RTVSPropertyOp1
 70
     1
102
RTVSPropertyOp2
 70
     1
102
RTVSPropertyOp3
 70
     1
102
RTVSPropertyOp4
 70
     1
102
RTVSPropertyOp5
 70
     1
102
RTVSPropertyOp6
 70
     1
102
RTVSPropertyOp7
 70
     1
102
RTVSPropertyOp8
 70
     1
102
RTVSPropertyOp9
 70
     1
102
RTVSPropertyOp10
 70
     1
102
RTVSPropertyOp11
 70
     1
102
RTVSPropertyOp12
 70
     1
102
RTVSPropertyOp13
 70
     1
102
RTVSPropertyOp14
 70
     1
102
RTVSPropertyOp15
 70
     1
102
RTVSPropertyOp16
 70
     1
102
RTVSPropertyOp17
 70
     1
102
RTVSPropertyOp18
 70
     1
102
RTVSPropertyOp19
 70
     1
102
RTVSPropertyOp20
 70
     1
102
RTVSPropertyOp21
 70
     1
102
RTVSPropertyOp22
 70
     1
102
RTVSPropertyOp23
 70
     1
102
RTVSPropertyOp24
 70
     1
102
RTVSPropertyOp25
 70
     1
102
RTVSPropertyOp26
 70
     1
102
RTVSPropertyOp27
 70
     1
102
RTVSPropertyOp28
 70
     1
102
RTVSPropertyOp29
 70
     1
102
RTVSPropertyOp30
 70
     1
102
RTVSPropertyOp31
 70
     1
102
RTVSPropertyOp32
 70
     1
102
RTVSPropertyOp33
 70
     1
102
RTVSPropertyOp34
 70
     1
102
RTVSPropertyOp35
 70
     1
102
RTVSPropertyOp36
 70
     1
102
RTVSPropertyOp37
 70
     1
102
RTVSPropertyOp38
 70
     1
102
RTVSPropertyOp39
 70
     1
102
RTVSPropertyOp40
 70
     1
102
RTVSPropertyOp41
 70
     1
102
RTVSPropertyOp42
 70
     1
102
RTVSPropertyOp43
 70
     1
102
RTVSPropertyOp44
 70
     1
102
RTVSPropertyOp45
 70
     1
102
RTVSPropertyOp46
 70
     1
102
RTVSPropertyOp47
 70
     1
102
RTVSPropertyOp48
 70
     1
102
RTVSPropertyOp49
 70
     1
102
RTVSPropertyOp50
 70
     1
102
RTVSPropertyOp51
 70
     0
102
RTVSPropertyOp52
 70
     0
102
RTVSPropertyOp53
 70
     1
102
RTVSPropertyOp54
 70
     1
102
RTVSPropertyOp55
 70
     1
102
RTVSPropertyOp56
 70
     1
102
RTVSPropertyOp57
 70
     1
102
RTVSPost2010Prop28
280
     0
102
RTVSPost2010PropOp28
 70
     1
102
RTVSPost2010Prop29
280
     1
102
RTVSPost2010PropOp29
 70
     1
102
RTVSPost2010Prop30
280
     1
102
RTVSPost2010PropOp30
 70
     1
102
RTVSPost2010Prop31
280
     0
102
RTVSPost2010PropOp31
 70
     1
102
RTVSPost2010Prop32
280
     0
102
RTVSPost2010PropOp32
 70
     1
102
RTVSPost2010Prop33
280
     0
102
RTVSPost2010PropOp33
 70
     1
102
RTVSPost2010Prop34
280
     0
102
RTVSPost2010PropOp34
 70
     1
102
RTVSPost2010Prop35
280
     0
102
RTVSPost2010PropOp35
 70
     1
102
RTVSPost2010Prop36
280
     0
102
RTVSPost2010PropOp36
 70
     1
102
RTVSPost2010Prop37
 90
       50
102
RTVSPost2010PropOp37
 70
     1
102
RTVSPost2010Prop38
140
0.0
102
RTVSPost2010PropOp38
 70
     1
102
RTVSPost2010Prop39
140
1.0
102
RTVSPost2010PropOp39
 70
     1
102
RTVSPost2010Prop40
 90
        0
102
RTVSPost2010PropOp40
 70
     1
102
RTVSPost2010Prop41ColorIndex
 90
       18
102
RTVSPost2010Prop41ColorRGB
 90
        0
102
RTVSPost2010PropOp41
 70
     1
102
RTVSPost2010Prop42
 90
       50
102
RTVSPost2010PropOp42
 70
     1
102
RTVSPost2010Prop43
 90
        3
102
RTVSPost2010PropOp43
 70
     1
102
RTVSPost2010Prop44ColorIndex
 90
        5
102
RTVSPost2010Prop44ColorRGB
 90
      255
102
RTVSPost2010PropOp44
 70
     1
102
RTVSPost2010Prop45
280
     0
102
RTVSPost2010PropOp45
 70
     1
102
RTVSPost2010Prop46
 90
       50
102
RTVSPost2010PropOp46
 70
     1
102
RTVSPost2010Prop47
 90
       50
102
RTVSPost2010PropOp47
 70
     1
102
RTVSPost2010Prop48
 90
       50
102
RTVSPost2010PropOp48
 70
     1
102
RTVSPost2010Prop49
280
     0
102
RTVSPost2010PropOp49
 70
     1
102
RTVSPost2010Prop50
 90
       50
102
RTVSPost2010PropOp50
 70
     1
102
RTVSPost2010Prop51ColorIndex
 90
      256
102
RTVSPost2010Prop51ColorRGB
 90
-16777216
102
RTVSPost2010PropOp51
 70
     0
102
RTVSPost2010Prop52
140
1.0
102
RTVSPost2010PropOp52
 70
     0
102
RTVSPost2010Prop53
 90
        2
102
RTVSPost2010PropOp53
 70
     1
102
RTVSPost2010Prop54
  1
strokes_ogs.tif
102
RTVSPost2010PropOp54
 70
     1
102
RTVSPost2010Prop55
280
     0
102
RTVSPost2010PropOp55
 70
     1
102
RTVSPost2010Prop56
140
1.0
102
RTVSPost2010PropOp56
 70
     1
102
RTVSPost2010Prop57
140
1.0
102
RTVSPost2010PropOp57
 70
     1
  0
XRECORD
  5
260
102
{ACAD_REACTORS
330
25F
102
}
330
25F
100
AcDbXrecord
280
     1
102
RTVSPropertyOp0
 70
     1
102
RTVSPropertyOp1
 70
     1
102
RTVSPropertyOp2
 70
     1
102
RTVSPropertyOp3
 70
     1
102
RTVSPropertyOp4
 70
     1
102
RTVSPropertyOp5
 70
     1
102
RTVSPropertyOp6
 70
     1
102
RTVSPropertyOp7
 70
     1
102
RTVSPropertyOp8
 70
     1
102
RTVSPropertyOp9
 70
     1
102
RTVSPropertyOp10
 70
     1
102
RTVSPropertyOp11
 70
     1
102
RTVSPropertyOp12
 70
     1
102
RTVSPropertyOp13
 70
     1
102
RTVSPropertyOp14
 70
     1
102
RTVSPropertyOp15
 70
     1
102
RTVSPropertyOp16
 70
     1
102
RTVSPropertyOp17
 70
     1
102
RTVSPropertyOp18
 70
     1
102
RTVSPropertyOp19
 70
     1
102
RTVSPropertyOp20
 70
     1
102
RTVSPropertyOp21
 70
     1
102
RTVSPropertyOp22
 70
     1
102
RTVSPropertyOp23
 70
     1
102
RTVSPropertyOp24
 70
     1
102
RTVSPropertyOp25
 70
     1
102
RTVSPropertyOp26
 70
     1
102
RTVSPropertyOp27
 70
     1
102
RTVSPropertyOp28
 70
     1
102
RTVSPropertyOp29
 70
     1
102
RTVSPropertyOp30
 70
     1
102
RTVSPropertyOp31
 70
     1
102
RTVSPropertyOp32
 70
     1
102
RTVSPropertyOp33
 70
     1
102
RTVSPropertyOp34
 70
     1
102
RTVSPropertyOp35
 70
     1
102
RTVSPropertyOp36
 70
     1
102
RTVSPropertyOp37
 70
     1
102
RTVSPropertyOp38
 70
     1
102
RTVSPropertyOp39
 70
     1
102
RTVSPropertyOp40
 70
     1
102
RTVSPropertyOp41
 70
     1
102
RTVSPropertyOp42
 70
     1
102
RTVSPropertyOp43
 70
     1
102
RTVSPropertyOp44
 70
     1
102
RTVSPropertyOp45
 70
     1
102
RTVSPropertyOp46
 70
     1
102
RTVSPropertyOp47
 70
     1
102
RTVSPropertyOp48
 70
     1
102
RTVSPropertyOp49
 70
     1
102
RTVSPropertyOp50
 70
     1
102
RTVSPropertyOp51
 70
     0
102
RTVSPropertyOp52
 70
     0
102
RTVSPropertyOp53
 70
     1
102
RTVSPropertyOp54
 70
     1
102
RTVSPropertyOp55
 70
     1
102
RTVSPropertyOp56
 70
     1
102
RTVSPropertyOp57
 70
     1
102
RTVSPost2010Prop28
280
     0
102
RTVSPost2010PropOp28
 70
     1
102
RTVSPost2010Prop29
280
     1
102
RTVSPost2010PropOp29
 70
     1
102
RTVSPost2010Prop30
280
     1
102
RTVSPost2010PropOp30
 70
     1
102
RTVSPost2010Prop31
280
     0
102
RTVSPost2010PropOp31
 70
     1
102
RTVSPost2010Prop32
280
     0
102
RTVSPost2010PropOp32
 70
     1
102
RTVSPost2010Prop33
280
     0
102
RTVSPost2010PropOp33
 70
     1
102
RTVSPost2010Prop34
280
     0
102
RTVSPost2010PropOp34
 70
     1
102
RTVSPost2010Prop35
280
     0
102
RTVSPost2010PropOp35
 70
     1
102
RTVSPost2010Prop36
280
     0
102
RTVSPost2010PropOp36
 70
     1
102
RTVSPost2010Prop37
 90
       50
102
RTVSPost2010PropOp37
 70
     1
102
RTVSPost2010Prop38
140
0.0
102
RTVSPost2010PropOp38
 70
     1
102
RTVSPost2010Prop39
140
1.0
102
RTVSPost2010PropOp39
 70
     1
102
RTVSPost2010Prop40
 90
        0
102
RTVSPost2010PropOp40
 70
     1
102
RTVSPost2010Prop41ColorIndex
 90
       18
102
RTVSPost2010Prop41ColorRGB
 90
        0
102
RTVSPost2010PropOp41
 70
     1
102
RTVSPost2010Prop42
 90
       50
102
RTVSPost2010PropOp42
 70
     1
102
RTVSPost2010Prop43
 90
        3
102
RTVSPost2010PropOp43
 70
     1
102
RTVSPost2010Prop44ColorIndex
 90
        5
102
RTVSPost2010Prop44ColorRGB
 90
      255
102
RTVSPost2010PropOp44
 70
     1
102
RTVSPost2010Prop45
280
     0
102
RTVSPost2010PropOp45
 70
     1
102
RTVSPost2010Prop46
 90
       50
102
RTVSPost2010PropOp46
 70
     1
102
RTVSPost2010Prop47
 90
       50
102
RTVSPost2010PropOp47
 70
     1
102
RTVSPost2010Prop48
 90
       50
102
RTVSPost2010PropOp48
 70
     1
102
RTVSPost2010Prop49
280
     0
102
RTVSPost2010PropOp49
 70
     1
102
RTVSPost2010Prop50
 90
       50
102
RTVSPost2010PropOp50
 70
     1
102
RTVSPost2010Prop51ColorIndex
 90
      256
102
RTVSPost2010Prop51ColorRGB
 90
-16777216
102
RTVSPost2010PropOp51
 70
     0
102
RTVSPost2010Prop52
140
1.0
102
RTVSPost2010PropOp52
 70
     0
102
RTVSPost2010Prop53
 90
        2
102
RTVSPost2010PropOp53
 70
     1
102
RTVSPost2010Prop54
  1
strokes_ogs.tif
102
RTVSPost2010PropOp54
 70
     1
102
RTVSPost2010Prop55
280
     0
102
RTVSPost2010PropOp55
 70
     1
102
RTVSPost2010Prop56
140
1.0
102
RTVSPost2010PropOp56
 70
     1
102
RTVSPost2010Prop57
140
1.0
102
RTVSPost2010PropOp57
 70
     1
  0
XRECORD
  5
266
102
{ACAD_REACTORS
330
265
102
}
330
265
100
AcDbXrecord
280
     1
102
RTVSPropertyOp0
 70
     1
102
RTVSPropertyOp1
 70
     1
102
RTVSPropertyOp2
 70
     1
102
RTVSPropertyOp3
 70
     1
102
RTVSPropertyOp4
 70
     1
102
RTVSPropertyOp5
 70
     1
102
RTVSPropertyOp6
 70
     1
102
RTVSPropertyOp7
 70
     1
102
RTVSPropertyOp8
 70
     1
102
RTVSPropertyOp9
 70
     1
102
RTVSPropertyOp10
 70
     1
102
RTVSPropertyOp11
 70
     1
102
RTVSPropertyOp12
 70
     1
102
RTVSPropertyOp13
 70
     1
102
RTVSPropertyOp14
 70
     1
102
RTVSPropertyOp15
 70
     1
102
RTVSPropertyOp16
 70
     1
102
RTVSPropertyOp17
 70
     1
102
RTVSPropertyOp18
 70
     1
102
RTVSPropertyOp19
 70
     1
102
RTVSPropertyOp20
 70
     1
102
RTVSPropertyOp21
 70
     1
102
RTVSPropertyOp22
 70
     1
102
RTVSPropertyOp23
 70
     1
102
RTVSPropertyOp24
 70
     1
102
RTVSPropertyOp25
 70
     1
102
RTVSPropertyOp26
 70
     1
102
RTVSPropertyOp27
 70
     1
102
RTVSPropertyOp28
 70
     1
102
RTVSPropertyOp29
 70
     1
102
RTVSPropertyOp30
 70
     1
102
RTVSPropertyOp31
 70
     1
102
RTVSPropertyOp32
 70
     1
102
RTVSPropertyOp33
 70
     1
102
RTVSPropertyOp34
 70
     1
102
RTVSPropertyOp35
 70
     1
102
RTVSPropertyOp36
 70
     1
102
RTVSPropertyOp37
 70
     1
102
RTVSPropertyOp38
 70
     1
102
RTVSPropertyOp39
 70
     1
102
RTVSPropertyOp40
 70
     1
102
RTVSPropertyOp41
 70
     1
102
RTVSPropertyOp42
 70
     1
102
RTVSPropertyOp43
 70
     1
102
RTVSPropertyOp44
 70
     1
102
RTVSPropertyOp45
 70
     1
102
RTVSPropertyOp46
 70
     1
102
RTVSPropertyOp47
 70
     1
102
RTVSPropertyOp48
 70
     1
102
RTVSPropertyOp49
 70
     1
102
RTVSPropertyOp50
 70
     1
102
RTVSPropertyOp51
 70
     0
102
RTVSPropertyOp52
 70
     0
102
RTVSPropertyOp53
 70
     1
102
RTVSPropertyOp54
 70
     1
102
RTVSPropertyOp55
 70
     1
102
RTVSPropertyOp56
 70
     1
102
RTVSPropertyOp57
 70
     1
102
RTVSPost2010Prop28
280
     0
102
RTVSPost2010PropOp28
 70
     1
102
RTVSPost2010Prop29
280
     1
102
RTVSPost2010PropOp29
 70
     1
102
RTVSPost2010Prop30
280
     1
102
RTVSPost2010PropOp30
 70
     1
102
RTVSPost2010Prop31
280
     0
102
RTVSPost2010PropOp31
 70
     1
102
RTVSPost2010Prop32
280
     0
102
RTVSPost2010PropOp32
 70
     1
102
RTVSPost2010Prop33
280
     0
102
RTVSPost2010PropOp33
 70
     1
102
RTVSPost2010Prop34
280
     0
102
RTVSPost2010PropOp34
 70
     1
102
RTVSPost2010Prop35
280
     0
102
RTVSPost2010PropOp35
 70
     1
102
RTVSPost2010Prop36
280
     0
102
RTVSPost2010PropOp36
 70
     1
102
RTVSPost2010Prop37
 90
       50
102
RTVSPost2010PropOp37
 70
     1
102
RTVSPost2010Prop38
140
0.0
102
RTVSPost2010PropOp38
 70
     1
102
RTVSPost2010Prop39
140
1.0
102
RTVSPost2010PropOp39
 70
     1
102
RTVSPost2010Prop40
 90
        0
102
RTVSPost2010PropOp40
 70
     1
102
RTVSPost2010Prop41ColorIndex
 90
       18
102
RTVSPost2010Prop41ColorRGB
 90
        0
102
RTVSPost2010PropOp41
 70
     1
102
RTVSPost2010Prop42
 90
       50
102
RTVSPost2010PropOp42
 70
     1
102
RTVSPost2010Prop43
 90
        3
102
RTVSPost2010PropOp43
 70
     1
102
RTVSPost2010Prop44ColorIndex
 90
        5
102
RTVSPost2010Prop44ColorRGB
 90
      255
102
RTVSPost2010PropOp44
 70
     1
102
RTVSPost2010Prop45
280
     0
102
RTVSPost2010PropOp45
 70
     1
102
RTVSPost2010Prop46
 90
       50
102
RTVSPost2010PropOp46
 70
     1
102
RTVSPost2010Prop47
 90
       50
102
RTVSPost2010PropOp47
 70
     1
102
RTVSPost2010Prop48
 90
       50
102
RTVSPost2010PropOp48
 70
     1
102
RTVSPost2010Prop49
280
     0
102
RTVSPost2010PropOp49
 70
     1
102
RTVSPost2010Prop50
 90
       50
102
RTVSPost2010PropOp50
 70
     1
102
RTVSPost2010Prop51ColorIndex
 90
      256
102
RTVSPost2010Prop51ColorRGB
 90
-16777216
102
RTVSPost2010PropOp51
 70
     0
102
RTVSPost2010Prop52
140
1.0
102
RTVSPost2010PropOp52
 70
     0
102
RTVSPost2010Prop53
 90
        2
102
RTVSPost2010PropOp53
 70
     1
102
RTVSPost2010Prop54
  1
strokes_ogs.tif
102
RTVSPost2010PropOp54
 70
     1
102
RTVSPost2010Prop55
280
     0
102
RTVSPost2010PropOp55
 70
     1
102
RTVSPost2010Prop56
140
1.0
102
RTVSPost2010PropOp56
 70
     1
102
RTVSPost2010Prop57
140
1.0
102
RTVSPost2010PropOp57
 70
     1
  0
XRECORD
  5
27A
102
{ACAD_REACTORS
330
279
102
}
330
279
100
AcDbXrecord
280
     1
102
RTVSPropertyOp0
 70
     0
102
RTVSPropertyOp1
 70
     0
102
RTVSPropertyOp2
 70
     0
102
RTVSPropertyOp3
 70
     0
102
RTVSPropertyOp4
 70
     0
102
RTVSPropertyOp5
 70
     0
102
RTVSPropertyOp6
 70
     0
102
RTVSPropertyOp7
 70
     0
102
RTVSPropertyOp8
 70
     0
102
RTVSPropertyOp9
 70
     0
102
RTVSPropertyOp10
 70
     0
102
RTVSPropertyOp11
 70
     0
102
RTVSPropertyOp12
 70
     0
102
RTVSPropertyOp13
 70
     0
102
RTVSPropertyOp14
 70
     2
102
RTVSPropertyOp15
 70
     0
102
RTVSPropertyOp16
 70
     0
102
RTVSPropertyOp17
 70
     0
102
RTVSPropertyOp18
 70
     0
102
RTVSPropertyOp19
 70
     0
102
RTVSPropertyOp20
 70
     0
102
RTVSPropertyOp21
 70
     0
102
RTVSPropertyOp22
 70
     0
102
RTVSPropertyOp23
 70
     0
102
RTVSPropertyOp24
 70
     0
102
RTVSPropertyOp25
 70
     0
102
RTVSPropertyOp26
 70
     0
102
RTVSPropertyOp27
 70
     0
102
RTVSPropertyOp28
 70
     0
102
RTVSPropertyOp29
 70
     0
102
RTVSPropertyOp30
 70
     0
102
RTVSPropertyOp31
 70
     0
102
RTVSPropertyOp32
 70
     0
102
RTVSPropertyOp33
 70
     0
102
RTVSPropertyOp34
 70
     0
102
RTVSPropertyOp35
 70
     0
102
RTVSPropertyOp36
 70
     0
102
RTVSPropertyOp37
 70
     0
102
RTVSPropertyOp38
 70
     0
102
RTVSPropertyOp39
 70
     0
102
RTVSPropertyOp40
 70
     0
102
RTVSPropertyOp41
 70
     0
102
RTVSPropertyOp42
 70
     0
102
RTVSPropertyOp43
 70
     0
102
RTVSPropertyOp44
 70
     0
102
RTVSPropertyOp45
 70
     0
102
RTVSPropertyOp46
 70
     0
102
RTVSPropertyOp47
 70
     0
102
RTVSPropertyOp48
 70
     0
102
RTVSPropertyOp49
 70
     0
102
RTVSPropertyOp50
 70
     0
102
RTVSPropertyOp51
 70
     0
102
RTVSPropertyOp52
 70
     0
102
RTVSPropertyOp53
 70
     0
102
RTVSPropertyOp54
 70
     0
102
RTVSPropertyOp55
 70
     0
102
RTVSPropertyOp56
 70
     0
102
RTVSPropertyOp57
 70
     0
102
RTVSPost2010Prop28
280
     0
102
RTVSPost2010PropOp28
 70
     0
102
RTVSPost2010Prop29
280
     1
102
RTVSPost2010PropOp29
 70
     0
102
RTVSPost2010Prop30
280
     1
102
RTVSPost2010PropOp30
 70
     0
102
RTVSPost2010Prop31
280
     0
102
RTVSPost2010PropOp31
 70
     0
102
RTVSPost2010Prop32
280
     0
102
RTVSPost2010PropOp32
 70
     0
102
RTVSPost2010Prop33
280
     0
102
RTVSPost2010PropOp33
 70
     0
102
RTVSPost2010Prop34
280
     0
102
RTVSPost2010PropOp34
 70
     0
102
RTVSPost2010Prop35
280
     0
102
RTVSPost2010PropOp35
 70
     0
102
RTVSPost2010Prop36
280
     0
102
RTVSPost2010PropOp36
 70
     0
102
RTVSPost2010Prop37
 90
       50
102
RTVSPost2010PropOp37
 70
     0
102
RTVSPost2010Prop38
140
0.0
102
RTVSPost2010PropOp38
 70
     0
102
RTVSPost2010Prop39
140
1.0
102
RTVSPost2010PropOp39
 70
     0
102
RTVSPost2010Prop40
 90
        0
102
RTVSPost2010PropOp40
 70
     0
102
RTVSPost2010Prop41ColorIndex
 90
       18
102
RTVSPost2010Prop41ColorRGB
 90
        0
102
RTVSPost2010PropOp41
 70
     0
102
RTVSPost2010Prop42
 90
       50
102
RTVSPost2010PropOp42
 70
     0
102
RTVSPost2010Prop43
 90
        3
102
RTVSPost2010PropOp43
 70
     0
102
RTVSPost2010Prop44ColorIndex
 90
        5
102
RTVSPost2010Prop44ColorRGB
 90
      255
102
RTVSPost2010PropOp44
 70
     0
102
RTVSPost2010Prop45
280
     0
102
RTVSPost2010PropOp45
 70
     0
102
RTVSPost2010Prop46
 90
       50
102
RTVSPost2010PropOp46
 70
     0
102
RTVSPost2010Prop47
 90
       50
102
RTVSPost2010PropOp47
 70
     0
102
RTVSPost2010Prop48
 90
       50
102
RTVSPost2010PropOp48
 70
     0
102
RTVSPost2010Prop49
280
     0
102
RTVSPost2010PropOp49
 70
     0
102
RTVSPost2010Prop50
 90
       50
102
RTVSPost2010PropOp50
 70
     0
102
RTVSPost2010Prop51ColorIndex
 90
      256
102
RTVSPost2010Prop51ColorRGB
 90
-16777216
102
RTVSPost2010PropOp51
 70
     0
102
RTVSPost2010Prop52
140
1.0
102
RTVSPost2010PropOp52
 70
     0
102
RTVSPost2010Prop53
 90
        2
102
RTVSPost2010PropOp53
 70
     0
102
RTVSPost2010Prop54
  1
strokes_ogs.tif
102
RTVSPost2010PropOp54
 70
     0
102
RTVSPost2010Prop55
280
     0
102
RTVSPost2010PropOp55
 70
     0
102
RTVSPost2010Prop56
140
1.0
102
RTVSPost2010PropOp56
 70
     0
102
RTVSPost2010Prop57
140
1.0
102
RTVSPost2010PropOp57
 70
     0
  0
XRECORD
  5
274
102
{ACAD_REACTORS
330
273
102
}
330
273
100
AcDbXrecord
280
     1
102
RTVSPropertyOp0
 70
     1
102
RTVSPropertyOp1
 70
     1
102
RTVSPropertyOp2
 70
     1
102
RTVSPropertyOp3
 70
     1
102
RTVSPropertyOp4
 70
     1
102
RTVSPropertyOp5
 70
     1
102
RTVSPropertyOp6
 70
     1
102
RTVSPropertyOp7
 70
     1
102
RTVSPropertyOp8
 70
     1
102
RTVSPropertyOp9
 70
     1
102
RTVSPropertyOp10
 70
     1
102
RTVSPropertyOp11
 70
     1
102
RTVSPropertyOp12
 70
     1
102
RTVSPropertyOp13
 70
     1
102
RTVSPropertyOp14
 70
     1
102
RTVSPropertyOp15
 70
     1
102
RTVSPropertyOp16
 70
     1
102
RTVSPropertyOp17
 70
     1
102
RTVSPropertyOp18
 70
     1
102
RTVSPropertyOp19
 70
     1
102
RTVSPropertyOp20
 70
     1
102
RTVSPropertyOp21
 70
     1
102
RTVSPropertyOp22
 70
     1
102
RTVSPropertyOp23
 70
     1
102
RTVSPropertyOp24
 70
     1
102
RTVSPropertyOp25
 70
     1
102
RTVSPropertyOp26
 70
     1
102
RTVSPropertyOp27
 70
     1
102
RTVSPropertyOp28
 70
     1
102
RTVSPropertyOp29
 70
     1
102
RTVSPropertyOp30
 70
     1
102
RTVSPropertyOp31
 70
     1
102
RTVSPropertyOp32
 70
     1
102
RTVSPropertyOp33
 70
     1
102
RTVSPropertyOp34
 70
     1
102
RTVSPropertyOp35
 70
     1
102
RTVSPropertyOp36
 70
     1
102
RTVSPropertyOp37
 70
     1
102
RTVSPropertyOp38
 70
     1
102
RTVSPropertyOp39
 70
     1
102
RTVSPropertyOp40
 70
     1
102
RTVSPropertyOp41
 70
     1
102
RTVSPropertyOp42
 70
     1
102
RTVSPropertyOp43
 70
     1
102
RTVSPropertyOp44
 70
     1
102
RTVSPropertyOp45
 70
     1
102
RTVSPropertyOp46
 70
     1
102
RTVSPropertyOp47
 70
     1
102
RTVSPropertyOp48
 70
     1
102
RTVSPropertyOp49
 70
     1
102
RTVSPropertyOp50
 70
     1
102
RTVSPropertyOp51
 70
     0
102
RTVSPropertyOp52
 70
     0
102
RTVSPropertyOp53
 70
     1
102
RTVSPropertyOp54
 70
     1
102
RTVSPropertyOp55
 70
     1
102
RTVSPropertyOp56
 70
     1
102
RTVSPropertyOp57
 70
     1
102
RTVSPost2010Prop28
280
     0
102
RTVSPost2010PropOp28
 70
     1
102
RTVSPost2010Prop29
280
     1
102
RTVSPost2010PropOp29
 70
     1
102
RTVSPost2010Prop30
280
     1
102
RTVSPost2010PropOp30
 70
     1
102
RTVSPost2010Prop31
280
     0
102
RTVSPost2010PropOp31
 70
     1
102
RTVSPost2010Prop32
280
     0
102
RTVSPost2010PropOp32
 70
     1
102
RTVSPost2010Prop33
280
     0
102
RTVSPost2010PropOp33
 70
     1
102
RTVSPost2010Prop34
280
     0
102
RTVSPost2010PropOp34
 70
     1
102
RTVSPost2010Prop35
280
     0
102
RTVSPost2010PropOp35
 70
     1
102
RTVSPost2010Prop36
280
     0
102
RTVSPost2010PropOp36
 70
     1
102
RTVSPost2010Prop37
 90
       50
102
RTVSPost2010PropOp37
 70
     1
102
RTVSPost2010Prop38
140
0.0
102
RTVSPost2010PropOp38
 70
     1
102
RTVSPost2010Prop39
140
1.0
102
RTVSPost2010PropOp39
 70
     1
102
RTVSPost2010Prop40
 90
        0
102
RTVSPost2010PropOp40
 70
     1
102
RTVSPost2010Prop41ColorIndex
 90
       18
102
RTVSPost2010Prop41ColorRGB
 90
        0
102
RTVSPost2010PropOp41
 70
     1
102
RTVSPost2010Prop42
 90
       50
102
RTVSPost2010PropOp42
 70
     1
102
RTVSPost2010Prop43
 90
        3
102
RTVSPost2010PropOp43
 70
     1
102
RTVSPost2010Prop44ColorIndex
 90
        5
102
RTVSPost2010Prop44ColorRGB
 90
      255
102
RTVSPost2010PropOp44
 70
     1
102
RTVSPost2010Prop45
280
     0
102
RTVSPost2010PropOp45
 70
     1
102
RTVSPost2010Prop46
 90
       50
102
RTVSPost2010PropOp46
 70
     1
102
RTVSPost2010Prop47
 90
       50
102
RTVSPost2010PropOp47
 70
     1
102
RTVSPost2010Prop48
 90
       50
102
RTVSPost2010PropOp48
 70
     1
102
RTVSPost2010Prop49
280
     0
102
RTVSPost2010PropOp49
 70
     1
102
RTVSPost2010Prop50
 90
       50
102
RTVSPost2010PropOp50
 70
     1
102
RTVSPost2010Prop51ColorIndex
 90
      256
102
RTVSPost2010Prop51ColorRGB
 90
-16777216
102
RTVSPost2010PropOp51
 70
     0
102
RTVSPost2010Prop52
140
1.0
102
RTVSPost2010PropOp52
 70
     0
102
RTVSPost2010Prop53
 90
        2
102
RTVSPost2010PropOp53
 70
     1
102
RTVSPost2010Prop54
  1
strokes_ogs.tif
102
RTVSPost2010PropOp54
 70
     1
102
RTVSPost2010Prop55
280
     0
102
RTVSPost2010PropOp55
 70
     1
102
RTVSPost2010Prop56
140
1.0
102
RTVSPost2010PropOp56
 70
     1
102
RTVSPost2010Prop57
140
1.0
102
RTVSPost2010PropOp57
 70
     1
  0
XRECORD
  5
27C
102
{ACAD_REACTORS
330
27B
102
}
330
27B
100
AcDbXrecord
280
     1
102
RTVSPropertyOp0
 70
     0
102
RTVSPropertyOp1
 70
     0
102
RTVSPropertyOp2
 70
     0
102
RTVSPropertyOp3
 70
     0
102
RTVSPropertyOp4
 70
     0
102
RTVSPropertyOp5
 70
     0
102
RTVSPropertyOp6
 70
     0
102
RTVSPropertyOp7
 70
     0
102
RTVSPropertyOp8
 70
     0
102
RTVSPropertyOp9
 70
     0
102
RTVSPropertyOp10
 70
     0
102
RTVSPropertyOp11
 70
     0
102
RTVSPropertyOp12
 70
     0
102
RTVSPropertyOp13
 70
     0
102
RTVSPropertyOp14
 70
     2
102
RTVSPropertyOp15
 70
     0
102
RTVSPropertyOp16
 70
     0
102
RTVSPropertyOp17
 70
     0
102
RTVSPropertyOp18
 70
     0
102
RTVSPropertyOp19
 70
     0
102
RTVSPropertyOp20
 70
     0
102
RTVSPropertyOp21
 70
     0
102
RTVSPropertyOp22
 70
     0
102
RTVSPropertyOp23
 70
     0
102
RTVSPropertyOp24
 70
     0
102
RTVSPropertyOp25
 70
     0
102
RTVSPropertyOp26
 70
     0
102
RTVSPropertyOp27
 70
     0
102
RTVSPropertyOp28
 70
     0
102
RTVSPropertyOp29
 70
     0
102
RTVSPropertyOp30
 70
     0
102
RTVSPropertyOp31
 70
     0
102
RTVSPropertyOp32
 70
     0
102
RTVSPropertyOp33
 70
     0
102
RTVSPropertyOp34
 70
     0
102
RTVSPropertyOp35
 70
     0
102
RTVSPropertyOp36
 70
     0
102
RTVSPropertyOp37
 70
     0
102
RTVSPropertyOp38
 70
     0
102
RTVSPropertyOp39
 70
     0
102
RTVSPropertyOp40
 70
     0
102
RTVSPropertyOp41
 70
     0
102
RTVSPropertyOp42
 70
     0
102
RTVSPropertyOp43
 70
     0
102
RTVSPropertyOp44
 70
     0
102
RTVSPropertyOp45
 70
     0
102
RTVSPropertyOp46
 70
     0
102
RTVSPropertyOp47
 70
     0
102
RTVSPropertyOp48
 70
     0
102
RTVSPropertyOp49
 70
     0
102
RTVSPropertyOp50
 70
     0
102
RTVSPropertyOp51
 70
     0
102
RTVSPropertyOp52
 70
     0
102
RTVSPropertyOp53
 70
     0
102
RTVSPropertyOp54
 70
     0
102
RTVSPropertyOp55
 70
     0
102
RTVSPropertyOp56
 70
     0
102
RTVSPropertyOp57
 70
     0
102
RTVSPost2010Prop28
280
     0
102
RTVSPost2010PropOp28
 70
     0
102
RTVSPost2010Prop29
280
     1
102
RTVSPost2010PropOp29
 70
     0
102
RTVSPost2010Prop30
280
     1
102
RTVSPost2010PropOp30
 70
     0
102
RTVSPost2010Prop31
280
     0
102
RTVSPost2010PropOp31
 70
     0
102
RTVSPost2010Prop32
280
     0
102
RTVSPost2010PropOp32
 70
     0
102
RTVSPost2010Prop33
280
     0
102
RTVSPost2010PropOp33
 70
     0
102
RTVSPost2010Prop34
280
     0
102
RTVSPost2010PropOp34
 70
     0
102
RTVSPost2010Prop35
280
     0
102
RTVSPost2010PropOp35
 70
     0
102
RTVSPost2010Prop36
280
     0
102
RTVSPost2010PropOp36
 70
     0
102
RTVSPost2010Prop37
 90
       50
102
RTVSPost2010PropOp37
 70
     0
102
RTVSPost2010Prop38
140
0.0
102
RTVSPost2010PropOp38
 70
     0
102
RTVSPost2010Prop39
140
1.0
102
RTVSPost2010PropOp39
 70
     0
102
RTVSPost2010Prop40
 90
        0
102
RTVSPost2010PropOp40
 70
     0
102
RTVSPost2010Prop41ColorIndex
 90
       18
102
RTVSPost2010Prop41ColorRGB
 90
        0
102
RTVSPost2010PropOp41
 70
     0
102
RTVSPost2010Prop42
 90
       50
102
RTVSPost2010PropOp42
 70
     0
102
RTVSPost2010Prop43
 90
        3
102
RTVSPost2010PropOp43
 70
     0
102
RTVSPost2010Prop44ColorIndex
 90
        5
102
RTVSPost2010Prop44ColorRGB
 90
      255
102
RTVSPost2010PropOp44
 70
     0
102
RTVSPost2010Prop45
280
     0
102
RTVSPost2010PropOp45
 70
     0
102
RTVSPost2010Prop46
 90
       50
102
RTVSPost2010PropOp46
 70
     0
102
RTVSPost2010Prop47
 90
       50
102
RTVSPost2010PropOp47
 70
     0
102
RTVSPost2010Prop48
 90
       50
102
RTVSPost2010PropOp48
 70
     0
102
RTVSPost2010Prop49
280
     0
102
RTVSPost2010PropOp49
 70
     0
102
RTVSPost2010Prop50
 90
       50
102
RTVSPost2010PropOp50
 70
     0
102
RTVSPost2010Prop51ColorIndex
 90
      256
102
RTVSPost2010Prop51ColorRGB
 90
-16777216
102
RTVSPost2010PropOp51
 70
     0
102
RTVSPost2010Prop52
140
1.0
102
RTVSPost2010PropOp52
 70
     0
102
RTVSPost2010Prop53
 90
        2
102
RTVSPost2010PropOp53
 70
     0
102
RTVSPost2010Prop54
  1
strokes_ogs.tif
102
RTVSPost2010PropOp54
 70
     0
102
RTVSPost2010Prop55
280
     0
102
RTVSPost2010PropOp55
 70
     0
102
RTVSPost2010Prop56
140
1.0
102
RTVSPost2010PropOp56
 70
     0
102
RTVSPost2010Prop57
140
1.0
102
RTVSPost2010PropOp57
 70
     0
  0
XRECORD
  5
26A
102
{ACAD_REACTORS
330
269
102
}
330
269
100
AcDbXrecord
280
     1
102
RTVSPropertyOp0
 70
     1
102
RTVSPropertyOp1
 70
     1
102
RTVSPropertyOp2
 70
     1
102
RTVSPropertyOp3
 70
     1
102
RTVSPropertyOp4
 70
     1
102
RTVSPropertyOp5
 70
     1
102
RTVSPropertyOp6
 70
     1
102
RTVSPropertyOp7
 70
     1
102
RTVSPropertyOp8
 70
     1
102
RTVSPropertyOp9
 70
     1
102
RTVSPropertyOp10
 70
     1
102
RTVSPropertyOp11
 70
     1
102
RTVSPropertyOp12
 70
     1
102
RTVSPropertyOp13
 70
     1
102
RTVSPropertyOp14
 70
     1
102
RTVSPropertyOp15
 70
     1
102
RTVSPropertyOp16
 70
     1
102
RTVSPropertyOp17
 70
     1
102
RTVSPropertyOp18
 70
     1
102
RTVSPropertyOp19
 70
     1
102
RTVSPropertyOp20
 70
     1
102
RTVSPropertyOp21
 70
     1
102
RTVSPropertyOp22
 70
     1
102
RTVSPropertyOp23
 70
     1
102
RTVSPropertyOp24
 70
     1
102
RTVSPropertyOp25
 70
     1
102
RTVSPropertyOp26
 70
     1
102
RTVSPropertyOp27
 70
     1
102
RTVSPropertyOp28
 70
     1
102
RTVSPropertyOp29
 70
     1
102
RTVSPropertyOp30
 70
     1
102
RTVSPropertyOp31
 70
     1
102
RTVSPropertyOp32
 70
     1
102
RTVSPropertyOp33
 70
     1
102
RTVSPropertyOp34
 70
     1
102
RTVSPropertyOp35
 70
     1
102
RTVSPropertyOp36
 70
     1
102
RTVSPropertyOp37
 70
     1
102
RTVSPropertyOp38
 70
     1
102
RTVSPropertyOp39
 70
     1
102
RTVSPropertyOp40
 70
     1
102
RTVSPropertyOp41
 70
     1
102
RTVSPropertyOp42
 70
     1
102
RTVSPropertyOp43
 70
     1
102
RTVSPropertyOp44
 70
     1
102
RTVSPropertyOp45
 70
     1
102
RTVSPropertyOp46
 70
     1
102
RTVSPropertyOp47
 70
     1
102
RTVSPropertyOp48
 70
     1
102
RTVSPropertyOp49
 70
     1
102
RTVSPropertyOp50
 70
     1
102
RTVSPropertyOp51
 70
     0
102
RTVSPropertyOp52
 70
     0
102
RTVSPropertyOp53
 70
     1
102
RTVSPropertyOp54
 70
     1
102
RTVSPropertyOp55
 70
     1
102
RTVSPropertyOp56
 70
     1
102
RTVSPropertyOp57
 70
     1
102
RTVSPost2010Prop28
280
     0
102
RTVSPost2010PropOp28
 70
     1
102
RTVSPost2010Prop29
280
     1
102
RTVSPost2010PropOp29
 70
     1
102
RTVSPost2010Prop30
280
     1
102
RTVSPost2010PropOp30
 70
     1
102
RTVSPost2010Prop31
280
     0
102
RTVSPost2010PropOp31
 70
     1
102
RTVSPost2010Prop32
280
     0
102
RTVSPost2010PropOp32
 70
     1
102
RTVSPost2010Prop33
280
     0
102
RTVSPost2010PropOp33
 70
     1
102
RTVSPost2010Prop34
280
     0
102
RTVSPost2010PropOp34
 70
     1
102
RTVSPost2010Prop35
280
     0
102
RTVSPost2010PropOp35
 70
     1
102
RTVSPost2010Prop36
280
     0
102
RTVSPost2010PropOp36
 70
     1
102
RTVSPost2010Prop37
 90
       50
102
RTVSPost2010PropOp37
 70
     1
102
RTVSPost2010Prop38
140
0.0
102
RTVSPost2010PropOp38
 70
     1
102
RTVSPost2010Prop39
140
1.0
102
RTVSPost2010PropOp39
 70
     1
102
RTVSPost2010Prop40
 90
        0
102
RTVSPost2010PropOp40
 70
     1
102
RTVSPost2010Prop41ColorIndex
 90
       18
102
RTVSPost2010Prop41ColorRGB
 90
        0
102
RTVSPost2010PropOp41
 70
     1
102
RTVSPost2010Prop42
 90
       50
102
RTVSPost2010PropOp42
 70
     1
102
RTVSPost2010Prop43
 90
        3
102
RTVSPost2010PropOp43
 70
     1
102
RTVSPost2010Prop44ColorIndex
 90
        5
102
RTVSPost2010Prop44ColorRGB
 90
      255
102
RTVSPost2010PropOp44
 70
     1
102
RTVSPost2010Prop45
280
     0
102
RTVSPost2010PropOp45
 70
     1
102
RTVSPost2010Prop46
 90
       50
102
RTVSPost2010PropOp46
 70
     1
102
RTVSPost2010Prop47
 90
       50
102
RTVSPost2010PropOp47
 70
     1
102
RTVSPost2010Prop48
 90
       50
102
RTVSPost2010PropOp48
 70
     1
102
RTVSPost2010Prop49
280
     0
102
RTVSPost2010PropOp49
 70
     1
102
RTVSPost2010Prop50
 90
       50
102
RTVSPost2010PropOp50
 70
     1
102
RTVSPost2010Prop51ColorIndex
 90
      256
102
RTVSPost2010Prop51ColorRGB
 90
-16777216
102
RTVSPost2010PropOp51
 70
     0
102
RTVSPost2010Prop52
140
1.0
102
RTVSPost2010PropOp52
 70
     0
102
RTVSPost2010Prop53
 90
        2
102
RTVSPost2010PropOp53
 70
     1
102
RTVSPost2010Prop54
  1
strokes_ogs.tif
102
RTVSPost2010PropOp54
 70
     1
102
RTVSPost2010Prop55
280
     0
102
RTVSPost2010PropOp55
 70
     1
102
RTVSPost2010Prop56
140
1.0
102
RTVSPost2010PropOp56
 70
     1
102
RTVSPost2010Prop57
140
1.0
102
RTVSPost2010PropOp57
 70
     1
  0
XRECORD
  5
288
102
{ACAD_REACTORS
330
287
102
}
330
287
100
AcDbXrecord
280
     1
102
RTVSPropertyOp0
 70
     1
102
RTVSPropertyOp1
 70
     1
102
RTVSPropertyOp2
 70
     1
102
RTVSPropertyOp3
 70
     1
102
RTVSPropertyOp4
 70
     1
102
RTVSPropertyOp5
 70
     1
102
RTVSPropertyOp6
 70
     1
102
RTVSPropertyOp7
 70
     1
102
RTVSPropertyOp8
 70
     1
102
RTVSPropertyOp9
 70
     1
102
RTVSPropertyOp10
 70
     1
102
RTVSPropertyOp11
 70
     1
102
RTVSPropertyOp12
 70
     1
102
RTVSPropertyOp13
 70
     1
102
RTVSPropertyOp14
 70
     1
102
RTVSPropertyOp15
 70
     1
102
RTVSPropertyOp16
 70
     1
102
RTVSPropertyOp17
 70
     1
102
RTVSPropertyOp18
 70
     1
102
RTVSPropertyOp19
 70
     1
102
RTVSPropertyOp20
 70
     1
102
RTVSPropertyOp21
 70
     1
102
RTVSPropertyOp22
 70
     1
102
RTVSPropertyOp23
 70
     1
102
RTVSPropertyOp24
 70
     1
102
RTVSPropertyOp25
 70
     1
102
RTVSPropertyOp26
 70
     1
102
RTVSPropertyOp27
 70
     1
102
RTVSPropertyOp28
 70
     1
102
RTVSPropertyOp29
 70
     1
102
RTVSPropertyOp30
 70
     1
102
RTVSPropertyOp31
 70
     1
102
RTVSPropertyOp32
 70
     1
102
RTVSPropertyOp33
 70
     1
102
RTVSPropertyOp34
 70
     1
102
RTVSPropertyOp35
 70
     1
102
RTVSPropertyOp36
 70
     1
102
RTVSPropertyOp37
 70
     1
102
RTVSPropertyOp38
 70
     1
102
RTVSPropertyOp39
 70
     1
102
RTVSPropertyOp40
 70
     1
102
RTVSPropertyOp41
 70
     1
102
RTVSPropertyOp42
 70
     1
102
RTVSPropertyOp43
 70
     1
102
RTVSPropertyOp44
 70
     1
102
RTVSPropertyOp45
 70
     1
102
RTVSPropertyOp46
 70
     1
102
RTVSPropertyOp47
 70
     1
102
RTVSPropertyOp48
 70
     1
102
RTVSPropertyOp49
 70
     1
102
RTVSPropertyOp50
 70
     1
102
RTVSPropertyOp51
 70
     0
102
RTVSPropertyOp52
 70
     0
102
RTVSPropertyOp53
 70
     1
102
RTVSPropertyOp54
 70
     1
102
RTVSPropertyOp55
 70
     1
102
RTVSPropertyOp56
 70
     1
102
RTVSPropertyOp57
 70
     1
102
RTVSPost2010Prop28
280
     0
102
RTVSPost2010PropOp28
 70
     1
102
RTVSPost2010Prop29
280
     1
102
RTVSPost2010PropOp29
 70
     1
102
RTVSPost2010Prop30
280
     1
102
RTVSPost2010PropOp30
 70
     1
102
RTVSPost2010Prop31
280
     0
102
RTVSPost2010PropOp31
 70
     1
102
RTVSPost2010Prop32
280
     0
102
RTVSPost2010PropOp32
 70
     1
102
RTVSPost2010Prop33
280
     0
102
RTVSPost2010PropOp33
 70
     1
102
RTVSPost2010Prop34
280
     0
102
RTVSPost2010PropOp34
 70
     1
102
RTVSPost2010Prop35
280
     0
102
RTVSPost2010PropOp35
 70
     1
102
RTVSPost2010Prop36
280
     0
102
RTVSPost2010PropOp36
 70
     1
102
RTVSPost2010Prop37
 90
       50
102
RTVSPost2010PropOp37
 70
     1
102
RTVSPost2010Prop38
140
0.0
102
RTVSPost2010PropOp38
 70
     1
102
RTVSPost2010Prop39
140
1.0
102
RTVSPost2010PropOp39
 70
     1
102
RTVSPost2010Prop40
 90
        0
102
RTVSPost2010PropOp40
 70
     1
102
RTVSPost2010Prop41ColorIndex
 90
       18
102
RTVSPost2010Prop41ColorRGB
 90
        0
102
RTVSPost2010PropOp41
 70
     1
102
RTVSPost2010Prop42
 90
       50
102
RTVSPost2010PropOp42
 70
     1
102
RTVSPost2010Prop43
 90
        3
102
RTVSPost2010PropOp43
 70
     1
102
RTVSPost2010Prop44ColorIndex
 90
        5
102
RTVSPost2010Prop44ColorRGB
 90
      255
102
RTVSPost2010PropOp44
 70
     1
102
RTVSPost2010Prop45
280
     0
102
RTVSPost2010PropOp45
 70
     1
102
RTVSPost2010Prop46
 90
       50
102
RTVSPost2010PropOp46
 70
     1
102
RTVSPost2010Prop47
 90
       50
102
RTVSPost2010PropOp47
 70
     1
102
RTVSPost2010Prop48
 90
       50
102
RTVSPost2010PropOp48
 70
     1
102
RTVSPost2010Prop49
280
     0
102
RTVSPost2010PropOp49
 70
     1
102
RTVSPost2010Prop50
 90
       50
102
RTVSPost2010PropOp50
 70
     1
102
RTVSPost2010Prop51ColorIndex
 90
      256
102
RTVSPost2010Prop51ColorRGB
 90
-16777216
102
RTVSPost2010PropOp51
 70
     0
102
RTVSPost2010Prop52
140
1.0
102
RTVSPost2010PropOp52
 70
     0
102
RTVSPost2010Prop53
 90
        2
102
RTVSPost2010PropOp53
 70
     1
102
RTVSPost2010Prop54
  1
strokes_ogs.tif
102
RTVSPost2010PropOp54
 70
     1
102
RTVSPost2010Prop55
280
     0
102
RTVSPost2010PropOp55
 70
     1
102
RTVSPost2010Prop56
140
1.0
102
RTVSPost2010PropOp56
 70
     1
102
RTVSPost2010Prop57
140
1.0
102
RTVSPost2010PropOp57
 70
     1
  0
XRECORD
  5
286
102
{ACAD_REACTORS
330
285
102
}
330
285
100
AcDbXrecord
280
     1
102
RTVSPropertyOp0
 70
     1
102
RTVSPropertyOp1
 70
     1
102
RTVSPropertyOp2
 70
     1
102
RTVSPropertyOp3
 70
     1
102
RTVSPropertyOp4
 70
     1
102
RTVSPropertyOp5
 70
     1
102
RTVSPropertyOp6
 70
     1
102
RTVSPropertyOp7
 70
     1
102
RTVSPropertyOp8
 70
     1
102
RTVSPropertyOp9
 70
     1
102
RTVSPropertyOp10
 70
     1
102
RTVSPropertyOp11
 70
     1
102
RTVSPropertyOp12
 70
     1
102
RTVSPropertyOp13
 70
     1
102
RTVSPropertyOp14
 70
     1
102
RTVSPropertyOp15
 70
     1
102
RTVSPropertyOp16
 70
     1
102
RTVSPropertyOp17
 70
     1
102
RTVSPropertyOp18
 70
     1
102
RTVSPropertyOp19
 70
     1
102
RTVSPropertyOp20
 70
     1
102
RTVSPropertyOp21
 70
     1
102
RTVSPropertyOp22
 70
     1
102
RTVSPropertyOp23
 70
     1
102
RTVSPropertyOp24
 70
     1
102
RTVSPropertyOp25
 70
     1
102
RTVSPropertyOp26
 70
     1
102
RTVSPropertyOp27
 70
     1
102
RTVSPropertyOp28
 70
     1
102
RTVSPropertyOp29
 70
     1
102
RTVSPropertyOp30
 70
     1
102
RTVSPropertyOp31
 70
     1
102
RTVSPropertyOp32
 70
     1
102
RTVSPropertyOp33
 70
     1
102
RTVSPropertyOp34
 70
     1
102
RTVSPropertyOp35
 70
     1
102
RTVSPropertyOp36
 70
     1
102
RTVSPropertyOp37
 70
     1
102
RTVSPropertyOp38
 70
     1
102
RTVSPropertyOp39
 70
     1
102
RTVSPropertyOp40
 70
     1
102
RTVSPropertyOp41
 70
     1
102
RTVSPropertyOp42
 70
     1
102
RTVSPropertyOp43
 70
     1
102
RTVSPropertyOp44
 70
     1
102
RTVSPropertyOp45
 70
     1
102
RTVSPropertyOp46
 70
     1
102
RTVSPropertyOp47
 70
     1
102
RTVSPropertyOp48
 70
     1
102
RTVSPropertyOp49
 70
     1
102
RTVSPropertyOp50
 70
     1
102
RTVSPropertyOp51
 70
     0
102
RTVSPropertyOp52
 70
     0
102
RTVSPropertyOp53
 70
     1
102
RTVSPropertyOp54
 70
     1
102
RTVSPropertyOp55
 70
     1
102
RTVSPropertyOp56
 70
     1
102
RTVSPropertyOp57
 70
     1
102
RTVSPost2010Prop28
280
     0
102
RTVSPost2010PropOp28
 70
     1
102
RTVSPost2010Prop29
280
     1
102
RTVSPost2010PropOp29
 70
     1
102
RTVSPost2010Prop30
280
     1
102
RTVSPost2010PropOp30
 70
     1
102
RTVSPost2010Prop31
280
     0
102
RTVSPost2010PropOp31
 70
     1
102
RTVSPost2010Prop32
280
     0
102
RTVSPost2010PropOp32
 70
     1
102
RTVSPost2010Prop33
280
     0
102
RTVSPost2010PropOp33
 70
     1
102
RTVSPost2010Prop34
280
     0
102
RTVSPost2010PropOp34
 70
     1
102
RTVSPost2010Prop35
280
     0
102
RTVSPost2010PropOp35
 70
     1
102
RTVSPost2010Prop36
280
     0
102
RTVSPost2010PropOp36
 70
     1
102
RTVSPost2010Prop37
 90
       50
102
RTVSPost2010PropOp37
 70
     1
102
RTVSPost2010Prop38
140
0.0
102
RTVSPost2010PropOp38
 70
     1
102
RTVSPost2010Prop39
140
1.0
102
RTVSPost2010PropOp39
 70
     1
102
RTVSPost2010Prop40
 90
        0
102
RTVSPost2010PropOp40
 70
     1
102
RTVSPost2010Prop41ColorIndex
 90
       18
102
RTVSPost2010Prop41ColorRGB
 90
        0
102
RTVSPost2010PropOp41
 70
     1
102
RTVSPost2010Prop42
 90
       50
102
RTVSPost2010PropOp42
 70
     1
102
RTVSPost2010Prop43
 90
        3
102
RTVSPost2010PropOp43
 70
     1
102
RTVSPost2010Prop44ColorIndex
 90
        5
102
RTVSPost2010Prop44ColorRGB
 90
      255
102
RTVSPost2010PropOp44
 70
     1
102
RTVSPost2010Prop45
280
     0
102
RTVSPost2010PropOp45
 70
     1
102
RTVSPost2010Prop46
 90
       50
102
RTVSPost2010PropOp46
 70
     1
102
RTVSPost2010Prop47
 90
       50
102
RTVSPost2010PropOp47
 70
     1
102
RTVSPost2010Prop48
 90
       50
102
RTVSPost2010PropOp48
 70
     1
102
RTVSPost2010Prop49
280
     0
102
RTVSPost2010PropOp49
 70
     1
102
RTVSPost2010Prop50
 90
       50
102
RTVSPost2010PropOp50
 70
     1
102
RTVSPost2010Prop51ColorIndex
 90
      256
102
RTVSPost2010Prop51ColorRGB
 90
-16777216
102
RTVSPost2010PropOp51
 70
     0
102
RTVSPost2010Prop52
140
1.0
102
RTVSPost2010PropOp52
 70
     0
102
RTVSPost2010Prop53
 90
        2
102
RTVSPost2010PropOp53
 70
     1
102
RTVSPost2010Prop54
  1
strokes_ogs.tif
102
RTVSPost2010PropOp54
 70
     1
102
RTVSPost2010Prop55
280
     0
102
RTVSPost2010PropOp55
 70
     1
102
RTVSPost2010Prop56
140
1.0
102
RTVSPost2010PropOp56
 70
     1
102
RTVSPost2010Prop57
140
1.0
102
RTVSPost2010PropOp57
 70
     1
  0
XRECORD
  5
280
102
{ACAD_REACTORS
330
27F
102
}
330
27F
100
AcDbXrecord
280
     1
102
RTVSPropertyOp0
 70
     1
102
RTVSPropertyOp1
 70
     1
102
RTVSPropertyOp2
 70
     1
102
RTVSPropertyOp3
 70
     1
102
RTVSPropertyOp4
 70
     1
102
RTVSPropertyOp5
 70
     1
102
RTVSPropertyOp6
 70
     1
102
RTVSPropertyOp7
 70
     1
102
RTVSPropertyOp8
 70
     1
102
RTVSPropertyOp9
 70
     1
102
RTVSPropertyOp10
 70
     1
102
RTVSPropertyOp11
 70
     1
102
RTVSPropertyOp12
 70
     1
102
RTVSPropertyOp13
 70
     1
102
RTVSPropertyOp14
 70
     1
102
RTVSPropertyOp15
 70
     1
102
RTVSPropertyOp16
 70
     1
102
RTVSPropertyOp17
 70
     1
102
RTVSPropertyOp18
 70
     1
102
RTVSPropertyOp19
 70
     1
102
RTVSPropertyOp20
 70
     1
102
RTVSPropertyOp21
 70
     1
102
RTVSPropertyOp22
 70
     1
102
RTVSPropertyOp23
 70
     1
102
RTVSPropertyOp24
 70
     1
102
RTVSPropertyOp25
 70
     1
102
RTVSPropertyOp26
 70
     1
102
RTVSPropertyOp27
 70
     1
102
RTVSPropertyOp28
 70
     1
102
RTVSPropertyOp29
 70
     1
102
RTVSPropertyOp30
 70
     1
102
RTVSPropertyOp31
 70
     1
102
RTVSPropertyOp32
 70
     1
102
RTVSPropertyOp33
 70
     1
102
RTVSPropertyOp34
 70
     1
102
RTVSPropertyOp35
 70
     1
102
RTVSPropertyOp36
 70
     1
102
RTVSPropertyOp37
 70
     1
102
RTVSPropertyOp38
 70
     1
102
RTVSPropertyOp39
 70
     1
102
RTVSPropertyOp40
 70
     1
102
RTVSPropertyOp41
 70
     1
102
RTVSPropertyOp42
 70
     1
102
RTVSPropertyOp43
 70
     1
102
RTVSPropertyOp44
 70
     1
102
RTVSPropertyOp45
 70
     1
102
RTVSPropertyOp46
 70
     1
102
RTVSPropertyOp47
 70
     1
102
RTVSPropertyOp48
 70
     1
102
RTVSPropertyOp49
 70
     1
102
RTVSPropertyOp50
 70
     1
102
RTVSPropertyOp51
 70
     0
102
RTVSPropertyOp52
 70
     0
102
RTVSPropertyOp53
 70
     1
102
RTVSPropertyOp54
 70
     1
102
RTVSPropertyOp55
 70
     1
102
RTVSPropertyOp56
 70
     1
102
RTVSPropertyOp57
 70
     1
102
RTVSPost2010Prop28
280
     0
102
RTVSPost2010PropOp28
 70
     1
102
RTVSPost2010Prop29
280
     1
102
RTVSPost2010PropOp29
 70
     1
102
RTVSPost2010Prop30
280
     1
102
RTVSPost2010PropOp30
 70
     1
102
RTVSPost2010Prop31
280
     0
102
RTVSPost2010PropOp31
 70
     1
102
RTVSPost2010Prop32
280
     0
102
RTVSPost2010PropOp32
 70
     1
102
RTVSPost2010Prop33
280
     0
102
RTVSPost2010PropOp33
 70
     1
102
RTVSPost2010Prop34
280
     0
102
RTVSPost2010PropOp34
 70
     1
102
RTVSPost2010Prop35
280
     0
102
RTVSPost2010PropOp35
 70
     1
102
RTVSPost2010Prop36
280
     0
102
RTVSPost2010PropOp36
 70
     1
102
RTVSPost2010Prop37
 90
       50
102
RTVSPost2010PropOp37
 70
     1
102
RTVSPost2010Prop38
140
0.0
102
RTVSPost2010PropOp38
 70
     1
102
RTVSPost2010Prop39
140
1.0
102
RTVSPost2010PropOp39
 70
     1
102
RTVSPost2010Prop40
 90
        0
102
RTVSPost2010PropOp40
 70
     1
102
RTVSPost2010Prop41ColorIndex
 90
       18
102
RTVSPost2010Prop41ColorRGB
 90
        0
102
RTVSPost2010PropOp41
 70
     1
102
RTVSPost2010Prop42
 90
       50
102
RTVSPost2010PropOp42
 70
     1
102
RTVSPost2010Prop43
 90
        3
102
RTVSPost2010PropOp43
 70
     1
102
RTVSPost2010Prop44ColorIndex
 90
        5
102
RTVSPost2010Prop44ColorRGB
 90
      255
102
RTVSPost2010PropOp44
 70
     1
102
RTVSPost2010Prop45
280
     0
102
RTVSPost2010PropOp45
 70
     1
102
RTVSPost2010Prop46
 90
       50
102
RTVSPost2010PropOp46
 70
     1
102
RTVSPost2010Prop47
 90
       50
102
RTVSPost2010PropOp47
 70
     1
102
RTVSPost2010Prop48
 90
       50
102
RTVSPost2010PropOp48
 70
     1
102
RTVSPost2010Prop49
280
     0
102
RTVSPost2010PropOp49
 70
     1
102
RTVSPost2010Prop50
 90
       50
102
RTVSPost2010PropOp50
 70
     1
102
RTVSPost2010Prop51ColorIndex
 90
      256
102
RTVSPost2010Prop51ColorRGB
 90
-16777216
102
RTVSPost2010PropOp51
 70
     0
102
RTVSPost2010Prop52
140
1.0
102
RTVSPost2010PropOp52
 70
     0
102
RTVSPost2010Prop53
 90
        2
102
RTVSPost2010PropOp53
 70
     1
102
RTVSPost2010Prop54
  1
strokes_ogs.tif
102
RTVSPost2010PropOp54
 70
     1
102
RTVSPost2010Prop55
280
     0
102
RTVSPost2010PropOp55
 70
     1
102
RTVSPost2010Prop56
140
1.0
102
RTVSPost2010PropOp56
 70
     1
102
RTVSPost2010Prop57
140
1.0
102
RTVSPost2010PropOp57
 70
     1
  0
XRECORD
  5
282
102
{ACAD_REACTORS
330
281
102
}
330
281
100
AcDbXrecord
280
     1
102
RTVSPropertyOp0
 70
     1
102
RTVSPropertyOp1
 70
     1
102
RTVSPropertyOp2
 70
     1
102
RTVSPropertyOp3
 70
     1
102
RTVSPropertyOp4
 70
     1
102
RTVSPropertyOp5
 70
     1
102
RTVSPropertyOp6
 70
     1
102
RTVSPropertyOp7
 70
     1
102
RTVSPropertyOp8
 70
     1
102
RTVSPropertyOp9
 70
     1
102
RTVSPropertyOp10
 70
     1
102
RTVSPropertyOp11
 70
     1
102
RTVSPropertyOp12
 70
     1
102
RTVSPropertyOp13
 70
     1
102
RTVSPropertyOp14
 70
     1
102
RTVSPropertyOp15
 70
     1
102
RTVSPropertyOp16
 70
     1
102
RTVSPropertyOp17
 70
     1
102
RTVSPropertyOp18
 70
     1
102
RTVSPropertyOp19
 70
     1
102
RTVSPropertyOp20
 70
     1
102
RTVSPropertyOp21
 70
     1
102
RTVSPropertyOp22
 70
     1
102
RTVSPropertyOp23
 70
     1
102
RTVSPropertyOp24
 70
     1
102
RTVSPropertyOp25
 70
     1
102
RTVSPropertyOp26
 70
     1
102
RTVSPropertyOp27
 70
     1
102
RTVSPropertyOp28
 70
     1
102
RTVSPropertyOp29
 70
     1
102
RTVSPropertyOp30
 70
     1
102
RTVSPropertyOp31
 70
     1
102
RTVSPropertyOp32
 70
     1
102
RTVSPropertyOp33
 70
     1
102
RTVSPropertyOp34
 70
     1
102
RTVSPropertyOp35
 70
     1
102
RTVSPropertyOp36
 70
     1
102
RTVSPropertyOp37
 70
     1
102
RTVSPropertyOp38
 70
     1
102
RTVSPropertyOp39
 70
     1
102
RTVSPropertyOp40
 70
     1
102
RTVSPropertyOp41
 70
     1
102
RTVSPropertyOp42
 70
     1
102
RTVSPropertyOp43
 70
     1
102
RTVSPropertyOp44
 70
     1
102
RTVSPropertyOp45
 70
     1
102
RTVSPropertyOp46
 70
     1
102
RTVSPropertyOp47
 70
     1
102
RTVSPropertyOp48
 70
     1
102
RTVSPropertyOp49
 70
     1
102
RTVSPropertyOp50
 70
     1
102
RTVSPropertyOp51
 70
     0
102
RTVSPropertyOp52
 70
     0
102
RTVSPropertyOp53
 70
     1
102
RTVSPropertyOp54
 70
     1
102
RTVSPropertyOp55
 70
     1
102
RTVSPropertyOp56
 70
     1
102
RTVSPropertyOp57
 70
     1
102
RTVSPost2010Prop28
280
     0
102
RTVSPost2010PropOp28
 70
     1
102
RTVSPost2010Prop29
280
     1
102
RTVSPost2010PropOp29
 70
     1
102
RTVSPost2010Prop30
280
     1
102
RTVSPost2010PropOp30
 70
     1
102
RTVSPost2010Prop31
280
     0
102
RTVSPost2010PropOp31
 70
     1
102
RTVSPost2010Prop32
280
     0
102
RTVSPost2010PropOp32
 70
     1
102
RTVSPost2010Prop33
280
     0
102
RTVSPost2010PropOp33
 70
     1
102
RTVSPost2010Prop34
280
     0
102
RTVSPost2010PropOp34
 70
     1
102
RTVSPost2010Prop35
280
     0
102
RTVSPost2010PropOp35
 70
     1
102
RTVSPost2010Prop36
280
     0
102
RTVSPost2010PropOp36
 70
     1
102
RTVSPost2010Prop37
 90
       50
102
RTVSPost2010PropOp37
 70
     1
102
RTVSPost2010Prop38
140
0.0
102
RTVSPost2010PropOp38
 70
     1
102
RTVSPost2010Prop39
140
1.0
102
RTVSPost2010PropOp39
 70
     1
102
RTVSPost2010Prop40
 90
        0
102
RTVSPost2010PropOp40
 70
     1
102
RTVSPost2010Prop41ColorIndex
 90
       18
102
RTVSPost2010Prop41ColorRGB
 90
        0
102
RTVSPost2010PropOp41
 70
     1
102
RTVSPost2010Prop42
 90
       50
102
RTVSPost2010PropOp42
 70
     1
102
RTVSPost2010Prop43
 90
        3
102
RTVSPost2010PropOp43
 70
     1
102
RTVSPost2010Prop44ColorIndex
 90
        5
102
RTVSPost2010Prop44ColorRGB
 90
      255
102
RTVSPost2010PropOp44
 70
     1
102
RTVSPost2010Prop45
280
     0
102
RTVSPost2010PropOp45
 70
     1
102
RTVSPost2010Prop46
 90
       50
102
RTVSPost2010PropOp46
 70
     1
102
RTVSPost2010Prop47
 90
       50
102
RTVSPost2010PropOp47
 70
     1
102
RTVSPost2010Prop48
 90
       50
102
RTVSPost2010PropOp48
 70
     1
102
RTVSPost2010Prop49
280
     0
102
RTVSPost2010PropOp49
 70
     1
102
RTVSPost2010Prop50
 90
       50
102
RTVSPost2010PropOp50
 70
     1
102
RTVSPost2010Prop51ColorIndex
 90
      256
102
RTVSPost2010Prop51ColorRGB
 90
-16777216
102
RTVSPost2010PropOp51
 70
     0
102
RTVSPost2010Prop52
140
1.0
102
RTVSPost2010PropOp52
 70
     0
102
RTVSPost2010Prop53
 90
        2
102
RTVSPost2010PropOp53
 70
     1
102
RTVSPost2010Prop54
  1
strokes_ogs.tif
102
RTVSPost2010PropOp54
 70
     1
102
RTVSPost2010Prop55
280
     0
102
RTVSPost2010PropOp55
 70
     1
102
RTVSPost2010Prop56
140
1.0
102
RTVSPost2010PropOp56
 70
     1
102
RTVSPost2010Prop57
140
1.0
102
RTVSPost2010PropOp57
 70
     1
  0
XRECORD
  5
272
102
{ACAD_REACTORS
330
271
102
}
330
271
100
AcDbXrecord
280
     1
102
RTVSPropertyOp0
 70
     1
102
RTVSPropertyOp1
 70
     1
102
RTVSPropertyOp2
 70
     1
102
RTVSPropertyOp3
 70
     1
102
RTVSPropertyOp4
 70
     1
102
RTVSPropertyOp5
 70
     1
102
RTVSPropertyOp6
 70
     1
102
RTVSPropertyOp7
 70
     1
102
RTVSPropertyOp8
 70
     1
102
RTVSPropertyOp9
 70
     1
102
RTVSPropertyOp10
 70
     1
102
RTVSPropertyOp11
 70
     1
102
RTVSPropertyOp12
 70
     1
102
RTVSPropertyOp13
 70
     1
102
RTVSPropertyOp14
 70
     1
102
RTVSPropertyOp15
 70
     1
102
RTVSPropertyOp16
 70
     1
102
RTVSPropertyOp17
 70
     1
102
RTVSPropertyOp18
 70
     1
102
RTVSPropertyOp19
 70
     1
102
RTVSPropertyOp20
 70
     1
102
RTVSPropertyOp21
 70
     1
102
RTVSPropertyOp22
 70
     1
102
RTVSPropertyOp23
 70
     1
102
RTVSPropertyOp24
 70
     1
102
RTVSPropertyOp25
 70
     1
102
RTVSPropertyOp26
 70
     1
102
RTVSPropertyOp27
 70
     1
102
RTVSPropertyOp28
 70
     1
102
RTVSPropertyOp29
 70
     1
102
RTVSPropertyOp30
 70
     1
102
RTVSPropertyOp31
 70
     1
102
RTVSPropertyOp32
 70
     1
102
RTVSPropertyOp33
 70
     1
102
RTVSPropertyOp34
 70
     1
102
RTVSPropertyOp35
 70
     1
102
RTVSPropertyOp36
 70
     1
102
RTVSPropertyOp37
 70
     1
102
RTVSPropertyOp38
 70
     1
102
RTVSPropertyOp39
 70
     1
102
RTVSPropertyOp40
 70
     1
102
RTVSPropertyOp41
 70
     1
102
RTVSPropertyOp42
 70
     1
102
RTVSPropertyOp43
 70
     1
102
RTVSPropertyOp44
 70
     1
102
RTVSPropertyOp45
 70
     1
102
RTVSPropertyOp46
 70
     1
102
RTVSPropertyOp47
 70
     1
102
RTVSPropertyOp48
 70
     1
102
RTVSPropertyOp49
 70
     1
102
RTVSPropertyOp50
 70
     1
102
RTVSPropertyOp51
 70
     0
102
RTVSPropertyOp52
 70
     0
102
RTVSPropertyOp53
 70
     1
102
RTVSPropertyOp54
 70
     1
102
RTVSPropertyOp55
 70
     1
102
RTVSPropertyOp56
 70
     1
102
RTVSPropertyOp57
 70
     1
102
RTVSPost2010Prop28
280
     0
102
RTVSPost2010PropOp28
 70
     1
102
RTVSPost2010Prop29
280
     1
102
RTVSPost2010PropOp29
 70
     1
102
RTVSPost2010Prop30
280
     1
102
RTVSPost2010PropOp30
 70
     1
102
RTVSPost2010Prop31
280
     0
102
RTVSPost2010PropOp31
 70
     1
102
RTVSPost2010Prop32
280
     0
102
RTVSPost2010PropOp32
 70
     1
102
RTVSPost2010Prop33
280
     0
102
RTVSPost2010PropOp33
 70
     1
102
RTVSPost2010Prop34
280
     0
102
RTVSPost2010PropOp34
 70
     1
102
RTVSPost2010Prop35
280
     0
102
RTVSPost2010PropOp35
 70
     1
102
RTVSPost2010Prop36
280
     0
102
RTVSPost2010PropOp36
 70
     1
102
RTVSPost2010Prop37
 90
       50
102
RTVSPost2010PropOp37
 70
     1
102
RTVSPost2010Prop38
140
0.0
102
RTVSPost2010PropOp38
 70
     1
102
RTVSPost2010Prop39
140
1.0
102
RTVSPost2010PropOp39
 70
     1
102
RTVSPost2010Prop40
 90
        0
102
RTVSPost2010PropOp40
 70
     1
102
RTVSPost2010Prop41ColorIndex
 90
       18
102
RTVSPost2010Prop41ColorRGB
 90
        0
102
RTVSPost2010PropOp41
 70
     1
102
RTVSPost2010Prop42
 90
       50
102
RTVSPost2010PropOp42
 70
     1
102
RTVSPost2010Prop43
 90
        3
102
RTVSPost2010PropOp43
 70
     1
102
RTVSPost2010Prop44ColorIndex
 90
        5
102
RTVSPost2010Prop44ColorRGB
 90
      255
102
RTVSPost2010PropOp44
 70
     1
102
RTVSPost2010Prop45
280
     0
102
RTVSPost2010PropOp45
 70
     1
102
RTVSPost2010Prop46
 90
       50
102
RTVSPost2010PropOp46
 70
     1
102
RTVSPost2010Prop47
 90
       50
102
RTVSPost2010PropOp47
 70
     1
102
RTVSPost2010Prop48
 90
       50
102
RTVSPost2010PropOp48
 70
     1
102
RTVSPost2010Prop49
280
     0
102
RTVSPost2010PropOp49
 70
     1
102
RTVSPost2010Prop50
 90
       50
102
RTVSPost2010PropOp50
 70
     1
102
RTVSPost2010Prop51ColorIndex
 90
      256
102
RTVSPost2010Prop51ColorRGB
 90
-16777216
102
RTVSPost2010PropOp51
 70
     0
102
RTVSPost2010Prop52
140
1.0
102
RTVSPost2010PropOp52
 70
     0
102
RTVSPost2010Prop53
 90
        2
102
RTVSPost2010PropOp53
 70
     1
102
RTVSPost2010Prop54
  1
strokes_ogs.tif
102
RTVSPost2010PropOp54
 70
     1
102
RTVSPost2010Prop55
280
     0
102
RTVSPost2010PropOp55
 70
     1
102
RTVSPost2010Prop56
140
1.0
102
RTVSPost2010PropOp56
 70
     1
102
RTVSPost2010Prop57
140
1.0
102
RTVSPost2010PropOp57
 70
     1
  0
XRECORD
  5
264
102
{ACAD_REACTORS
330
263
102
}
330
263
100
AcDbXrecord
280
     1
102
RTVSPropertyOp0
 70
     1
102
RTVSPropertyOp1
 70
     1
102
RTVSPropertyOp2
 70
     1
102
RTVSPropertyOp3
 70
     1
102
RTVSPropertyOp4
 70
     1
102
RTVSPropertyOp5
 70
     1
102
RTVSPropertyOp6
 70
     1
102
RTVSPropertyOp7
 70
     1
102
RTVSPropertyOp8
 70
     1
102
RTVSPropertyOp9
 70
     1
102
RTVSPropertyOp10
 70
     1
102
RTVSPropertyOp11
 70
     1
102
RTVSPropertyOp12
 70
     1
102
RTVSPropertyOp13
 70
     1
102
RTVSPropertyOp14
 70
     1
102
RTVSPropertyOp15
 70
     1
102
RTVSPropertyOp16
 70
     1
102
RTVSPropertyOp17
 70
     1
102
RTVSPropertyOp18
 70
     1
102
RTVSPropertyOp19
 70
     1
102
RTVSPropertyOp20
 70
     1
102
RTVSPropertyOp21
 70
     1
102
RTVSPropertyOp22
 70
     1
102
RTVSPropertyOp23
 70
     1
102
RTVSPropertyOp24
 70
     1
102
RTVSPropertyOp25
 70
     1
102
RTVSPropertyOp26
 70
     1
102
RTVSPropertyOp27
 70
     1
102
RTVSPropertyOp28
 70
     1
102
RTVSPropertyOp29
 70
     1
102
RTVSPropertyOp30
 70
     1
102
RTVSPropertyOp31
 70
     1
102
RTVSPropertyOp32
 70
     1
102
RTVSPropertyOp33
 70
     1
102
RTVSPropertyOp34
 70
     1
102
RTVSPropertyOp35
 70
     1
102
RTVSPropertyOp36
 70
     1
102
RTVSPropertyOp37
 70
     1
102
RTVSPropertyOp38
 70
     1
102
RTVSPropertyOp39
 70
     1
102
RTVSPropertyOp40
 70
     1
102
RTVSPropertyOp41
 70
     1
102
RTVSPropertyOp42
 70
     1
102
RTVSPropertyOp43
 70
     1
102
RTVSPropertyOp44
 70
     1
102
RTVSPropertyOp45
 70
     1
102
RTVSPropertyOp46
 70
     1
102
RTVSPropertyOp47
 70
     1
102
RTVSPropertyOp48
 70
     1
102
RTVSPropertyOp49
 70
     1
102
RTVSPropertyOp50
 70
     1
102
RTVSPropertyOp51
 70
     0
102
RTVSPropertyOp52
 70
     0
102
RTVSPropertyOp53
 70
     1
102
RTVSPropertyOp54
 70
     1
102
RTVSPropertyOp55
 70
     1
102
RTVSPropertyOp56
 70
     1
102
RTVSPropertyOp57
 70
     1
102
RTVSPost2010Prop28
280
     0
102
RTVSPost2010PropOp28
 70
     1
102
RTVSPost2010Prop29
280
     1
102
RTVSPost2010PropOp29
 70
     1
102
RTVSPost2010Prop30
280
     1
102
RTVSPost2010PropOp30
 70
     1
102
RTVSPost2010Prop31
280
     0
102
RTVSPost2010PropOp31
 70
     1
102
RTVSPost2010Prop32
280
     0
102
RTVSPost2010PropOp32
 70
     1
102
RTVSPost2010Prop33
280
     0
102
RTVSPost2010PropOp33
 70
     1
102
RTVSPost2010Prop34
280
     0
102
RTVSPost2010PropOp34
 70
     1
102
RTVSPost2010Prop35
280
     0
102
RTVSPost2010PropOp35
 70
     1
102
RTVSPost2010Prop36
280
     0
102
RTVSPost2010PropOp36
 70
     1
102
RTVSPost2010Prop37
 90
       50
102
RTVSPost2010PropOp37
 70
     1
102
RTVSPost2010Prop38
140
0.0
102
RTVSPost2010PropOp38
 70
     1
102
RTVSPost2010Prop39
140
1.0
102
RTVSPost2010PropOp39
 70
     1
102
RTVSPost2010Prop40
 90
        0
102
RTVSPost2010PropOp40
 70
     1
102
RTVSPost2010Prop41ColorIndex
 90
       18
102
RTVSPost2010Prop41ColorRGB
 90
        0
102
RTVSPost2010PropOp41
 70
     1
102
RTVSPost2010Prop42
 90
       50
102
RTVSPost2010PropOp42
 70
     1
102
RTVSPost2010Prop43
 90
        3
102
RTVSPost2010PropOp43
 70
     1
102
RTVSPost2010Prop44ColorIndex
 90
        5
102
RTVSPost2010Prop44ColorRGB
 90
      255
102
RTVSPost2010PropOp44
 70
     1
102
RTVSPost2010Prop45
280
     0
102
RTVSPost2010PropOp45
 70
     1
102
RTVSPost2010Prop46
 90
       50
102
RTVSPost2010PropOp46
 70
     1
102
RTVSPost2010Prop47
 90
       50
102
RTVSPost2010PropOp47
 70
     1
102
RTVSPost2010Prop48
 90
       50
102
RTVSPost2010PropOp48
 70
     1
102
RTVSPost2010Prop49
280
     0
102
RTVSPost2010PropOp49
 70
     1
102
RTVSPost2010Prop50
 90
       50
102
RTVSPost2010PropOp50
 70
     1
102
RTVSPost2010Prop51ColorIndex
 90
      256
102
RTVSPost2010Prop51ColorRGB
 90
-16777216
102
RTVSPost2010PropOp51
 70
     0
102
RTVSPost2010Prop52
140
1.0
102
RTVSPost2010PropOp52
 70
     0
102
RTVSPost2010Prop53
 90
        2
102
RTVSPost2010PropOp53
 70
     1
102
RTVSPost2010Prop54
  1
strokes_ogs.tif
102
RTVSPost2010PropOp54
 70
     1
102
RTVSPost2010Prop55
280
     0
102
RTVSPost2010PropOp55
 70
     1
102
RTVSPost2010Prop56
140
1.0
102
RTVSPost2010PropOp56
 70
     1
102
RTVSPost2010Prop57
140
1.0
102
RTVSPost2010PropOp57
 70
     1
  0
XRECORD
  5
284
102
{ACAD_REACTORS
330
283
102
}
330
283
100
AcDbXrecord
280
     1
102
RTVSPropertyOp0
 70
     1
102
RTVSPropertyOp1
 70
     1
102
RTVSPropertyOp2
 70
     1
102
RTVSPropertyOp3
 70
     1
102
RTVSPropertyOp4
 70
     1
102
RTVSPropertyOp5
 70
     1
102
RTVSPropertyOp6
 70
     1
102
RTVSPropertyOp7
 70
     1
102
RTVSPropertyOp8
 70
     1
102
RTVSPropertyOp9
 70
     1
102
RTVSPropertyOp10
 70
     1
102
RTVSPropertyOp11
 70
     1
102
RTVSPropertyOp12
 70
     1
102
RTVSPropertyOp13
 70
     1
102
RTVSPropertyOp14
 70
     1
102
RTVSPropertyOp15
 70
     1
102
RTVSPropertyOp16
 70
     1
102
RTVSPropertyOp17
 70
     1
102
RTVSPropertyOp18
 70
     1
102
RTVSPropertyOp19
 70
     1
102
RTVSPropertyOp20
 70
     1
102
RTVSPropertyOp21
 70
     1
102
RTVSPropertyOp22
 70
     1
102
RTVSPropertyOp23
 70
     1
102
RTVSPropertyOp24
 70
     1
102
RTVSPropertyOp25
 70
     1
102
RTVSPropertyOp26
 70
     1
102
RTVSPropertyOp27
 70
     1
102
RTVSPropertyOp28
 70
     1
102
RTVSPropertyOp29
 70
     1
102
RTVSPropertyOp30
 70
     1
102
RTVSPropertyOp31
 70
     1
102
RTVSPropertyOp32
 70
     1
102
RTVSPropertyOp33
 70
     1
102
RTVSPropertyOp34
 70
     1
102
RTVSPropertyOp35
 70
     1
102
RTVSPropertyOp36
 70
     1
102
RTVSPropertyOp37
 70
     1
102
RTVSPropertyOp38
 70
     1
102
RTVSPropertyOp39
 70
     1
102
RTVSPropertyOp40
 70
     1
102
RTVSPropertyOp41
 70
     1
102
RTVSPropertyOp42
 70
     1
102
RTVSPropertyOp43
 70
     1
102
RTVSPropertyOp44
 70
     1
102
RTVSPropertyOp45
 70
     1
102
RTVSPropertyOp46
 70
     1
102
RTVSPropertyOp47
 70
     1
102
RTVSPropertyOp48
 70
     1
102
RTVSPropertyOp49
 70
     1
102
RTVSPropertyOp50
 70
     1
102
RTVSPropertyOp51
 70
     0
102
RTVSPropertyOp52
 70
     0
102
RTVSPropertyOp53
 70
     1
102
RTVSPropertyOp54
 70
     1
102
RTVSPropertyOp55
 70
     1
102
RTVSPropertyOp56
 70
     1
102
RTVSPropertyOp57
 70
     1
102
RTVSPost2010Prop28
280
     0
102
RTVSPost2010PropOp28
 70
     1
102
RTVSPost2010Prop29
280
     1
102
RTVSPost2010PropOp29
 70
     1
102
RTVSPost2010Prop30
280
     1
102
RTVSPost2010PropOp30
 70
     1
102
RTVSPost2010Prop31
280
     0
102
RTVSPost2010PropOp31
 70
     1
102
RTVSPost2010Prop32
280
     0
102
RTVSPost2010PropOp32
 70
     1
102
RTVSPost2010Prop33
280
     0
102
RTVSPost2010PropOp33
 70
     1
102
RTVSPost2010Prop34
280
     0
102
RTVSPost2010PropOp34
 70
     1
102
RTVSPost2010Prop35
280
     0
102
RTVSPost2010PropOp35
 70
     1
102
RTVSPost2010Prop36
280
     0
102
RTVSPost2010PropOp36
 70
     1
102
RTVSPost2010Prop37
 90
       50
102
RTVSPost2010PropOp37
 70
     1
102
RTVSPost2010Prop38
140
0.0
102
RTVSPost2010PropOp38
 70
     1
102
RTVSPost2010Prop39
140
1.0
102
RTVSPost2010PropOp39
 70
     1
102
RTVSPost2010Prop40
 90
        0
102
RTVSPost2010PropOp40
 70
     1
102
RTVSPost2010Prop41ColorIndex
 90
       18
102
RTVSPost2010Prop41ColorRGB
 90
        0
102
RTVSPost2010PropOp41
 70
     1
102
RTVSPost2010Prop42
 90
       50
102
RTVSPost2010PropOp42
 70
     1
102
RTVSPost2010Prop43
 90
        3
102
RTVSPost2010PropOp43
 70
     1
102
RTVSPost2010Prop44ColorIndex
 90
        5
102
RTVSPost2010Prop44ColorRGB
 90
      255
102
RTVSPost2010PropOp44
 70
     1
102
RTVSPost2010Prop45
280
     0
102
RTVSPost2010PropOp45
 70
     1
102
RTVSPost2010Prop46
 90
       50
102
RTVSPost2010PropOp46
 70
     1
102
RTVSPost2010Prop47
 90
       50
102
RTVSPost2010PropOp47
 70
     1
102
RTVSPost2010Prop48
 90
       50
102
RTVSPost2010PropOp48
 70
     1
102
RTVSPost2010Prop49
280
     0
102
RTVSPost2010PropOp49
 70
     1
102
RTVSPost2010Prop50
 90
       50
102
RTVSPost2010PropOp50
 70
     1
102
RTVSPost2010Prop51ColorIndex
 90
      256
102
RTVSPost2010Prop51ColorRGB
 90
-16777216
102
RTVSPost2010PropOp51
 70
     0
102
RTVSPost2010Prop52
140
1.0
102
RTVSPost2010PropOp52
 70
     0
102
RTVSPost2010Prop53
 90
        2
102
RTVSPost2010PropOp53
 70
     1
102
RTVSPost2010Prop54
  1
strokes_ogs.tif
102
RTVSPost2010PropOp54
 70
     1
102
RTVSPost2010Prop55
280
     0
102
RTVSPost2010PropOp55
 70
     1
102
RTVSPost2010Prop56
140
1.0
102
RTVSPost2010PropOp56
 70
     1
102
RTVSPost2010Prop57
140
1.0
102
RTVSPost2010PropOp57
 70
     1
  0
ENDSEC
  0
EOF
