  0
SECTION
  2
HEADER
  9
$ACADVER
  1
AC1021
  9
$ACADMAINTVER
 70
    25
  9
$DWGCODEPAGE
  3
ANSI_1252
  9
$INSBASE
 10
0.0
 20
0.0
 30
0.0
  9
$EXTMIN
 10
0.0
 20
0.0
 30
0.0
  9
$EXTMAX
 10
1800.0
 20
1200.0
 30
0.0
  9
$LIMMIN
 10
0.0
 20
0.0
  9
$LIMMAX
 10
1800.0
 20
1200.0
  9
$ORTHOMODE
 70
     0
  9
$REGENMODE
 70
     1
  9
$FILLMODE
 70
     1
  9
$QTEXTMODE
 70
     0
  9
$MIRRTEXT
 70
     1
  9
$LTSCALE
 40
1.0
  9
$ATTMODE
 70
     1
  9
$TEXTSIZE
 40
2.5
  9
$TRACEWID
 40
1.0
  9
$TEXTSTYLE
  7
Standard
  9
$CLAYER
  8
0
  9
$CELTYPE
  6
ByLayer
  9
$CECOLOR
 62
   256
  9
$CELTSCALE
 40
1.0
  9
$DISPSILH
 70
     0
  9
$DIMSCALE
 40
1.0
  9
$DIMASZ
 40
2.5
  9
$DIMEXO
 40
0.625
  9
$DIMDLI
 40
3.75
  9
$DIMRND
 40
0.0
  9
$DIMDLE
 40
0.0
  9
$DIMEXE
 40
1.25
  9
$DIMTP
 40
0.0
  9
$DIMTM
 40
0.0
  9
$DIMTXT
 40
2.5
  9
$DIMCEN
 40
2.5
  9
$DIMTSZ
 40
0.0
  9
$DIMTOL
 70
     0
  9
$DIMLIM
 70
     0
  9
$DIMTIH
 70
     0
  9
$DIMTOH
 70
     0
  9
$DIMSE1
 70
     0
  9
$DIMSE2
 70
     0
  9
$DIMTAD
 70
     1
  9
$DIMZIN
 70
     8
  9
$DIMBLK
  1

  9
$DIMASO
 70
     1
  9
$DIMSHO
 70
     1
  9
$DIMPOST
  1

  9
$DIMAPOST
  1

  9
$DIMALT
 70
     0
  9
$DIMALTD
 70
     3
  9
$DIMALTF
 40
0.0393700787
  9
$DIMLFAC
 40
1.0
  9
$DIMTOFL
 70
     1
  9
$DIMTVP
 40
0.0
  9
$DIMTIX
 70
     0
  9
$DIMSOXD
 70
     0
  9
$DIMSAH
 70
     0
  9
$DIMBLK1
  1

  9
$DIMBLK2
  1

  9
$DIMSTYLE
  2
ISO-25
  9
$DIMCLRD
 70
     0
  9
$DIMCLRE
 70
     0
  9
$DIMCLRT
 70
     0
  9
$DIMTFAC
 40
1.0
  9
$DIMGAP
 40
0.625
  9
$DIMJUST
 70
     0
  9
$DIMSD1
 70
     0
  9
$DIMSD2
 70
     0
  9
$DIMTOLJ
 70
     0
  9
$DIMTZIN
 70
     8
  9
$DIMALTZ
 70
     0
  9
$DIMALTTZ
 70
     0
  9
$DIMUPT
 70
     0
  9
$DIMDEC
 70
     2
  9
$DIMTDEC
 70
     2
  9
$DIMALTU
 70
     2
  9
$DIMALTTD
 70
     3
  9
$DIMTXSTY
  7
Standard
  9
$DIMAUNIT
 70
     0
  9
$DIMADEC
 70
     0
  9
$DIMALTRND
 40
0.0
  9
$DIMAZIN
 70
     0
  9
$DIMDSEP
 70
    44
  9
$DIMATFIT
 70
     3
  9
$DIMFRAC
 70
     0
  9
$DIMLDRBLK
  1

  9
$DIMLUNIT
 70
     2
  9
$DIMLWD
 70
    -2
  9
$DIMLWE
 70
    -2
  9
$DIMTMOVE
 70
     0
  9
$DIMFXL
 40
1.0
  9
$DIMFXLON
 70
     0
  9
$DIMJOGANG
 40
0.7853981634
  9
$DIMTFILL
 70
     0
  9
$DIMTFILLCLR
 70
     0
  9
$DIMARCSYM
 70
     0
  9
$DIMLTYPE
  6

  9
$DIMLTEX1
  6

  9
$DIMLTEX2
  6

  9
$LUNITS
 70
     2
  9
$LUPREC
 70
     4
  9
$SKETCHINC
 40
1.0
  9
$FILLETRAD
 40
10.0
  9
$AUNITS
 70
     0
  9
$AUPREC
 70
     0
  9
$MENU
  1
.
  9
$ELEVATION
 40
0.0
  9
$PELEVATION
 40
0.0
  9
$THICKNESS
 40
0.0
  9
$LIMCHECK
 70
     0
  9
$CHAMFERA
 40
0.0
  9
$CHAMFERB
 40
0.0
  9
$CHAMFERC
 40
0.0
  9
$CHAMFERD
 40
0.0
  9
$SKPOLY
 70
     0
  9
$TDCREATE
 40
2460063.401803414
  9
$TDUCREATE
 40
2460063.318470081
  9
$TDUPDATE
 40
2460063.401811366
  9
$TDUUPDATE
 40
2460063.318478032
  9
$TDINDWG
 40
0.0000000116
  9
$TDUSRTIMER
 40
0.0000000116
  9
$USRTIMER
 70
     1
  9
$ANGBASE
 50
0.0
  9
$ANGDIR
 70
     0
  9
$PDMODE
 70
     0
  9
$PDSIZE
 40
0.0
  9
$PLINEWID
 40
0.0
  9
$SPLFRAME
 70
     0
  9
$SPLINETYPE
 70
     6
  9
$SPLINESEGS
 70
     8
  9
$HANDSEED
  5
348
  9
$SURFTAB1
 70
     6
  9
$SURFTAB2
 70
     6
  9
$SURFTYPE
 70
     6
  9
$SURFU
 70
     6
  9
$SURFV
 70
     6
  9
$UCSBASE
  2

  9
$UCSNAME
  2

  9
$UCSORG
 10
0.0
 20
0.0
 30
0.0
  9
$UCSXDIR
 10
1.0
 20
0.0
 30
0.0
  9
$UCSYDIR
 10
0.0
 20
1.0
 30
0.0
  9
$UCSORTHOREF
  2

  9
$UCSORTHOVIEW
 70
     0
  9
$UCSORGTOP
 10
0.0
 20
0.0
 30
0.0
  9
$UCSORGBOTTOM
 10
0.0
 20
0.0
 30
0.0
  9
$UCSORGLEFT
 10
0.0
 20
0.0
 30
0.0
  9
$UCSORGRIGHT
 10
0.0
 20
0.0
 30
0.0
  9
$UCSORGFRONT
 10
0.0
 20
0.0
 30
0.0
  9
$UCSORGBACK
 10
0.0
 20
0.0
 30
0.0
  9
$PUCSBASE
  2

  9
$PUCSNAME
  2

  9
$PUCSORG
 10
0.0
 20
0.0
 30
0.0
  9
$PUCSXDIR
 10
1.0
 20
0.0
 30
0.0
  9
$PUCSYDIR
 10
0.0
 20
1.0
 30
0.0
  9
$PUCSORTHOREF
  2

  9
$PUCSORTHOVIEW
 70
     0
  9
$PUCSORGTOP
 10
0.0
 20
0.0
 30
0.0
  9
$PUCSORGBOTTOM
 10
0.0
 20
0.0
 30
0.0
  9
$PUCSORGLEFT
 10
0.0
 20
0.0
 30
0.0
  9
$PUCSORGRIGHT
 10
0.0
 20
0.0
 30
0.0
  9
$PUCSORGFRONT
 10
0.0
 20
0.0
 30
0.0
  9
$PUCSORGBACK
 10
0.0
 20
0.0
 30
0.0
  9
$USERI1
 70
     0
  9
$USERI2
 70
     0
  9
$USERI3
 70
     0
  9
$USERI4
 70
     0
  9
$USERI5
 70
     0
  9
$USERR1
 40
0.0
  9
$USERR2
 40
0.0
  9
$USERR3
 40
0.0
  9
$USERR4
 40
0.0
  9
$USERR5
 40
0.0
  9
$WORLDVIEW
 70
     1
  9
$SHADEDGE
 70
     3
  9
$SHADEDIF
 70
    70
  9
$TILEMODE
 70
     1
  9
$MAXACTVP
 70
    64
  9
$PINSBASE
 10
0.0
 20
0.0
 30
0.0
  9
$PLIMCHECK
 70
     0
  9
$PEXTMIN
 10
0.0
 20
0.0
 30
0.0
  9
$PEXTMAX
 10
1800.0
 20
1200.0
 30
0.0
  9
$PLIMMIN
 10
0.0
 20
0.0
  9
$PLIMMAX
 10
1800.0
 20
1200.0
  9
$UNITMODE
 70
     0
  9
$VISRETAIN
 70
     1
  9
$PLINEGEN
 70
     0
  9
$PSLTSCALE
 70
     1
  9
$TREEDEPTH
 70
  3020
  9
$CMLSTYLE
  2
Standard
  9
$CMLJUST
 70
     0
  9
$CMLSCALE
 40
20.0
  9
$PROXYGRAPHICS
 70
     1
  9
$MEASUREMENT
 70
     1
  9
$CELWEIGHT
370
    -1
  9
$ENDCAPS
280
     0
  9
$JOINSTYLE
280
     0
  9
$LWDISPLAY
290
     0
  9
$INSUNITS
 70
     4
  9
$HYPERLINKBASE
  1

  9
$STYLESHEET
  1

  9
$XEDIT
290
     1
  9
$CEPSNTYPE
380
     0
  9
$PSTYLEMODE
290
     1
  9
$FINGERPRINTGUID
  2
{BF83F6C5-B5CD-4296-AC86-FD779EA6429E}
  9
$VERSIONGUID
  2
{FAEB1C32-E019-11D5-929B-00C0DF256EC4}
  9
$EXTNAMES
290
     1
  9
$PSVPSCALE
 40
0.0
  9
$OLESTARTUP
290
     0
  9
$SORTENTS
280
   127
  9
$INDEXCTL
280
     0
  9
$HIDETEXT
280
     1
  9
$XCLIPFRAME
290
     0
  9
$HALOGAP
280
     0
  9
$OBSCOLOR
 70
   257
  9
$OBSLTYPE
280
     0
  9
$INTERSECTIONDISPLAY
280
     0
  9
$INTERSECTIONCOLOR
 70
   257
  9
$DIMASSOC
280
     2
  9
$PROJECTNAME
  1

  9
$CAMERADISPLAY
290
     0
  9
$LENSLENGTH
 40
50.0
  9
$CAMERAHEIGHT
 40
0.0
  9
$STEPSPERSEC
 40
2.0
  9
$STEPSIZE
 40
6.0
  9
$3DDWFPREC
 40
2.0
  9
$PSOLWIDTH
 40
5.0
  9
$PSOLHEIGHT
 40
80.0
  9
$LOFTANG1
 40
1.5707963268
  9
$LOFTANG2
 40
1.5707963268
  9
$LOFTMAG1
 40
0.0
  9
$LOFTMAG2
 40
0.0
  9
$LOFTPARAM
 70
     7
  9
$LOFTNORMALS
280
     1
  9
$LATITUDE
 40
37.795
  9
$LONGITUDE
 40
-122.394
  9
$NORTHDIRECTION
 40
0.0
  9
$TIMEZONE
 70
 -8000
  9
$LIGHTGLYPHDISPLAY
280
     1
  9
$TILEMODELIGHTSYNCH
280
     1
  9
$CMATERIAL
347
44
  9
$SOLIDHIST
280
     0
  9
$SHOWHIST
280
     1
  9
$DWFFRAME
280
     2
  9
$DGNFRAME
280
     2
  9
$REALWORLDSCALE
290
     1
  9
$INTERFERECOLOR
 62
   256
  9
$CSHADOW
280
     0
  9
$SHADOWPLANELOCATION
 40
0.0
  0
ENDSEC
  0
SECTION
  2
CLASSES
  0
CLASS
  1
ACDBDICTIONARYWDFLT
  2
AcDbDictionaryWithDefault
  3
ObjectDBX Classes
 90
        0
 91
        4
280
     0
281
     0
  0
CLASS
  1
VISUALSTYLE
  2
AcDbVisualStyle
  3
ObjectDBX Classes
 90
     4095
 91
        4
280
     0
281
     0
  0
CLASS
  1
MATERIAL
  2
AcDbMaterial
  3
ObjectDBX Classes
 90
     1153
 91
        4
280
     0
281
     0
  0
CLASS
  1
SCALE
  2
AcDbScale
  3
ObjectDBX Classes
 90
     1153
 91
        4
280
     0
281
     0
  0
CLASS
  1
TABLESTYLE
  2
AcDbTableStyle
  3
ObjectDBX Classes
 90
     4095
 91
        4
280
     0
281
     0
  0
CLASS
  1
MLEADERSTYLE
  2
AcDbMLeaderStyle
  3
ACDB_MLEADERSTYLE_CLASS
 90
     4095
 91
        4
280
     0
281
     0
  0
CLASS
  1
SUN
  2
AcDbSun
  3
SCENEOE
 90
     1153
 91
        4
280
     0
281
     0
  0
CLASS
  1
MULTILEADER
  2
AcDbMLeader
  3
ACDB_MLEADER_CLASS
 90
     1025
 91
        4
280
     0
281
     1
  0
CLASS
  1
DICTIONARYVAR
  2
AcDbDictionaryVar
  3
ObjectDBX Classes
 90
        0
 91
        4
280
     0
281
     0
  0
CLASS
  1
CELLSTYLEMAP
  2
AcDbCellStyleMap
  3
ObjectDBX Classes
 90
     1152
 91
        4
280
     0
281
     0
  0
ENDSEC
  0
SECTION
  2
TABLES
  0
TABLE
  2
VPORT
  5
8
330
0
100
AcDbSymbolTable
 70
     1
  0
VPORT
  5
29
330
8
100
AcDbSymbolTableRecord
100
AcDbViewportTableRecord
  2
*Active
 70
     0
 10
0.0
 20
0.0
 11
1.0
 21
1.0
 12
344.1869158879
 22
148.5
 13
0.0
 23
0.0
 14
10.0
 24
10.0
 15
10.0
 25
10.0
 16
0.0
 26
0.0
 36
1.0
 17
0.0
 27
0.0
 37
0.0
 40
297.0
 41
1.9729729729
 42
50.0
 43
0.0
 44
0.0
 50
0.0
 51
0.0
 71
     0
 72
   100
 73
     1
 74
     3
 75
     0
 76
     0
 77
     0
 78
     0
281
     0
 65
     1
110
0.0
120
0.0
130
0.0
111
1.0
121
0.0
131
0.0
112
0.0
122
1.0
132
0.0
 79
     0
146
0.0
348
2F
 60
     3
 61
     5
292
     1
282
     1
141
0.0
142
0.0
 63
   250
361
6D
  0
ENDTAB
  0
TABLE
  2
LTYPE
  5
5
330
0
100
AcDbSymbolTable
 70
     1
  0
LTYPE
  5
14
330
5
100
AcDbSymbolTableRecord
100
AcDbLinetypeTableRecord
  2
ByBlock
 70
     0
  3

 72
    65
 73
     0
 40
0.0
  0
LTYPE
  5
15
330
5
100
AcDbSymbolTableRecord
100
AcDbLinetypeTableRecord
  2
ByLayer
 70
     0
  3

 72
    65
 73
     0
 40
0.0
  0
LTYPE
  5
16
330
5
100
AcDbSymbolTableRecord
100
AcDbLinetypeTableRecord
  2
Continuous
 70
     0
  3
Solid line
 72
    65
 73
     0
 40
0.0
  0
ENDTAB
  0
TABLE
  2
LAYER
  5
2
330
0
100
AcDbSymbolTable
 70
    10
  0
LAYER
  5
10
330
2
100
AcDbSymbolTableRecord
100
AcDbLayerTableRecord
  2
0
 70
     0
 62
     7
  6
Continuous
370
    -3
390
F
347
46
  0
LAYER
  5
6E
330
2
100
AcDbSymbolTableRecord
100
AcDbLayerTableRecord
  2
encadrement
 70
     1
 62
    -7
  6
Continuous
370
    -3
390
F
347
46
  0
LAYER
  5
74
330
2
100
AcDbSymbolTableRecord
100
AcDbLayerTableRecord
  2
Cartouche
 70
     0
 62
     7
  6
Continuous
370
    -3
390
F
347
46
  0
LAYER
  5
77
330
2
100
AcDbSymbolTableRecord
100
AcDbLayerTableRecord
  2
H998_ALU_BRACKET
 70
     0
 62
     7
  6
Continuous
370
    -3
390
F
347
46
  0
LAYER
  5
8C
330
2
100
AcDbSymbolTableRecord
100
AcDbLayerTableRecord
  2
H998_ASSISE
 70
     0
 62
     7
  6
Continuous
370
    -3
390
F
347
46
  0
LAYER
  5
B9
330
2
100
AcDbSymbolTableRecord
100
AcDbLayerTableRecord
  2
H998_BARRE_ALU
 70
     0
 62
     7
  6
Continuous
370
    -3
390
F
347
46
  0
LAYER
  5
C2
330
2
100
AcDbSymbolTableRecord
100
AcDbLayerTableRecord
  2
H998_VIS1
 70
     0
 62
     7
  6
Continuous
370
    -3
390
F
347
46
  0
LAYER
  5
D7
330
2
100
AcDbSymbolTableRecord
100
AcDbLayerTableRecord
  2
H998_CACHE
 70
     0
 62
     7
  6
Continuous
370
    -3
390
F
347
46
  0
LAYER
  5
17F
330
2
100
AcDbSymbolTableRecord
100
AcDbLayerTableRecord
  2
H998_BOUCHON_PLA
 70
     0
 62
     7
  6
Continuous
370
    -3
390
F
347
46
  0
LAYER
  5
303
330
2
100
AcDbSymbolTableRecord
100
AcDbLayerTableRecord
  2
Default
 70
     0
 62
     7
  6
Continuous
370
    -3
390
F
347
46
  0
ENDTAB
  0
TABLE
  2
STYLE
  5
3
330
0
100
AcDbSymbolTable
 70
     3
  0
STYLE
  5
11
330
3
100
AcDbSymbolTableRecord
100
AcDbTextStyleTableRecord
  2
Standard
 70
     0
 40
0.0
 41
1.0
 50
0.0
 71
     0
 42
2.5
  3
txt
  4

  0
STYLE
  5
2C9
330
3
100
AcDbSymbolTableRecord
100
AcDbTextStyleTableRecord
  2
SEACAD_Arial
 70
     0
 40
0.0
 41
1.0
 50
0.0
 71
     0
 42
2.5
  3

  4

1001
ACAD
1000
Arial
1071
        0
  0
STYLE
  5
2CC
330
3
100
AcDbSymbolTableRecord
100
AcDbTextStyleTableRecord
  2
SEACAD_ArialB
 70
     0
 40
0.0
 41
1.0
 50
0.0
 71
     0
 42
2.5
  3
arialbd.ttf
  4

1001
ACAD
1000
Arial
1071
 33554432
  0
ENDTAB
  0
TABLE
  2
VIEW
  5
6
330
0
100
AcDbSymbolTable
 70
     0
  0
ENDTAB
  0
TABLE
  2
UCS
  5
7
330
0
100
AcDbSymbolTable
 70
     0
  0
ENDTAB
  0
TABLE
  2
APPID
  5
9
330
0
100
AcDbSymbolTable
 70
     2
  0
APPID
  5
12
330
9
100
AcDbSymbolTableRecord
100
AcDbRegAppTableRecord
  2
ACAD
 70
     0
  0
APPID
  5
309
330
9
100
AcDbSymbolTableRecord
100
AcDbRegAppTableRecord
  2
ACAD_MLEADERVER
 70
     0
  0
ENDTAB
  0
TABLE
  2
DIMSTYLE
  5
A
330
0
100
AcDbSymbolTable
 70
     3
100
AcDbDimStyleTable
  0
DIMSTYLE
105
27
330
A
100
AcDbSymbolTableRecord
100
AcDbDimStyleTableRecord
  2
ISO-25
 70
     0
 41
2.5
 42
0.625
 43
3.75
 44
1.25
 73
     0
 74
     0
 77
     1
 78
     8
140
2.5
141
2.5
143
0.0393700787
147
0.625
171
     3
172
     1
178
     0
271
     2
272
     2
274
     3
278
    44
283
     0
284
     8
340
11
  0
DIMSTYLE
105
2BA
330
A
100
AcDbSymbolTableRecord
100
AcDbDimStyleTableRecord
  2
Standard
 70
     0
178
     0
340
11
  0
DIMSTYLE
105
2CA
102
{ACAD_REACTORS
330
2CB
330
2D7
330
2E2
330
2ED
330
2F8
102
}
330
A
100
AcDbSymbolTableRecord
100
AcDbDimStyleTableRecord
  2
cadre_1200x1200
 70
     0
 41
33.0
 42
0.0
 44
11.0
 45
10.0
 78
     8
140
22.0
141
0.0
143
0.0393700787
146
0.7
147
5.5
172
     1
173
     1
178
     0
271
     0
278
    44
284
     8
340
2C9
343
2C4
344
2C4
  0
ENDTAB
  0
TABLE
  2
BLOCK_RECORD
  5
1
330
0
100
AcDbSymbolTable
 70
    15
  0
BLOCK_RECORD
  5
1F
330
1
100
AcDbSymbolTableRecord
100
AcDbBlockTableRecord
  2
*Model_Space
340
22
 70
     0
280
     1
281
     0
  0
BLOCK_RECORD
  5
1B
330
1
100
AcDbSymbolTableRecord
100
AcDbBlockTableRecord
  2
*Paper_Space
340
1E
 70
     0
280
     1
281
     0
  0
BLOCK_RECORD
  5
75
330
1
100
AcDbSymbolTableRecord
100
AcDbBlockTableRecord
  2
SE
340
0
102
{BLKREFS
331
76
102
}
 70
     0
280
     1
281
     0
  0
BLOCK_RECORD
  5
FE
330
1
100
AcDbSymbolTableRecord
100
AcDbBlockTableRecord
  2
SE1
340
0
102
{BLKREFS
331
FF
102
}
 70
     0
280
     1
281
     0
  0
BLOCK_RECORD
  5
198
330
1
100
AcDbSymbolTableRecord
100
AcDbBlockTableRecord
  2
SE2
340
0
102
{BLKREFS
331
199
102
}
 70
     0
280
     1
281
     0
  0
BLOCK_RECORD
  5
1DD
330
1
100
AcDbSymbolTableRecord
100
AcDbBlockTableRecord
  2
SE3
340
0
102
{BLKREFS
331
1DE
102
}
 70
     0
280
     1
281
     0
  0
BLOCK_RECORD
  5
226
330
1
100
AcDbSymbolTableRecord
100
AcDbBlockTableRecord
  2
SE4
340
0
102
{BLKREFS
331
227
102
}
 70
     0
280
     1
281
     0
  0
BLOCK_RECORD
  5
2BB
330
1
100
AcDbSymbolTableRecord
100
AcDbBlockTableRecord
  2
_Oblique
340
0
 70
     0
280
     1
281
     0
  0
BLOCK_RECORD
  5
2BF
330
1
100
AcDbSymbolTableRecord
100
AcDbBlockTableRecord
  2
_Dot
340
0
 70
     0
280
     1
281
     0
  0
BLOCK_RECORD
  5
2C4
330
1
100
AcDbSymbolTableRecord
100
AcDbBlockTableRecord
  2
_SE_FILLED
340
0
 70
     0
280
     1
281
     0
  0
BLOCK_RECORD
  5
2CD
330
1
100
AcDbSymbolTableRecord
100
AcDbBlockTableRecord
  2
DMBLK6
340
0
 70
     0
280
     1
281
     0
  0
BLOCK_RECORD
  5
2D8
330
1
100
AcDbSymbolTableRecord
100
AcDbBlockTableRecord
  2
DMBLK7
340
0
 70
     0
280
     1
281
     0
  0
BLOCK_RECORD
  5
2E3
330
1
100
AcDbSymbolTableRecord
100
AcDbBlockTableRecord
  2
DMBLK8
340
0
 70
     0
280
     1
281
     0
  0
BLOCK_RECORD
  5
2EE
330
1
100
AcDbSymbolTableRecord
100
AcDbBlockTableRecord
  2
DMBLK9
340
0
 70
     0
280
     1
281
     0
  0
BLOCK_RECORD
  5
2F9
330
1
100
AcDbSymbolTableRecord
100
AcDbBlockTableRecord
  2
DMBLK10
340
0
 70
     0
280
     1
281
     0
  0
BLOCK_RECORD
  5
304
330
1
100
AcDbSymbolTableRecord
100
AcDbBlockTableRecord
  2
SEANNOT_GROUP
340
0
102
{BLKREFS
331
305
102
}
 70
     0
280
     1
281
     0
  0
ENDTAB
  0
ENDSEC
  0
SECTION
  2
BLOCKS
  0
BLOCK
  5
20
330
1F
100
AcDbEntity
  8
0
100
AcDbBlockBegin
  2
*Model_Space
 70
     0
 10
0.0
 20
0.0
 30
0.0
  3
*Model_Space
  1

  0
ENDBLK
  5
21
330
1F
100
AcDbEntity
  8
0
100
AcDbBlockEnd
  0
BLOCK
  5
1C
330
1B
100
AcDbEntity
 67
     1
  8
0
100
AcDbBlockBegin
  2
*Paper_Space
 70
     0
 10
0.0
 20
0.0
 30
0.0
  3
*Paper_Space
  1

  0
ENDBLK
  5
1D
330
1B
100
AcDbEntity
 67
     1
  8
0
100
AcDbBlockEnd
  0
BLOCK
  5
FC
330
75
100
AcDbEntity
  8
0
100
AcDbBlockBegin
  2
SE
 70
     0
 10
0.0
 20
0.0
 30
0.0
  3
SE
  1

  0
LINE
  5
78
330
75
100
AcDbEntity
  8
H998_ALU_BRACKET
  6
Continuous
 62
     7
100
AcDbLine
 10
674.7404891804
 20
853.8394187001
 30
0.0
 11
667.7404891804
 21
853.8394187001
 31
0.0
  0
LINE
  5
79
330
75
100
AcDbEntity
  8
H998_ALU_BRACKET
  6
Continuous
 62
     7
100
AcDbLine
 10
667.5404891804
 20
783.8394187001
 30
0.0
 11
665.9904891804
 21
783.8394187001
 31
0.0
  0
LINE
  5
7A
330
75
100
AcDbEntity
  8
H998_ALU_BRACKET
  6
Continuous
 62
     7
100
AcDbLine
 10
641.9904891804
 20
783.8394187001
 30
0.0
 11
640.4404891804
 21
783.8394187001
 31
0.0
  0
LINE
  5
7B
330
75
100
AcDbEntity
  8
H998_ALU_BRACKET
  6
Continuous
 62
     7
100
AcDbLine
 10
640.9404891804
 20
803.8394187001
 30
0.0
 11
667.0404891804
 21
803.8394187001
 31
0.0
  0
LINE
  5
7C
330
75
100
AcDbEntity
  8
H998_ALU_BRACKET
  6
Continuous
 62
     7
100
AcDbLine
 10
674.7404891804
 20
783.8394187001
 30
0.0
 11
667.5404891804
 21
783.8394187001
 31
0.0
  0
LINE
  5
7D
330
75
100
AcDbEntity
  8
H998_ALU_BRACKET
  6
Continuous
 62
     7
100
AcDbLine
 10
667.5404891804
 20
783.8394187001
 30
0.0
 11
667.5404891804
 21
786.7560934969
 31
0.0
  0
LINE
  5
7E
330
75
100
AcDbEntity
  8
H998_ALU_BRACKET
  6
Continuous
 62
     7
100
AcDbLine
 10
667.5404891804
 20
786.7560934969
 30
0.0
 11
667.0404891804
 21
786.7560934969
 31
0.0
  0
LINE
  5
7F
330
75
100
AcDbEntity
  8
H998_ALU_BRACKET
  6
Continuous
 62
     7
100
AcDbLine
 10
667.0404891804
 20
786.7560934969
 30
0.0
 11
667.0404891804
 21
803.8394187001
 31
0.0
  0
LINE
  5
80
330
75
100
AcDbEntity
  8
H998_ALU_BRACKET
  6
Continuous
 62
     7
100
AcDbLine
 10
674.7404891804
 20
803.8394187001
 30
0.0
 11
674.7404891804
 21
853.8394187001
 31
0.0
  0
LINE
  5
81
330
75
100
AcDbEntity
  8
H998_ALU_BRACKET
  6
Continuous
 62
     7
100
AcDbLine
 10
667.0404891804
 20
803.8394187001
 30
0.0
 11
674.7404891804
 21
803.8394187001
 31
0.0
  0
LINE
  5
82
330
75
100
AcDbEntity
  8
H998_ALU_BRACKET
  6
Continuous
 62
     7
100
AcDbLine
 10
674.7404891804
 20
803.8394187001
 30
0.0
 11
674.7404891804
 21
783.8394187001
 31
0.0
  0
LINE
  5
83
330
75
100
AcDbEntity
  8
H998_ALU_BRACKET
  6
Continuous
 62
     7
100
AcDbLine
 10
640.4404891804
 20
783.8394187001
 30
0.0
 11
633.2404891804
 21
783.8394187001
 31
0.0
  0
LINE
  5
84
330
75
100
AcDbEntity
  8
H998_ALU_BRACKET
  6
Continuous
 62
     7
100
AcDbLine
 10
633.2404891804
 20
803.8394187001
 30
0.0
 11
633.2404891804
 21
853.8394187001
 31
0.0
  0
LINE
  5
85
330
75
100
AcDbEntity
  8
H998_ALU_BRACKET
  6
Continuous
 62
     7
100
AcDbLine
 10
633.2404891804
 20
783.8394187001
 30
0.0
 11
633.2404891804
 21
803.8394187001
 31
0.0
  0
LINE
  5
86
330
75
100
AcDbEntity
  8
H998_ALU_BRACKET
  6
Continuous
 62
     7
100
AcDbLine
 10
633.2404891804
 20
803.8394187001
 30
0.0
 11
640.9404891804
 21
803.8394187001
 31
0.0
  0
LINE
  5
87
330
75
100
AcDbEntity
  8
H998_ALU_BRACKET
  6
Continuous
 62
     7
100
AcDbLine
 10
640.9404891804
 20
803.8394187001
 30
0.0
 11
640.9404891804
 21
786.7560934969
 31
0.0
  0
LINE
  5
88
330
75
100
AcDbEntity
  8
H998_ALU_BRACKET
  6
Continuous
 62
     7
100
AcDbLine
 10
640.9404891804
 20
786.7560934969
 30
0.0
 11
640.4404891804
 21
786.7560934969
 31
0.0
  0
LINE
  5
89
330
75
100
AcDbEntity
  8
H998_ALU_BRACKET
  6
Continuous
 62
     7
100
AcDbLine
 10
640.4404891804
 20
786.7560934969
 30
0.0
 11
640.4404891804
 21
783.8394187001
 31
0.0
  0
LINE
  5
8A
330
75
100
AcDbEntity
  8
H998_ALU_BRACKET
  6
Continuous
 62
     7
100
AcDbLine
 10
640.2404891804
 20
853.8394187001
 30
0.0
 11
633.2404891804
 21
853.8394187001
 31
0.0
  0
LINE
  5
8B
330
75
100
AcDbEntity
  8
H998_ALU_BRACKET
  6
Continuous
 62
     7
100
AcDbLine
 10
640.2404891804
 20
833.8394187001
 30
0.0
 11
667.7404891804
 21
833.8394187001
 31
0.0
  0
ARC
  5
8D
330
75
100
AcDbEntity
  8
H998_ASSISE
  6
Continuous
 62
     7
100
AcDbCircle
 10
803.9404891804
 20
25.1712122947
 30
0.0
 40
749.6500416666673
100
AcDbArc
 50
74.9103392836
 51
105.0896607164
  0
ARC
  5
8E
330
75
100
AcDbEntity
  8
H998_ASSISE
  6
Continuous
 62
     7
100
AcDbCircle
 10
613.9904891804
 20
729.6626464542
 30
0.0
 40
19.99999999999997
100
AcDbArc
 50
105.0896607164
 51
180.0
  0
LINE
  5
8F
330
75
100
AcDbEntity
  8
H998_ASSISE
  6
Continuous
 62
     7
100
AcDbLine
 10
593.9904891804
 20
469.9798614685
 30
0.0
 11
593.9904891804
 21
729.6626464542
 31
0.0
  0
ARC
  5
90
330
75
100
AcDbEntity
  8
H998_ASSISE
  6
Continuous
 62
     7
100
AcDbCircle
 10
613.9904891804
 20
469.9798614685
 30
0.0
 40
20.00000000000001
100
AcDbArc
 50
180.0
 51
254.9103392836
  0
ARC
  5
91
330
75
100
AcDbEntity
  8
H998_ASSISE
  6
Continuous
 62
     7
100
AcDbCircle
 10
803.9404891804
 20
1174.471295628
 30
0.0
 40
749.6500416666676
100
AcDbArc
 50
254.9103392836
 51
285.0896607164
  0
ARC
  5
92
330
75
100
AcDbEntity
  8
H998_ASSISE
  6
Continuous
 62
     7
100
AcDbCircle
 10
993.8904891804
 20
469.9798614685
 30
0.0
 40
20.00000000000017
100
AcDbArc
 50
285.0896607164
 51
0.0
  0
LINE
  5
93
330
75
100
AcDbEntity
  8
H998_ASSISE
  6
Continuous
 62
     7
100
AcDbLine
 10
1013.8904891804
 20
729.6626464542
 30
0.0
 11
1013.8904891804
 21
469.9798614685
 31
0.0
  0
ARC
  5
94
330
75
100
AcDbEntity
  8
H998_ASSISE
  6
Continuous
 62
     7
100
AcDbCircle
 10
993.8904891804
 20
729.6626464542
 30
0.0
 40
20.00000000000007
100
AcDbArc
 50
0.0
 51
74.9103392836
  0
ARC
  5
95
330
75
100
AcDbEntity
  8
H998_ASSISE
  6
Continuous
 62
     7
100
AcDbCircle
 10
809.6588449515
 20
55.0307410052
 30
0.0
 40
719.2595791057689
100
AcDbArc
 50
79.1630311036
 51
80.780989712
  0
ARC
  5
96
330
75
100
AcDbEntity
  8
H998_ASSISE
  6
Continuous
 62
     7
100
AcDbCircle
 10
809.6588449515
 20
55.0307410052
 30
0.0
 40
719.2595791057689
100
AcDbArc
 50
77.5362756641
 51
77.979506136
  0
LINE
  5
97
330
75
100
AcDbEntity
  8
H998_ASSISE
  6
Continuous
 62
     7
100
AcDbLine
 10
944.8904891804
 20
761.4512422227
 30
0.0
 11
944.8904891804
 21
761.4631472088
 31
0.0
  0
LINE
  5
98
330
75
100
AcDbEntity
  8
H998_ASSISE
  6
Continuous
 62
     7
100
AcDbLine
 10
959.452957324
 20
758.5192384478
 30
0.0
 11
959.4608661458
 21
758.5119225511
 31
0.0
  0
ARC
  5
99
330
75
100
AcDbEntity
  8
H998_ASSISE
  6
Continuous
 62
     7
100
AcDbCircle
 10
798.2221334092
 20
55.0307410052
 30
0.0
 40
719.2595791057689
100
AcDbArc
 50
99.219010288
 51
102.4637243359
  0
LINE
  5
9A
330
75
100
AcDbEntity
  8
H998_ASSISE
  6
Continuous
 62
     7
100
AcDbLine
 10
803.9404891804
 20
774.8212539613
 30
0.0
 11
806.9031818415
 21
774.8212539613
 31
0.0
  0
CIRCLE
  5
9B
330
75
100
AcDbEntity
  8
H998_ASSISE
  6
Continuous
 62
     7
100
AcDbCircle
 10
788.9404891804
 20
614.8212539613
 30
0.0
 40
7.5
  0
CIRCLE
  5
9C
330
75
100
AcDbEntity
  8
H998_ASSISE
  6
Continuous
 62
     7
100
AcDbCircle
 10
788.9404891804
 20
614.8212539613
 30
0.0
 40
2.5
  0
CIRCLE
  5
9D
330
75
100
AcDbEntity
  8
H998_ASSISE
  6
Continuous
 62
     7
100
AcDbCircle
 10
788.9404891804
 20
584.8212539613
 30
0.0
 40
7.5
  0
CIRCLE
  5
9E
330
75
100
AcDbEntity
  8
H998_ASSISE
  6
Continuous
 62
     7
100
AcDbCircle
 10
788.9404891804
 20
584.8212539613
 30
0.0
 40
2.5
  0
CIRCLE
  5
9F
330
75
100
AcDbEntity
  8
H998_ASSISE
  6
Continuous
 62
     7
100
AcDbCircle
 10
818.9404891804
 20
584.8212539613
 30
0.0
 40
7.5
  0
CIRCLE
  5
A0
330
75
100
AcDbEntity
  8
H998_ASSISE
  6
Continuous
 62
     7
100
AcDbCircle
 10
818.9404891804
 20
584.8212539613
 30
0.0
 40
2.5
  0
CIRCLE
  5
A1
330
75
100
AcDbEntity
  8
H998_ASSISE
  6
Continuous
 62
     7
100
AcDbCircle
 10
803.9404891804
 20
599.8212539613
 30
0.0
 40
7.5
  0
CIRCLE
  5
A2
330
75
100
AcDbEntity
  8
H998_ASSISE
  6
Continuous
 62
     7
100
AcDbCircle
 10
803.9404891804
 20
599.8212539613
 30
0.0
 40
2.5
  0
CIRCLE
  5
A3
330
75
100
AcDbEntity
  8
H998_ASSISE
  6
Continuous
 62
     7
100
AcDbCircle
 10
818.9404891804
 20
614.8212539613
 30
0.0
 40
7.5
  0
CIRCLE
  5
A4
330
75
100
AcDbEntity
  8
H998_ASSISE
  6
Continuous
 62
     7
100
AcDbCircle
 10
818.9404891804
 20
614.8212539613
 30
0.0
 40
2.5
  0
LINE
  5
A5
330
75
100
AcDbEntity
  8
H998_ALU_BRACKET
  6
Continuous
 62
     7
100
AcDbLine
 10
974.6404891804
 20
853.8394187002
 30
0.0
 11
967.6404891804
 21
853.8394187002
 31
0.0
  0
LINE
  5
A6
330
75
100
AcDbEntity
  8
H998_ALU_BRACKET
  6
Continuous
 62
     7
100
AcDbLine
 10
967.4404891804
 20
783.8394187002
 30
0.0
 11
965.8904891804
 21
783.8394187002
 31
0.0
  0
LINE
  5
A7
330
75
100
AcDbEntity
  8
H998_ALU_BRACKET
  6
Continuous
 62
     7
100
AcDbLine
 10
941.8904891804
 20
783.8394187002
 30
0.0
 11
940.3404891804
 21
783.8394187002
 31
0.0
  0
LINE
  5
A8
330
75
100
AcDbEntity
  8
H998_ALU_BRACKET
  6
Continuous
 62
     7
100
AcDbLine
 10
940.8404891804
 20
803.8394187002
 30
0.0
 11
966.9404891804
 21
803.8394187002
 31
0.0
  0
LINE
  5
A9
330
75
100
AcDbEntity
  8
H998_ALU_BRACKET
  6
Continuous
 62
     7
100
AcDbLine
 10
974.6404891804
 20
783.8394187002
 30
0.0
 11
967.4404891804
 21
783.8394187002
 31
0.0
  0
LINE
  5
AA
330
75
100
AcDbEntity
  8
H998_ALU_BRACKET
  6
Continuous
 62
     7
100
AcDbLine
 10
967.4404891804
 20
783.8394187002
 30
0.0
 11
967.4404891804
 21
786.7560934969
 31
0.0
  0
LINE
  5
AB
330
75
100
AcDbEntity
  8
H998_ALU_BRACKET
  6
Continuous
 62
     7
100
AcDbLine
 10
967.4404891804
 20
786.7560934969
 30
0.0
 11
966.9404891804
 21
786.7560934969
 31
0.0
  0
LINE
  5
AC
330
75
100
AcDbEntity
  8
H998_ALU_BRACKET
  6
Continuous
 62
     7
100
AcDbLine
 10
966.9404891804
 20
786.7560934969
 30
0.0
 11
966.9404891804
 21
803.8394187002
 31
0.0
  0
LINE
  5
AD
330
75
100
AcDbEntity
  8
H998_ALU_BRACKET
  6
Continuous
 62
     7
100
AcDbLine
 10
974.6404891804
 20
803.8394187002
 30
0.0
 11
974.6404891804
 21
853.8394187002
 31
0.0
  0
LINE
  5
AE
330
75
100
AcDbEntity
  8
H998_ALU_BRACKET
  6
Continuous
 62
     7
100
AcDbLine
 10
966.9404891804
 20
803.8394187002
 30
0.0
 11
974.6404891804
 21
803.8394187002
 31
0.0
  0
LINE
  5
AF
330
75
100
AcDbEntity
  8
H998_ALU_BRACKET
  6
Continuous
 62
     7
100
AcDbLine
 10
974.6404891804
 20
803.8394187002
 30
0.0
 11
974.6404891804
 21
783.8394187002
 31
0.0
  0
LINE
  5
B0
330
75
100
AcDbEntity
  8
H998_ALU_BRACKET
  6
Continuous
 62
     7
100
AcDbLine
 10
940.3404891804
 20
783.8394187002
 30
0.0
 11
933.1404891804
 21
783.8394187002
 31
0.0
  0
LINE
  5
B1
330
75
100
AcDbEntity
  8
H998_ALU_BRACKET
  6
Continuous
 62
     7
100
AcDbLine
 10
933.1404891804
 20
803.8394187002
 30
0.0
 11
933.1404891804
 21
853.8394187002
 31
0.0
  0
LINE
  5
B2
330
75
100
AcDbEntity
  8
H998_ALU_BRACKET
  6
Continuous
 62
     7
100
AcDbLine
 10
933.1404891804
 20
783.8394187002
 30
0.0
 11
933.1404891804
 21
803.8394187002
 31
0.0
  0
LINE
  5
B3
330
75
100
AcDbEntity
  8
H998_ALU_BRACKET
  6
Continuous
 62
     7
100
AcDbLine
 10
933.1404891804
 20
803.8394187002
 30
0.0
 11
940.8404891804
 21
803.8394187002
 31
0.0
  0
LINE
  5
B4
330
75
100
AcDbEntity
  8
H998_ALU_BRACKET
  6
Continuous
 62
     7
100
AcDbLine
 10
940.8404891804
 20
803.8394187002
 30
0.0
 11
940.8404891804
 21
786.7560934969
 31
0.0
  0
LINE
  5
B5
330
75
100
AcDbEntity
  8
H998_ALU_BRACKET
  6
Continuous
 62
     7
100
AcDbLine
 10
940.8404891804
 20
786.7560934969
 30
0.0
 11
940.3404891804
 21
786.7560934969
 31
0.0
  0
LINE
  5
B6
330
75
100
AcDbEntity
  8
H998_ALU_BRACKET
  6
Continuous
 62
     7
100
AcDbLine
 10
940.3404891804
 20
786.7560934969
 30
0.0
 11
940.3404891804
 21
783.8394187002
 31
0.0
  0
LINE
  5
B7
330
75
100
AcDbEntity
  8
H998_ALU_BRACKET
  6
Continuous
 62
     7
100
AcDbLine
 10
940.1404891804
 20
853.8394187002
 30
0.0
 11
933.1404891804
 21
853.8394187002
 31
0.0
  0
LINE
  5
B8
330
75
100
AcDbEntity
  8
H998_ALU_BRACKET
  6
Continuous
 62
     7
100
AcDbLine
 10
940.1404891804
 20
833.8394187002
 30
0.0
 11
967.6404891804
 21
833.8394187002
 31
0.0
  0
LINE
  5
BA
330
75
100
AcDbEntity
  8
H998_BARRE_ALU
  6
Continuous
 62
     7
100
AcDbLine
 10
665.9904891804
 20
803.8394187001
 30
0.0
 11
665.9904891804
 21
762.0308360547
 31
0.0
  0
LINE
  5
BB
330
75
100
AcDbEntity
  8
H998_BARRE_ALU
  6
Continuous
 62
     7
100
AcDbLine
 10
663.9904891804
 20
761.6538426818
 30
0.0
 11
663.9904891804
 21
803.8394187001
 31
0.0
  0
LINE
  5
BC
330
75
100
AcDbEntity
  8
H998_BARRE_ALU
  6
Continuous
 62
     7
100
AcDbLine
 10
643.9904891804
 20
803.8394187001
 30
0.0
 11
643.9904891804
 21
757.5597027242
 31
0.0
  0
LINE
  5
BD
330
75
100
AcDbEntity
  8
H998_BARRE_ALU
  6
Continuous
 62
     7
100
AcDbLine
 10
641.9904891804
 20
757.1188760459
 30
0.0
 11
641.9904891804
 21
803.8394187001
 31
0.0
  0
LINE
  5
BE
330
75
100
AcDbEntity
  8
H998_BARRE_ALU
  6
Continuous
 62
     7
100
AcDbLine
 10
965.8904891804
 20
803.8394187002
 30
0.0
 11
965.8904891804
 21
757.1188760459
 31
0.0
  0
LINE
  5
BF
330
75
100
AcDbEntity
  8
H998_BARRE_ALU
  6
Continuous
 62
     7
100
AcDbLine
 10
963.8904891804
 20
757.5597027242
 30
0.0
 11
963.8904891804
 21
803.8394187002
 31
0.0
  0
LINE
  5
C0
330
75
100
AcDbEntity
  8
H998_BARRE_ALU
  6
Continuous
 62
     7
100
AcDbLine
 10
943.8904891804
 20
803.8394187002
 30
0.0
 11
943.8904891804
 21
761.6538426818
 31
0.0
  0
LINE
  5
C1
330
75
100
AcDbEntity
  8
H998_BARRE_ALU
  6
Continuous
 62
     7
100
AcDbLine
 10
941.8904891804
 20
762.0308360547
 30
0.0
 11
941.8904891804
 21
803.8394187002
 31
0.0
  0
LINE
  5
C3
330
75
100
AcDbEntity
  8
H998_VIS1
  6
Continuous
 62
     7
100
AcDbLine
 10
675.8404891804
 20
789.8394187001
 30
0.0
 11
675.8404891804
 21
795.8394187001
 31
0.0
  0
LINE
  5
C4
330
75
100
AcDbEntity
  8
H998_VIS1
  6
Continuous
 62
     7
100
AcDbLine
 10
674.8404891804
 20
788.8394187001
 30
0.0
 11
674.8404891804
 21
796.8394187001
 31
0.0
  0
LINE
  5
C5
330
75
100
AcDbEntity
  8
H998_VIS1
  6
Continuous
 62
     7
100
AcDbLine
 10
674.8404891804
 20
796.8394187001
 30
0.0
 11
674.7404891804
 21
796.8394187001
 31
0.0
  0
LINE
  5
C6
330
75
100
AcDbEntity
  8
H998_VIS1
  6
Continuous
 62
     7
100
AcDbLine
 10
667.0404891804
 20
796.8394187001
 30
0.0
 11
665.9904891804
 21
796.8394187001
 31
0.0
  0
LINE
  5
C7
330
75
100
AcDbEntity
  8
H998_VIS1
  6
Continuous
 62
     7
100
AcDbLine
 10
641.9904891804
 20
796.8394187001
 30
0.0
 11
640.9404891804
 21
796.8394187001
 31
0.0
  0
LINE
  5
C8
330
75
100
AcDbEntity
  8
H998_VIS1
  6
Continuous
 62
     7
100
AcDbLine
 10
640.9404891804
 20
788.8394187001
 30
0.0
 11
641.9904891804
 21
788.8394187001
 31
0.0
  0
LINE
  5
C9
330
75
100
AcDbEntity
  8
H998_VIS1
  6
Continuous
 62
     7
100
AcDbLine
 10
665.9904891804
 20
788.8394187001
 30
0.0
 11
667.0404891804
 21
788.8394187001
 31
0.0
  0
LINE
  5
CA
330
75
100
AcDbEntity
  8
H998_VIS1
  6
Continuous
 62
     7
100
AcDbLine
 10
674.7404891804
 20
788.8394187001
 30
0.0
 11
674.8404891804
 21
788.8394187001
 31
0.0
  0
LINE
  5
CB
330
75
100
AcDbEntity
  8
H998_VIS1
  6
Continuous
 62
     7
100
AcDbLine
 10
674.8404891804
 20
788.8394187001
 30
0.0
 11
675.8404891804
 21
789.8394187001
 31
0.0
  0
LINE
  5
CC
330
75
100
AcDbEntity
  8
H998_VIS1
  6
Continuous
 62
     7
100
AcDbLine
 10
675.8404891804
 20
795.8394187001
 30
0.0
 11
674.8404891804
 21
796.8394187001
 31
0.0
  0
LINE
  5
CD
330
75
100
AcDbEntity
  8
H998_VIS1
  6
Continuous
 62
     7
100
AcDbLine
 10
932.0404891804
 20
795.8394187001
 30
0.0
 11
932.0404891804
 21
789.8394187001
 31
0.0
  0
LINE
  5
CE
330
75
100
AcDbEntity
  8
H998_VIS1
  6
Continuous
 62
     7
100
AcDbLine
 10
933.0404891804
 20
788.8394187001
 30
0.0
 11
933.0404891804
 21
796.8394187001
 31
0.0
  0
LINE
  5
CF
330
75
100
AcDbEntity
  8
H998_VIS1
  6
Continuous
 62
     7
100
AcDbLine
 10
933.0404891804
 20
788.8394187001
 30
0.0
 11
933.1404891804
 21
788.8394187001
 31
0.0
  0
LINE
  5
D0
330
75
100
AcDbEntity
  8
H998_VIS1
  6
Continuous
 62
     7
100
AcDbLine
 10
940.8404891804
 20
788.8394187001
 30
0.0
 11
941.8904891804
 21
788.8394187001
 31
0.0
  0
LINE
  5
D1
330
75
100
AcDbEntity
  8
H998_VIS1
  6
Continuous
 62
     7
100
AcDbLine
 10
965.8904891804
 20
788.8394187001
 30
0.0
 11
966.9404891804
 21
788.8394187001
 31
0.0
  0
LINE
  5
D2
330
75
100
AcDbEntity
  8
H998_VIS1
  6
Continuous
 62
     7
100
AcDbLine
 10
966.9404891804
 20
796.8394187001
 30
0.0
 11
965.8904891804
 21
796.8394187001
 31
0.0
  0
LINE
  5
D3
330
75
100
AcDbEntity
  8
H998_VIS1
  6
Continuous
 62
     7
100
AcDbLine
 10
941.8904891804
 20
796.8394187001
 30
0.0
 11
940.8404891804
 21
796.8394187001
 31
0.0
  0
LINE
  5
D4
330
75
100
AcDbEntity
  8
H998_VIS1
  6
Continuous
 62
     7
100
AcDbLine
 10
933.1404891804
 20
796.8394187001
 30
0.0
 11
933.0404891804
 21
796.8394187001
 31
0.0
  0
LINE
  5
D5
330
75
100
AcDbEntity
  8
H998_VIS1
  6
Continuous
 62
     7
100
AcDbLine
 10
933.0404891804
 20
796.8394187001
 30
0.0
 11
932.0404891804
 21
795.8394187001
 31
0.0
  0
LINE
  5
D6
330
75
100
AcDbEntity
  8
H998_VIS1
  6
Continuous
 62
     7
100
AcDbLine
 10
932.0404891804
 20
789.8394187001
 30
0.0
 11
933.0404891804
 21
788.8394187001
 31
0.0
  0
LINE
  5
D8
330
75
100
AcDbEntity
  8
H998_CACHE
  6
Continuous
 62
     7
100
AcDbLine
 10
633.2404891804
 20
853.8394187001
 30
0.0
 11
645.2404891804
 21
853.8394187001
 31
0.0
  0
LINE
  5
D9
330
75
100
AcDbEntity
  8
H998_CACHE
  6
Continuous
 62
     7
100
AcDbLine
 10
633.2404891804
 20
833.8394187001
 30
0.0
 11
633.2404891804
 21
853.8394187001
 31
0.0
  0
LINE
  5
DA
330
75
100
AcDbEntity
  8
H998_CACHE
  6
Continuous
 62
     7
100
AcDbLine
 10
674.7404891804
 20
833.8394187001
 30
0.0
 11
667.7404891804
 21
833.8394187001
 31
0.0
  0
LINE
  5
DB
330
75
100
AcDbEntity
  8
H998_CACHE
  6
Continuous
 62
     7
100
AcDbLine
 10
674.7404891804
 20
853.8394187001
 30
0.0
 11
674.7404891804
 21
833.8394187001
 31
0.0
  0
LINE
  5
DC
330
75
100
AcDbEntity
  8
H998_CACHE
  6
Continuous
 62
     7
100
AcDbLine
 10
640.2404891804
 20
833.8394187001
 30
0.0
 11
633.2404891804
 21
833.8394187001
 31
0.0
  0
LINE
  5
DD
330
75
100
AcDbEntity
  8
H998_CACHE
  6
Continuous
 62
     7
100
AcDbLine
 10
662.7404891804
 20
853.8394187001
 30
0.0
 11
674.7404891804
 21
853.8394187001
 31
0.0
  0
LINE
  5
DE
330
75
100
AcDbEntity
  8
H998_CACHE
  6
Continuous
 62
     7
100
AcDbLine
 10
643.2404891804
 20
833.8394187001
 30
0.0
 11
664.7404891804
 21
833.8394187001
 31
0.0
  0
LINE
  5
DF
330
75
100
AcDbEntity
  8
H998_CACHE
  6
Continuous
 62
     7
100
AcDbLine
 10
672.7404891804
 20
835.8394187001
 30
0.0
 11
672.7404891804
 21
851.8394187001
 31
0.0
  0
LINE
  5
E0
330
75
100
AcDbEntity
  8
H998_CACHE
  6
Continuous
 62
     7
100
AcDbLine
 10
672.7404891804
 20
851.8394187001
 30
0.0
 11
635.2404891804
 21
851.8394187001
 31
0.0
  0
LINE
  5
E1
330
75
100
AcDbEntity
  8
H998_CACHE
  6
Continuous
 62
     7
100
AcDbLine
 10
635.2404891804
 20
835.8394187001
 30
0.0
 11
672.7404891804
 21
835.8394187001
 31
0.0
  0
LINE
  5
E2
330
75
100
AcDbEntity
  8
H998_CACHE
  6
Continuous
 62
     7
100
AcDbLine
 10
635.2404891804
 20
851.8394187001
 30
0.0
 11
635.2404891804
 21
835.8394187001
 31
0.0
  0
LINE
  5
E3
330
75
100
AcDbEntity
  8
H998_CACHE
  6
Continuous
 62
     7
100
AcDbLine
 10
643.2404891804
 20
833.8394187001
 30
0.0
 11
640.2404891804
 21
833.8394187001
 31
0.0
  0
LINE
  5
E4
330
75
100
AcDbEntity
  8
H998_CACHE
  6
Continuous
 62
     7
100
AcDbLine
 10
667.7404891804
 20
833.8394187001
 30
0.0
 11
664.7404891804
 21
833.8394187001
 31
0.0
  0
LINE
  5
E5
330
75
100
AcDbEntity
  8
H998_CACHE
  6
Continuous
 62
     7
100
AcDbLine
 10
645.2404891804
 20
853.8394187001
 30
0.0
 11
662.7404891804
 21
853.8394187001
 31
0.0
  0
LINE
  5
E6
330
75
100
AcDbEntity
  8
H998_CACHE
  6
Continuous
 62
     7
100
AcDbLine
 10
674.7404891804
 20
833.8394187001
 30
0.0
 11
672.7404891804
 21
835.8394187001
 31
0.0
  0
LINE
  5
E7
330
75
100
AcDbEntity
  8
H998_CACHE
  6
Continuous
 62
     7
100
AcDbLine
 10
672.7404891804
 20
851.8394187001
 30
0.0
 11
674.7404891804
 21
853.8394187001
 31
0.0
  0
LINE
  5
E8
330
75
100
AcDbEntity
  8
H998_CACHE
  6
Continuous
 62
     7
100
AcDbLine
 10
633.2404891804
 20
833.8394187001
 30
0.0
 11
635.2404891804
 21
835.8394187001
 31
0.0
  0
LINE
  5
E9
330
75
100
AcDbEntity
  8
H998_CACHE
  6
Continuous
 62
     7
100
AcDbLine
 10
635.2404891804
 20
851.8394187001
 30
0.0
 11
633.2404891804
 21
853.8394187001
 31
0.0
  0
LINE
  5
EA
330
75
100
AcDbEntity
  8
H998_CACHE
  6
Continuous
 62
     7
100
AcDbLine
 10
933.1404891804
 20
853.8394187002
 30
0.0
 11
945.1404891804
 21
853.8394187002
 31
0.0
  0
LINE
  5
EB
330
75
100
AcDbEntity
  8
H998_CACHE
  6
Continuous
 62
     7
100
AcDbLine
 10
933.1404891804
 20
833.8394187002
 30
0.0
 11
933.1404891804
 21
853.8394187002
 31
0.0
  0
LINE
  5
EC
330
75
100
AcDbEntity
  8
H998_CACHE
  6
Continuous
 62
     7
100
AcDbLine
 10
974.6404891804
 20
833.8394187002
 30
0.0
 11
967.6404891804
 21
833.8394187002
 31
0.0
  0
LINE
  5
ED
330
75
100
AcDbEntity
  8
H998_CACHE
  6
Continuous
 62
     7
100
AcDbLine
 10
974.6404891804
 20
853.8394187002
 30
0.0
 11
974.6404891804
 21
833.8394187002
 31
0.0
  0
LINE
  5
EE
330
75
100
AcDbEntity
  8
H998_CACHE
  6
Continuous
 62
     7
100
AcDbLine
 10
940.1404891804
 20
833.8394187002
 30
0.0
 11
933.1404891804
 21
833.8394187002
 31
0.0
  0
LINE
  5
EF
330
75
100
AcDbEntity
  8
H998_CACHE
  6
Continuous
 62
     7
100
AcDbLine
 10
962.6404891804
 20
853.8394187002
 30
0.0
 11
974.6404891804
 21
853.8394187002
 31
0.0
  0
LINE
  5
F0
330
75
100
AcDbEntity
  8
H998_CACHE
  6
Continuous
 62
     7
100
AcDbLine
 10
943.1404891804
 20
833.8394187002
 30
0.0
 11
964.6404891804
 21
833.8394187002
 31
0.0
  0
LINE
  5
F1
330
75
100
AcDbEntity
  8
H998_CACHE
  6
Continuous
 62
     7
100
AcDbLine
 10
972.6404891804
 20
835.8394187002
 30
0.0
 11
972.6404891804
 21
851.8394187002
 31
0.0
  0
LINE
  5
F2
330
75
100
AcDbEntity
  8
H998_CACHE
  6
Continuous
 62
     7
100
AcDbLine
 10
972.6404891804
 20
851.8394187002
 30
0.0
 11
935.1404891804
 21
851.8394187002
 31
0.0
  0
LINE
  5
F3
330
75
100
AcDbEntity
  8
H998_CACHE
  6
Continuous
 62
     7
100
AcDbLine
 10
935.1404891804
 20
835.8394187002
 30
0.0
 11
972.6404891804
 21
835.8394187002
 31
0.0
  0
LINE
  5
F4
330
75
100
AcDbEntity
  8
H998_CACHE
  6
Continuous
 62
     7
100
AcDbLine
 10
935.1404891804
 20
851.8394187002
 30
0.0
 11
935.1404891804
 21
835.8394187002
 31
0.0
  0
LINE
  5
F5
330
75
100
AcDbEntity
  8
H998_CACHE
  6
Continuous
 62
     7
100
AcDbLine
 10
943.1404891804
 20
833.8394187002
 30
0.0
 11
940.1404891804
 21
833.8394187002
 31
0.0
  0
LINE
  5
F6
330
75
100
AcDbEntity
  8
H998_CACHE
  6
Continuous
 62
     7
100
AcDbLine
 10
967.6404891804
 20
833.8394187002
 30
0.0
 11
964.6404891804
 21
833.8394187002
 31
0.0
  0
LINE
  5
F7
330
75
100
AcDbEntity
  8
H998_CACHE
  6
Continuous
 62
     7
100
AcDbLine
 10
945.1404891804
 20
853.8394187002
 30
0.0
 11
962.6404891804
 21
853.8394187002
 31
0.0
  0
LINE
  5
F8
330
75
100
AcDbEntity
  8
H998_CACHE
  6
Continuous
 62
     7
100
AcDbLine
 10
974.6404891804
 20
833.8394187002
 30
0.0
 11
972.6404891804
 21
835.8394187002
 31
0.0
  0
LINE
  5
F9
330
75
100
AcDbEntity
  8
H998_CACHE
  6
Continuous
 62
     7
100
AcDbLine
 10
972.6404891804
 20
851.8394187002
 30
0.0
 11
974.6404891804
 21
853.8394187002
 31
0.0
  0
LINE
  5
FA
330
75
100
AcDbEntity
  8
H998_CACHE
  6
Continuous
 62
     7
100
AcDbLine
 10
933.1404891804
 20
833.8394187002
 30
0.0
 11
935.1404891804
 21
835.8394187002
 31
0.0
  0
LINE
  5
FB
330
75
100
AcDbEntity
  8
H998_CACHE
  6
Continuous
 62
     7
100
AcDbLine
 10
935.1404891804
 20
851.8394187002
 30
0.0
 11
933.1404891804
 21
853.8394187002
 31
0.0
  0
ENDBLK
  5
FD
330
75
100
AcDbEntity
  8
0
100
AcDbBlockEnd
  0
BLOCK
  5
196
330
FE
100
AcDbEntity
  8
0
100
AcDbBlockBegin
  2
SE1
 70
     0
 10
0.0
 20
0.0
 30
0.0
  3
SE1
  1

  0
LINE
  5
100
330
FE
100
AcDbEntity
  8
H998_ALU_BRACKET
  6
Continuous
 62
     7
100
AcDbLine
 10
674.7404891804
 20
954.872238507
 30
0.0
 11
674.7404891804
 21
985.372238507
 31
0.0
  0
LINE
  5
101
330
FE
100
AcDbEntity
  8
H998_ALU_BRACKET
  6
Continuous
 62
     7
100
AcDbLine
 10
674.7404891804
 20
985.372238507
 30
0.0
 11
674.7404891804
 21
1024.372238507
 31
0.0
  0
LINE
  5
102
330
FE
100
AcDbEntity
  8
H998_ALU_BRACKET
  6
Continuous
 62
     7
100
AcDbLine
 10
633.2404891804
 20
954.872238507
 30
0.0
 11
633.2404891804
 21
985.372238507
 31
0.0
  0
LINE
  5
103
330
FE
100
AcDbEntity
  8
H998_ALU_BRACKET
  6
Continuous
 62
     7
100
AcDbLine
 10
633.2404891804
 20
985.372238507
 30
0.0
 11
633.2404891804
 21
1024.372238507
 31
0.0
  0
LINE
  5
104
330
FE
100
AcDbEntity
  8
H998_ALU_BRACKET
  6
Continuous
 62
     7
100
AcDbLine
 10
674.7404891804
 20
985.372238507
 30
0.0
 11
665.3404891804
 21
985.372238507
 31
0.0
  0
LINE
  5
105
330
FE
100
AcDbEntity
  8
H998_ALU_BRACKET
  6
Continuous
 62
     7
100
AcDbLine
 10
674.7404891804
 20
954.872238507
 30
0.0
 11
665.3404891804
 21
954.872238507
 31
0.0
  0
LINE
  5
106
330
FE
100
AcDbEntity
  8
H998_ALU_BRACKET
  6
Continuous
 62
     7
100
AcDbLine
 10
642.6404891804
 20
954.872238507
 30
0.0
 11
633.2404891804
 21
954.872238507
 31
0.0
  0
LINE
  5
107
330
FE
100
AcDbEntity
  8
H998_ALU_BRACKET
  6
Continuous
 62
     7
100
AcDbLine
 10
642.6404891804
 20
985.372238507
 30
0.0
 11
633.2404891804
 21
985.372238507
 31
0.0
  0
LINE
  5
108
330
FE
100
AcDbEntity
  8
H998_ALU_BRACKET
  6
Continuous
 62
     7
100
AcDbLine
 10
665.3404891804
 20
985.372238507
 30
0.0
 11
665.3404891804
 21
954.872238507
 31
0.0
  0
LINE
  5
109
330
FE
100
AcDbEntity
  8
H998_ALU_BRACKET
  6
Continuous
 62
     7
100
AcDbLine
 10
642.6404891804
 20
954.872238507
 30
0.0
 11
642.6404891804
 21
985.372238507
 31
0.0
  0
LINE
  5
10A
330
FE
100
AcDbEntity
  8
H998_ALU_BRACKET
  6
Continuous
 62
     7
100
AcDbLine
 10
642.6404891804
 20
985.3749089509
 30
0.0
 11
642.6404891804
 21
985.372238507
 31
0.0
  0
LINE
  5
10B
330
FE
100
AcDbEntity
  8
H998_ALU_BRACKET
  6
Continuous
 62
     7
100
AcDbLine
 10
665.3404891804
 20
985.3749089509
 30
0.0
 11
665.3404891804
 21
985.372238507
 31
0.0
  0
LINE
  5
10C
330
FE
100
AcDbEntity
  8
H998_ALU_BRACKET
  6
Continuous
 62
     7
100
AcDbLine
 10
665.3404891804
 20
954.872238507
 30
0.0
 11
642.6404891804
 21
954.872238507
 31
0.0
  0
LINE
  5
10D
330
FE
100
AcDbEntity
  8
H998_ALU_BRACKET
  6
Continuous
 62
     7
100
AcDbLine
 10
642.6404891804
 20
985.3749089509
 30
0.0
 11
665.3404891804
 21
985.3749089509
 31
0.0
  0
LINE
  5
10E
330
FE
100
AcDbEntity
  8
H998_ALU_BRACKET
  6
Continuous
 62
     7
100
AcDbLine
 10
667.5404891804
 20
991.4749089509
 30
0.0
 11
640.4404891804
 21
991.4749089509
 31
0.0
  0
LINE
  5
10F
330
FE
100
AcDbEntity
  8
H998_ALU_BRACKET
  6
Continuous
 62
     7
100
AcDbLine
 10
640.4404891804
 20
991.4749089509
 30
0.0
 11
640.4404891804
 21
1024.372238507
 31
0.0
  0
LINE
  5
110
330
FE
100
AcDbEntity
  8
H998_ALU_BRACKET
  6
Continuous
 62
     7
100
AcDbLine
 10
667.5404891804
 20
1033.772238507
 30
0.0
 11
667.3904891803
 21
1033.772238507
 31
0.0
  0
LINE
  5
111
330
FE
100
AcDbEntity
  8
H998_ALU_BRACKET
  6
Continuous
 62
     7
100
AcDbLine
 10
642.9904891804
 20
1033.772238507
 30
0.0
 11
640.4404891804
 21
1033.772238507
 31
0.0
  0
LINE
  5
112
330
FE
100
AcDbEntity
  8
H998_ALU_BRACKET
  6
Continuous
 62
     7
100
AcDbLine
 10
667.5404891804
 20
1024.372238507
 30
0.0
 11
667.5404891804
 21
991.4749089509
 31
0.0
  0
LINE
  5
113
330
FE
100
AcDbEntity
  8
H998_ALU_BRACKET
  6
Continuous
 62
     7
100
AcDbLine
 10
674.7404891804
 20
1024.372238507
 30
0.0
 11
667.5404891804
 21
1024.372238507
 31
0.0
  0
LINE
  5
114
330
FE
100
AcDbEntity
  8
H998_ALU_BRACKET
  6
Continuous
 62
     7
100
AcDbLine
 10
667.5404891804
 20
1024.372238507
 30
0.0
 11
667.5404891804
 21
1033.797238507
 31
0.0
  0
LINE
  5
115
330
FE
100
AcDbEntity
  8
H998_ALU_BRACKET
  6
Continuous
 62
     7
100
AcDbLine
 10
674.7404891804
 20
1034.997238507
 30
0.0
 11
674.7404891804
 21
1024.372238507
 31
0.0
  0
LINE
  5
116
330
FE
100
AcDbEntity
  8
H998_ALU_BRACKET
  6
Continuous
 62
     7
100
AcDbLine
 10
640.4404891804
 20
1024.372238507
 30
0.0
 11
633.2404891804
 21
1024.372238507
 31
0.0
  0
LINE
  5
117
330
FE
100
AcDbEntity
  8
H998_ALU_BRACKET
  6
Continuous
 62
     7
100
AcDbLine
 10
633.2404891804
 20
1024.372238507
 30
0.0
 11
633.2404891804
 21
1036.372238507
 31
0.0
  0
LINE
  5
118
330
FE
100
AcDbEntity
  8
H998_ALU_BRACKET
  6
Continuous
 62
     7
100
AcDbLine
 10
640.9404891804
 20
1036.372238507
 30
0.0
 11
640.9404891804
 21
1034.772238507
 31
0.0
  0
LINE
  5
119
330
FE
100
AcDbEntity
  8
H998_ALU_BRACKET
  6
Continuous
 62
     7
100
AcDbLine
 10
640.9404891804
 20
1034.772238507
 30
0.0
 11
640.4404891804
 21
1034.772238507
 31
0.0
  0
LINE
  5
11A
330
FE
100
AcDbEntity
  8
H998_ALU_BRACKET
  6
Continuous
 62
     7
100
AcDbLine
 10
640.4404891804
 20
1034.772238507
 30
0.0
 11
640.4404891804
 21
1024.372238507
 31
0.0
  0
CIRCLE
  5
11B
330
FE
100
AcDbEntity
  8
H998_ALU_BRACKET
  6
Continuous
 62
     7
100
AcDbCircle
 10
653.9904891804
 20
967.372238507
 30
0.0
 40
6.0
  0
CIRCLE
  5
11C
330
FE
100
AcDbEntity
  8
H998_ALU_BRACKET
  6
Continuous
 62
     7
100
AcDbCircle
 10
653.9904891804
 20
1002.372238507
 30
0.0
 40
5.5
  0
LINE
  5
11D
330
FE
100
AcDbEntity
  8
H998_ASSISE
  6
Continuous
 62
     7
100
AcDbLine
 10
608.7838835707
 20
1044.372238507
 30
0.0
 11
608.7838835707
 21
1036.372238507
 31
0.0
  0
LINE
  5
11E
330
FE
100
AcDbEntity
  8
H998_ASSISE
  6
Continuous
 62
     7
100
AcDbLine
 10
608.7838835707
 20
1036.372238507
 30
0.0
 11
593.9904891804
 21
1036.372238507
 31
0.0
  0
LINE
  5
11F
330
FE
100
AcDbEntity
  8
H998_ASSISE
  6
Continuous
 62
     7
100
AcDbLine
 10
593.9904891804
 20
1036.372238507
 30
0.0
 11
593.9904891804
 21
1044.372238507
 31
0.0
  0
LINE
  5
120
330
FE
100
AcDbEntity
  8
H998_ASSISE
  6
Continuous
 62
     7
100
AcDbLine
 10
593.9904891804
 20
1044.372238507
 30
0.0
 11
608.7838835707
 21
1044.372238507
 31
0.0
  0
LINE
  5
121
330
FE
100
AcDbEntity
  8
H998_ASSISE
  6
Continuous
 62
     7
100
AcDbLine
 10
1013.8904891804
 20
1044.372238507
 30
0.0
 11
1013.8904891804
 21
1036.372238507
 31
0.0
  0
LINE
  5
122
330
FE
100
AcDbEntity
  8
H998_ASSISE
  6
Continuous
 62
     7
100
AcDbLine
 10
999.09709479
 20
1036.372238507
 30
0.0
 11
608.7838835707
 21
1036.372238507
 31
0.0
  0
LINE
  5
123
330
FE
100
AcDbEntity
  8
H998_ASSISE
  6
Continuous
 62
     7
100
AcDbLine
 10
1013.8904891804
 20
1036.372238507
 30
0.0
 11
999.09709479
 21
1036.372238507
 31
0.0
  0
LINE
  5
124
330
FE
100
AcDbEntity
  8
H998_ASSISE
  6
Continuous
 62
     7
100
AcDbLine
 10
999.09709479
 20
1044.372238507
 30
0.0
 11
608.7838835707
 21
1044.372238507
 31
0.0
  0
LINE
  5
125
330
FE
100
AcDbEntity
  8
H998_ASSISE
  6
Continuous
 62
     7
100
AcDbLine
 10
999.09709479
 20
1036.372238507
 30
0.0
 11
999.09709479
 21
1044.372238507
 31
0.0
  0
LINE
  5
126
330
FE
100
AcDbEntity
  8
H998_ASSISE
  6
Continuous
 62
     7
100
AcDbLine
 10
999.09709479
 20
1044.372238507
 30
0.0
 11
1013.8904891804
 21
1044.372238507
 31
0.0
  0
LINE
  5
127
330
FE
100
AcDbEntity
  8
H998_ASSISE
  6
Continuous
 62
     7
100
AcDbLine
 10
964.8904891804
 20
1033.372238507
 30
0.0
 11
964.8904891804
 21
1036.372238507
 31
0.0
  0
LINE
  5
128
330
FE
100
AcDbEntity
  8
H998_ASSISE
  6
Continuous
 62
     7
100
AcDbLine
 10
964.8904891804
 20
1033.372238507
 30
0.0
 11
963.8904891804
 21
1033.372238507
 31
0.0
  0
LINE
  5
129
330
FE
100
AcDbEntity
  8
H998_ASSISE
  6
Continuous
 62
     7
100
AcDbLine
 10
943.8904891804
 20
1033.372238507
 30
0.0
 11
942.8904891804
 21
1033.372238507
 31
0.0
  0
LINE
  5
12A
330
FE
100
AcDbEntity
  8
H998_ASSISE
  6
Continuous
 62
     7
100
AcDbLine
 10
942.8904891804
 20
1033.372238507
 30
0.0
 11
924.8904891804
 21
1036.372238507
 31
0.0
  0
LINE
  5
12B
330
FE
100
AcDbEntity
  8
H998_ASSISE
  6
Continuous
 62
     7
100
AcDbLine
 10
642.9904891804
 20
1033.372238507
 30
0.0
 11
642.9904891804
 21
1036.372238507
 31
0.0
  0
LINE
  5
12C
330
FE
100
AcDbEntity
  8
H998_ASSISE
  6
Continuous
 62
     7
100
AcDbLine
 10
664.9904891804
 20
1033.372238507
 30
0.0
 11
663.9904891804
 21
1033.372238507
 31
0.0
  0
LINE
  5
12D
330
FE
100
AcDbEntity
  8
H998_ASSISE
  6
Continuous
 62
     7
100
AcDbLine
 10
643.9904891804
 20
1033.372238507
 30
0.0
 11
642.9904891804
 21
1033.372238507
 31
0.0
  0
LINE
  5
12E
330
FE
100
AcDbEntity
  8
H998_ASSISE
  6
Continuous
 62
     7
100
AcDbLine
 10
664.9904891804
 20
1033.372238507
 30
0.0
 11
682.9904891804
 21
1036.372238507
 31
0.0
  0
CIRCLE
  5
12F
330
FE
100
AcDbEntity
  8
H998_ASSISE
  6
Continuous
 62
     7
100
AcDbCircle
 10
803.9404891804
 20
1040.4852194116
 30
0.0
 40
2.962692661135391
  0
LINE
  5
130
330
FE
100
AcDbEntity
  8
H998_ALU_BRACKET
  6
Continuous
 62
     7
100
AcDbLine
 10
974.6404891804
 20
954.8722385069
 30
0.0
 11
974.6404891804
 21
985.3722385069
 31
0.0
  0
LINE
  5
131
330
FE
100
AcDbEntity
  8
H998_ALU_BRACKET
  6
Continuous
 62
     7
100
AcDbLine
 10
974.6404891804
 20
985.3722385069
 30
0.0
 11
974.6404891804
 21
1024.3722385069
 31
0.0
  0
LINE
  5
132
330
FE
100
AcDbEntity
  8
H998_ALU_BRACKET
  6
Continuous
 62
     7
100
AcDbLine
 10
933.1404891804
 20
954.8722385069
 30
0.0
 11
933.1404891804
 21
985.3722385069
 31
0.0
  0
LINE
  5
133
330
FE
100
AcDbEntity
  8
H998_ALU_BRACKET
  6
Continuous
 62
     7
100
AcDbLine
 10
933.1404891804
 20
985.3722385069
 30
0.0
 11
933.1404891804
 21
1024.3722385069
 31
0.0
  0
LINE
  5
134
330
FE
100
AcDbEntity
  8
H998_ALU_BRACKET
  6
Continuous
 62
     7
100
AcDbLine
 10
974.6404891804
 20
985.3722385069
 30
0.0
 11
965.2404891804
 21
985.3722385069
 31
0.0
  0
LINE
  5
135
330
FE
100
AcDbEntity
  8
H998_ALU_BRACKET
  6
Continuous
 62
     7
100
AcDbLine
 10
974.6404891804
 20
954.8722385069
 30
0.0
 11
965.2404891804
 21
954.8722385069
 31
0.0
  0
LINE
  5
136
330
FE
100
AcDbEntity
  8
H998_ALU_BRACKET
  6
Continuous
 62
     7
100
AcDbLine
 10
942.5404891804
 20
954.8722385069
 30
0.0
 11
933.1404891804
 21
954.8722385069
 31
0.0
  0
LINE
  5
137
330
FE
100
AcDbEntity
  8
H998_ALU_BRACKET
  6
Continuous
 62
     7
100
AcDbLine
 10
942.5404891804
 20
985.3722385069
 30
0.0
 11
933.1404891804
 21
985.3722385069
 31
0.0
  0
LINE
  5
138
330
FE
100
AcDbEntity
  8
H998_ALU_BRACKET
  6
Continuous
 62
     7
100
AcDbLine
 10
965.2404891804
 20
985.3722385069
 30
0.0
 11
965.2404891804
 21
954.8722385069
 31
0.0
  0
LINE
  5
139
330
FE
100
AcDbEntity
  8
H998_ALU_BRACKET
  6
Continuous
 62
     7
100
AcDbLine
 10
942.5404891804
 20
954.8722385069
 30
0.0
 11
942.5404891804
 21
985.3722385069
 31
0.0
  0
LINE
  5
13A
330
FE
100
AcDbEntity
  8
H998_ALU_BRACKET
  6
Continuous
 62
     7
100
AcDbLine
 10
942.5404891804
 20
985.3749089508
 30
0.0
 11
942.5404891804
 21
985.3722385069
 31
0.0
  0
LINE
  5
13B
330
FE
100
AcDbEntity
  8
H998_ALU_BRACKET
  6
Continuous
 62
     7
100
AcDbLine
 10
965.2404891804
 20
985.3749089508
 30
0.0
 11
965.2404891804
 21
985.3722385069
 31
0.0
  0
LINE
  5
13C
330
FE
100
AcDbEntity
  8
H998_ALU_BRACKET
  6
Continuous
 62
     7
100
AcDbLine
 10
965.2404891804
 20
954.8722385069
 30
0.0
 11
942.5404891804
 21
954.8722385069
 31
0.0
  0
LINE
  5
13D
330
FE
100
AcDbEntity
  8
H998_ALU_BRACKET
  6
Continuous
 62
     7
100
AcDbLine
 10
942.5404891804
 20
985.3749089508
 30
0.0
 11
965.2404891804
 21
985.3749089508
 31
0.0
  0
LINE
  5
13E
330
FE
100
AcDbEntity
  8
H998_ALU_BRACKET
  6
Continuous
 62
     7
100
AcDbLine
 10
967.4404891804
 20
991.4749089508
 30
0.0
 11
940.3404891804
 21
991.4749089508
 31
0.0
  0
LINE
  5
13F
330
FE
100
AcDbEntity
  8
H998_ALU_BRACKET
  6
Continuous
 62
     7
100
AcDbLine
 10
940.3404891804
 20
991.4749089508
 30
0.0
 11
940.3404891804
 21
1024.3722385069
 31
0.0
  0
LINE
  5
140
330
FE
100
AcDbEntity
  8
H998_ALU_BRACKET
  6
Continuous
 62
     7
100
AcDbLine
 10
967.4404891804
 20
1033.7722385069
 30
0.0
 11
964.8904891804
 21
1033.7722385069
 31
0.0
  0
LINE
  5
141
330
FE
100
AcDbEntity
  8
H998_ALU_BRACKET
  6
Continuous
 62
     7
100
AcDbLine
 10
940.4904891806
 20
1033.7722385069
 30
0.0
 11
940.3404891804
 21
1033.7722385069
 31
0.0
  0
LINE
  5
142
330
FE
100
AcDbEntity
  8
H998_ALU_BRACKET
  6
Continuous
 62
     7
100
AcDbLine
 10
967.4404891804
 20
1024.3722385069
 30
0.0
 11
967.4404891804
 21
991.4749089508
 31
0.0
  0
LINE
  5
143
330
FE
100
AcDbEntity
  8
H998_ALU_BRACKET
  6
Continuous
 62
     7
100
AcDbLine
 10
974.6404891804
 20
1024.3722385069
 30
0.0
 11
967.4404891804
 21
1024.3722385069
 31
0.0
  0
LINE
  5
144
330
FE
100
AcDbEntity
  8
H998_ALU_BRACKET
  6
Continuous
 62
     7
100
AcDbLine
 10
967.4404891804
 20
1024.3722385069
 30
0.0
 11
967.4404891804
 21
1034.7722385069
 31
0.0
  0
LINE
  5
145
330
FE
100
AcDbEntity
  8
H998_ALU_BRACKET
  6
Continuous
 62
     7
100
AcDbLine
 10
967.4404891804
 20
1034.7722385069
 30
0.0
 11
966.9404891804
 21
1034.7722385069
 31
0.0
  0
LINE
  5
146
330
FE
100
AcDbEntity
  8
H998_ALU_BRACKET
  6
Continuous
 62
     7
100
AcDbLine
 10
966.9404891804
 20
1034.7722385069
 30
0.0
 11
966.9404891804
 21
1036.372238507
 31
0.0
  0
LINE
  5
147
330
FE
100
AcDbEntity
  8
H998_ALU_BRACKET
  6
Continuous
 62
     7
100
AcDbLine
 10
974.6404891804
 20
1036.372238507
 30
0.0
 11
974.6404891804
 21
1024.3722385069
 31
0.0
  0
LINE
  5
148
330
FE
100
AcDbEntity
  8
H998_ALU_BRACKET
  6
Continuous
 62
     7
100
AcDbLine
 10
940.3404891804
 20
1024.3722385069
 30
0.0
 11
933.1404891804
 21
1024.3722385069
 31
0.0
  0
LINE
  5
149
330
FE
100
AcDbEntity
  8
H998_ALU_BRACKET
  6
Continuous
 62
     7
100
AcDbLine
 10
933.1404891804
 20
1024.3722385069
 30
0.0
 11
933.1404891804
 21
1034.997238507
 31
0.0
  0
LINE
  5
14A
330
FE
100
AcDbEntity
  8
H998_ALU_BRACKET
  6
Continuous
 62
     7
100
AcDbLine
 10
940.3404891804
 20
1033.7722385069
 30
0.0
 11
940.3404891804
 21
1024.3722385069
 31
0.0
  0
CIRCLE
  5
14B
330
FE
100
AcDbEntity
  8
H998_ALU_BRACKET
  6
Continuous
 62
     7
100
AcDbCircle
 10
953.8904891804
 20
967.3722385069
 30
0.0
 40
5.5
  0
CIRCLE
  5
14C
330
FE
100
AcDbEntity
  8
H998_ALU_BRACKET
  6
Continuous
 62
     7
100
AcDbCircle
 10
953.8904891804
 20
1002.3722385069
 30
0.0
 40
5.5
  0
LINE
  5
14D
330
FE
100
AcDbEntity
  8
H998_BARRE_ALU
  6
Continuous
 62
     7
100
AcDbLine
 10
643.9904891804
 20
1031.372238507
 30
0.0
 11
643.9904891804
 21
1017.372238507
 31
0.0
  0
LINE
  5
14E
330
FE
100
AcDbEntity
  8
H998_BARRE_ALU
  6
Continuous
 62
     7
100
AcDbLine
 10
643.9904891804
 20
1017.372238507
 30
0.0
 11
663.9904891804
 21
1017.372238507
 31
0.0
  0
LINE
  5
14F
330
FE
100
AcDbEntity
  8
H998_BARRE_ALU
  6
Continuous
 62
     7
100
AcDbLine
 10
663.9904891804
 20
1031.372238507
 30
0.0
 11
643.9904891804
 21
1031.372238507
 31
0.0
  0
LINE
  5
150
330
FE
100
AcDbEntity
  8
H998_BARRE_ALU
  6
Continuous
 62
     7
100
AcDbLine
 10
663.9904891804
 20
1017.372238507
 30
0.0
 11
663.9904891804
 21
1031.372238507
 31
0.0
  0
LINE
  5
151
330
FE
100
AcDbEntity
  8
H998_BARRE_ALU
  6
Continuous
 62
     7
100
AcDbLine
 10
643.9904891804
 20
1017.372238507
 30
0.0
 11
643.9904891804
 21
1015.372238507
 31
0.0
  0
LINE
  5
152
330
FE
100
AcDbEntity
  8
H998_BARRE_ALU
  6
Continuous
 62
     7
100
AcDbLine
 10
641.9904891804
 20
1017.372238507
 30
0.0
 11
641.9904891804
 21
1031.372238507
 31
0.0
  0
LINE
  5
153
330
FE
100
AcDbEntity
  8
H998_BARRE_ALU
  6
Continuous
 62
     7
100
AcDbLine
 10
641.9904891804
 20
1017.372238507
 30
0.0
 11
643.9904891804
 21
1017.372238507
 31
0.0
  0
ARC
  5
154
330
FE
100
AcDbEntity
  8
H998_BARRE_ALU
  6
Continuous
 62
     7
100
AcDbCircle
 10
643.9904891804
 20
1017.372238507
 30
0.0
 40
2.0
100
AcDbArc
 50
180.0
 51
270.0
  0
LINE
  5
155
330
FE
100
AcDbEntity
  8
H998_BARRE_ALU
  6
Continuous
 62
     7
100
AcDbLine
 10
665.9904891804
 20
1031.372238507
 30
0.0
 11
665.9904891804
 21
1017.372238507
 31
0.0
  0
LINE
  5
156
330
FE
100
AcDbEntity
  8
H998_BARRE_ALU
  6
Continuous
 62
     7
100
AcDbLine
 10
665.9904891804
 20
1031.372238507
 30
0.0
 11
663.9904891804
 21
1031.372238507
 31
0.0
  0
LINE
  5
157
330
FE
100
AcDbEntity
  8
H998_BARRE_ALU
  6
Continuous
 62
     7
100
AcDbLine
 10
663.9904891804
 20
1031.372238507
 30
0.0
 11
663.9904891804
 21
1033.372238507
 31
0.0
  0
ARC
  5
158
330
FE
100
AcDbEntity
  8
H998_BARRE_ALU
  6
Continuous
 62
     7
100
AcDbCircle
 10
663.9904891804
 20
1031.372238507
 30
0.0
 40
2.0
100
AcDbArc
 50
0.0
 51
90.0
  0
LINE
  5
159
330
FE
100
AcDbEntity
  8
H998_BARRE_ALU
  6
Continuous
 62
     7
100
AcDbLine
 10
663.9904891804
 20
1017.372238507
 30
0.0
 11
665.9904891804
 21
1017.372238507
 31
0.0
  0
LINE
  5
15A
330
FE
100
AcDbEntity
  8
H998_BARRE_ALU
  6
Continuous
 62
     7
100
AcDbLine
 10
663.9904891804
 20
1015.372238507
 30
0.0
 11
643.9904891804
 21
1015.372238507
 31
0.0
  0
LINE
  5
15B
330
FE
100
AcDbEntity
  8
H998_BARRE_ALU
  6
Continuous
 62
     7
100
AcDbLine
 10
663.9904891804
 20
1015.372238507
 30
0.0
 11
663.9904891804
 21
1017.372238507
 31
0.0
  0
ARC
  5
15C
330
FE
100
AcDbEntity
  8
H998_BARRE_ALU
  6
Continuous
 62
     7
100
AcDbCircle
 10
663.9904891804
 20
1017.372238507
 30
0.0
 40
1.999999999999995
100
AcDbArc
 50
270.0
 51
0.0
  0
LINE
  5
15D
330
FE
100
AcDbEntity
  8
H998_BARRE_ALU
  6
Continuous
 62
     7
100
AcDbLine
 10
643.9904891804
 20
1033.372238507
 30
0.0
 11
663.9904891804
 21
1033.372238507
 31
0.0
  0
LINE
  5
15E
330
FE
100
AcDbEntity
  8
H998_BARRE_ALU
  6
Continuous
 62
     7
100
AcDbLine
 10
643.9904891804
 20
1033.372238507
 30
0.0
 11
643.9904891804
 21
1031.372238507
 31
0.0
  0
LINE
  5
15F
330
FE
100
AcDbEntity
  8
H998_BARRE_ALU
  6
Continuous
 62
     7
100
AcDbLine
 10
643.9904891804
 20
1031.372238507
 30
0.0
 11
641.9904891804
 21
1031.372238507
 31
0.0
  0
ARC
  5
160
330
FE
100
AcDbEntity
  8
H998_BARRE_ALU
  6
Continuous
 62
     7
100
AcDbCircle
 10
643.9904891804
 20
1031.372238507
 30
0.0
 40
2.000000000000002
100
AcDbArc
 50
90.0
 51
180.0
  0
LINE
  5
161
330
FE
100
AcDbEntity
  8
H998_BARRE_ALU
  6
Continuous
 62
     7
100
AcDbLine
 10
943.8904891804
 20
1031.372238507
 30
0.0
 11
943.8904891804
 21
1017.372238507
 31
0.0
  0
LINE
  5
162
330
FE
100
AcDbEntity
  8
H998_BARRE_ALU
  6
Continuous
 62
     7
100
AcDbLine
 10
943.8904891804
 20
1017.372238507
 30
0.0
 11
963.8904891804
 21
1017.372238507
 31
0.0
  0
LINE
  5
163
330
FE
100
AcDbEntity
  8
H998_BARRE_ALU
  6
Continuous
 62
     7
100
AcDbLine
 10
963.8904891804
 20
1031.372238507
 30
0.0
 11
943.8904891804
 21
1031.372238507
 31
0.0
  0
LINE
  5
164
330
FE
100
AcDbEntity
  8
H998_BARRE_ALU
  6
Continuous
 62
     7
100
AcDbLine
 10
963.8904891804
 20
1017.372238507
 30
0.0
 11
963.8904891804
 21
1031.372238507
 31
0.0
  0
LINE
  5
165
330
FE
100
AcDbEntity
  8
H998_BARRE_ALU
  6
Continuous
 62
     7
100
AcDbLine
 10
943.8904891804
 20
1017.372238507
 30
0.0
 11
943.8904891804
 21
1015.372238507
 31
0.0
  0
LINE
  5
166
330
FE
100
AcDbEntity
  8
H998_BARRE_ALU
  6
Continuous
 62
     7
100
AcDbLine
 10
941.8904891804
 20
1017.372238507
 30
0.0
 11
941.8904891804
 21
1031.372238507
 31
0.0
  0
LINE
  5
167
330
FE
100
AcDbEntity
  8
H998_BARRE_ALU
  6
Continuous
 62
     7
100
AcDbLine
 10
941.8904891804
 20
1017.372238507
 30
0.0
 11
943.8904891804
 21
1017.372238507
 31
0.0
  0
ARC
  5
168
330
FE
100
AcDbEntity
  8
H998_BARRE_ALU
  6
Continuous
 62
     7
100
AcDbCircle
 10
943.8904891804
 20
1017.372238507
 30
0.0
 40
2.000000000000002
100
AcDbArc
 50
180.0
 51
270.0
  0
LINE
  5
169
330
FE
100
AcDbEntity
  8
H998_BARRE_ALU
  6
Continuous
 62
     7
100
AcDbLine
 10
965.8904891804
 20
1031.372238507
 30
0.0
 11
965.8904891804
 21
1017.372238507
 31
0.0
  0
LINE
  5
16A
330
FE
100
AcDbEntity
  8
H998_BARRE_ALU
  6
Continuous
 62
     7
100
AcDbLine
 10
965.8904891804
 20
1031.372238507
 30
0.0
 11
963.8904891804
 21
1031.372238507
 31
0.0
  0
LINE
  5
16B
330
FE
100
AcDbEntity
  8
H998_BARRE_ALU
  6
Continuous
 62
     7
100
AcDbLine
 10
963.8904891804
 20
1031.372238507
 30
0.0
 11
963.8904891804
 21
1033.372238507
 31
0.0
  0
ARC
  5
16C
330
FE
100
AcDbEntity
  8
H998_BARRE_ALU
  6
Continuous
 62
     7
100
AcDbCircle
 10
963.8904891804
 20
1031.372238507
 30
0.0
 40
2.000000000000002
100
AcDbArc
 50
0.0
 51
90.0
  0
LINE
  5
16D
330
FE
100
AcDbEntity
  8
H998_BARRE_ALU
  6
Continuous
 62
     7
100
AcDbLine
 10
963.8904891804
 20
1017.372238507
 30
0.0
 11
965.8904891804
 21
1017.372238507
 31
0.0
  0
LINE
  5
16E
330
FE
100
AcDbEntity
  8
H998_BARRE_ALU
  6
Continuous
 62
     7
100
AcDbLine
 10
963.8904891804
 20
1015.372238507
 30
0.0
 11
943.8904891804
 21
1015.372238507
 31
0.0
  0
LINE
  5
16F
330
FE
100
AcDbEntity
  8
H998_BARRE_ALU
  6
Continuous
 62
     7
100
AcDbLine
 10
963.8904891804
 20
1015.372238507
 30
0.0
 11
963.8904891804
 21
1017.372238507
 31
0.0
  0
ARC
  5
170
330
FE
100
AcDbEntity
  8
H998_BARRE_ALU
  6
Continuous
 62
     7
100
AcDbCircle
 10
963.8904891804
 20
1017.372238507
 30
0.0
 40
1.999999999999995
100
AcDbArc
 50
270.0
 51
0.0
  0
LINE
  5
171
330
FE
100
AcDbEntity
  8
H998_BARRE_ALU
  6
Continuous
 62
     7
100
AcDbLine
 10
943.8904891804
 20
1033.372238507
 30
0.0
 11
963.8904891804
 21
1033.372238507
 31
0.0
  0
LINE
  5
172
330
FE
100
AcDbEntity
  8
H998_BARRE_ALU
  6
Continuous
 62
     7
100
AcDbLine
 10
943.8904891804
 20
1033.372238507
 30
0.0
 11
943.8904891804
 21
1031.372238507
 31
0.0
  0
LINE
  5
173
330
FE
100
AcDbEntity
  8
H998_BARRE_ALU
  6
Continuous
 62
     7
100
AcDbLine
 10
943.8904891804
 20
1031.372238507
 30
0.0
 11
941.8904891804
 21
1031.372238507
 31
0.0
  0
ARC
  5
174
330
FE
100
AcDbEntity
  8
H998_BARRE_ALU
  6
Continuous
 62
     7
100
AcDbCircle
 10
943.8904891804
 20
1031.372238507
 30
0.0
 40
1.999999999999995
100
AcDbArc
 50
90.0
 51
180.0
  0
LINE
  5
175
330
FE
100
AcDbEntity
  8
H998_VIS1
  6
Continuous
 62
     7
100
AcDbLine
 10
675.8404891804
 20
1027.372238507
 30
0.0
 11
675.8404891804
 21
1021.372238507
 31
0.0
  0
LINE
  5
176
330
FE
100
AcDbEntity
  8
H998_VIS1
  6
Continuous
 62
     7
100
AcDbLine
 10
674.8404891804
 20
1020.372238507
 30
0.0
 11
674.8404891804
 21
1028.372238507
 31
0.0
  0
LINE
  5
177
330
FE
100
AcDbEntity
  8
H998_VIS1
  6
Continuous
 62
     7
100
AcDbLine
 10
674.8404891804
 20
1028.372238507
 30
0.0
 11
674.7404891804
 21
1028.372238507
 31
0.0
  0
LINE
  5
178
330
FE
100
AcDbEntity
  8
H998_VIS1
  6
Continuous
 62
     7
100
AcDbLine
 10
667.5404891804
 20
1028.372238507
 30
0.0
 11
665.9904891804
 21
1028.372238507
 31
0.0
  0
LINE
  5
179
330
FE
100
AcDbEntity
  8
H998_VIS1
  6
Continuous
 62
     7
100
AcDbLine
 10
641.9904891804
 20
1028.372238507
 30
0.0
 11
640.4404891804
 21
1028.372238507
 31
0.0
  0
LINE
  5
17A
330
FE
100
AcDbEntity
  8
H998_VIS1
  6
Continuous
 62
     7
100
AcDbLine
 10
640.4404891804
 20
1020.372238507
 30
0.0
 11
641.9904891804
 21
1020.372238507
 31
0.0
  0
LINE
  5
17B
330
FE
100
AcDbEntity
  8
H998_VIS1
  6
Continuous
 62
     7
100
AcDbLine
 10
665.9904891804
 20
1020.372238507
 30
0.0
 11
667.5404891804
 21
1020.372238507
 31
0.0
  0
LINE
  5
17C
330
FE
100
AcDbEntity
  8
H998_VIS1
  6
Continuous
 62
     7
100
AcDbLine
 10
674.7404891804
 20
1020.372238507
 30
0.0
 11
674.8404891804
 21
1020.372238507
 31
0.0
  0
LINE
  5
17D
330
FE
100
AcDbEntity
  8
H998_VIS1
  6
Continuous
 62
     7
100
AcDbLine
 10
674.8404891804
 20
1020.372238507
 30
0.0
 11
675.8404891804
 21
1021.372238507
 31
0.0
  0
LINE
  5
17E
330
FE
100
AcDbEntity
  8
H998_VIS1
  6
Continuous
 62
     7
100
AcDbLine
 10
675.8404891804
 20
1027.372238507
 30
0.0
 11
674.8404891804
 21
1028.372238507
 31
0.0
  0
LINE
  5
180
330
FE
100
AcDbEntity
  8
H998_BOUCHON_PLA
  6
Continuous
 62
     7
100
AcDbLine
 10
960.2404891804
 20
1013.872238507
 30
0.0
 11
947.5404891804
 21
1013.872238507
 31
0.0
  0
LINE
  5
181
330
FE
100
AcDbEntity
  8
H998_BOUCHON_PLA
  6
Continuous
 62
     7
100
AcDbLine
 10
947.5404891804
 20
1015.372238507
 30
0.0
 11
947.5404891804
 21
1013.872238507
 31
0.0
  0
LINE
  5
182
330
FE
100
AcDbEntity
  8
H998_BOUCHON_PLA
  6
Continuous
 62
     7
100
AcDbLine
 10
960.2404891804
 20
1013.872238507
 30
0.0
 11
960.2404891804
 21
1015.372238507
 31
0.0
  0
LINE
  5
183
330
FE
100
AcDbEntity
  8
H998_VIS1
  6
Continuous
 62
     7
100
AcDbLine
 10
932.0404891804
 20
1021.372238507
 30
0.0
 11
932.0404891804
 21
1027.372238507
 31
0.0
  0
LINE
  5
184
330
FE
100
AcDbEntity
  8
H998_VIS1
  6
Continuous
 62
     7
100
AcDbLine
 10
933.0404891804
 20
1028.372238507
 30
0.0
 11
933.0404891804
 21
1020.372238507
 31
0.0
  0
LINE
  5
185
330
FE
100
AcDbEntity
  8
H998_VIS1
  6
Continuous
 62
     7
100
AcDbLine
 10
933.0404891804
 20
1020.372238507
 30
0.0
 11
933.1404891804
 21
1020.372238507
 31
0.0
  0
LINE
  5
186
330
FE
100
AcDbEntity
  8
H998_VIS1
  6
Continuous
 62
     7
100
AcDbLine
 10
940.3404891804
 20
1020.372238507
 30
0.0
 11
941.8904891804
 21
1020.372238507
 31
0.0
  0
LINE
  5
187
330
FE
100
AcDbEntity
  8
H998_VIS1
  6
Continuous
 62
     7
100
AcDbLine
 10
965.8904891804
 20
1020.372238507
 30
0.0
 11
967.4404891804
 21
1020.372238507
 31
0.0
  0
LINE
  5
188
330
FE
100
AcDbEntity
  8
H998_VIS1
  6
Continuous
 62
     7
100
AcDbLine
 10
967.4404891804
 20
1028.372238507
 30
0.0
 11
965.8904891804
 21
1028.372238507
 31
0.0
  0
LINE
  5
189
330
FE
100
AcDbEntity
  8
H998_VIS1
  6
Continuous
 62
     7
100
AcDbLine
 10
941.8904891804
 20
1028.372238507
 30
0.0
 11
940.3404891804
 21
1028.372238507
 31
0.0
  0
LINE
  5
18A
330
FE
100
AcDbEntity
  8
H998_VIS1
  6
Continuous
 62
     7
100
AcDbLine
 10
933.1404891804
 20
1028.372238507
 30
0.0
 11
933.0404891804
 21
1028.372238507
 31
0.0
  0
LINE
  5
18B
330
FE
100
AcDbEntity
  8
H998_VIS1
  6
Continuous
 62
     7
100
AcDbLine
 10
933.0404891804
 20
1028.372238507
 30
0.0
 11
932.0404891804
 21
1027.372238507
 31
0.0
  0
LINE
  5
18C
330
FE
100
AcDbEntity
  8
H998_VIS1
  6
Continuous
 62
     7
100
AcDbLine
 10
932.0404891804
 20
1021.372238507
 30
0.0
 11
933.0404891804
 21
1020.372238507
 31
0.0
  0
LINE
  5
18D
330
FE
100
AcDbEntity
  8
H998_BOUCHON_PLA
  6
Continuous
 62
     7
100
AcDbLine
 10
660.3404891804
 20
1013.872238507
 30
0.0
 11
647.6404891804
 21
1013.872238507
 31
0.0
  0
LINE
  5
18E
330
FE
100
AcDbEntity
  8
H998_BOUCHON_PLA
  6
Continuous
 62
     7
100
AcDbLine
 10
647.6404891804
 20
1015.372238507
 30
0.0
 11
647.6404891804
 21
1013.872238507
 31
0.0
  0
LINE
  5
18F
330
FE
100
AcDbEntity
  8
H998_BOUCHON_PLA
  6
Continuous
 62
     7
100
AcDbLine
 10
660.3404891804
 20
1013.872238507
 30
0.0
 11
660.3404891804
 21
1015.372238507
 31
0.0
  0
LINE
  5
190
330
FE
100
AcDbEntity
  8
H998_CACHE
  6
Continuous
 62
     7
100
AcDbLine
 10
635.2404891804
 20
1046.372238507
 30
0.0
 11
672.7404891804
 21
1046.372238507
 31
0.0
  0
ARC
  5
191
330
FE
100
AcDbEntity
  8
H998_CACHE
  6
Continuous
 62
     7
100
AcDbCircle
 10
672.7404891804
 20
1044.372238507
 30
0.0
 40
1.999999999999998
100
AcDbArc
 50
0.0
 51
90.0
  0
ARC
  5
192
330
FE
100
AcDbEntity
  8
H998_CACHE
  6
Continuous
 62
     7
100
AcDbCircle
 10
635.2404891804
 20
1044.372238507
 30
0.0
 40
2.000000000000002
100
AcDbArc
 50
90.0
 51
180.0
  0
LINE
  5
193
330
FE
100
AcDbEntity
  8
H998_CACHE
  6
Continuous
 62
     7
100
AcDbLine
 10
935.1404891804
 20
1046.372238507
 30
0.0
 11
972.6404891804
 21
1046.372238507
 31
0.0
  0
ARC
  5
194
330
FE
100
AcDbEntity
  8
H998_CACHE
  6
Continuous
 62
     7
100
AcDbCircle
 10
972.6404891804
 20
1044.372238507
 30
0.0
 40
2.000000000000002
100
AcDbArc
 50
0.0
 51
90.0
  0
ARC
  5
195
330
FE
100
AcDbEntity
  8
H998_CACHE
  6
Continuous
 62
     7
100
AcDbCircle
 10
935.1404891804
 20
1044.372238507
 30
0.0
 40
2.000000000000002
100
AcDbArc
 50
90.0
 51
180.0
  0
ENDBLK
  5
197
330
FE
100
AcDbEntity
  8
0
100
AcDbBlockEnd
  0
BLOCK
  5
1DB
330
198
100
AcDbEntity
  8
0
100
AcDbBlockBegin
  2
SE2
 70
     0
 10
0.0
 20
0.0
 30
0.0
  3
SE2
  1

  0
LINE
  5
19A
330
198
100
AcDbEntity
  8
H998_ALU_BRACKET
  6
Continuous
 62
     7
100
AcDbLine
 10
1208.835463226
 20
954.872238507
 30
0.0
 11
1268.835463226
 21
985.372238507
 31
0.0
  0
LINE
  5
19B
330
198
100
AcDbEntity
  8
H998_ALU_BRACKET
  6
Continuous
 62
     7
100
AcDbLine
 10
1198.835463226
 20
954.872238507
 30
0.0
 11
1208.835463226
 21
954.872238507
 31
0.0
  0
LINE
  5
19C
330
198
100
AcDbEntity
  8
H998_ALU_BRACKET
  6
Continuous
 62
     7
100
AcDbLine
 10
1198.835463226
 20
1044.372238507
 30
0.0
 11
1198.835463226
 21
954.872238507
 31
0.0
  0
LINE
  5
19D
330
198
100
AcDbEntity
  8
H998_ALU_BRACKET
  6
Continuous
 62
     7
100
AcDbLine
 10
1268.835463226
 20
985.372238507
 30
0.0
 11
1268.835463226
 21
1024.372238507
 31
0.0
  0
LINE
  5
19E
330
198
100
AcDbEntity
  8
H998_ALU_BRACKET
  6
Continuous
 62
     7
100
AcDbLine
 10
1248.835463226
 20
1044.372238507
 30
0.0
 11
1198.835463226
 21
1044.372238507
 31
0.0
  0
ARC
  5
19F
330
198
100
AcDbEntity
  8
H998_ALU_BRACKET
  6
Continuous
 62
     7
100
AcDbCircle
 10
1248.835463226
 20
1024.372238507
 30
0.0
 40
20.0
100
AcDbArc
 50
0.0
 51
90.0
  0
CIRCLE
  5
1A0
330
198
100
AcDbEntity
  8
H998_ALU_BRACKET
  6
Continuous
 62
     7
100
AcDbCircle
 10
1259.835463226
 20
1024.372238507
 30
0.0
 40
6.0
  0
LINE
  5
1A1
330
198
100
AcDbEntity
  8
H998_ASSISE
  6
Continuous
 62
     7
100
AcDbLine
 10
1323.0122354719
 20
1044.372238507
 30
0.0
 11
1323.0122354719
 21
1036.372238507
 31
0.0
  0
LINE
  5
1A2
330
198
100
AcDbEntity
  8
H998_ASSISE
  6
Continuous
 62
     7
100
AcDbLine
 10
1303.7018429843
 20
1036.372238507
 30
0.0
 11
1295.3354632261
 21
1036.372238507
 31
0.0
  0
LINE
  5
1A3
330
198
100
AcDbEntity
  8
H998_ASSISE
  6
Continuous
 62
     7
100
AcDbLine
 10
1323.0122354719
 20
1036.372238507
 30
0.0
 11
1303.7018429843
 21
1036.372238507
 31
0.0
  0
LINE
  5
1A4
330
198
100
AcDbEntity
  8
H998_ASSISE
  6
Continuous
 62
     7
100
AcDbLine
 10
1277.8536279648
 20
1044.372238507
 30
0.0
 11
1303.7018429843
 21
1044.372238507
 31
0.0
  0
LINE
  5
1A5
330
198
100
AcDbEntity
  8
H998_ASSISE
  6
Continuous
 62
     7
100
AcDbLine
 10
1303.7018429843
 20
1036.372238507
 30
0.0
 11
1303.7018429843
 21
1044.372238507
 31
0.0
  0
LINE
  5
1A6
330
198
100
AcDbEntity
  8
H998_ASSISE
  6
Continuous
 62
     7
100
AcDbLine
 10
1303.7018429843
 20
1044.372238507
 30
0.0
 11
1323.0122354719
 21
1044.372238507
 31
0.0
  0
LINE
  5
1A7
330
198
100
AcDbEntity
  8
H998_ASSISE
  6
Continuous
 62
     7
100
AcDbLine
 10
1602.0054129453
 20
1044.372238507
 30
0.0
 11
1602.0054129453
 21
1036.372238507
 31
0.0
  0
LINE
  5
1A8
330
198
100
AcDbEntity
  8
H998_ASSISE
  6
Continuous
 62
     7
100
AcDbLine
 10
1582.6950204577
 20
1036.372238507
 30
0.0
 11
1323.0122354719
 21
1036.372238507
 31
0.0
  0
LINE
  5
1A9
330
198
100
AcDbEntity
  8
H998_ASSISE
  6
Continuous
 62
     7
100
AcDbLine
 10
1602.0054129453
 20
1036.372238507
 30
0.0
 11
1582.6950204577
 21
1036.372238507
 31
0.0
  0
LINE
  5
1AA
330
198
100
AcDbEntity
  8
H998_ASSISE
  6
Continuous
 62
     7
100
AcDbLine
 10
1582.6950204577
 20
1044.372238507
 30
0.0
 11
1323.0122354719
 21
1044.372238507
 31
0.0
  0
LINE
  5
1AB
330
198
100
AcDbEntity
  8
H998_ASSISE
  6
Continuous
 62
     7
100
AcDbLine
 10
1582.6950204577
 20
1036.372238507
 30
0.0
 11
1582.6950204577
 21
1044.372238507
 31
0.0
  0
LINE
  5
1AC
330
198
100
AcDbEntity
  8
H998_ASSISE
  6
Continuous
 62
     7
100
AcDbLine
 10
1582.6950204577
 20
1044.372238507
 30
0.0
 11
1602.0054129453
 21
1044.372238507
 31
0.0
  0
LINE
  5
1AD
330
198
100
AcDbEntity
  8
H998_ASSISE
  6
Continuous
 62
     7
100
AcDbLine
 10
1627.8536279648
 20
1036.372238507
 30
0.0
 11
1602.0054129453
 21
1036.372238507
 31
0.0
  0
LINE
  5
1AE
330
198
100
AcDbEntity
  8
H998_ASSISE
  6
Continuous
 62
     7
100
AcDbLine
 10
1627.8536279648
 20
1044.372238507
 30
0.0
 11
1602.0054129453
 21
1044.372238507
 31
0.0
  0
LINE
  5
1AF
330
198
100
AcDbEntity
  8
H998_ASSISE
  6
Continuous
 62
     7
100
AcDbLine
 10
1277.8536279648
 20
1036.372238507
 30
0.0
 11
1287.6751202561
 21
1036.372238507
 31
0.0
  0
LINE
  5
1B0
330
198
100
AcDbEntity
  8
H998_ASSISE
  6
Continuous
 62
     7
100
AcDbLine
 10
1570.3354632261
 20
1033.372238507
 30
0.0
 11
1570.3354632261
 21
1036.372238507
 31
0.0
  0
LINE
  5
1B1
330
198
100
AcDbEntity
  8
H998_ASSISE
  6
Continuous
 62
     7
100
AcDbLine
 10
1295.3354632261
 20
1036.372238507
 30
0.0
 11
1287.6751202561
 21
1036.372238507
 31
0.0
  0
LINE
  5
1B2
330
198
100
AcDbEntity
  8
H998_ASSISE
  6
Continuous
 62
     7
100
AcDbLine
 10
1295.3354632261
 20
1033.372238507
 30
0.0
 11
1295.3354632261
 21
1036.372238507
 31
0.0
  0
LINE
  5
1B3
330
198
100
AcDbEntity
  8
H998_ASSISE
  6
Continuous
 62
     7
100
AcDbLine
 10
1570.3354632261
 20
1033.372238507
 30
0.0
 11
1295.3354632261
 21
1033.372238507
 31
0.0
  0
LINE
  5
1B4
330
198
100
AcDbEntity
  8
H998_ASSISE
  6
Continuous
 62
     7
100
AcDbLine
 10
1295.3354632261
 20
1033.372238507
 30
0.0
 11
1295.115179202
 21
1033.372238507
 31
0.0
  0
ELLIPSE
  5
1B5
330
198
100
AcDbEntity
  8
H998_ASSISE
  6
Continuous
 62
     7
100
AcDbEllipse
 10
1997.6441261975
 20
1055.5775121149
 30
0.0
 11
-719.2595643807546
 21
4.359612001064256E-7
 31
0.0
210
0.0
220
0.0
230
1.0
 40
0.1666666683
 41
0.1609020850376011
 42
0.186310425966236
  0
SPLINE
  5
1B6
330
198
100
AcDbEntity
  8
H998_ASSISE
  6
Continuous
 62
     7
100
AcDbSpline
210
0.0
220
0.0
230
1.0
 70
     8
 71
     3
 72
    14
 73
    10
 74
     0
 42
0.000000001
 43
0.0000000001
 40
0.0
 40
0.0
 40
0.0
 40
0.0
 40
0.25
 40
0.25
 40
0.5
 40
0.5
 40
0.75
 40
0.75
 40
1.0
 40
1.0
 40
1.0
 40
1.0
 10
1277.853627964783
 20
1043.447912072712
 30
0.0
 10
1277.853627964783
 20
1043.447912072712
 30
0.0
 10
1277.855010063817
 20
1043.133141655446
 30
0.0
 10
1277.858102008925
 20
1042.026568417527
 30
0.0
 10
1277.859483692399
 20
1041.257442922353
 30
0.0
 10
1277.859481141405
 20
1039.71052345494
 30
0.0
 10
1277.858082725629
 20
1038.936933858003
 30
0.0
 10
1277.855028591576
 20
1037.843963325403
 30
0.0
 10
1277.853627964783
 20
1037.522526750442
 30
0.0
 10
1277.853627964783
 20
1037.522526750441
 30
0.0
  0
LINE
  5
1B7
330
198
100
AcDbEntity
  8
H998_ASSISE
  6
Continuous
 62
     7
100
AcDbLine
 10
1277.8536279648
 20
1043.4479120727
 30
0.0
 11
1277.8536279648
 21
1037.5225267504
 31
0.0
  0
SPLINE
  5
1B8
330
198
100
AcDbEntity
  8
H998_ASSISE
  6
Continuous
 62
     7
100
AcDbSpline
210
0.0
220
0.0
230
1.0
 70
     8
 71
     3
 72
    12
 73
     8
 74
     0
 42
0.000000001
 43
0.0000000001
 40
0.0
 40
0.0
 40
0.0
 40
0.0
 40
0.125
 40
0.125
 40
0.25
 40
0.25
 40
0.2500848266271118
 40
0.2500848266271118
 40
0.2500848266271118
 40
0.2500848266271118
 10
1627.847773511644
 20
1040.485219411576
 30
0.0
 10
1627.847773511644
 20
1039.702298957858
 30
0.0
 10
1627.849173572052
 20
1038.936708924684
 30
0.0
 10
1627.852228966736
 20
1037.843473710867
 30
0.0
 10
1627.853626341223
 20
1037.522937559699
 30
0.0
 10
1627.853627964232
 20
1037.522526889635
 30
0.0
 10
1627.853627964697
 20
1037.522526756072
 30
0.0
 10
1627.853627964525
 20
1037.522526767418
 30
0.0
  0
SPLINE
  5
1B9
330
198
100
AcDbEntity
  8
H998_ASSISE
  6
Continuous
 62
     7
100
AcDbSpline
210
0.0
220
0.0
230
1.0
 70
     8
 71
     3
 72
    10
 73
     6
 74
     0
 42
0.000000001
 43
0.0000000001
 40
0.7501612711043336
 40
0.7501612711043336
 40
0.7501612711043336
 40
0.7501612711043336
 40
0.875
 40
0.875
 40
1.0
 40
1.0
 40
1.0
 40
1.0
 10
1627.853627963895
 20
1043.447912013517
 30
0.0
 10
1627.853627506471
 20
1043.447881471667
 30
0.0
 10
1627.852232280683
 20
1043.127763423232
 30
0.0
 10
1627.849176588429
 20
1042.035196056339
 30
0.0
 10
1627.847773511644
 20
1041.268139865295
 30
0.0
 10
1627.847773511644
 20
1040.485219411576
 30
0.0
  0
LINE
  5
1BA
330
198
100
AcDbEntity
  8
H998_ASSISE
  6
Continuous
 62
     7
100
AcDbLine
 10
1277.8536279648
 20
1037.5225267504
 30
0.0
 11
1277.8536279648
 21
1036.372238507
 31
0.0
  0
LINE
  5
1BB
330
198
100
AcDbEntity
  8
H998_ASSISE
  6
Continuous
 62
     7
100
AcDbLine
 10
1277.8536279648
 20
1044.372238507
 30
0.0
 11
1277.8536279648
 21
1043.4479120727
 31
0.0
  0
LINE
  5
1BC
330
198
100
AcDbEntity
  8
H998_ASSISE
  6
Continuous
 62
     7
100
AcDbLine
 10
1627.8536279648
 20
1043.4453507776
 30
0.0
 11
1627.8536279648
 21
1044.372238507
 31
0.0
  0
LINE
  5
1BD
330
198
100
AcDbEntity
  8
H998_ASSISE
  6
Continuous
 62
     7
100
AcDbLine
 10
1627.8536279648
 20
1036.372238507
 30
0.0
 11
1627.8536279648
 21
1037.531988912
 31
0.0
  0
LINE
  5
1BE
330
198
100
AcDbEntity
  8
H998_BARRE_ALU
  6
Continuous
 62
     7
100
AcDbLine
 10
1572.8354632262
 20
1031.372238507
 30
0.0
 11
1572.8354632262
 21
1017.372238507
 31
0.0
  0
ARC
  5
1BF
330
198
100
AcDbEntity
  8
H998_BARRE_ALU
  6
Continuous
 62
     7
100
AcDbCircle
 10
1570.8354632262
 20
1017.372238507
 30
0.0
 40
2.000000000000002
100
AcDbArc
 50
270.0
 51
0.0
  0
LINE
  5
1C0
330
198
100
AcDbEntity
  8
H998_BARRE_ALU
  6
Continuous
 62
     7
100
AcDbLine
 10
1570.8354632262
 20
1017.372238507
 30
0.0
 11
1570.8354632262
 21
1031.372238507
 31
0.0
  0
LINE
  5
1C1
330
198
100
AcDbEntity
  8
H998_BARRE_ALU
  6
Continuous
 62
     7
100
AcDbLine
 10
1570.8354632262
 20
1017.372238507
 30
0.0
 11
1572.8354632262
 21
1017.372238507
 31
0.0
  0
LINE
  5
1C2
330
198
100
AcDbEntity
  8
H998_BARRE_ALU
  6
Continuous
 62
     7
100
AcDbLine
 10
1268.835463226
 20
1017.372238507
 30
0.0
 11
1570.8354632262
 21
1017.372238507
 31
0.0
  0
LINE
  5
1C3
330
198
100
AcDbEntity
  8
H998_BARRE_ALU
  6
Continuous
 62
     7
100
AcDbLine
 10
1570.8354632262
 20
1015.372238507
 30
0.0
 11
1268.835463226
 21
1015.372238507
 31
0.0
  0
LINE
  5
1C4
330
198
100
AcDbEntity
  8
H998_BARRE_ALU
  6
Continuous
 62
     7
100
AcDbLine
 10
1570.8354632262
 20
1017.372238507
 30
0.0
 11
1570.8354632262
 21
1015.372238507
 31
0.0
  0
ARC
  5
1C5
330
198
100
AcDbEntity
  8
H998_BARRE_ALU
  6
Continuous
 62
     7
100
AcDbCircle
 10
1570.8354632262
 20
1031.372238507
 30
0.0
 40
2.000000000000002
100
AcDbArc
 50
0.0
 51
90.0
  0
LINE
  5
1C6
330
198
100
AcDbEntity
  8
H998_BARRE_ALU
  6
Continuous
 62
     7
100
AcDbLine
 10
1572.8354632262
 20
1031.372238507
 30
0.0
 11
1570.8354632262
 21
1031.372238507
 31
0.0
  0
LINE
  5
1C7
330
198
100
AcDbEntity
  8
H998_BARRE_ALU
  6
Continuous
 62
     7
100
AcDbLine
 10
1266.6960343255
 20
1033.372238507
 30
0.0
 11
1295.115179202
 21
1033.372238507
 31
0.0
  0
LINE
  5
1C8
330
198
100
AcDbEntity
  8
H998_BARRE_ALU
  6
Continuous
 62
     7
100
AcDbLine
 10
1570.3354632261
 20
1033.372238507
 30
0.0
 11
1570.8354632262
 21
1033.372238507
 31
0.0
  0
LINE
  5
1C9
330
198
100
AcDbEntity
  8
H998_BARRE_ALU
  6
Continuous
 62
     7
100
AcDbLine
 10
1570.8354632262
 20
1031.372238507
 30
0.0
 11
1267.5704572212
 21
1031.372238507
 31
0.0
  0
LINE
  5
1CA
330
198
100
AcDbEntity
  8
H998_BARRE_ALU
  6
Continuous
 62
     7
100
AcDbLine
 10
1570.8354632262
 20
1033.372238507
 30
0.0
 11
1570.8354632262
 21
1031.372238507
 31
0.0
  0
ARC
  5
1CB
330
198
100
AcDbEntity
  8
H998_VIS1
  6
Continuous
 62
     7
100
AcDbCircle
 10
1259.835463226
 20
1024.372238507
 30
0.0
 40
5.5
100
AcDbArc
 50
185.2159085705
 51
354.7840914295
  0
ARC
  5
1CC
330
198
100
AcDbEntity
  8
H998_VIS1
  6
Continuous
 62
     7
100
AcDbCircle
 10
1259.835463226
 20
1024.372238507
 30
0.0
 40
5.5
100
AcDbArc
 50
5.2159085705
 51
174.7840914295
  0
ARC
  5
1CD
330
198
100
AcDbEntity
  8
H998_VIS1
  6
Continuous
 62
     7
100
AcDbCircle
 10
1259.835463226
 20
1024.372238507
 30
0.0
 40
5.5
100
AcDbArc
 50
174.7840914295
 51
185.2159085705
  0
ARC
  5
1CE
330
198
100
AcDbEntity
  8
H998_VIS1
  6
Continuous
 62
     7
100
AcDbCircle
 10
1259.835463226
 20
1024.372238507
 30
0.0
 40
5.5
100
AcDbArc
 50
354.7840914295
 51
5.2159085705
  0
LINE
  5
1CF
330
198
100
AcDbEntity
  8
H998_VIS1
  6
Continuous
 62
     7
100
AcDbLine
 10
1254.3582376509
 20
1024.872238507
 30
0.0
 11
1265.312688801
 21
1024.872238507
 31
0.0
  0
LINE
  5
1D0
330
198
100
AcDbEntity
  8
H998_VIS1
  6
Continuous
 62
     7
100
AcDbLine
 10
1265.312688801
 20
1023.872238507
 30
0.0
 11
1254.3582376509
 21
1023.872238507
 31
0.0
  0
LINE
  5
1D1
330
198
100
AcDbEntity
  8
H998_BOUCHON_PLA
  6
Continuous
 62
     7
100
AcDbLine
 10
1564.1854632262
 20
1013.872238507
 30
0.0
 11
1551.4854632262
 21
1013.872238507
 31
0.0
  0
LINE
  5
1D2
330
198
100
AcDbEntity
  8
H998_BOUCHON_PLA
  6
Continuous
 62
     7
100
AcDbLine
 10
1551.4854632262
 20
1015.372238507
 30
0.0
 11
1551.4854632262
 21
1013.872238507
 31
0.0
  0
LINE
  5
1D3
330
198
100
AcDbEntity
  8
H998_BOUCHON_PLA
  6
Continuous
 62
     7
100
AcDbLine
 10
1564.1854632262
 20
1013.872238507
 30
0.0
 11
1564.1854632262
 21
1015.372238507
 31
0.0
  0
LINE
  5
1D4
330
198
100
AcDbEntity
  8
H998_BOUCHON_PLA
  6
Continuous
 62
     7
100
AcDbLine
 10
1363.185463226
 20
1013.872238507
 30
0.0
 11
1350.485463226
 21
1013.872238507
 31
0.0
  0
LINE
  5
1D5
330
198
100
AcDbEntity
  8
H998_BOUCHON_PLA
  6
Continuous
 62
     7
100
AcDbLine
 10
1350.485463226
 20
1015.372238507
 30
0.0
 11
1350.485463226
 21
1013.872238507
 31
0.0
  0
LINE
  5
1D6
330
198
100
AcDbEntity
  8
H998_BOUCHON_PLA
  6
Continuous
 62
     7
100
AcDbLine
 10
1363.185463226
 20
1013.872238507
 30
0.0
 11
1363.185463226
 21
1015.372238507
 31
0.0
  0
LINE
  5
1D7
330
198
100
AcDbEntity
  8
H998_CACHE
  6
Continuous
 62
     7
100
AcDbLine
 10
1218.835463226
 20
1044.372238507
 30
0.0
 11
1198.835463226
 21
1044.372238507
 31
0.0
  0
LINE
  5
1D8
330
198
100
AcDbEntity
  8
H998_CACHE
  6
Continuous
 62
     7
100
AcDbLine
 10
1200.835463226
 20
1046.372238507
 30
0.0
 11
1216.835463226
 21
1046.372238507
 31
0.0
  0
ARC
  5
1D9
330
198
100
AcDbEntity
  8
H998_CACHE
  6
Continuous
 62
     7
100
AcDbCircle
 10
1216.835463226
 20
1044.372238507
 30
0.0
 40
2.0
100
AcDbArc
 50
0.0
 51
90.0
  0
ARC
  5
1DA
330
198
100
AcDbEntity
  8
H998_CACHE
  6
Continuous
 62
     7
100
AcDbCircle
 10
1200.835463226
 20
1044.372238507
 30
0.0
 40
2.000000000000002
100
AcDbArc
 50
90.0
 51
180.0
  0
ENDBLK
  5
1DC
330
198
100
AcDbEntity
  8
0
100
AcDbBlockEnd
  0
BLOCK
  5
224
330
1DD
100
AcDbEntity
  8
0
100
AcDbBlockBegin
  2
SE3
 70
     0
 10
0.0
 20
0.0
 30
0.0
  3
SE3
  1

  0
LINE
  5
1DF
330
1DD
100
AcDbEntity
  8
H998_ASSISE
  6
Continuous
 62
     7
100
AcDbLine
 10
419.8467608618
 20
1044.372238507
 30
0.0
 11
445.6949758813
 21
1044.372238507
 31
0.0
  0
LINE
  5
1E0
330
1DD
100
AcDbEntity
  8
H998_ASSISE
  6
Continuous
 62
     7
100
AcDbLine
 10
140.8535833884
 20
1044.372238507
 30
0.0
 11
140.8535833884
 21
1036.372238507
 31
0.0
  0
LINE
  5
1E1
330
1DD
100
AcDbEntity
  8
H998_ASSISE
  6
Continuous
 62
     7
100
AcDbLine
 10
95.6949758813
 20
1036.372238507
 30
0.0
 11
121.5431909008
 21
1036.372238507
 31
0.0
  0
LINE
  5
1E2
330
1DD
100
AcDbEntity
  8
H998_ASSISE
  6
Continuous
 62
     7
100
AcDbLine
 10
140.8535833884
 20
1036.372238507
 30
0.0
 11
121.5431909008
 21
1036.372238507
 31
0.0
  0
LINE
  5
1E3
330
1DD
100
AcDbEntity
  8
H998_ASSISE
  6
Continuous
 62
     7
100
AcDbLine
 10
95.6949758813
 20
1044.372238507
 30
0.0
 11
121.5431909008
 21
1044.372238507
 31
0.0
  0
LINE
  5
1E4
330
1DD
100
AcDbEntity
  8
H998_ASSISE
  6
Continuous
 62
     7
100
AcDbLine
 10
121.5431909008
 20
1036.372238507
 30
0.0
 11
121.5431909008
 21
1044.372238507
 31
0.0
  0
LINE
  5
1E5
330
1DD
100
AcDbEntity
  8
H998_ASSISE
  6
Continuous
 62
     7
100
AcDbLine
 10
121.5431909008
 20
1044.372238507
 30
0.0
 11
140.8535833884
 21
1044.372238507
 31
0.0
  0
LINE
  5
1E6
330
1DD
100
AcDbEntity
  8
H998_ASSISE
  6
Continuous
 62
     7
100
AcDbLine
 10
419.8467608618
 20
1044.372238507
 30
0.0
 11
419.8467608618
 21
1036.372238507
 31
0.0
  0
LINE
  5
1E7
330
1DD
100
AcDbEntity
  8
H998_ASSISE
  6
Continuous
 62
     7
100
AcDbLine
 10
400.5363683742
 20
1036.372238507
 30
0.0
 11
140.8535833884
 21
1036.372238507
 31
0.0
  0
LINE
  5
1E8
330
1DD
100
AcDbEntity
  8
H998_ASSISE
  6
Continuous
 62
     7
100
AcDbLine
 10
419.8467608618
 20
1036.372238507
 30
0.0
 11
400.5363683742
 21
1036.372238507
 31
0.0
  0
LINE
  5
1E9
330
1DD
100
AcDbEntity
  8
H998_ASSISE
  6
Continuous
 62
     7
100
AcDbLine
 10
400.5363683742
 20
1044.372238507
 30
0.0
 11
140.8535833884
 21
1044.372238507
 31
0.0
  0
LINE
  5
1EA
330
1DD
100
AcDbEntity
  8
H998_ASSISE
  6
Continuous
 62
     7
100
AcDbLine
 10
400.5363683742
 20
1036.372238507
 30
0.0
 11
400.5363683742
 21
1044.372238507
 31
0.0
  0
LINE
  5
1EB
330
1DD
100
AcDbEntity
  8
H998_ASSISE
  6
Continuous
 62
     7
100
AcDbLine
 10
400.5363683742
 20
1044.372238507
 30
0.0
 11
419.8467608618
 21
1044.372238507
 31
0.0
  0
LINE
  5
1EC
330
1DD
100
AcDbEntity
  8
H998_ASSISE
  6
Continuous
 62
     7
100
AcDbLine
 10
428.21314062
 20
1036.372238507
 30
0.0
 11
419.8467608618
 21
1036.372238507
 31
0.0
  0
LINE
  5
1ED
330
1DD
100
AcDbEntity
  8
H998_ASSISE
  6
Continuous
 62
     7
100
AcDbLine
 10
153.21314062
 20
1033.372238507
 30
0.0
 11
153.21314062
 21
1036.372238507
 31
0.0
  0
LINE
  5
1EE
330
1DD
100
AcDbEntity
  8
H998_ASSISE
  6
Continuous
 62
     7
100
AcDbLine
 10
435.87348359
 20
1036.372238507
 30
0.0
 11
432.3368691288
 21
1036.372238507
 31
0.0
  0
LINE
  5
1EF
330
1DD
100
AcDbEntity
  8
H998_ASSISE
  6
Continuous
 62
     7
100
AcDbLine
 10
428.21314062
 20
1033.372238507
 30
0.0
 11
428.21314062
 21
1036.372238507
 31
0.0
  0
LINE
  5
1F0
330
1DD
100
AcDbEntity
  8
H998_ASSISE
  6
Continuous
 62
     7
100
AcDbLine
 10
428.21314062
 20
1033.372238507
 30
0.0
 11
153.21314062
 21
1033.372238507
 31
0.0
  0
LINE
  5
1F1
330
1DD
100
AcDbEntity
  8
H998_ASSISE
  6
Continuous
 62
     7
100
AcDbLine
 10
429.3929603677
 20
1036.372238507
 30
0.0
 11
428.21314062
 21
1036.372238507
 31
0.0
  0
LINE
  5
1F2
330
1DD
100
AcDbEntity
  8
H998_ASSISE
  6
Continuous
 62
     7
100
AcDbLine
 10
428.4334246441
 20
1033.372238507
 30
0.0
 11
428.21314062
 21
1033.372238507
 31
0.0
  0
LINE
  5
1F3
330
1DD
100
AcDbEntity
  8
H998_ASSISE
  6
Continuous
 62
     7
100
AcDbLine
 10
429.3929603677
 20
1033.372238507
 30
0.0
 11
429.3929603677
 21
1036.372238507
 31
0.0
  0
LINE
  5
1F4
330
1DD
100
AcDbEntity
  8
H998_ASSISE
  6
Continuous
 62
     7
100
AcDbLine
 10
432.3368691288
 20
1036.372238507
 30
0.0
 11
432.3368691288
 21
1033.372238507
 31
0.0
  0
LINE
  5
1F5
330
1DD
100
AcDbEntity
  8
H998_ASSISE
  6
Continuous
 62
     7
100
AcDbLine
 10
432.3249641427
 20
1036.372238507
 30
0.0
 11
432.3368691288
 21
1036.372238507
 31
0.0
  0
LINE
  5
1F6
330
1DD
100
AcDbEntity
  8
H998_ASSISE
  6
Continuous
 62
     7
100
AcDbLine
 10
429.385644471
 20
1036.372238507
 30
0.0
 11
432.3249641427
 21
1036.372238507
 31
0.0
  0
ELLIPSE
  5
1F7
330
1DD
100
AcDbEntity
  8
H998_ASSISE
  6
Continuous
 62
     7
100
AcDbEllipse
 10
-274.0955264865
 20
1055.5775122356
 30
0.0
 11
719.2595685162759
 21
3.136365913308334E-7
 31
0.0
210
0.0
220
0.0
230
1.0
 40
0.1666666678
 41
-0.1863104254042209
 42
-0.1609020845497247
  0
LINE
  5
1F8
330
1DD
100
AcDbEntity
  8
H998_ASSISE
  6
Continuous
 62
     7
100
AcDbLine
 10
435.87348359
 20
1036.372238507
 30
0.0
 11
445.6949758813
 21
1036.372238507
 31
0.0
  0
SPLINE
  5
1F9
330
1DD
100
AcDbEntity
  8
H998_ASSISE
  6
Continuous
 62
     7
100
AcDbSpline
210
0.0
220
0.0
230
1.0
 70
     8
 71
     3
 72
    14
 73
    10
 74
     0
 42
0.000000001
 43
0.0000000001
 40
0.0
 40
0.0
 40
0.0
 40
0.0
 40
0.2500000000000001
 40
0.2500000000000001
 40
0.5000000000000001
 40
0.5000000000000001
 40
0.7500000000000001
 40
0.7500000000000001
 40
1.0
 40
1.0
 40
1.0
 40
1.0
 10
445.6949758813046
 20
1037.522526750441
 30
0.0
 10
445.6949758813045
 20
1037.522526750441
 30
0.0
 10
445.6935766283431
 20
1037.843465563857
 30
0.0
 10
445.6905196157718
 20
1038.937478448263
 30
0.0
 10
445.6891190181871
 20
1039.704834266652
 30
0.0
 10
445.689123845272
 20
1041.270227797942
 30
0.0
 10
445.6905255913336
 20
1042.035552714709
 30
0.0
 10
445.6935804009688
 20
1043.127868051362
 30
0.0
 10
445.6949758813046
 20
1043.447912072713
 30
0.0
 10
445.6949758813046
 20
1043.447912072712
 30
0.0
  0
LINE
  5
1FA
330
1DD
100
AcDbEntity
  8
H998_ASSISE
  6
Continuous
 62
     7
100
AcDbLine
 10
445.6949758813
 20
1037.5225267504
 30
0.0
 11
445.6949758813
 21
1043.4479120727
 31
0.0
  0
SPLINE
  5
1FB
330
1DD
100
AcDbEntity
  8
H998_ASSISE
  6
Continuous
 62
     7
100
AcDbSpline
210
0.0
220
0.0
230
1.0
 70
     8
 71
     3
 72
    16
 73
    12
 74
     0
 42
0.000000001
 43
0.0000000001
 40
0.2500848266271118
 40
0.2500848266271118
 40
0.2500848266271118
 40
0.2500848266271118
 40
0.375
 40
0.375
 40
0.5
 40
0.5
 40
0.625
 40
0.625
 40
0.75
 40
0.75
 40
0.7501612711043336
 40
0.7501612711043336
 40
0.7501612711043336
 40
0.7501612711043336
 10
95.69497588156217
 20
1037.522526767418
 30
0.0
 10
95.69497613445951
 20
1037.522543475989
 30
0.0
 10
95.69635557865183
 20
1037.836801818343
 30
0.0
 10
95.69944566579522
 20
1038.941982395889
 30
0.0
 10
95.70082925322862
 20
1039.710792728961
 30
0.0
 10
95.70083141419502
 20
1041.257551448273
 30
0.0
 10
95.69943555084723
 20
1042.031260664796
 30
0.0
 10
95.69638201634692
 20
1043.1249902683
 30
0.0
 10
95.69497903977827
 20
1043.447112883756
 30
0.0
 10
95.69497588333769
 20
1043.447911558252
 30
0.0
 10
95.69497588160097
 20
1043.447912052972
 30
0.0
 10
95.6949758821919
 20
1043.447912013517
 30
0.0
  0
LINE
  5
1FC
330
1DD
100
AcDbEntity
  8
H998_ASSISE
  6
Continuous
 62
     7
100
AcDbLine
 10
445.6949758813
 20
1043.4479120727
 30
0.0
 11
445.6949758813
 21
1044.372238507
 31
0.0
  0
LINE
  5
1FD
330
1DD
100
AcDbEntity
  8
H998_ASSISE
  6
Continuous
 62
     7
100
AcDbLine
 10
445.6949758813
 20
1036.372238507
 30
0.0
 11
445.6949758813
 21
1037.5225267504
 31
0.0
  0
LINE
  5
1FE
330
1DD
100
AcDbEntity
  8
H998_ASSISE
  6
Continuous
 62
     7
100
AcDbLine
 10
95.6949758813
 20
1037.531988912
 30
0.0
 11
95.6949758813
 21
1036.372238507
 31
0.0
  0
LINE
  5
1FF
330
1DD
100
AcDbEntity
  8
H998_ASSISE
  6
Continuous
 62
     7
100
AcDbLine
 10
95.6949758813
 20
1044.372238507
 30
0.0
 11
95.6949758813
 21
1043.4453507776
 31
0.0
  0
LINE
  5
200
330
1DD
100
AcDbEntity
  8
H998_ALU_BRACKET
  6
Continuous
 62
     7
100
AcDbLine
 10
524.7131406201
 20
1044.3722385069
 30
0.0
 11
524.7131406201
 21
954.8722385069
 31
0.0
  0
LINE
  5
201
330
1DD
100
AcDbEntity
  8
H998_ALU_BRACKET
  6
Continuous
 62
     7
100
AcDbLine
 10
524.7131406201
 20
954.8722385069
 30
0.0
 11
514.7131406201
 21
954.8722385069
 31
0.0
  0
LINE
  5
202
330
1DD
100
AcDbEntity
  8
H998_ALU_BRACKET
  6
Continuous
 62
     7
100
AcDbLine
 10
514.7131406201
 20
954.8722385069
 30
0.0
 11
454.7131406201
 21
985.3722385069
 31
0.0
  0
LINE
  5
203
330
1DD
100
AcDbEntity
  8
H998_ALU_BRACKET
  6
Continuous
 62
     7
100
AcDbLine
 10
454.7131406201
 20
985.3722385069
 30
0.0
 11
454.7131406201
 21
1024.3722385069
 31
0.0
  0
LINE
  5
204
330
1DD
100
AcDbEntity
  8
H998_ALU_BRACKET
  6
Continuous
 62
     7
100
AcDbLine
 10
474.7131406201
 20
1044.3722385069
 30
0.0
 11
524.7131406201
 21
1044.3722385069
 31
0.0
  0
ARC
  5
205
330
1DD
100
AcDbEntity
  8
H998_ALU_BRACKET
  6
Continuous
 62
     7
100
AcDbCircle
 10
474.7131406201
 20
1024.3722385069
 30
0.0
 40
20.00000000000001
100
AcDbArc
 50
90.0
 51
180.0
  0
CIRCLE
  5
206
330
1DD
100
AcDbEntity
  8
H998_ALU_BRACKET
  6
Continuous
 62
     7
100
AcDbCircle
 10
463.7131406201
 20
1024.3722385069
 30
0.0
 40
6.0
  0
LINE
  5
207
330
1DD
100
AcDbEntity
  8
H998_BARRE_ALU
  6
Continuous
 62
     7
100
AcDbLine
 10
150.7131406199
 20
1017.372238507
 30
0.0
 11
150.7131406199
 21
1031.372238507
 31
0.0
  0
LINE
  5
208
330
1DD
100
AcDbEntity
  8
H998_BARRE_ALU
  6
Continuous
 62
     7
100
AcDbLine
 10
152.7131406199
 20
1031.372238507
 30
0.0
 11
152.7131406199
 21
1017.372238507
 31
0.0
  0
LINE
  5
209
330
1DD
100
AcDbEntity
  8
H998_BARRE_ALU
  6
Continuous
 62
     7
100
AcDbLine
 10
152.7131406199
 20
1031.372238507
 30
0.0
 11
150.7131406199
 21
1031.372238507
 31
0.0
  0
ARC
  5
20A
330
1DD
100
AcDbEntity
  8
H998_BARRE_ALU
  6
Continuous
 62
     7
100
AcDbCircle
 10
152.7131406199
 20
1031.372238507
 30
0.0
 40
2.000000000000002
100
AcDbArc
 50
90.0
 51
180.0
  0
LINE
  5
20B
330
1DD
100
AcDbEntity
  8
H998_BARRE_ALU
  6
Continuous
 62
     7
100
AcDbLine
 10
455.9781466249
 20
1031.372238507
 30
0.0
 11
152.7131406199
 21
1031.372238507
 31
0.0
  0
LINE
  5
20C
330
1DD
100
AcDbEntity
  8
H998_BARRE_ALU
  6
Continuous
 62
     7
100
AcDbLine
 10
152.7131406199
 20
1033.372238507
 30
0.0
 11
153.21314062
 21
1033.372238507
 31
0.0
  0
LINE
  5
20D
330
1DD
100
AcDbEntity
  8
H998_BARRE_ALU
  6
Continuous
 62
     7
100
AcDbLine
 10
428.4334246441
 20
1033.372238507
 30
0.0
 11
456.8525695206
 21
1033.372238507
 31
0.0
  0
LINE
  5
20E
330
1DD
100
AcDbEntity
  8
H998_BARRE_ALU
  6
Continuous
 62
     7
100
AcDbLine
 10
152.7131406199
 20
1031.372238507
 30
0.0
 11
152.7131406199
 21
1033.372238507
 31
0.0
  0
LINE
  5
20F
330
1DD
100
AcDbEntity
  8
H998_BARRE_ALU
  6
Continuous
 62
     7
100
AcDbLine
 10
150.7131406199
 20
1017.372238507
 30
0.0
 11
152.7131406199
 21
1017.372238507
 31
0.0
  0
ARC
  5
210
330
1DD
100
AcDbEntity
  8
H998_BARRE_ALU
  6
Continuous
 62
     7
100
AcDbCircle
 10
152.7131406199
 20
1017.372238507
 30
0.0
 40
1.999999999999995
100
AcDbArc
 50
180.0
 51
270.0
  0
LINE
  5
211
330
1DD
100
AcDbEntity
  8
H998_BARRE_ALU
  6
Continuous
 62
     7
100
AcDbLine
 10
454.7131406201
 20
1015.372238507
 30
0.0
 11
152.7131406199
 21
1015.372238507
 31
0.0
  0
LINE
  5
212
330
1DD
100
AcDbEntity
  8
H998_BARRE_ALU
  6
Continuous
 62
     7
100
AcDbLine
 10
152.7131406199
 20
1017.372238507
 30
0.0
 11
454.7131406201
 21
1017.372238507
 31
0.0
  0
LINE
  5
213
330
1DD
100
AcDbEntity
  8
H998_BARRE_ALU
  6
Continuous
 62
     7
100
AcDbLine
 10
152.7131406199
 20
1015.372238507
 30
0.0
 11
152.7131406199
 21
1017.372238507
 31
0.0
  0
LINE
  5
214
330
1DD
100
AcDbEntity
  8
H998_BOUCHON_PLA
  6
Continuous
 62
     7
100
AcDbLine
 10
172.0631406199
 20
1013.872238507
 30
0.0
 11
159.3631406199
 21
1013.872238507
 31
0.0
  0
LINE
  5
215
330
1DD
100
AcDbEntity
  8
H998_BOUCHON_PLA
  6
Continuous
 62
     7
100
AcDbLine
 10
159.3631406199
 20
1015.372238507
 30
0.0
 11
159.3631406199
 21
1013.872238507
 31
0.0
  0
LINE
  5
216
330
1DD
100
AcDbEntity
  8
H998_BOUCHON_PLA
  6
Continuous
 62
     7
100
AcDbLine
 10
172.0631406199
 20
1013.872238507
 30
0.0
 11
172.0631406199
 21
1015.372238507
 31
0.0
  0
ARC
  5
217
330
1DD
100
AcDbEntity
  8
H998_VIS1
  6
Continuous
 62
     7
100
AcDbCircle
 10
463.7131406201
 20
1024.372238507
 30
0.0
 40
5.5
100
AcDbArc
 50
185.2159085705
 51
354.7840914295
  0
ARC
  5
218
330
1DD
100
AcDbEntity
  8
H998_VIS1
  6
Continuous
 62
     7
100
AcDbCircle
 10
463.7131406201
 20
1024.372238507
 30
0.0
 40
5.500000000000005
100
AcDbArc
 50
5.2159085705
 51
174.7840914295
  0
ARC
  5
219
330
1DD
100
AcDbEntity
  8
H998_VIS1
  6
Continuous
 62
     7
100
AcDbCircle
 10
463.7131406201
 20
1024.372238507
 30
0.0
 40
5.500000000000005
100
AcDbArc
 50
174.7840914295
 51
185.2159085705
  0
ARC
  5
21A
330
1DD
100
AcDbEntity
  8
H998_VIS1
  6
Continuous
 62
     7
100
AcDbCircle
 10
463.7131406201
 20
1024.372238507
 30
0.0
 40
5.5
100
AcDbArc
 50
354.7840914295
 51
5.2159085705
  0
LINE
  5
21B
330
1DD
100
AcDbEntity
  8
H998_VIS1
  6
Continuous
 62
     7
100
AcDbLine
 10
458.235915045
 20
1024.872238507
 30
0.0
 11
469.1903661951
 21
1024.872238507
 31
0.0
  0
LINE
  5
21C
330
1DD
100
AcDbEntity
  8
H998_VIS1
  6
Continuous
 62
     7
100
AcDbLine
 10
469.1903661951
 20
1023.872238507
 30
0.0
 11
458.235915045
 21
1023.872238507
 31
0.0
  0
LINE
  5
21D
330
1DD
100
AcDbEntity
  8
H998_BOUCHON_PLA
  6
Continuous
 62
     7
100
AcDbLine
 10
373.06314062
 20
1013.872238507
 30
0.0
 11
360.36314062
 21
1013.872238507
 31
0.0
  0
LINE
  5
21E
330
1DD
100
AcDbEntity
  8
H998_BOUCHON_PLA
  6
Continuous
 62
     7
100
AcDbLine
 10
360.36314062
 20
1015.372238507
 30
0.0
 11
360.36314062
 21
1013.872238507
 31
0.0
  0
LINE
  5
21F
330
1DD
100
AcDbEntity
  8
H998_BOUCHON_PLA
  6
Continuous
 62
     7
100
AcDbLine
 10
373.06314062
 20
1013.872238507
 30
0.0
 11
373.06314062
 21
1015.372238507
 31
0.0
  0
LINE
  5
220
330
1DD
100
AcDbEntity
  8
H998_CACHE
  6
Continuous
 62
     7
100
AcDbLine
 10
524.7131406201
 20
1044.372238507
 30
0.0
 11
504.7131406201
 21
1044.372238507
 31
0.0
  0
LINE
  5
221
330
1DD
100
AcDbEntity
  8
H998_CACHE
  6
Continuous
 62
     7
100
AcDbLine
 10
506.7131406201
 20
1046.372238507
 30
0.0
 11
522.7131406201
 21
1046.372238507
 31
0.0
  0
ARC
  5
222
330
1DD
100
AcDbEntity
  8
H998_CACHE
  6
Continuous
 62
     7
100
AcDbCircle
 10
506.7131406201
 20
1044.372238507
 30
0.0
 40
2.0
100
AcDbArc
 50
90.0
 51
180.0
  0
ARC
  5
223
330
1DD
100
AcDbEntity
  8
H998_CACHE
  6
Continuous
 62
     7
100
AcDbCircle
 10
522.7131406201
 20
1044.372238507
 30
0.0
 40
1.999999999999995
100
AcDbArc
 50
0.0
 51
90.0
  0
ENDBLK
  5
225
330
1DD
100
AcDbEntity
  8
0
100
AcDbBlockEnd
  0
BLOCK
  5
2B8
330
226
100
AcDbEntity
  8
0
100
AcDbBlockBegin
  2
SE4
 70
     0
 10
0.0
 20
0.0
 30
0.0
  3
SE4
  1

  0
LINE
  5
228
330
226
100
AcDbEntity
  8
H998_ALU_BRACKET
  6
Continuous
 62
     7
100
AcDbLine
 10
1234.9284616416
 20
203.6677721398
 30
0.0
 11
1234.9284616416
 21
204.4202332415
 31
0.0
  0
LINE
  5
229
330
226
100
AcDbEntity
  8
H998_ALU_BRACKET
  6
Continuous
 62
     7
100
AcDbLine
 10
1163.1571233511
 20
155.2263142407
 30
0.0
 11
1205.5835302223
 21
155.6345625311
 31
0.0
  0
LINE
  5
22A
330
226
100
AcDbEntity
  8
H998_ALU_BRACKET
  6
Continuous
 62
     7
100
AcDbLine
 10
1156.0860555393
 20
159.3087971453
 30
0.0
 11
1163.1571233511
 21
155.2263142407
 31
0.0
  0
LINE
  5
22B
330
226
100
AcDbEntity
  8
H998_ALU_BRACKET
  6
Continuous
 62
     7
100
AcDbLine
 10
1156.0860555393
 20
232.3852411383
 30
0.0
 11
1156.0860555393
 21
159.3087971453
 31
0.0
  0
LINE
  5
22C
330
226
100
AcDbEntity
  8
H998_ALU_BRACKET
  6
Continuous
 62
     7
100
AcDbLine
 10
1205.5835302223
 20
155.6345625311
 30
0.0
 11
1205.5835302223
 21
187.4779291873
 31
0.0
  0
LINE
  5
22D
330
226
100
AcDbEntity
  8
H998_ALU_BRACKET
  6
Continuous
 62
     7
100
AcDbLine
 10
1212.2303339655
 20
159.4720964615
 30
0.0
 11
1205.5835302223
 21
155.6345625311
 31
0.0
  0
LINE
  5
22E
330
226
100
AcDbEntity
  8
H998_ALU_BRACKET
  6
Continuous
 62
     7
100
AcDbLine
 10
1212.2303339655
 20
159.4742768698
 30
0.0
 11
1212.2303339655
 21
159.4720964615
 31
0.0
  0
LINE
  5
22F
330
226
100
AcDbEntity
  8
H998_ALU_BRACKET
  6
Continuous
 62
     7
100
AcDbLine
 10
1212.2303339655
 20
159.4742768698
 30
0.0
 11
1214.06999116
 21
160.5364034463
 31
0.0
  0
LINE
  5
230
330
226
100
AcDbEntity
  8
H998_ALU_BRACKET
  6
Continuous
 62
     7
100
AcDbLine
 10
1211.1911229347
 20
163.8549172451
 30
0.0
 11
1210.6746990469
 21
163.5567597744
 31
0.0
  0
LINE
  5
231
330
226
100
AcDbEntity
  8
H998_ALU_BRACKET
  6
Continuous
 62
     7
100
AcDbLine
 10
1210.6746990469
 20
163.5567597744
 30
0.0
 11
1210.6746990469
 21
165.0182294333
 31
0.0
  0
LINE
  5
232
330
226
100
AcDbEntity
  8
H998_ALU_BRACKET
  6
Continuous
 62
     7
100
AcDbLine
 10
1210.6746990469
 20
176.1128110436
 30
0.0
 11
1210.6746990469
 21
190.4173168786
 31
0.0
  0
LINE
  5
233
330
226
100
AcDbEntity
  8
H998_ALU_BRACKET
  6
Continuous
 62
     7
100
AcDbLine
 10
1215.6951571933
 20
217.3208792202
 30
0.0
 11
1202.9943107774
 21
209.9880421231
 31
0.0
  0
LINE
  5
234
330
226
100
AcDbEntity
  8
H998_ALU_BRACKET
  6
Continuous
 62
     7
100
AcDbLine
 10
1196.8861168137
 20
215.1163384517
 30
0.0
 11
1215.3416038027
 21
225.7716188328
 31
0.0
  0
LINE
  5
235
330
226
100
AcDbEntity
  8
H998_ALU_BRACKET
  6
Continuous
 62
     7
100
AcDbLine
 10
1215.3416038027
 20
225.7716188328
 30
0.0
 11
1215.3416038027
 21
217.9332516559
 31
0.0
  0
LINE
  5
236
330
226
100
AcDbEntity
  8
H998_ALU_BRACKET
  6
Continuous
 62
     7
100
AcDbLine
 10
1215.6951571933
 20
217.3208792202
 30
0.0
 11
1215.6951571933
 21
217.7291275107
 31
0.0
  0
LINE
  5
237
330
226
100
AcDbEntity
  8
H998_ALU_BRACKET
  6
Continuous
 62
     7
100
AcDbLine
 10
1215.3416038027
 20
217.9332516559
 30
0.0
 11
1227.4213388991
 21
210.9590133462
 31
0.0
  0
LINE
  5
238
330
226
100
AcDbEntity
  8
H998_ALU_BRACKET
  6
Continuous
 62
     7
100
AcDbLine
 10
1234.9284616416
 20
204.4202332415
 30
0.0
 11
1234.2768112121
 21
204.0440026907
 31
0.0
  0
ELLIPSE
  5
239
330
226
100
AcDbEntity
  8
H998_ALU_BRACKET
  6
Continuous
 62
     7
100
AcDbEllipse
 10
1215.6951571933
 20
209.6458113595
 30
0.0
 11
9.999999999999615
 21
-17.32050807568861
 31
0.0
210
0.0
220
0.0
230
1.0
 40
0.5773502692
 41
1.104718530329897
 42
1.332249114093416
  0
LINE
  5
23A
330
226
100
AcDbEntity
  8
H998_ALU_BRACKET
  6
Continuous
 62
     7
100
AcDbLine
 10
1227.7748922897
 20
211.1631374915
 30
0.0
 11
1227.4213388991
 21
210.9590133462
 31
0.0
  0
ELLIPSE
  5
23B
330
226
100
AcDbEntity
  8
H998_ALU_BRACKET
  6
Continuous
 62
     7
100
AcDbEllipse
 10
1215.3416038027
 20
209.4416872143
 30
0.0
 11
10.00000000000001
 21
-17.32050807568883
 31
0.0
210
0.0
220
0.0
230
1.0
 40
0.5773502692
 41
1.332249114093394
 42
2.356194490192347
  0
LINE
  5
23C
330
226
100
AcDbEntity
  8
H998_ALU_BRACKET
  6
Continuous
 62
     7
100
AcDbLine
 10
1220.7863260178
 20
228.9151306694
 30
0.0
 11
1199.5731225822
 21
241.1625793833
 31
0.0
  0
LINE
  5
23D
330
226
100
AcDbEntity
  8
H998_ALU_BRACKET
  6
Continuous
 62
     7
100
AcDbLine
 10
1215.3416038027
 20
225.7716188328
 30
0.0
 11
1220.7863260178
 21
228.9151306694
 31
0.0
  0
ELLIPSE
  5
23E
330
226
100
AcDbEntity
  8
H998_ALU_BRACKET
  6
Continuous
 62
     7
100
AcDbEllipse
 10
1220.7863260178
 20
212.5851990508
 30
0.0
 11
-10.0
 21
17.32050807568879
 31
0.0
210
0.0
220
0.0
230
1.0
 40
0.5773502692
 41
3.926990816987246
 42
5.497787143782138
  0
LINE
  5
23F
330
226
100
AcDbEntity
  8
H998_ALU_BRACKET
  6
Continuous
 62
     7
100
AcDbLine
 10
1210.6746990469
 20
190.4173168786
 30
0.0
 11
1205.5835302223
 21
187.4779291873
 31
0.0
  0
LINE
  5
240
330
226
100
AcDbEntity
  8
H998_ALU_BRACKET
  6
Continuous
 62
     7
100
AcDbLine
 10
1191.4413945986
 20
211.9728266151
 30
0.0
 11
1156.0860555393
 21
232.3852411383
 31
0.0
  0
ELLIPSE
  5
241
330
226
100
AcDbEntity
  8
H998_ALU_BRACKET
  6
Continuous
 62
     7
100
AcDbEllipse
 10
1191.4413945986
 20
195.6428949966
 30
0.0
 11
9.999999999999993
 21
-17.32050807568879
 31
0.0
210
0.0
220
0.0
230
1.0
 40
0.5773502692
 41
0.7853981633974421
 42
2.356194490192345
  0
LINE
  5
242
330
226
100
AcDbEntity
  8
H998_ALU_BRACKET
  6
Continuous
 62
     7
100
AcDbLine
 10
1191.4413945986
 20
211.9728266151
 30
0.0
 11
1196.8861168137
 21
215.1163384517
 31
0.0
  0
ELLIPSE
  5
243
330
226
100
AcDbEntity
  8
H998_ALU_BRACKET
  6
Continuous
 62
     7
100
AcDbEllipse
 10
1196.8861168137
 20
198.7864068331
 30
0.0
 11
-10.00000000000001
 21
17.32050807568877
 31
0.0
210
0.0
220
0.0
230
1.0
 40
0.5773502692
 41
4.473841767683197
 42
5.497787143782136
  0
LINE
  5
244
330
226
100
AcDbEntity
  8
H998_ALU_BRACKET
  6
Continuous
 62
     7
100
AcDbLine
 10
1208.9658519102
 20
200.3037329651
 30
0.0
 11
1208.6122985196
 21
200.0996088199
 31
0.0
  0
ELLIPSE
  5
245
330
226
100
AcDbEntity
  8
H998_ALU_BRACKET
  6
Continuous
 62
     7
100
AcDbEllipse
 10
1196.5325634231
 20
198.5822826879
 30
0.0
 11
10.00000000000174
 21
-17.3205080756897
 31
0.0
210
0.0
220
0.0
230
1.0
 40
0.5773502692
 41
0.7853981633974083
 42
1.332249114093333
  0
LINE
  5
246
330
226
100
AcDbEntity
  8
H998_ALU_BRACKET
  6
Continuous
 62
     7
100
AcDbLine
 10
1175.1779386313
 20
227.0780133623
 30
0.0
 11
1194.6233751139
 21
238.30484135
 31
0.0
  0
ELLIPSE
  5
247
330
226
100
AcDbEntity
  8
H998_ALU_BRACKET
  6
Continuous
 62
     7
100
AcDbEllipse
 10
1199.2195691916
 20
191.1521638015
 30
0.0
 11
2.999999999999994
 21
-5.196152422706634
 31
0.0
210
0.0
220
0.0
230
1.0
 40
0.5773502692
 41
0.0
 42
6.283185307179586
  0
LINE
  5
248
330
226
100
AcDbEntity
  8
H998_ASSISE
  6
Continuous
 62
     7
100
AcDbLine
 10
1216.1383520986
 20
165.6665407529
 30
0.0
 11
1216.1383520986
 21
159.1345681055
 31
0.0
  0
ELLIPSE
  5
249
330
226
100
AcDbEntity
  8
H998_ASSISE
  6
Continuous
 62
     7
100
AcDbEllipse
 10
1230.2804877224
 20
167.2995339148
 30
0.0
 11
19.99999999999995
 21
-2.775557561562891E-14
 31
0.0
210
0.0
220
0.0
230
1.0
 40
0.5773502692
 41
3.141592653589793
 42
3.926990816987232
  0
ELLIPSE
  5
24A
330
226
100
AcDbEntity
  8
H998_ASSISE
  6
Continuous
 62
     7
100
AcDbEllipse
 10
1862.7460911909
 20
-36.2291543063
 30
0.0
 11
-749.6500416667849
 21
7.049916206369744E-11
 31
0.0
210
0.0
220
0.0
230
1.0
 40
0.5773502692
 41
5.234422881272861
 42
5.761151406291633
  0
ELLIPSE
  5
24B
330
226
100
AcDbEntity
  8
H998_ASSISE
  6
Continuous
 62
     7
100
AcDbEllipse
 10
1230.2804877224
 20
173.8315065622
 30
0.0
 11
19.99999999999997
 21
-1.127570259384925E-14
 31
0.0
210
0.0
220
0.0
230
1.0
 40
0.5773502692
 41
2.619558752701782
 42
3.926990816987232
  0
LINE
  5
24C
330
226
100
AcDbEntity
  8
H998_ASSISE
  6
Continuous
 62
     7
100
AcDbLine
 10
1423.876829285
 20
57.8074309683
 30
0.0
 11
1423.876829285
 21
51.2754583209
 31
0.0
  0
LINE
  5
24D
330
226
100
AcDbEntity
  8
H998_ASSISE
  6
Continuous
 62
     7
100
AcDbLine
 10
1399.7618103195
 20
53.1195150722
 30
0.0
 11
1216.1383520986
 21
159.1345681055
 31
0.0
  0
ELLIPSE
  5
24E
330
226
100
AcDbEntity
  8
H998_ASSISE
  6
Continuous
 62
     7
100
AcDbEllipse
 10
1413.9039459432
 20
61.2844808814
 30
0.0
 11
20.00000000000009
 21
-3.382710778154774E-14
 31
0.0
210
0.0
220
0.0
230
1.0
 40
0.5773502692
 41
3.926990816987255
 42
5.234422881272733
  0
LINE
  5
24F
330
226
100
AcDbEntity
  8
H998_ASSISE
  6
Continuous
 62
     7
100
AcDbLine
 10
1399.7618103195
 20
59.6514877196
 30
0.0
 11
1216.1383520986
 21
165.6665407529
 31
0.0
  0
LINE
  5
250
330
226
100
AcDbEntity
  8
H998_ASSISE
  6
Continuous
 62
     7
100
AcDbLine
 10
1399.7618103195
 20
53.1195150722
 30
0.0
 11
1399.7618103195
 21
59.6514877196
 31
0.0
  0
ELLIPSE
  5
251
330
226
100
AcDbEntity
  8
H998_ASSISE
  6
Continuous
 62
     7
100
AcDbEllipse
 10
1413.9039459432
 20
67.8164535288
 30
0.0
 11
-20.00000000000002
 21
-6.071532165918826E-15
 31
0.0
210
0.0
220
0.0
230
1.0
 40
0.5773502692
 41
0.7853981633974572
 42
2.092830227682941
  0
ELLIPSE
  5
252
330
226
100
AcDbEntity
  8
H998_ASSISE
  6
Continuous
 62
     7
100
AcDbEllipse
 10
1050.0682086474
 20
426.4386672972
 30
0.0
 11
749.6500416667747
 21
-6.492029136495603E-11
 31
0.0
210
0.0
220
0.0
230
1.0
 40
0.5773502692
 41
5.234422881272849
 42
5.761151406291626
  0
ELLIPSE
  5
253
330
226
100
AcDbEntity
  8
H998_ASSISE
  6
Continuous
 62
     7
100
AcDbEllipse
 10
1682.533812116
 20
216.3780064286
 30
0.0
 11
-19.99999999999997
 21
4.510281037539698E-14
 31
0.0
210
0.0
220
0.0
230
1.0
 40
0.5773502692
 41
2.619558752701761
 42
3.141592653589792
  0
ELLIPSE
  5
254
330
226
100
AcDbEntity
  8
H998_ASSISE
  6
Continuous
 62
     7
100
AcDbEllipse
 10
1050.0682086476
 20
432.9706399445
 30
0.0
 11
749.6500416666224
 21
2.561839629322548E-11
 31
0.0
210
0.0
220
0.0
230
1.0
 40
0.5773502692
 41
5.234422881272673
 42
5.761151406291522
  0
LINE
  5
255
330
226
100
AcDbEntity
  8
H998_ASSISE
  6
Continuous
 62
     7
100
AcDbLine
 10
1699.8699477249
 20
210.6201595466
 30
0.0
 11
1699.8699477249
 21
217.1521321941
 31
0.0
  0
ELLIPSE
  5
256
330
226
100
AcDbEntity
  8
H998_ASSISE
  6
Continuous
 62
     7
100
AcDbEllipse
 10
1682.533812116
 20
222.9099790761
 30
0.0
 11
-20.00000000000025
 21
5.204170427930421E-14
 31
0.0
210
0.0
220
0.0
230
1.0
 40
0.5773502692
 41
2.619558752701737
 42
3.926990816987231
  0
LINE
  5
257
330
226
100
AcDbEntity
  8
H998_ASSISE
  6
Continuous
 62
     7
100
AcDbLine
 10
1513.0524895189
 20
337.0899979187
 30
0.0
 11
1696.6759477397
 21
231.0749448853
 31
0.0
  0
ELLIPSE
  5
258
330
226
100
AcDbEntity
  8
H998_ASSISE
  6
Continuous
 62
     7
100
AcDbEllipse
 10
1498.9103538951
 20
328.9250321094
 30
0.0
 11
20.00000000000009
 21
0.0
 31
0.0
210
0.0
220
0.0
230
1.0
 40
0.5773502692
 41
0.7853981633974447
 42
2.092830227682926
  0
SPLINE
  5
259
330
226
100
AcDbEntity
  8
H998_ASSISE
  6
Continuous
 62
     7
100
AcDbSpline
210
0.0
220
0.0
230
1.0
 70
    11
 71
     3
 72
    22
 73
    18
 74
     0
 42
0.000000001
 43
0.0000000001
 40
0.0
 40
0.0
 40
0.0
 40
0.0
 40
0.125
 40
0.125
 40
0.25
 40
0.25
 40
0.375
 40
0.375
 40
0.5
 40
0.5
 40
0.625
 40
0.625
 40
0.75
 40
0.75
 40
0.875
 40
0.875
 40
1.0
 40
1.0
 40
1.0
 40
1.0
 10
1578.051756832037
 20
122.5464300429574
 30
0.0
 10
1578.051756832037
 20
121.907178169358
 30
0.0
 10
1578.279887122561
 20
121.4126444649876
 30
0.0
 10
1579.055220425508
 20
120.9651658226116
 30
0.0
 10
1579.603230742798
 20
121.0187021038333
 30
0.0
 10
1580.696217657587
 20
121.64906557812
 30
0.0
 10
1581.239173376821
 20
122.2203011681541
 30
0.0
 10
1582.019536302381
 20
123.5760502641588
 30
0.0
 10
1582.241444290491
 20
124.3330296035731
 30
0.0
 10
1582.241829397865
 20
125.5961769156798
 30
0.0
 10
1582.01640837506
 20
126.0966212397547
 30
0.0
 10
1581.246683532749
 20
126.5427536760857
 30
0.0
 10
1580.705510279873
 20
126.4921736414477
 30
0.0
 10
1579.600439918858
 20
125.8554583727191
 30
0.0
 10
1579.056836944225
 20
125.2812751233487
 30
0.0
 10
1578.280378252152
 20
123.9428297049724
 30
0.0
 10
1578.051756832037
 20
123.1856819165567
 30
0.0
 10
1578.051756832037
 20
122.5464300429574
 30
0.0
  0
ELLIPSE
  5
25A
330
226
100
AcDbEntity
  8
H998_ASSISE
  6
Continuous
 62
     7
100
AcDbEllipse
 10
1579.9387045925
 20
123.8760286737
 30
0.0
 11
-1.48134633056772
 21
-2.565767108148975
 31
0.0
210
0.0
220
0.0
230
1.0
 40
0.5773502692
 41
0.0
 42
3.141592653589806
  0
ELLIPSE
  5
25B
330
226
100
AcDbEntity
  8
H998_ASSISE
  6
Continuous
 62
     7
100
AcDbEllipse
 10
1435.1939464836
 20
198.3707428191
 30
0.0
 11
-7.500000000000013
 21
2.255140518769849E-14
 31
0.0
210
0.0
220
0.0
230
1.0
 40
0.5773502692
 41
0.0
 42
6.283185307179586
  0
ELLIPSE
  5
25C
330
226
100
AcDbEntity
  8
H998_ASSISE
  6
Continuous
 62
     7
100
AcDbEllipse
 10
1435.1939464836
 20
194.2882599145
 30
0.0
 11
2.500000000000011
 21
-5.637851296924623E-15
 31
0.0
210
0.0
220
0.0
230
1.0
 40
0.5773502692
 41
0.6974048661856802
 42
2.356194490192382
  0
ELLIPSE
  5
25D
330
226
100
AcDbEntity
  8
H998_ASSISE
  6
Continuous
 62
     7
100
AcDbEllipse
 10
1456.4071499192
 20
186.1232941052
 30
0.0
 11
-7.499999999999994
 21
3.035766082959412E-15
 31
0.0
210
0.0
220
0.0
230
1.0
 40
0.5773502692
 41
0.0
 42
6.283185307179586
  0
ELLIPSE
  5
25E
330
226
100
AcDbEntity
  8
H998_ASSISE
  6
Continuous
 62
     7
100
AcDbEllipse
 10
1456.4071499192
 20
182.0408112006
 30
0.0
 11
2.500000000000011
 21
-2.818925648462312E-15
 31
0.0
210
0.0
220
0.0
230
1.0
 40
0.5773502692
 41
0.6974048661855381
 42
2.356194490192252
  0
ELLIPSE
  5
25F
330
226
100
AcDbEntity
  8
H998_ASSISE
  6
Continuous
 62
     7
100
AcDbEllipse
 10
1477.6203533548
 20
198.3707428191
 30
0.0
 11
-7.499999999999994
 21
5.637851296924623E-15
 31
0.0
210
0.0
220
0.0
230
1.0
 40
0.5773502692
 41
0.0
 42
6.283185307179586
  0
ELLIPSE
  5
260
330
226
100
AcDbEntity
  8
H998_ASSISE
  6
Continuous
 62
     7
100
AcDbEllipse
 10
1477.6203533548
 20
194.2882599145
 30
0.0
 11
2.499999999999972
 21
0.0
 31
0.0
210
0.0
220
0.0
230
1.0
 40
0.5773502692
 41
0.6974048661858019
 42
2.356194490192525
  0
ELLIPSE
  5
261
330
226
100
AcDbEntity
  8
H998_ASSISE
  6
Continuous
 62
     7
100
AcDbEllipse
 10
1456.4071499192
 20
198.3707428191
 30
0.0
 11
-7.500000000000013
 21
1.691355389077387E-14
 31
0.0
210
0.0
220
0.0
230
1.0
 40
0.5773502692
 41
0.0
 42
6.283185307179586
  0
ELLIPSE
  5
262
330
226
100
AcDbEntity
  8
H998_ASSISE
  6
Continuous
 62
     7
100
AcDbEllipse
 10
1456.4071499192
 20
194.2882599145
 30
0.0
 11
2.499999999999992
 21
-5.637851296924623E-15
 31
0.0
210
0.0
220
0.0
230
1.0
 40
0.5773502692
 41
0.6974048661856713
 42
2.356194490192261
  0
ELLIPSE
  5
263
330
226
100
AcDbEntity
  8
H998_ASSISE
  6
Continuous
 62
     7
100
AcDbEllipse
 10
1456.4071499192
 20
210.618191533
 30
0.0
 11
-7.499999999999994
 21
5.637851296924623E-15
 31
0.0
210
0.0
220
0.0
230
1.0
 40
0.5773502692
 41
0.0
 42
6.283185307179586
  0
ELLIPSE
  5
264
330
226
100
AcDbEntity
  8
H998_ASSISE
  6
Continuous
 62
     7
100
AcDbEllipse
 10
1456.4071499192
 20
206.5357086284
 30
0.0
 11
2.499999999999992
 21
-1.691355389077387E-14
 31
0.0
210
0.0
220
0.0
230
1.0
 40
0.5773502692
 41
0.6974048661855319
 42
2.356194490192264
  0
LINE
  5
265
330
226
100
AcDbEntity
  8
H998_ASSISE
  6
Continuous
 62
     7
100
AcDbLine
 10
1210.2804877224
 20
173.8315065622
 30
0.0
 11
1210.2804877224
 21
167.2995339148
 31
0.0
  0
LINE
  5
266
330
226
100
AcDbEntity
  8
H998_ASSISE
  6
Continuous
 62
     7
100
AcDbLine
 10
1702.533812116
 20
216.3780064286
 30
0.0
 11
1702.533812116
 21
222.9099790761
 31
0.0
  0
SPLINE
  5
267
330
226
100
AcDbEntity
  8
H998_ASSISE
  6
Continuous
 62
     7
100
AcDbSpline
210
0.0
220
0.0
230
1.0
 70
     8
 71
     3
 72
    19
 73
    15
 74
     0
 42
0.000000001
 43
0.0000000001
 40
0.2214279168846498
 40
0.2214279168846498
 40
0.2214279168846498
 40
0.2214279168846498
 40
0.2386023475758312
 40
0.2864249187613792
 40
0.3340588994549176
 40
0.3833318369793582
 40
0.4348971457073865
 40
0.4885664997354213
 40
0.5434685131170237
 40
0.5983903429634018
 40
0.652115818056122
 40
0.7043986556096851
 40
0.756338073543899
 40
0.7790552647544482
 40
0.7790552647544482
 40
0.7790552647544482
 40
0.7790552647544482
 10
1438.161605748722
 20
195.6663326611936
 30
0.0
 10
1438.161959423585
 20
195.6666640060974
 30
0.0
 10
1438.149793715115
 20
195.6558511907188
 30
0.0
 10
1438.022018638321
 20
195.5611601044411
 30
0.0
 10
1437.631967651806
 20
195.3680496482195
 30
0.0
 10
1437.034564371196
 20
195.169275772464
 30
0.0
 10
1436.266158439994
 20
195.0151844123356
 30
0.0
 10
1435.384532640428
 20
194.9430582914362
 30
0.0
 10
1434.468639177293
 20
194.9735414976129
 30
0.0
 10
1433.611562997978
 20
195.1046702440179
 30
0.0
 10
1432.904198534723
 20
195.3077851849569
 30
0.0
 10
1432.419792211753
 20
195.527110815494
 30
0.0
 10
1432.244508672023
 20
195.6499460195288
 30
0.0
 10
1432.225890054568
 20
195.6666651960681
 30
0.0
 10
1432.22640940026
 20
195.6662141502069
 30
0.0
  0
SPLINE
  5
268
330
226
100
AcDbEntity
  8
H998_ASSISE
  6
Continuous
 62
     7
100
AcDbSpline
210
0.0
220
0.0
230
1.0
 70
     8
 71
     3
 72
    19
 73
    15
 74
     0
 42
0.000000001
 43
0.0000000001
 40
0.2214279168846539
 40
0.2214279168846539
 40
0.2214279168846539
 40
0.2214279168846539
 40
0.238602347575831
 40
0.2864249187613792
 40
0.3340588994549176
 40
0.383331836979358
 40
0.4348971457073864
 40
0.4885664997354212
 40
0.543468513117026
 40
0.5983903429634025
 40
0.6521158180561212
 40
0.7043986556096874
 40
0.7563380735438988
 40
0.7790552647544503
 40
0.7790552647544503
 40
0.7790552647544503
 40
0.7790552647544503
 10
1459.374809184318
 20
183.4188839472778
 30
0.0
 10
1459.375162859181
 20
183.4192152921816
 30
0.0
 10
1459.362997150711
 20
183.4084024768028
 30
0.0
 10
1459.235222073917
 20
183.3137113905251
 30
0.0
 10
1458.845171087402
 20
183.1206009343037
 30
0.0
 10
1458.247767806793
 20
182.921827058548
 30
0.0
 10
1457.47936187559
 20
182.7677356984197
 30
0.0
 10
1456.597736076025
 20
182.6956095775201
 30
0.0
 10
1455.681842612889
 20
182.7260927836969
 30
0.0
 10
1454.824766433574
 20
182.857221530102
 30
0.0
 10
1454.11740197032
 20
183.0603364710412
 30
0.0
 10
1453.63299564735
 20
183.279662101578
 30
0.0
 10
1453.457712107619
 20
183.4024973056128
 30
0.0
 10
1453.439093490165
 20
183.4192164821522
 30
0.0
 10
1453.439612835856
 20
183.418765436291
 30
0.0
  0
SPLINE
  5
269
330
226
100
AcDbEntity
  8
H998_ASSISE
  6
Continuous
 62
     7
100
AcDbSpline
210
0.0
220
0.0
230
1.0
 70
     8
 71
     3
 72
    19
 73
    15
 74
     0
 42
0.000000001
 43
0.0000000001
 40
0.2214279168846557
 40
0.2214279168846557
 40
0.2214279168846557
 40
0.2214279168846557
 40
0.238602347575831
 40
0.2864249187613791
 40
0.3340588994549174
 40
0.383331836979358
 40
0.4348971457073863
 40
0.4885664997354211
 40
0.5434685131170259
 40
0.5983903429634024
 40
0.652115818056121
 40
0.704398655609691
 40
0.7563380735438979
 40
0.7790552647544521
 40
0.7790552647544521
 40
0.7790552647544521
 40
0.7790552647544521
 10
1480.588012619914
 20
195.6663326611936
 30
0.0
 10
1480.588366294777
 20
195.6666640060974
 30
0.0
 10
1480.576200586308
 20
195.6558511907187
 30
0.0
 10
1480.448425509514
 20
195.5611601044409
 30
0.0
 10
1480.058374522999
 20
195.3680496482196
 30
0.0
 10
1479.460971242389
 20
195.169275772464
 30
0.0
 10
1478.692565311187
 20
195.0151844123355
 30
0.0
 10
1477.810939511621
 20
194.9430582914362
 30
0.0
 10
1476.895046048486
 20
194.9735414976128
 30
0.0
 10
1476.037969869171
 20
195.1046702440179
 30
0.0
 10
1475.330605405916
 20
195.307785184957
 30
0.0
 10
1474.846199082946
 20
195.5271108154939
 30
0.0
 10
1474.670915543215
 20
195.6499460195287
 30
0.0
 10
1474.652296925761
 20
195.6666651960681
 30
0.0
 10
1474.652816271453
 20
195.6662141502069
 30
0.0
  0
SPLINE
  5
26A
330
226
100
AcDbEntity
  8
H998_ASSISE
  6
Continuous
 62
     7
100
AcDbSpline
210
0.0
220
0.0
230
1.0
 70
     8
 71
     3
 72
    19
 73
    15
 74
     0
 42
0.000000001
 43
0.0000000001
 40
0.2214279168846559
 40
0.2214279168846559
 40
0.2214279168846559
 40
0.2214279168846559
 40
0.2386023475758332
 40
0.2864249187613853
 40
0.3340588994549215
 40
0.3833318369793671
 40
0.4348971457073922
 40
0.4885664997354335
 40
0.54346851311703
 40
0.5983903429634098
 40
0.652115818056118
 40
0.7043986556096882
 40
0.7563380735439009
 40
0.779055264754447
 40
0.779055264754447
 40
0.779055264754447
 40
0.779055264754447
 10
1459.374809184316
 20
195.6663326611925
 30
0.0
 10
1459.375162859179
 20
195.6666640060963
 30
0.0
 10
1459.362997150709
 20
195.6558511907176
 30
0.0
 10
1459.235222073915
 20
195.5611601044398
 30
0.0
 10
1458.8451710874
 20
195.3680496482182
 30
0.0
 10
1458.247767806791
 20
195.1692757724628
 30
0.0
 10
1457.479361875588
 20
195.0151844123343
 30
0.0
 10
1456.597736076023
 20
194.943058291435
 30
0.0
 10
1455.681842612887
 20
194.9735414976116
 30
0.0
 10
1454.824766433572
 20
195.1046702440167
 30
0.0
 10
1454.117401970318
 20
195.3077851849557
 30
0.0
 10
1453.632995647348
 20
195.5271108154927
 30
0.0
 10
1453.457712107617
 20
195.6499460195275
 30
0.0
 10
1453.439093490162
 20
195.6666651960669
 30
0.0
 10
1453.439612835854
 20
195.6662141502057
 30
0.0
  0
SPLINE
  5
26B
330
226
100
AcDbEntity
  8
H998_ASSISE
  6
Continuous
 62
     7
100
AcDbSpline
210
0.0
220
0.0
230
1.0
 70
     8
 71
     3
 72
    19
 73
    15
 74
     0
 42
0.000000001
 43
0.0000000001
 40
0.2214279168846502
 40
0.2214279168846502
 40
0.2214279168846502
 40
0.2214279168846502
 40
0.2386023475758312
 40
0.2864249187613792
 40
0.3340588994549175
 40
0.3833318369793581
 40
0.4348971457073864
 40
0.4885664997354212
 40
0.5434685131170236
 40
0.5983903429634017
 40
0.6521158180561216
 40
0.70439865560969
 40
0.7563380735438983
 40
0.7790552647544463
 40
0.7790552647544463
 40
0.7790552647544463
 40
0.7790552647544463
 10
1459.374809184318
 20
207.9137813751095
 30
0.0
 10
1459.375162859181
 20
207.9141127200133
 30
0.0
 10
1459.362997150711
 20
207.9032999046346
 30
0.0
 10
1459.235222073918
 20
207.8086088183569
 30
0.0
 10
1458.845171087402
 20
207.6154983621355
 30
0.0
 10
1458.247767806793
 20
207.4167244863798
 30
0.0
 10
1457.47936187559
 20
207.2626331262515
 30
0.0
 10
1456.597736076025
 20
207.190507005352
 30
0.0
 10
1455.68184261289
 20
207.2209902115289
 30
0.0
 10
1454.824766433574
 20
207.3521189579337
 30
0.0
 10
1454.11740197032
 20
207.555233898873
 30
0.0
 10
1453.63299564735
 20
207.7745595294097
 30
0.0
 10
1453.457712107619
 20
207.8973947334447
 30
0.0
 10
1453.439093490165
 20
207.914113909984
 30
0.0
 10
1453.439612835856
 20
207.9136628641228
 30
0.0
  0
LINE
  5
26C
330
226
100
AcDbEntity
  8
H998_ALU_BRACKET
  6
Continuous
 62
     7
100
AcDbLine
 10
1446.9897853194
 20
326.1014344499
 30
0.0
 11
1446.9897853194
 21
326.8538955516
 31
0.0
  0
LINE
  5
26D
330
226
100
AcDbEntity
  8
H998_ALU_BRACKET
  6
Continuous
 62
     7
100
AcDbLine
 10
1368.1473792171
 20
354.8189034484
 30
0.0
 11
1368.1473792171
 21
289.0129601689
 31
0.0
  0
LINE
  5
26E
330
226
100
AcDbEntity
  8
H998_ALU_BRACKET
  6
Continuous
 62
     7
100
AcDbLine
 10
1427.7564808711
 20
339.7545415303
 30
0.0
 11
1415.0556344553
 21
332.4217044332
 31
0.0
  0
LINE
  5
26F
330
226
100
AcDbEntity
  8
H998_ALU_BRACKET
  6
Continuous
 62
     7
100
AcDbLine
 10
1408.9474404916
 20
337.5500007618
 30
0.0
 11
1427.4029274805
 21
348.2052811429
 31
0.0
  0
LINE
  5
270
330
226
100
AcDbEntity
  8
H998_ALU_BRACKET
  6
Continuous
 62
     7
100
AcDbLine
 10
1427.4029274805
 20
348.2052811429
 30
0.0
 11
1427.4029274805
 21
340.366913966
 31
0.0
  0
LINE
  5
271
330
226
100
AcDbEntity
  8
H998_ALU_BRACKET
  6
Continuous
 62
     7
100
AcDbLine
 10
1427.7564808711
 20
339.7545415303
 30
0.0
 11
1427.7564808711
 21
340.1627898208
 31
0.0
  0
LINE
  5
272
330
226
100
AcDbEntity
  8
H998_ALU_BRACKET
  6
Continuous
 62
     7
100
AcDbLine
 10
1427.4029274805
 20
340.366913966
 30
0.0
 11
1439.482662577
 21
333.3926756563
 31
0.0
  0
LINE
  5
273
330
226
100
AcDbEntity
  8
H998_ALU_BRACKET
  6
Continuous
 62
     7
100
AcDbLine
 10
1446.9897853194
 20
326.8538955516
 30
0.0
 11
1446.33813489
 21
326.4776650008
 31
0.0
  0
ELLIPSE
  5
274
330
226
100
AcDbEntity
  8
H998_ALU_BRACKET
  6
Continuous
 62
     7
100
AcDbEllipse
 10
1427.7564808711
 20
332.0794736696
 30
0.0
 11
10.00000000000155
 21
-17.32050807568944
 31
0.0
210
0.0
220
0.0
230
1.0
 40
0.5773502692
 41
1.104718530331629
 42
1.332249114093327
  0
LINE
  5
275
330
226
100
AcDbEntity
  8
H998_ALU_BRACKET
  6
Continuous
 62
     7
100
AcDbLine
 10
1439.8362159676
 20
333.5967998016
 30
0.0
 11
1439.482662577
 21
333.3926756563
 31
0.0
  0
ELLIPSE
  5
276
330
226
100
AcDbEntity
  8
H998_ALU_BRACKET
  6
Continuous
 62
     7
100
AcDbEllipse
 10
1427.4029274805
 20
331.8753495243
 30
0.0
 11
10.00000000000002
 21
-17.32050807568865
 31
0.0
210
0.0
220
0.0
230
1.0
 40
0.5773502692
 41
1.332249114093382
 42
2.35619449019235
  0
LINE
  5
277
330
226
100
AcDbEntity
  8
H998_ALU_BRACKET
  6
Continuous
 62
     7
100
AcDbLine
 10
1432.8476496957
 20
351.3487929795
 30
0.0
 11
1411.6344462601
 21
363.5962416934
 31
0.0
  0
LINE
  5
278
330
226
100
AcDbEntity
  8
H998_ALU_BRACKET
  6
Continuous
 62
     7
100
AcDbLine
 10
1427.4029274805
 20
348.2052811429
 30
0.0
 11
1432.8476496957
 21
351.3487929795
 31
0.0
  0
ELLIPSE
  5
279
330
226
100
AcDbEntity
  8
H998_ALU_BRACKET
  6
Continuous
 62
     7
100
AcDbEllipse
 10
1432.8476496957
 20
335.0188613609
 30
0.0
 11
-9.999999999999995
 21
17.3205080756888
 31
0.0
210
0.0
220
0.0
230
1.0
 40
0.5773502692
 41
3.926990816987242
 42
5.497787143782139
  0
LINE
  5
27A
330
226
100
AcDbEntity
  8
H998_ALU_BRACKET
  6
Continuous
 62
     7
100
AcDbLine
 10
1403.5027182764
 20
334.4064889252
 30
0.0
 11
1368.1473792171
 21
354.8189034484
 31
0.0
  0
ELLIPSE
  5
27B
330
226
100
AcDbEntity
  8
H998_ALU_BRACKET
  6
Continuous
 62
     7
100
AcDbEllipse
 10
1403.5027182764
 20
318.0765573067
 30
0.0
 11
10.0
 21
-17.32050807568878
 31
0.0
210
0.0
220
0.0
230
1.0
 40
0.5773502692
 41
0.9090059029122592
 42
2.356194490192343
  0
LINE
  5
27C
330
226
100
AcDbEntity
  8
H998_ALU_BRACKET
  6
Continuous
 62
     7
100
AcDbLine
 10
1403.5027182764
 20
334.4064889252
 30
0.0
 11
1408.9474404916
 21
337.5500007618
 31
0.0
  0
ELLIPSE
  5
27D
330
226
100
AcDbEntity
  8
H998_ALU_BRACKET
  6
Continuous
 62
     7
100
AcDbEllipse
 10
1408.9474404916
 20
321.2200691432
 30
0.0
 11
-10.00000000000008
 21
17.32050807568869
 31
0.0
210
0.0
220
0.0
230
1.0
 40
0.5773502692
 41
4.473841767683204
 42
5.497787143782128
  0
LINE
  5
27E
330
226
100
AcDbEntity
  8
H998_ALU_BRACKET
  6
Continuous
 62
     7
100
AcDbLine
 10
1421.027175588
 20
322.7373952752
 30
0.0
 11
1420.6736221974
 21
322.53327113
 31
0.0
  0
ELLIPSE
  5
27F
330
226
100
AcDbEntity
  8
H998_ALU_BRACKET
  6
Continuous
 62
     7
100
AcDbEllipse
 10
1408.593887101
 20
321.015944998
 30
0.0
 11
9.999999999998787
 21
-17.3205080756881
 31
0.0
210
0.0
220
0.0
230
1.0
 40
0.5773502692
 41
0.864369830151337
 42
1.332249114093458
  0
LINE
  5
280
330
226
100
AcDbEntity
  8
H998_ALU_BRACKET
  6
Continuous
 62
     7
100
AcDbLine
 10
1387.2392623091
 20
349.5116756724
 30
0.0
 11
1406.6846987918
 21
360.7385036601
 31
0.0
  0
ELLIPSE
  5
281
330
226
100
AcDbEntity
  8
H998_ALU_BRACKET
  6
Continuous
 62
     7
100
AcDbEllipse
 10
1374.5113402478
 20
343.7961996059
 30
0.0
 11
-1.05
 21
1.81865334794731
 31
0.0
210
0.0
220
0.0
230
1.0
 40
0.5773502692
 41
0.0
 42
6.283185307179586
  0
LINE
  5
282
330
226
100
AcDbEntity
  8
H998_BARRE_ALU
  6
Continuous
 62
     7
100
AcDbLine
 10
1210.6746990469
 20
185.9674105126
 30
0.0
 11
1216.1699020839
 21
182.7947535599
 31
0.0
  0
LINE
  5
283
330
226
100
AcDbEntity
  8
H998_BARRE_ALU
  6
Continuous
 62
     7
100
AcDbLine
 10
1236.7832834639
 20
201.9204823465
 30
0.0
 11
1212.9020854076
 21
215.7082984729
 31
0.0
  0
LINE
  5
284
330
226
100
AcDbEntity
  8
H998_BARRE_ALU
  6
Continuous
 62
     7
100
AcDbLine
 10
1208.1732222885
 20
202.1085772491
 30
0.0
 11
1225.7502685377
 21
191.9604648655
 31
0.0
  0
LINE
  5
285
330
226
100
AcDbEntity
  8
H998_BARRE_ALU
  6
Continuous
 62
     7
100
AcDbLine
 10
1223.5924753977
 20
189.9402809921
 30
0.0
 11
1209.317271085
 21
198.1820740447
 31
0.0
  0
LINE
  5
286
330
226
100
AcDbEntity
  8
H998_BARRE_ALU
  6
Continuous
 62
     7
100
AcDbLine
 10
1210.6746990469
 20
185.2910025977
 30
0.0
 11
1215.7370469481
 21
182.3682546742
 31
0.0
  0
LINE
  5
287
330
226
100
AcDbEntity
  8
H998_BARRE_ALU
  6
Continuous
 62
     7
100
AcDbLine
 10
1237.2489933442
 20
202.3280125366
 30
0.0
 11
1213.4878718452
 21
216.0465024303
 31
0.0
  0
LINE
  5
288
330
226
100
AcDbEntity
  8
H998_BARRE_ALU
  6
Continuous
 62
     7
100
AcDbLine
 10
1448.5558916323
 20
324.5208346337
 30
0.0
 11
1424.9634090855
 21
338.141960783
 31
0.0
  0
LINE
  5
289
330
226
100
AcDbEntity
  8
H998_BARRE_ALU
  6
Continuous
 62
     7
100
AcDbLine
 10
1420.2345459664
 20
324.5422395592
 30
0.0
 11
1431.7459892786
 21
317.8961046641
 31
0.0
  0
LINE
  5
28A
330
226
100
AcDbEntity
  8
H998_BARRE_ALU
  6
Continuous
 62
     7
100
AcDbLine
 10
1428.4315589346
 20
316.5437055917
 30
0.0
 11
1421.3785947628
 21
320.6157363549
 31
0.0
  0
LINE
  5
28B
330
226
100
AcDbEntity
  8
H998_BARRE_ALU
  6
Continuous
 62
     7
100
AcDbLine
 10
1449.2607813184
 20
324.7902742986
 30
0.0
 11
1425.5491955231
 21
338.4801647404
 31
0.0
  0
ELLIPSE
  5
28C
330
226
100
AcDbEntity
  8
H998_VIS1
  6
Continuous
 62
     7
100
AcDbEllipse
 10
1199.6438332603
 20
191.3971127757
 30
0.0
 11
-2.750000000000004
 21
4.763139720814405
 31
0.0
210
0.0
220
0.0
230
1.0
 40
0.5773502692
 41
0.876432941434838
 42
3.710724655588476
  0
ELLIPSE
  5
28D
330
226
100
AcDbEntity
  8
H998_VIS1
  6
Continuous
 62
     7
100
AcDbEllipse
 10
1199.6438332603
 20
191.3971127757
 30
0.0
 11
2.749999999999997
 21
-4.763139720814418
 31
0.0
210
0.0
220
0.0
230
1.0
 40
0.5773502692
 41
2.572460651590974
 42
3.835956038949807
  0
LINE
  5
28E
330
226
100
AcDbEntity
  8
H998_VIS1
  6
Continuous
 62
     7
100
AcDbLine
 10
1195.7708499141
 20
194.0414290437
 30
0.0
 11
1203.3903005424
 21
189.6423371724
 31
0.0
  0
LINE
  5
28F
330
226
100
AcDbEntity
  8
H998_VIS1
  6
Continuous
 62
     7
100
AcDbLine
 10
1203.4616205822
 20
188.7846639473
 30
0.0
 11
1195.7708499141
 21
193.2249324628
 31
0.0
  0
LINE
  5
290
330
226
100
AcDbEntity
  8
H998_VIS1
  6
Continuous
 62
     7
100
AcDbLine
 10
1195.7708499141
 20
193.2249324628
 30
0.0
 11
1196.4779566953
 21
193.6331807532
 31
0.0
  0
LINE
  5
291
330
226
100
AcDbEntity
  8
H998_VIS1
  6
Continuous
 62
     7
100
AcDbLine
 10
1197.6685270725
 20
196.6075221775
 30
0.0
 11
1196.8938332603
 21
196.1602524966
 31
0.0
  0
LINE
  5
292
330
226
100
AcDbEntity
  8
H998_VIS1
  6
Continuous
 62
     7
100
AcDbLine
 10
1202.3938332603
 20
186.6339730549
 30
0.0
 11
1203.1685270725
 21
187.0812427359
 31
0.0
  0
ELLIPSE
  5
293
330
226
100
AcDbEntity
  8
H998_VIS1
  6
Continuous
 62
     7
100
AcDbEllipse
 10
1410.5030754102
 20
313.1367529921
 30
0.0
 11
-1.499999999999995
 21
2.598076211353307
 31
0.0
210
0.0
220
0.0
230
1.0
 40
0.5773502692
 41
0.0
 42
6.283185307179586
  0
ELLIPSE
  5
294
330
226
100
AcDbEntity
  8
H998_VIS1
  6
Continuous
 62
     7
100
AcDbEllipse
 10
1411.2101821914
 20
313.5450012825
 30
0.0
 11
2.000000000000012
 21
-3.464101615137754
 31
0.0
210
0.0
220
0.0
230
1.0
 40
0.5773502692
 41
5.497787143782144
 42
6.052847584044941
  0
ELLIPSE
  5
295
330
226
100
AcDbEntity
  8
H998_VIS1
  6
Continuous
 62
     7
100
AcDbEllipse
 10
1411.2101821914
 20
313.5450012825
 30
0.0
 11
2.000000000000012
 21
-3.464101615137754
 31
0.0
210
0.0
220
0.0
230
1.0
 40
0.5773502692
 41
0.0970663469770052
 42
3.926990816987258
  0
LINE
  5
296
330
226
100
AcDbEntity
  8
H998_VIS1
  6
Continuous
 62
     7
100
AcDbLine
 10
1408.3817550666
 20
315.1779944444
 30
0.0
 11
1408.3817550666
 21
314.3614978635
 31
0.0
  0
LINE
  5
297
330
226
100
AcDbEntity
  8
H998_VIS1
  6
Continuous
 62
     7
100
AcDbLine
 10
1410.5030754102
 20
310.6872632493
 30
0.0
 11
1411.2101821914
 21
310.2790149588
 31
0.0
  0
LINE
  5
298
330
226
100
AcDbEntity
  8
H998_CACHE
  6
Continuous
 62
     7
100
AcDbLine
 10
1170.228191163
 20
224.220275329
 30
0.0
 11
1156.0860555393
 21
232.3852411383
 31
0.0
  0
LINE
  5
299
330
226
100
AcDbEntity
  8
H998_CACHE
  6
Continuous
 62
     7
100
AcDbLine
 10
1199.5731225822
 20
241.1625793833
 30
0.0
 11
1194.6233751139
 21
238.30484135
 31
0.0
  0
LINE
  5
29A
330
226
100
AcDbEntity
  8
H998_CACHE
  6
Continuous
 62
     7
100
AcDbLine
 10
1175.1779386313
 20
227.0780133623
 30
0.0
 11
1170.228191163
 21
224.220275329
 31
0.0
  0
LINE
  5
29B
330
226
100
AcDbEntity
  8
H998_CACHE
  6
Continuous
 62
     7
100
AcDbLine
 10
1177.2992589748
 20
228.3027582337
 30
0.0
 11
1192.5020547704
 21
237.0800964787
 31
0.0
  0
LINE
  5
29C
330
226
100
AcDbEntity
  8
H998_CACHE
  6
Continuous
 62
     7
100
AcDbLine
 10
1196.7446954575
 20
242.7955725451
 30
0.0
 11
1185.4309869585
 21
249.3275451926
 31
0.0
  0
LINE
  5
29D
330
226
100
AcDbEntity
  8
H998_CACHE
  6
Continuous
 62
     7
100
AcDbLine
 10
1185.4309869585
 20
249.3275451926
 30
0.0
 11
1158.914482664
 21
234.0182343002
 31
0.0
  0
LINE
  5
29E
330
226
100
AcDbEntity
  8
H998_CACHE
  6
Continuous
 62
     7
100
AcDbLine
 10
1170.228191163
 20
227.4862616528
 30
0.0
 11
1196.7446954575
 21
242.7955725451
 31
0.0
  0
LINE
  5
29F
330
226
100
AcDbEntity
  8
H998_CACHE
  6
Continuous
 62
     7
100
AcDbLine
 10
1158.914482664
 20
234.0182343002
 30
0.0
 11
1170.228191163
 21
227.4862616528
 31
0.0
  0
LINE
  5
2A0
330
226
100
AcDbEntity
  8
H998_CACHE
  6
Continuous
 62
     7
100
AcDbLine
 10
1177.2992589748
 20
228.3027582337
 30
0.0
 11
1175.1779386313
 21
227.0780133623
 31
0.0
  0
LINE
  5
2A1
330
226
100
AcDbEntity
  8
H998_CACHE
  6
Continuous
 62
     7
100
AcDbLine
 10
1194.6233751139
 20
238.30484135
 30
0.0
 11
1192.5020547704
 21
237.0800964787
 31
0.0
  0
ELLIPSE
  5
2A2
330
226
100
AcDbEntity
  8
H998_CACHE
  6
Continuous
 62
     7
100
AcDbEllipse
 10
1196.7446954575
 20
241.1625793833
 30
0.0
 11
2.828427124746191
 21
-6.505213034913028E-16
 31
0.0
210
0.0
220
0.0
230
1.0
 40
0.5773502692
 41
0.0000000000000004
 42
1.570796326794897
  0
LINE
  5
2A3
330
226
100
AcDbEntity
  8
H998_CACHE
  6
Continuous
 62
     7
100
AcDbLine
 10
1185.4309869585
 20
249.3275451926
 30
0.0
 11
1185.4309869585
 21
250.0039531075
 31
0.0
  0
LINE
  5
2A4
330
226
100
AcDbEntity
  8
H998_CACHE
  6
Continuous
 62
     7
100
AcDbLine
 10
1170.228191163
 20
224.220275329
 30
0.0
 11
1170.228191163
 21
227.4862616528
 31
0.0
  0
ELLIPSE
  5
2A5
330
226
100
AcDbEntity
  8
H998_CACHE
  6
Continuous
 62
     7
100
AcDbEllipse
 10
1158.914482664
 20
232.3852411383
 30
0.0
 11
2.82842712474619
 21
4.228388472693467E-15
 31
0.0
210
0.0
220
0.0
230
1.0
 40
0.5773502692
 41
1.570796326794896
 42
3.14159265358979
  0
LINE
  5
2A6
330
226
100
AcDbEntity
  8
H998_CACHE
  6
Continuous
 62
     7
100
AcDbLine
 10
1198.7446954575
 20
242.3172799217
 30
0.0
 11
1185.4309869585
 21
250.0039531075
 31
0.0
  0
LINE
  5
2A7
330
226
100
AcDbEntity
  8
H998_CACHE
  6
Continuous
 62
     7
100
AcDbLine
 10
1185.4309869585
 20
250.0039531075
 30
0.0
 11
1156.914482664
 21
233.5399416767
 31
0.0
  0
LINE
  5
2A8
330
226
100
AcDbEntity
  8
H998_CACHE
  6
Continuous
 62
     7
100
AcDbLine
 10
1382.2895148408
 20
346.6539376392
 30
0.0
 11
1368.1473792171
 21
354.8189034484
 31
0.0
  0
LINE
  5
2A9
330
226
100
AcDbEntity
  8
H998_CACHE
  6
Continuous
 62
     7
100
AcDbLine
 10
1411.6344462601
 20
363.5962416934
 30
0.0
 11
1406.6846987918
 21
360.7385036602
 31
0.0
  0
LINE
  5
2AA
330
226
100
AcDbEntity
  8
H998_CACHE
  6
Continuous
 62
     7
100
AcDbLine
 10
1387.2392623091
 20
349.5116756724
 30
0.0
 11
1382.2895148408
 21
346.6539376392
 31
0.0
  0
LINE
  5
2AB
330
226
100
AcDbEntity
  8
H998_CACHE
  6
Continuous
 62
     7
100
AcDbLine
 10
1389.3605826527
 20
350.7364205438
 30
0.0
 11
1404.5633784482
 21
359.5137587888
 31
0.0
  0
LINE
  5
2AC
330
226
100
AcDbEntity
  8
H998_CACHE
  6
Continuous
 62
     7
100
AcDbLine
 10
1408.8060191353
 20
365.2292348553
 30
0.0
 11
1397.4923106363
 21
371.7612075027
 31
0.0
  0
LINE
  5
2AD
330
226
100
AcDbEntity
  8
H998_CACHE
  6
Continuous
 62
     7
100
AcDbLine
 10
1397.4923106363
 20
371.7612075027
 30
0.0
 11
1370.9758063418
 21
356.4518966103
 31
0.0
  0
LINE
  5
2AE
330
226
100
AcDbEntity
  8
H998_CACHE
  6
Continuous
 62
     7
100
AcDbLine
 10
1382.2895148408
 20
349.9199239629
 30
0.0
 11
1408.8060191353
 21
365.2292348553
 31
0.0
  0
LINE
  5
2AF
330
226
100
AcDbEntity
  8
H998_CACHE
  6
Continuous
 62
     7
100
AcDbLine
 10
1370.9758063418
 20
356.4518966103
 30
0.0
 11
1382.2895148408
 21
349.9199239629
 31
0.0
  0
LINE
  5
2B0
330
226
100
AcDbEntity
  8
H998_CACHE
  6
Continuous
 62
     7
100
AcDbLine
 10
1389.3605826527
 20
350.7364205438
 30
0.0
 11
1387.2392623091
 21
349.5116756724
 31
0.0
  0
LINE
  5
2B1
330
226
100
AcDbEntity
  8
H998_CACHE
  6
Continuous
 62
     7
100
AcDbLine
 10
1406.6846987918
 20
360.7385036602
 30
0.0
 11
1404.5633784482
 21
359.5137587888
 31
0.0
  0
ELLIPSE
  5
2B2
330
226
100
AcDbEntity
  8
H998_CACHE
  6
Continuous
 62
     7
100
AcDbEllipse
 10
1408.8060191353
 20
363.5962416934
 30
0.0
 11
2.828427124746183
 21
-1.702197410802242E-14
 31
0.0
210
0.0
220
0.0
230
1.0
 40
0.5773502692
 41
0.0000000000000104
 42
1.5707963267949
  0
LINE
  5
2B3
330
226
100
AcDbEntity
  8
H998_CACHE
  6
Continuous
 62
     7
100
AcDbLine
 10
1397.4923106363
 20
372.4376154176
 30
0.0
 11
1397.4923106363
 21
371.7612075027
 31
0.0
  0
LINE
  5
2B4
330
226
100
AcDbEntity
  8
H998_CACHE
  6
Continuous
 62
     7
100
AcDbLine
 10
1382.2895148408
 20
346.6539376392
 30
0.0
 11
1382.2895148408
 21
349.9199239629
 31
0.0
  0
ELLIPSE
  5
2B5
330
226
100
AcDbEntity
  8
H998_CACHE
  6
Continuous
 62
     7
100
AcDbEllipse
 10
1370.9758063418
 20
354.8189034484
 30
0.0
 11
2.828427124746183
 21
5.637851296924623E-15
 31
0.0
210
0.0
220
0.0
230
1.0
 40
0.5773502692
 41
1.570796326794895
 42
3.14159265358979
  0
LINE
  5
2B6
330
226
100
AcDbEntity
  8
H998_CACHE
  6
Continuous
 62
     7
100
AcDbLine
 10
1410.8060191353
 20
364.7509422318
 30
0.0
 11
1397.4923106363
 21
372.4376154176
 31
0.0
  0
LINE
  5
2B7
330
226
100
AcDbEntity
  8
H998_CACHE
  6
Continuous
 62
     7
100
AcDbLine
 10
1397.4923106363
 20
372.4376154176
 30
0.0
 11
1368.9758063418
 21
355.9736039868
 31
0.0
  0
ENDBLK
  5
2B9
330
226
100
AcDbEntity
  8
0
100
AcDbBlockEnd
  0
BLOCK
  5
2BC
330
2BB
100
AcDbEntity
  8
0
100
AcDbBlockBegin
  2
_Oblique
 70
     0
 10
0.0
 20
0.0
 30
0.0
  3
_Oblique
  1

  0
LINE
  5
2BE
330
2BB
100
AcDbEntity
  8
0
  6
ByBlock
 62
     0
370
    -2
100
AcDbLine
 10
-0.5
 20
-0.5
 30
0.0
 11
0.5
 21
0.5
 31
0.0
  0
ENDBLK
  5
2BD
330
2BB
100
AcDbEntity
  8
0
100
AcDbBlockEnd
  0
BLOCK
  5
2C0
330
2BF
100
AcDbEntity
  8
0
100
AcDbBlockBegin
  2
_Dot
 70
     0
 10
0.0
 20
0.0
 30
0.0
  3
_Dot
  1

  0
LWPOLYLINE
  5
2C2
330
2BF
100
AcDbEntity
  8
0
  6
ByBlock
 62
     0
100
AcDbPolyline
 90
        2
 70
     1
 43
0.5
 10
-0.25
 20
0.0
 42
1.0
 10
0.25
 20
0.0
 42
1.0
  0
LINE
  5
2C3
330
2BF
100
AcDbEntity
  8
0
  6
ByBlock
 62
     0
370
    -2
100
AcDbLine
 10
-0.5
 20
0.0
 30
0.0
 11
-1.0
 21
0.0
 31
0.0
  0
ENDBLK
  5
2C1
330
2BF
100
AcDbEntity
  8
0
100
AcDbBlockEnd
  0
BLOCK
  5
2C7
330
2C4
100
AcDbEntity
  8
0
100
AcDbBlockBegin
  2
_SE_FILLED
 70
     0
 10
0.0
 20
0.0
 30
0.0
  3
_SE_FILLED
  1

  0
SOLID
  5
2C5
330
2C4
100
AcDbEntity
  8
0
 62
     0
100
AcDbTrace
 10
0.0
 20
0.0
 30
0.0
 11
-1.0
 21
-0.1665
 31
0.0
 12
-1.0
 22
0.1665
 32
0.0
 13
0.0
 23
0.0
 33
0.0
  0
LINE
  5
2C6
330
2C4
100
AcDbEntity
  8
0
 62
     0
100
AcDbLine
 10
0.0
 20
0.0
 30
0.0
 11
-1.0
 21
0.0
 31
0.0
  0
ENDBLK
  5
2C8
330
2C4
100
AcDbEntity
  8
0
100
AcDbBlockEnd
  0
BLOCK
  5
2D5
330
2CD
100
AcDbEntity
  8
0
100
AcDbBlockBegin
  2
DMBLK6
 70
     0
 10
0.0
 20
0.0
 30
0.0
  3
DMBLK6
  1

  0
HATCH
  5
2CE
330
2CD
100
AcDbEntity
  8
Cartouche
  6
Continuous
 62
     7
100
AcDbHatch
 10
0.0
 20
0.0
 30
0.0
210
0.0
220
0.0
230
1.0
  2
SOLID
 70
     1
 71
     0
 91
        1
 92
        1
 93
        3
 72
     1
 10
483.4202856197769
 20
457.8212537825227
 11
488.9202855899746
 21
424.8212539613367
 72
     1
 10
488.9202855899746
 20
424.8212539613367
 11
494.4202855601723
 21
457.8212537825227
 72
     1
 10
494.4202855601723
 20
457.8212537825227
 11
483.4202856197769
 21
457.8212537825227
 97
        0
 75
     0
 76
     1
 98
        0
  0
HATCH
  5
2CF
330
2CD
100
AcDbEntity
  8
Cartouche
  6
Continuous
 62
     7
100
AcDbHatch
 10
0.0
 20
0.0
 30
0.0
210
0.0
220
0.0
230
1.0
  2
SOLID
 70
     1
 71
     0
 91
        1
 92
        1
 93
        3
 72
     1
 10
483.4202856197769
 20
820.8394188789509
 11
494.4202855601723
 21
820.8394188789509
 72
     1
 10
494.4202855601723
 20
820.8394188789509
 11
488.9202855899746
 21
853.839418700137
 72
     1
 10
488.9202855899746
 20
853.839418700137
 11
483.4202856197769
 21
820.8394188789509
 97
        0
 75
     0
 76
     1
 98
        0
  0
LINE
  5
2D0
330
2CD
100
AcDbEntity
  8
Cartouche
  6
Continuous
 62
     7
100
AcDbLine
 10
803.9404891804
 20
424.8212539613
 30
0.0
 11
477.9202856496
 21
424.8212539613
 31
0.0
  0
LINE
  5
2D1
330
2CD
100
AcDbEntity
  8
Cartouche
  6
Continuous
 62
     7
100
AcDbLine
 10
633.2404890761
 20
853.8394187001
 30
0.0
 11
477.9202856496
 21
853.8394187001
 31
0.0
  0
LINE
  5
2D2
330
2CD
100
AcDbEntity
  8
Cartouche
  6
Continuous
 62
     7
100
AcDbLine
 10
488.92028559
 20
424.8212539613
 30
0.0
 11
488.92028559
 21
620.6303351581
 31
0.0
  0
LINE
  5
2D3
330
2CD
100
AcDbEntity
  8
Cartouche
  6
Continuous
 62
     7
100
AcDbLine
 10
488.92028559
 20
658.0303375034
 30
0.0
 11
488.92028559
 21
853.8394187001
 31
0.0
  0
TEXT
  5
2D4
330
2CD
100
AcDbEntity
  8
Cartouche
  6
Continuous
 62
     7
100
AcDbText
 10
463.9869522566
 20
628.3303387821
 30
0.0
 40
22.0
  1
430
  7
SEACAD_ArialB
 11
463.9869522566
 21
650.3303387821
 31
0.0
100
AcDbText
 73
     3
  0
ENDBLK
  5
2D6
330
2CD
100
AcDbEntity
  8
0
100
AcDbBlockEnd
  0
BLOCK
  5
2E0
330
2D8
100
AcDbEntity
  8
0
100
AcDbBlockBegin
  2
DMBLK7
 70
     0
 10
0.0
 20
0.0
 30
0.0
  3
DMBLK7
  1

  0
HATCH
  5
2D9
330
2D8
100
AcDbEntity
  8
Cartouche
  6
Continuous
 62
     7
100
AcDbHatch
 10
0.0
 20
0.0
 30
0.0
210
0.0
220
0.0
230
1.0
  2
SOLID
 70
     1
 71
     0
 91
        1
 92
        1
 93
        3
 72
     1
 10
626.9904890015545
 20
359.31626791918
 11
626.9904890015545
 21
370.3162678595754
 72
     1
 10
626.9904890015545
 20
370.3162678595754
 11
593.9904891803684
 21
364.8162678893777
 72
     1
 10
593.9904891803684
 20
364.8162678893777
 11
626.9904890015545
 21
359.31626791918
 97
        0
 75
     0
 76
     1
 98
        0
  0
HATCH
  5
2DA
330
2D8
100
AcDbEntity
  8
Cartouche
  6
Continuous
 62
     7
100
AcDbHatch
 10
0.0
 20
0.0
 30
0.0
210
0.0
220
0.0
230
1.0
  2
SOLID
 70
     1
 71
     0
 91
        1
 92
        1
 93
        3
 72
     1
 10
980.8904893591821
 20
359.31626791918
 11
1013.890489180368
 21
364.8162678893777
 72
     1
 10
1013.890489180368
 20
364.8162678893777
 11
980.8904893591821
 21
370.3162678595754
 72
     1
 10
980.8904893591821
 20
370.3162678595754
 11
980.8904893591821
 21
359.31626791918
 97
        0
 75
     0
 76
     1
 98
        0
  0
LINE
  5
2DB
330
2D8
100
AcDbEntity
  8
Cartouche
  6
Continuous
 62
     7
100
AcDbLine
 10
593.9904891804
 20
469.9798719105
 30
0.0
 11
593.9904891804
 21
353.816267949
 31
0.0
  0
LINE
  5
2DC
330
2D8
100
AcDbEntity
  8
Cartouche
  6
Continuous
 62
     7
100
AcDbLine
 10
1013.8904891804
 20
469.9798719105
 30
0.0
 11
1013.8904891804
 21
353.816267949
 31
0.0
  0
LINE
  5
2DD
330
2D8
100
AcDbEntity
  8
Cartouche
  6
Continuous
 62
     7
100
AcDbLine
 10
593.9904891804
 20
364.8162678894
 30
0.0
 11
771.3071548298
 21
364.8162678894
 31
0.0
  0
LINE
  5
2DE
330
2D8
100
AcDbEntity
  8
Cartouche
  6
Continuous
 62
     7
100
AcDbLine
 10
836.573823531
 20
364.8162678894
 30
0.0
 11
1013.8904891804
 21
364.8162678894
 31
0.0
  0
TEXT
  5
2DF
330
2D8
100
AcDbEntity
  8
Cartouche
  6
Continuous
 62
     7
100
AcDbText
 10
779.0071558947
 20
353.8162678894
 30
0.0
 40
22.0
  1
420
  7
SEACAD_ArialB
 11
779.0071558947
 21
375.8162678894
 31
0.0
100
AcDbText
 73
     3
  0
ENDBLK
  5
2E1
330
2D8
100
AcDbEntity
  8
0
100
AcDbBlockEnd
  0
BLOCK
  5
2EB
330
2E3
100
AcDbEntity
  8
0
100
AcDbBlockBegin
  2
DMBLK8
 70
     0
 10
0.0
 20
0.0
 30
0.0
  3
DMBLK8
  1

  0
HATCH
  5
2E4
330
2E3
100
AcDbEntity
  8
Cartouche
  6
Continuous
 62
     7
100
AcDbHatch
 10
0.0
 20
0.0
 30
0.0
210
0.0
220
0.0
230
1.0
  2
SOLID
 70
     1
 71
     0
 91
        1
 92
        1
 93
        3
 72
     1
 10
539.8725897446091
 20
457.8212537825227
 11
545.3725897148067
 21
424.8212539613367
 72
     1
 10
545.3725897148067
 20
424.8212539613367
 11
550.8725896850044
 21
457.8212537825227
 72
     1
 10
550.8725896850044
 20
457.8212537825227
 11
539.8725897446091
 21
457.8212537825227
 97
        0
 75
     0
 76
     1
 98
        0
  0
HATCH
  5
2E5
330
2E3
100
AcDbEntity
  8
Cartouche
  6
Continuous
 62
     7
100
AcDbHatch
 10
0.0
 20
0.0
 30
0.0
210
0.0
220
0.0
230
1.0
  2
SOLID
 70
     1
 71
     0
 91
        1
 92
        1
 93
        3
 72
     1
 10
539.8725897446091
 20
741.8212541401508
 11
550.8725896850044
 21
741.8212541401508
 72
     1
 10
550.8725896850044
 20
741.8212541401508
 11
545.3725897148067
 21
774.8212539613369
 72
     1
 10
545.3725897148067
 20
774.8212539613369
 11
539.8725897446091
 21
741.8212541401508
 97
        0
 75
     0
 76
     1
 98
        0
  0
LINE
  5
2E6
330
2E3
100
AcDbEntity
  8
Cartouche
  6
Continuous
 62
     7
100
AcDbLine
 10
803.9404891804
 20
424.8212539613
 30
0.0
 11
534.3725897744
 21
424.8212539613
 31
0.0
  0
LINE
  5
2E7
330
2E3
100
AcDbEntity
  8
Cartouche
  6
Continuous
 62
     7
100
AcDbLine
 10
803.9404891804
 20
774.8212539613
 30
0.0
 11
534.3725897744
 21
774.8212539613
 31
0.0
  0
LINE
  5
2E8
330
2E3
100
AcDbEntity
  8
Cartouche
  6
Continuous
 62
     7
100
AcDbLine
 10
545.3725897148
 20
424.8212539613
 30
0.0
 11
545.3725897148
 21
581.1212473571
 31
0.0
  0
LINE
  5
2E9
330
2E3
100
AcDbEntity
  8
Cartouche
  6
Continuous
 62
     7
100
AcDbLine
 10
545.3725897148
 20
618.5212456644
 30
0.0
 11
545.3725897148
 21
774.8212539613
 31
0.0
  0
TEXT
  5
2EA
330
2E3
100
AcDbEntity
  8
Cartouche
  6
Continuous
 62
     7
100
AcDbText
 10
520.4392563815
 20
588.8212509811
 30
0.0
 40
22.0
  1
350
  7
SEACAD_ArialB
 11
520.4392563815
 21
610.8212509811
 31
0.0
100
AcDbText
 73
     3
  0
ENDBLK
  5
2EC
330
2E3
100
AcDbEntity
  8
0
100
AcDbBlockEnd
  0
BLOCK
  5
2F6
330
2EE
100
AcDbEntity
  8
0
100
AcDbBlockBegin
  2
DMBLK9
 70
     0
 10
0.0
 20
0.0
 30
0.0
  3
DMBLK9
  1

  0
HATCH
  5
2EF
330
2EE
100
AcDbEntity
  8
Cartouche
  6
Continuous
 62
     7
100
AcDbHatch
 10
0.0
 20
0.0
 30
0.0
210
0.0
220
0.0
230
1.0
  2
SOLID
 70
     1
 71
     0
 91
        1
 92
        1
 93
        3
 72
     1
 10
563.8995392753094
 20
1013.372238685789
 11
558.3995393051117
 21
1046.372238506975
 72
     1
 10
558.3995393051117
 20
1046.372238506975
 11
552.899539334914
 21
1013.372238685789
 72
     1
 10
552.899539334914
 20
1013.372238685789
 11
563.8995392753094
 21
1013.372238685789
 97
        0
 75
     0
 76
     1
 98
        0
  0
HATCH
  5
2F0
330
2EE
100
AcDbEntity
  8
Cartouche
  6
Continuous
 62
     7
100
AcDbHatch
 10
0.0
 20
0.0
 30
0.0
210
0.0
220
0.0
230
1.0
  2
SOLID
 70
     1
 71
     0
 91
        1
 92
        1
 93
        3
 72
     1
 10
563.8995392753094
 20
987.8722383281253
 11
552.899539334914
 21
987.8722383281253
 72
     1
 10
552.899539334914
 20
987.8722383281253
 11
558.3995393051117
 21
954.8722385069392
 72
     1
 10
558.3995393051117
 20
954.8722385069392
 11
563.8995392753094
 21
987.8722383281253
 97
        0
 75
     0
 76
     1
 98
        0
  0
LINE
  5
2F1
330
2EE
100
AcDbEntity
  8
Cartouche
  6
Continuous
 62
     7
100
AcDbLine
 10
522.7131413801
 20
1046.372238507
 30
0.0
 11
569.3995392455
 21
1046.372238507
 31
0.0
  0
LINE
  5
2F2
330
2EE
100
AcDbEntity
  8
Cartouche
  6
Continuous
 62
     7
100
AcDbLine
 10
519.7131406201
 20
954.8722385069
 30
0.0
 11
569.3995392455
 21
954.8722385069
 31
0.0
  0
LINE
  5
2F3
330
2EE
100
AcDbEntity
  8
Cartouche
  6
Continuous
 62
     7
100
AcDbLine
 10
558.3995393051
 20
1046.372238507
 30
0.0
 11
558.3995393051
 21
1019.3222388229
 31
0.0
  0
LINE
  5
2F4
330
2EE
100
AcDbEntity
  8
Cartouche
  6
Continuous
 62
     7
100
AcDbLine
 10
558.3995393051
 20
981.922238191
 30
0.0
 11
558.3995393051
 21
954.8722385069
 31
0.0
  0
TEXT
  5
2F5
330
2EE
100
AcDbEntity
  8
Cartouche
  6
Continuous
 62
     7
100
AcDbText
 10
541.7773170829
 20
989.6222389242
 30
0.0
 40
22.0
  1
92
  7
SEACAD_ArialB
 11
541.7773170829
 21
1011.6222389242
 31
0.0
100
AcDbText
 73
     3
  0
ENDBLK
  5
2F7
330
2EE
100
AcDbEntity
  8
0
100
AcDbBlockEnd
  0
BLOCK
  5
301
330
2F9
100
AcDbEntity
  8
0
100
AcDbBlockBegin
  2
DMBLK10
 70
     0
 10
0.0
 20
0.0
 30
0.0
  3
DMBLK10
  1

  0
HATCH
  5
2FA
330
2F9
100
AcDbEntity
  8
Cartouche
  6
Continuous
 62
     7
100
AcDbHatch
 10
0.0
 20
0.0
 30
0.0
210
0.0
220
0.0
230
1.0
  2
SOLID
 70
     1
 71
     0
 91
        1
 92
        1
 93
        3
 72
     1
 10
686.9904890015542
 20
1099.298163970413
 11
653.9904891803682
 21
1093.798164000215
 72
     1
 10
653.9904891803682
 20
1093.798164000215
 11
686.9904890015542
 21
1088.298164030018
 72
     1
 10
686.9904890015542
 20
1088.298164030018
 11
686.9904890015542
 21
1099.298163970413
 97
        0
 75
     0
 76
     1
 98
        0
  0
HATCH
  5
2FB
330
2F9
100
AcDbEntity
  8
Cartouche
  6
Continuous
 62
     7
100
AcDbHatch
 10
0.0
 20
0.0
 30
0.0
210
0.0
220
0.0
230
1.0
  2
SOLID
 70
     1
 71
     0
 91
        1
 92
        1
 93
        3
 72
     1
 10
920.8904893591912
 20
1099.298163970413
 11
920.8904893591912
 21
1088.298164030018
 72
     1
 10
920.8904893591912
 20
1088.298164030018
 11
953.8904891803772
 21
1093.798164000215
 72
     1
 10
953.8904891803772
 20
1093.798164000215
 11
920.8904893591912
 21
1099.298163970413
 97
        0
 75
     0
 76
     1
 98
        0
  0
LINE
  5
2FC
330
2F9
100
AcDbEntity
  8
Cartouche
  6
Continuous
 62
     7
100
AcDbLine
 10
653.9904891804
 20
1002.372238507
 30
0.0
 11
653.9904891804
 21
1104.7981639406
 31
0.0
  0
LINE
  5
2FD
330
2F9
100
AcDbEntity
  8
Cartouche
  6
Continuous
 62
     7
100
AcDbLine
 10
953.8904891804
 20
1007.8722385069
 30
0.0
 11
953.8904891804
 21
1104.7981639406
 31
0.0
  0
LINE
  5
2FE
330
2F9
100
AcDbEntity
  8
Cartouche
  6
Continuous
 62
     7
100
AcDbLine
 10
653.9904891804
 20
1093.7981640002
 30
0.0
 11
771.3071524456
 21
1093.7981640002
 31
0.0
  0
LINE
  5
2FF
330
2F9
100
AcDbEntity
  8
Cartouche
  6
Continuous
 62
     7
100
AcDbLine
 10
836.5738184646
 20
1093.7981640002
 30
0.0
 11
953.8904891804
 21
1093.7981640002
 31
0.0
  0
TEXT
  5
300
330
2F9
100
AcDbEntity
  8
Cartouche
  6
Continuous
 62
     7
100
AcDbText
 10
779.0071535105
 20
1082.7981640002
 30
0.0
 40
22.0
  1
300
  7
SEACAD_ArialB
 11
779.0071535105
 21
1104.7981640002
 31
0.0
100
AcDbText
 73
     3
  0
ENDBLK
  5
302
330
2F9
100
AcDbEntity
  8
0
100
AcDbBlockEnd
  0
BLOCK
  5
306
330
304
100
AcDbEntity
  8
0
100
AcDbBlockBegin
  2
SEANNOT_GROUP
 70
     0
 10
0.0
 20
0.0
 30
0.0
  3
SEANNOT_GROUP
  1

  0
ENDBLK
  5
307
330
304
100
AcDbEntity
  8
0
100
AcDbBlockEnd
  0
ENDSEC
  0
SECTION
  2
ENTITIES
  0
LINE
  5
6F
330
1F
100
AcDbEntity
  8
encadrement
  6
Continuous
 62
     7
100
AcDbLine
 10
10.0
 20
80.035459542
 30
0.0
 11
200.0
 21
80.035459542
 31
0.0
  0
LINE
  5
70
330
1F
100
AcDbEntity
  8
encadrement
  6
Continuous
 62
     7
100
AcDbLine
 10
10.0
 20
65.035459542
 30
0.0
 11
200.0
 21
65.035459542
 31
0.0
  0
LINE
  5
71
330
1F
100
AcDbEntity
  8
encadrement
  6
Continuous
 62
     7
100
AcDbLine
 10
10.0
 20
55.035459542
 30
0.0
 11
200.0
 21
55.035459542
 31
0.0
  0
LINE
  5
72
330
1F
100
AcDbEntity
  8
encadrement
  6
Continuous
 62
     7
100
AcDbLine
 10
10.0
 20
45.035459542
 30
0.0
 11
200.0
 21
45.035459542
 31
0.0
  0
LINE
  5
73
330
1F
100
AcDbEntity
  8
encadrement
  6
Continuous
 62
     7
100
AcDbLine
 10
10.0
 20
35.035459542
 30
0.0
 11
200.0
 21
35.035459542
 31
0.0
  0
INSERT
  5
76
330
1F
100
AcDbEntity
  8
Cartouche
100
AcDbBlockReference
  2
SE
 10
0.0
 20
0.0
 30
0.0
  0
INSERT
  5
FF
330
1F
100
AcDbEntity
  8
Cartouche
100
AcDbBlockReference
  2
SE1
 10
0.0
 20
0.0
 30
0.0
  0
INSERT
  5
199
330
1F
100
AcDbEntity
  8
Cartouche
100
AcDbBlockReference
  2
SE2
 10
0.0
 20
0.0
 30
0.0
  0
INSERT
  5
1DE
330
1F
100
AcDbEntity
  8
Cartouche
100
AcDbBlockReference
  2
SE3
 10
0.0
 20
0.0
 30
0.0
  0
INSERT
  5
227
330
1F
100
AcDbEntity
  8
Cartouche
100
AcDbBlockReference
  2
SE4
 10
0.0
 20
0.0
 30
0.0
  0
DIMENSION
  5
2CB
330
1F
100
AcDbEntity
  8
Cartouche
  6
Continuous
 62
     7
100
AcDbDimension
  2
DMBLK6
 10
488.92028559
 20
853.8394187001
 30
0.0
 11
488.92028559
 21
639.3303387821
 31
0.0
 70
   160
  1
\A1;<>
 71
     5
 42
-1.0
 73
     0
 74
     0
 75
     0
  3
cadre_1200x1200
100
AcDbAlignedDimension
 13
803.9404891804
 23
424.8212539613
 33
0.0
 14
645.2404891804
 24
853.8394187001
 34
0.0
 50
90.0
100
AcDbRotatedDimension
  0
DIMENSION
  5
2D7
330
1F
100
AcDbEntity
  8
Cartouche
  6
Continuous
 62
     7
100
AcDbDimension
  2
DMBLK7
 10
593.9904891804
 20
364.8162678894
 30
0.0
 11
803.9404892281
 21
364.8162678894
 31
0.0
 70
   161
  1
\A1;<>
 71
     5
 42
-1.0
 73
     0
 74
     0
 75
     0
  3
cadre_1200x1200
100
AcDbAlignedDimension
 13
593.9904891804
 23
729.6626464542
 33
0.0
 14
1013.8904891804
 24
729.6626464542
 34
0.0
1001
ACAD
1000
DSTYLE
1002
{
1070
    45
1041
0.0
1070
   272
1070
     3
1070
     0
1002
}
  0
DIMENSION
  5
2E2
330
1F
100
AcDbEntity
  8
Cartouche
  6
Continuous
 62
     7
100
AcDbDimension
  2
DMBLK8
 10
545.3725897148
 20
424.8212539613
 30
0.0
 11
545.3725897148
 21
599.8212509811
 31
0.0
 70
   161
  1
\A1;<>
 71
     5
 42
-1.0
 73
     0
 74
     0
 75
     0
  3
cadre_1200x1200
100
AcDbAlignedDimension
 13
803.9404891804
 23
424.8212539613
 33
0.0
 14
803.9404891804
 24
774.8212539613
 34
0.0
1001
ACAD
1000
DSTYLE
1002
{
1070
    45
1041
0.0
1070
   272
1070
     3
1070
     0
1002
}
  0
DIMENSION
  5
2ED
330
1F
100
AcDbEntity
  8
Cartouche
  6
Continuous
 62
     7
100
AcDbDimension
  2
DMBLK9
 10
558.3995393051
 20
954.8722385069
 30
0.0
 11
558.3995393051
 21
1000.6222389242
 31
0.0
 70
   160
  1
\A1;<>
 71
     5
 42
-1.0
 73
     0
 74
     0
 75
     0
  3
cadre_1200x1200
100
AcDbAlignedDimension
 13
506.7131406201
 23
1046.372238507
 33
0.0
 14
519.7131406201
 24
954.8722385069
 34
0.0
 50
90.0
100
AcDbRotatedDimension
1001
ACAD
1000
DSTYLE
1002
{
1070
    45
1041
0.0
1070
   272
1070
     3
1070
     0
1002
}
  0
DIMENSION
  5
2F8
330
1F
100
AcDbEntity
  8
Cartouche
  6
Continuous
 62
     7
100
AcDbDimension
  2
DMBLK10
 10
953.8904891804
 20
1093.7981640002
 30
0.0
 11
803.9404868439
 21
1093.7981640002
 31
0.0
 70
   160
  1
\A1;<>
 71
     5
 42
-1.0
 73
     0
 74
     0
 75
     0
  3
cadre_1200x1200
100
AcDbAlignedDimension
 13
653.9904891804
 23
1002.372238507
 33
0.0
 14
953.8904891804
 24
1007.8722385069
 34
0.0
100
AcDbRotatedDimension
1001
ACAD
1000
DSTYLE
1002
{
1070
    45
1041
0.0
1070
   272
1070
     3
1070
     0
1002
}
  0
INSERT
  5
305
330
1F
100
AcDbEntity
  8
Default
100
AcDbBlockReference
  2
SEANNOT_GROUP
 10
0.0
 20
0.0
 30
0.0
  0
MULTILEADER
  5
308
330
1F
100
AcDbEntity
  8
Default
  6
Continuous
 62
     7
 92
      440
310
B8010000030000000C00000013000000993A0000DC000000260000001E447B1337F9E63F043F652473224AC0000000000000000000000000000000000000000000000000000000000000F03F000000000000F03F000000000000000000000000000000005300490045004700450020004D005500520041004C002000520045
310
004C0045005600410042004C004500000015000000010000000000000000003640000000000000F03F0000000000000000000000000000F03F00000000000000000000000000000000000000000100000000000000000000002200000041007200690061006C0000000000000000000000C8000000260000006067B19FDD44
310
DBBFFA3BD5B5F26D55C0000000000000000000000000000000000000000000000000000000000000F03F000000000000F03F000000000000000000000000000000005200E90066002E00200036003000380031003500000000000A000000010000000000000000003640000000000000F03F00000000000000000000000000
310
00F03F00000000000000000000000000000000000000000100000000000000000000002200000041007200690061006C0000000000000000000000
100
AcDbMLeader
300
CONTEXT_DATA{
 40
1.0
 10
-0.1820782299
 20
-41.1261388602
 30
0.0
 41
22.0
140
33.0
145
7.7
174
     1
175
     1
176
     0
177
     0
290
     1
304
{\pxsm0.9;\fArial|b1||i0||c0|p34;\W1.;SIEGE MURAL RELEVABLE\PRéf. 60815\P}
 11
0.0
 21
0.0
 31
1.0
340
11
 12
1.8179217701
 22
-29.9171388602
 32
0.0
 13
1.0
 23
0.0
 33
0.0
 42
0.0
 43
0.0
 44
0.0
 45
1.0
170
     1
 90
-1073741824
171
     1
172
     1
 91
-939524096
141
1.5
 92
        0
291
     0
292
     0
173
     0
293
     0
142
0.0
143
0.0
294
     0
295
     0
296
     0
110
0.0
120
0.0
130
0.0
111
1.0
121
0.0
131
0.0
112
0.0
122
1.0
132
0.0
297
     0
301
}
340
6C
 90
 35052449
170
     0
 91
-1056964608
341
14
171
    -2
290
     1
291
     1
 41
0.0
342
2BF
 42
4.0
172
     2
343
11
173
     1
 95
        1
174
     1
175
     0
 92
-1073741824
292
     0
 93
-1023410169
 10
1.0
 20
1.0
 30
1.0
 43
0.0
176
     0
293
     0
294
     0
178
     0
179
     1
 45
1.0
1001
ACAD_MLEADERVER
1070
     2
  0
ENDSEC
  0
SECTION
  2
OBJECTS
  0
DICTIONARY
  5
C
330
0
100
AcDbDictionary
281
     1
  3
ACAD_DETAILVIEWSTYLE
350
344
  3
ACAD_GROUP
350
D
  3
ACAD_LAYOUT
350
1A
  3
ACAD_MATERIAL
350
43
  3
ACAD_MLEADERSTYLE
350
6B
  3
ACAD_MLINESTYLE
350
17
  3
ACAD_PLOTSETTINGS
350
19
  3
ACAD_PLOTSTYLENAME
350
E
  3
ACAD_SCALELIST
350
47
  3
ACAD_SECTIONVIEWSTYLE
350
345
  3
ACAD_TABLESTYLE
350
69
  3
ACAD_VISUALSTYLE
350
2A
  3
ACDB_RECOMPOSE_DATA
350
341
  3
AcDbVariableDictionary
350
30A
  0
SUN
  5
6D
330
29
100
AcDbSun
 90
        1
290
     0
 63
     7
421
 16777215
 40
1.0
291
     1
 91
  2455826
 92
 54000000
292
     0
 70
     2
 71
   256
280
     1
  0
DICTIONARY
  5
344
102
{ACAD_REACTORS
330
C
102
}
330
C
100
AcDbDictionary
281
     1
  0
DICTIONARY
  5
D
102
{ACAD_REACTORS
330
C
102
}
330
C
100
AcDbDictionary
281
     1
  0
DICTIONARY
  5
1A
102
{ACAD_REACTORS
330
C
102
}
330
C
100
AcDbDictionary
281
     1
  3
Layout1
350
1E
  3
Model
350
22
  0
DICTIONARY
  5
43
102
{ACAD_REACTORS
330
C
102
}
330
C
100
AcDbDictionary
281
     1
  3
ByBlock
350
45
  3
ByLayer
350
44
  3
Global
350
46
  0
DICTIONARY
  5
6B
102
{ACAD_REACTORS
330
C
102
}
330
C
100
AcDbDictionary
281
     1
  3
Standard
350
6C
  0
DICTIONARY
  5
17
102
{ACAD_REACTORS
330
C
102
}
330
C
100
AcDbDictionary
281
     1
  3
Standard
350
18
  0
DICTIONARY
  5
19
102
{ACAD_REACTORS
330
C
102
}
330
C
100
AcDbDictionary
281
     1
  0
ACDBDICTIONARYWDFLT
  5
E
102
{ACAD_REACTORS
330
C
102
}
330
C
100
AcDbDictionary
281
     1
  3
Normal
350
F
100
AcDbDictionaryWithDefault
340
F
  0
DICTIONARY
  5
47
102
{ACAD_REACTORS
330
C
102
}
330
C
100
AcDbDictionary
281
     1
  3
A0
350
48
  3
A1
350
49
  3
A2
350
4A
  3
A3
350
4B
  3
A4
350
4C
  3
A5
350
4D
  3
A6
350
4E
  3
A7
350
4F
  3
A8
350
50
  3
A9
350
51
  3
B0
350
52
  3
B1
350
53
  3
B2
350
54
  3
B3
350
55
  3
B4
350
56
  3
B5
350
57
  3
B6
350
58
  3
B7
350
59
  3
B8
350
5A
  3
B9
350
5B
  3
C0
350
5C
  3
C1
350
5D
  3
C2
350
5E
  3
C3
350
5F
  3
C4
350
60
  3
C5
350
61
  3
C6
350
62
  3
C7
350
63
  3
C8
350
64
  3
C9
350
65
  3
D0
350
66
  3
D1
350
67
  3
D2
350
68
  0
DICTIONARY
  5
345
102
{ACAD_REACTORS
330
C
102
}
330
C
100
AcDbDictionary
281
     1
  0
DICTIONARY
  5
69
102
{ACAD_REACTORS
330
C
102
}
330
C
100
AcDbDictionary
281
     1
  3
Standard
350
6A
  0
DICTIONARY
  5
2A
102
{ACAD_REACTORS
330
C
102
}
330
C
100
AcDbDictionary
281
     1
  3
2dWireframe
350
2F
  3
Basic
350
32
  3
Brighten
350
36
  3
ColorChange
350
3A
  3
Conceptual
350
34
  3
Dim
350
35
  3
EdgeColorOff
350
3D
  3
Facepattern
350
39
  3
Flat
350
2B
  3
FlatWithEdges
350
2C
  3
Gouraud
350
2D
  3
GouraudWithEdges
350
2E
  3
Hidden
350
31
  3
JitterOff
350
3B
  3
Linepattern
350
38
  3
OverhangOff
350
3C
  3
Realistic
350
33
  3
Shaded
350
42
  3
Shaded with edges
350
41
  3
Shades of Gray
350
3E
  3
Sketchy
350
3F
  3
Thicken
350
37
  3
Wireframe
350
30
  3
X-Ray
350
40
  0
XRECORD
  5
341
102
{ACAD_REACTORS
330
C
102
}
330
C
100
AcDbXrecord
280
     1
 90
        1
330
6A
  0
DICTIONARY
  5
30A
102
{ACAD_REACTORS
330
C
102
}
330
C
100
AcDbDictionary
281
     1
  3
CANNOSCALE
350
30B
  3
CENTEREXE
350
346
  3
CENTERLTYPEFILE
350
347
  3
CMLEADERSTYLE
350
343
  3
CTABLESTYLE
350
342
  3
XCLIPFRAME
350
30C
  0
LAYOUT
  5
1E
102
{ACAD_REACTORS
330
1A
102
}
330
1A
100
AcDbPlotSettings
  1

  2
none_device
  4

  6

 40
0.0
 41
0.0
 42
0.0
 43
0.0
 44
0.0
 45
0.0
 46
0.0
 47
0.0
 48
0.0
 49
0.0
140
0.0
141
0.0
142
1.0
143
1.0
 70
   688
 72
     1
 73
     0
 74
     5
  7

 75
    16
 76
     0
 77
     2
 78
   300
147
1.0
148
0.0
149
0.0
100
AcDbLayout
  1
Layout1
 70
     1
 71
     1
 10
0.0
 20
0.0
 11
1800.0
 21
1200.0
 12
0.0
 22
0.0
 32
0.0
 14
0.0
 24
0.0
 34
0.0
 15
1800.0
 25
1200.0
 35
0.0
146
0.0
 13
0.0
 23
0.0
 33
0.0
 16
1.0
 26
0.0
 36
0.0
 17
0.0
 27
1.0
 37
0.0
 76
     0
330
1B
  0
LAYOUT
  5
22
102
{ACAD_REACTORS
330
1A
102
}
330
1A
100
AcDbPlotSettings
  1

  2
none_device
  4
Letter_(8.50_x_11.00_Inches)
  6

 40
6.35
 41
6.35
 42
6.35000508
 43
6.35000508
 44
215.9
 45
279.4
 46
0.0
 47
0.0
 48
0.0
 49
0.0
140
0.0
141
0.0
142
1.0
143
1.0
 70
  1712
 72
     1
 73
     0
 74
     0
  7

 75
     0
 76
     0
 77
     2
 78
   300
147
1.0
148
0.0
149
0.0
100
AcDbLayout
  1
Model
 70
     1
 71
     0
 10
0.0
 20
0.0
 11
1800.0
 21
1200.0
 12
0.0
 22
0.0
 32
0.0
 14
0.0
 24
0.0
 34
0.0
 15
1800.0
 25
1200.0
 35
0.0
146
0.0
 13
0.0
 23
0.0
 33
0.0
 16
1.0
 26
0.0
 36
0.0
 17
0.0
 27
1.0
 37
0.0
 76
     0
330
1F
331
29
  0
MATERIAL
  5
45
102
{ACAD_REACTORS
330
43
102
}
330
43
100
AcDbMaterial
  1
ByBlock
 72
     1
 94
      127
  0
MATERIAL
  5
44
102
{ACAD_REACTORS
330
43
102
}
330
43
100
AcDbMaterial
  1
ByLayer
 72
     1
 94
      127
  0
MATERIAL
  5
46
102
{ACAD_REACTORS
330
43
102
}
330
43
100
AcDbMaterial
  1
Global
 72
     1
 94
      127
  0
MLEADERSTYLE
  5
6C
102
{ACAD_REACTORS
330
6B
102
}
102
{ACAD_XDICTIONARY
360
33F
102
}
330
6B
100
AcDbMLeaderStyle
170
     2
171
     1
172
     0
 90
        2
 40
0.0
 41
0.0
173
     1
 91
-1056964608
340
14
 92
       -2
290
     1
 42
2.0
291
     1
 43
8.0
  3
Standard
341
0
 44
4.0
300

342
11
174
     1
178
     6
175
     1
176
     0
 93
-1056964608
 45
4.0
292
     0
297
     0
 46
4.0
343
0
 94
-1056964608
 47
1.0
 49
1.0
140
1.0
293
     1
141
0.0
294
     1
177
     0
142
1.0
295
     0
296
     0
143
3.75
1001
ACAD_MLEADERVER
1070
     2
  0
MLINESTYLE
  5
18
102
{ACAD_REACTORS
330
17
102
}
330
17
100
AcDbMlineStyle
  2
Standard
 70
     0
  3

 62
   256
 51
90.0
 52
90.0
 71
     2
 49
0.5
 62
   256
  6
BYLAYER
 49
-0.5
 62
   256
  6
BYLAYER
  0
ACDBPLACEHOLDER
  5
F
102
{ACAD_REACTORS
330
E
102
}
330
E
  0
SCALE
  5
48
102
{ACAD_REACTORS
330
47
102
}
330
47
100
AcDbScale
 70
     0
300
1:1
140
1.0
141
1.0
290
     1
  0
SCALE
  5
49
102
{ACAD_REACTORS
330
47
102
}
330
47
100
AcDbScale
 70
     0
300
1:2
140
1.0
141
2.0
290
     0
  0
SCALE
  5
4A
102
{ACAD_REACTORS
330
47
102
}
330
47
100
AcDbScale
 70
     0
300
1:4
140
1.0
141
4.0
290
     0
  0
SCALE
  5
4B
102
{ACAD_REACTORS
330
47
102
}
330
47
100
AcDbScale
 70
     0
300
1:5
140
1.0
141
5.0
290
     0
  0
SCALE
  5
4C
102
{ACAD_REACTORS
330
47
102
}
330
47
100
AcDbScale
 70
     0
300
1:8
140
1.0
141
8.0
290
     0
  0
SCALE
  5
4D
102
{ACAD_REACTORS
330
47
102
}
330
47
100
AcDbScale
 70
     0
300
1:10
140
1.0
141
10.0
290
     0
  0
SCALE
  5
4E
102
{ACAD_REACTORS
330
47
102
}
330
47
100
AcDbScale
 70
     0
300
1:16
140
1.0
141
16.0
290
     0
  0
SCALE
  5
4F
102
{ACAD_REACTORS
330
47
102
}
330
47
100
AcDbScale
 70
     0
300
1:20
140
1.0
141
20.0
290
     0
  0
SCALE
  5
50
102
{ACAD_REACTORS
330
47
102
}
330
47
100
AcDbScale
 70
     0
300
1:30
140
1.0
141
30.0
290
     0
  0
SCALE
  5
51
102
{ACAD_REACTORS
330
47
102
}
330
47
100
AcDbScale
 70
     0
300
1:40
140
1.0
141
40.0
290
     0
  0
SCALE
  5
52
102
{ACAD_REACTORS
330
47
102
}
330
47
100
AcDbScale
 70
     0
300
1:50
140
1.0
141
50.0
290
     0
  0
SCALE
  5
53
102
{ACAD_REACTORS
330
47
102
}
330
47
100
AcDbScale
 70
     0
300
1:100
140
1.0
141
100.0
290
     0
  0
SCALE
  5
54
102
{ACAD_REACTORS
330
47
102
}
330
47
100
AcDbScale
 70
     0
300
2:1
140
2.0
141
1.0
290
     0
  0
SCALE
  5
55
102
{ACAD_REACTORS
330
47
102
}
330
47
100
AcDbScale
 70
     0
300
4:1
140
4.0
141
1.0
290
     0
  0
SCALE
  5
56
102
{ACAD_REACTORS
330
47
102
}
330
47
100
AcDbScale
 70
     0
300
8:1
140
8.0
141
1.0
290
     0
  0
SCALE
  5
57
102
{ACAD_REACTORS
330
47
102
}
330
47
100
AcDbScale
 70
     0
300
10:1
140
10.0
141
1.0
290
     0
  0
SCALE
  5
58
102
{ACAD_REACTORS
330
47
102
}
330
47
100
AcDbScale
 70
     0
300
100:1
140
100.0
141
1.0
290
     0
  0
SCALE
  5
59
102
{ACAD_REACTORS
330
47
102
}
330
47
100
AcDbScale
 70
     0
300
1/128" = 1'-0"
140
0.0078125
141
12.0
290
     0
  0
SCALE
  5
5A
102
{ACAD_REACTORS
330
47
102
}
330
47
100
AcDbScale
 70
     0
300
1/64" = 1'-0"
140
0.015625
141
12.0
290
     0
  0
SCALE
  5
5B
102
{ACAD_REACTORS
330
47
102
}
330
47
100
AcDbScale
 70
     0
300
1/32" = 1'-0"
140
0.03125
141
12.0
290
     0
  0
SCALE
  5
5C
102
{ACAD_REACTORS
330
47
102
}
330
47
100
AcDbScale
 70
     0
300
1/16" = 1'-0"
140
0.0625
141
12.0
290
     0
  0
SCALE
  5
5D
102
{ACAD_REACTORS
330
47
102
}
330
47
100
AcDbScale
 70
     0
300
3/32" = 1'-0"
140
0.09375
141
12.0
290
     0
  0
SCALE
  5
5E
102
{ACAD_REACTORS
330
47
102
}
330
47
100
AcDbScale
 70
     0
300
1/8" = 1'-0"
140
0.125
141
12.0
290
     0
  0
SCALE
  5
5F
102
{ACAD_REACTORS
330
47
102
}
330
47
100
AcDbScale
 70
     0
300
3/16" = 1'-0"
140
0.1875
141
12.0
290
     0
  0
SCALE
  5
60
102
{ACAD_REACTORS
330
47
102
}
330
47
100
AcDbScale
 70
     0
300
1/4" = 1'-0"
140
0.25
141
12.0
290
     0
  0
SCALE
  5
61
102
{ACAD_REACTORS
330
47
102
}
330
47
100
AcDbScale
 70
     0
300
3/8" = 1'-0"
140
0.375
141
12.0
290
     0
  0
SCALE
  5
62
102
{ACAD_REACTORS
330
47
102
}
330
47
100
AcDbScale
 70
     0
300
1/2" = 1'-0"
140
0.5
141
12.0
290
     0
  0
SCALE
  5
63
102
{ACAD_REACTORS
330
47
102
}
330
47
100
AcDbScale
 70
     0
300
3/4" = 1'-0"
140
0.75
141
12.0
290
     0
  0
SCALE
  5
64
102
{ACAD_REACTORS
330
47
102
}
330
47
100
AcDbScale
 70
     0
300
1" = 1'-0"
140
1.0
141
12.0
290
     0
  0
SCALE
  5
65
102
{ACAD_REACTORS
330
47
102
}
330
47
100
AcDbScale
 70
     0
300
1-1/2" = 1'-0"
140
1.5
141
12.0
290
     0
  0
SCALE
  5
66
102
{ACAD_REACTORS
330
47
102
}
330
47
100
AcDbScale
 70
     0
300
3" = 1'-0"
140
3.0
141
12.0
290
     0
  0
SCALE
  5
67
102
{ACAD_REACTORS
330
47
102
}
330
47
100
AcDbScale
 70
     0
300
6" = 1'-0"
140
6.0
141
12.0
290
     0
  0
SCALE
  5
68
102
{ACAD_REACTORS
330
47
102
}
330
47
100
AcDbScale
 70
     0
300
1'-0" = 1'-0"
140
12.0
141
12.0
290
     0
  0
TABLESTYLE
  5
6A
102
{ACAD_REACTORS
330
69
102
}
102
{ACAD_XDICTIONARY
360
33D
102
}
330
69
100
AcDbTableStyle
  3
Standard
 70
     0
 71
     0
 40
0.06
 41
0.06
280
     0
281
     0
  7
Standard
140
4.5
170
     2
 62
     0
 63
   257
283
     0
 90
        4
 91
        0
  1

274
    -2
284
     1
 64
     0
275
    -2
285
     1
 65
     0
276
    -2
286
     1
 66
     0
277
    -2
287
     1
 67
     0
278
    -2
288
     1
 68
     0
279
    -2
289
     1
 69
     0
  7
Standard
140
6.0
170
     5
 62
     0
 63
   257
283
     0
 90
        4
 91
        0
  1

274
    -2
284
     1
 64
     0
275
    -2
285
     1
 65
     0
276
    -2
286
     1
 66
     0
277
    -2
287
     1
 67
     0
278
    -2
288
     1
 68
     0
279
    -2
289
     1
 69
     0
  7
Standard
140
4.5
170
     5
 62
     0
 63
   257
283
     0
 90
        4
 91
        0
  1

274
    -2
284
     1
 64
     0
275
    -2
285
     1
 65
     0
276
    -2
286
     1
 66
     0
277
    -2
287
     1
 67
     0
278
    -2
288
     1
 68
     0
279
    -2
289
     1
 69
     0
  0
VISUALSTYLE
  5
2F
102
{ACAD_REACTORS
330
2A
102
}
102
{ACAD_XDICTIONARY
360
315
102
}
330
2A
100
AcDbVisualStyle
  2
2dWireframe
 70
     4
 71
     0
 72
     2
 73
     0
 90
        0
 40
0.6
 41
30.0
 62
     5
 63
     7
421
 16777215
 74
     1
 91
        4
 64
     7
 65
   257
 75
     1
175
     1
 42
1.0
 92
        0
 66
   257
 43
1.0
 76
     1
 77
     6
 78
     2
 67
     7
 79
     5
170
     0
171
     0
290
     0
174
     0
 93
        1
 44
0.0
173
     0
291
     0
 45
0.0
  0
VISUALSTYLE
  5
32
102
{ACAD_REACTORS
330
2A
102
}
102
{ACAD_XDICTIONARY
360
31B
102
}
330
2A
100
AcDbVisualStyle
  2
Basic
 70
     7
 71
     1
 72
     0
 73
     1
 90
        0
 40
0.6
 41
30.0
 62
     5
 63
     7
421
 16777215
 74
     0
 91
        4
 64
     7
 65
   257
 75
     1
175
     1
 42
1.0
 92
        8
 66
     7
 43
1.0
 76
     1
 77
     6
 78
     2
 67
     7
 79
     5
170
     0
171
     0
290
     0
174
     0
 93
        1
 44
0.0
173
     0
291
     1
 45
0.0
  0
VISUALSTYLE
  5
36
102
{ACAD_REACTORS
330
2A
102
}
102
{ACAD_XDICTIONARY
360
323
102
}
330
2A
100
AcDbVisualStyle
  2
Brighten
 70
    12
 71
     2
 72
     2
 73
     0
 90
        0
 40
0.6
 41
30.0
 62
     5
 63
     7
421
 16777215
 74
     1
 91
        4
 64
     7
 65
   257
 75
     1
175
     1
 42
1.0
 92
        8
 66
     7
 43
1.0
 76
     1
 77
     6
 78
     2
 67
     7
 79
     5
170
     0
171
     0
290
     0
174
     0
 93
        1
 44
50.0
173
     0
291
     1
 45
0.0
  0
VISUALSTYLE
  5
3A
102
{ACAD_REACTORS
330
2A
102
}
102
{ACAD_XDICTIONARY
360
32B
102
}
330
2A
100
AcDbVisualStyle
  2
ColorChange
 70
    16
 71
     2
 72
     2
 73
     3
 90
        0
 40
0.6
 41
30.0
 62
     5
 63
     8
421
  8421504
 74
     1
 91
        4
 64
     7
 65
   257
 75
     1
175
     1
 42
1.0
 92
        8
 66
     8
424
  8421504
 43
1.0
 76
     1
 77
     6
 78
     2
 67
     7
 79
     5
170
     0
171
     0
290
     0
174
     0
 93
        1
 44
0.0
173
     0
291
     1
 45
0.0
  0
VISUALSTYLE
  5
34
102
{ACAD_REACTORS
330
2A
102
}
102
{ACAD_XDICTIONARY
360
31F
102
}
330
2A
100
AcDbVisualStyle
  2
Conceptual
 70
     9
 71
     3
 72
     2
 73
     0
 90
        0
 40
0.6
 41
30.0
 62
     5
 63
     7
421
 16777215
 74
     2
 91
        2
 64
     7
 65
   257
 75
     1
175
     1
 42
179.0
 92
        8
 66
     7
 43
1.0
 76
     1
 77
     6
 78
     2
 67
     7
 79
     3
170
     0
171
     0
290
     0
174
     0
 93
        1
 44
0.0
173
     0
291
     0
 45
0.0
  0
VISUALSTYLE
  5
35
102
{ACAD_REACTORS
330
2A
102
}
102
{ACAD_XDICTIONARY
360
321
102
}
330
2A
100
AcDbVisualStyle
  2
Dim
 70
    11
 71
     2
 72
     2
 73
     0
 90
        0
 40
0.6
 41
30.0
 62
     5
 63
     7
421
 16777215
 74
     1
 91
        4
 64
     7
 65
   257
 75
     1
175
     1
 42
1.0
 92
        8
 66
     7
 43
1.0
 76
     1
 77
     6
 78
     2
 67
     7
 79
     5
170
     0
171
     0
290
     0
174
     0
 93
        1
 44
-50.0
173
     0
291
     1
 45
0.0
  0
VISUALSTYLE
  5
3D
102
{ACAD_REACTORS
330
2A
102
}
102
{ACAD_XDICTIONARY
360
331
102
}
330
2A
100
AcDbVisualStyle
  2
EdgeColorOff
 70
    22
 71
     2
 72
     2
 73
     0
 90
        0
 40
0.6
 41
30.0
 62
     5
 63
     7
421
 16777215
 74
     1
 91
        4
 64
     7
 65
   257
 75
     1
175
     1
 42
1.0
 92
        8
 66
     7
 43
1.0
 76
     1
 77
     6
 78
     2
 67
     7
 79
     5
170
     0
171
     0
290
     0
174
     0
 93
        1
 44
0.0
173
     0
291
     1
 45
0.0
  0
VISUALSTYLE
  5
39
102
{ACAD_REACTORS
330
2A
102
}
102
{ACAD_XDICTIONARY
360
329
102
}
330
2A
100
AcDbVisualStyle
  2
Facepattern
 70
    15
 71
     2
 72
     2
 73
     0
 90
        0
 40
0.6
 41
30.0
 62
     5
 63
     7
421
 16777215
 74
     1
 91
        4
 64
     7
 65
   257
 75
     1
175
     1
 42
1.0
 92
        8
 66
     7
 43
1.0
 76
     1
 77
     6
 78
     2
 67
     7
 79
     5
170
     0
171
     0
290
     0
174
     0
 93
        1
 44
0.0
173
     0
291
     1
 45
0.0
  0
VISUALSTYLE
  5
2B
102
{ACAD_REACTORS
330
2A
102
}
102
{ACAD_XDICTIONARY
360
30D
102
}
330
2A
100
AcDbVisualStyle
  2
Flat
 70
     0
 71
     2
 72
     1
 73
     1
 90
        2
 40
0.6
 41
30.0
 62
     5
 63
     7
421
 16777215
 74
     0
 91
        0
 64
     7
 65
   257
 75
     1
175
     1
 42
1.0
 92
        8
 66
     7
 43
1.0
 76
     1
 77
     6
 78
     2
 67
     7
 79
     5
170
     0
171
     0
290
     0
174
     0
 93
       13
 44
0.0
173
     0
291
     1
 45
0.0
  0
VISUALSTYLE
  5
2C
102
{ACAD_REACTORS
330
2A
102
}
102
{ACAD_XDICTIONARY
360
30F
102
}
330
2A
100
AcDbVisualStyle
  2
FlatWithEdges
 70
     1
 71
     2
 72
     1
 73
     1
 90
        2
 40
0.6
 41
30.0
 62
     5
 63
     7
421
 16777215
 74
     1
 91
        0
 64
     7
 65
   257
 75
     1
175
     1
 42
1.0
 92
        0
 66
   257
 43
1.0
 76
     1
 77
     6
 78
     2
 67
     7
 79
     5
170
     0
171
     0
290
     0
174
     0
 93
       13
 44
0.0
173
     0
291
     1
 45
0.0
  0
VISUALSTYLE
  5
2D
102
{ACAD_REACTORS
330
2A
102
}
102
{ACAD_XDICTIONARY
360
311
102
}
330
2A
100
AcDbVisualStyle
  2
Gouraud
 70
     2
 71
     2
 72
     2
 73
     1
 90
        2
 40
0.6
 41
30.0
 62
     5
 63
     7
421
 16777215
 74
     0
 91
        0
 64
     7
 65
   257
 75
     1
175
     1
 42
1.0
 92
        0
 66
     7
 43
1.0
 76
     1
 77
     6
 78
     2
 67
     7
 79
     5
170
     0
171
     0
290
     0
174
     0
 93
       13
 44
0.0
173
     0
291
     1
 45
0.0
  0
VISUALSTYLE
  5
2E
102
{ACAD_REACTORS
330
2A
102
}
102
{ACAD_XDICTIONARY
360
313
102
}
330
2A
100
AcDbVisualStyle
  2
GouraudWithEdges
 70
     3
 71
     2
 72
     2
 73
     1
 90
        2
 40
0.6
 41
30.0
 62
     5
 63
     7
421
 16777215
 74
     1
 91
        0
 64
     7
 65
   257
 75
     1
175
     1
 42
1.0
 92
        0
 66
   257
 43
1.0
 76
     1
 77
     6
 78
     2
 67
     7
 79
     5
170
     0
171
     0
290
     0
174
     0
 93
       13
 44
0.0
173
     0
291
     1
 45
0.0
  0
VISUALSTYLE
  5
31
102
{ACAD_REACTORS
330
2A
102
}
102
{ACAD_XDICTIONARY
360
319
102
}
330
2A
100
AcDbVisualStyle
  2
Hidden
 70
     6
 71
     1
 72
     2
 73
     2
 90
        0
 40
0.6
 41
30.0
 62
     5
 63
     7
421
 16777215
 74
     2
 91
        2
 64
     7
 65
   257
 75
     2
175
     1
 42
40.0
 92
        0
 66
   257
 43
1.0
 76
     1
 77
     6
 78
     2
 67
     7
 79
     3
170
     0
171
     0
290
     0
174
     0
 93
        1
 44
0.0
173
     0
291
     0
 45
0.0
  0
VISUALSTYLE
  5
3B
102
{ACAD_REACTORS
330
2A
102
}
102
{ACAD_XDICTIONARY
360
32D
102
}
330
2A
100
AcDbVisualStyle
  2
JitterOff
 70
    20
 71
     2
 72
     2
 73
     0
 90
        0
 40
0.6
 41
30.0
 62
     5
 63
     7
421
 16777215
 74
     1
 91
        4
 64
     7
 65
   257
 75
     1
175
     1
 42
1.0
 92
       10
 66
     7
 43
1.0
 76
     1
 77
     6
 78
     2
 67
     7
 79
     5
170
     0
171
     0
290
     0
174
     0
 93
        1
 44
0.0
173
     0
291
     1
 45
0.0
  0
VISUALSTYLE
  5
38
102
{ACAD_REACTORS
330
2A
102
}
102
{ACAD_XDICTIONARY
360
327
102
}
330
2A
100
AcDbVisualStyle
  2
Linepattern
 70
    14
 71
     2
 72
     2
 73
     0
 90
        0
 40
0.6
 41
30.0
 62
     5
 63
     7
421
 16777215
 74
     1
 91
        4
 64
     7
 65
   257
 75
     7
175
     7
 42
1.0
 92
        8
 66
     7
 43
1.0
 76
     1
 77
     6
 78
     2
 67
     7
 79
     5
170
     0
171
     0
290
     0
174
     0
 93
        1
 44
0.0
173
     0
291
     1
 45
0.0
  0
VISUALSTYLE
  5
3C
102
{ACAD_REACTORS
330
2A
102
}
102
{ACAD_XDICTIONARY
360
32F
102
}
330
2A
100
AcDbVisualStyle
  2
OverhangOff
 70
    21
 71
     2
 72
     2
 73
     0
 90
        0
 40
0.6
 41
30.0
 62
     5
 63
     7
421
 16777215
 74
     1
 91
        4
 64
     7
 65
   257
 75
     1
175
     1
 42
1.0
 92
        9
 66
     7
 43
1.0
 76
     1
 77
     6
 78
     2
 67
     7
 79
     5
170
     0
171
     0
290
     0
174
     0
 93
        1
 44
0.0
173
     0
291
     1
 45
0.0
  0
VISUALSTYLE
  5
33
102
{ACAD_REACTORS
330
2A
102
}
102
{ACAD_XDICTIONARY
360
31D
102
}
330
2A
100
AcDbVisualStyle
  2
Realistic
 70
     8
 71
     2
 72
     3
 73
     0
 90
        2
 40
0.6
 41
30.0
 62
     5
 63
     7
421
 16777215
 74
     0
 91
        0
 64
     7
 65
   257
 75
     1
175
     1
 42
1.0
 92
        8
 66
   257
 43
1.0
 76
     1
 77
     6
 78
     2
 67
     7
 79
     3
170
     0
171
     0
290
     0
174
     0
 93
       13
 44
0.0
173
     0
291
     0
 45
0.0
  0
VISUALSTYLE
  5
42
102
{ACAD_REACTORS
330
2A
102
}
102
{ACAD_XDICTIONARY
360
33B
102
}
330
2A
100
AcDbVisualStyle
  2
Shaded
 70
    27
 71
     2
 72
     2
 73
     1
 90
        2
 40
0.6
 41
30.0
 62
     5
 63
     7
421
 16777215
 74
     0
 91
        4
 64
     7
 65
   257
 75
     1
175
     1
 42
1.0
 92
        8
 66
   257
 43
1.0
 76
     1
 77
     6
 78
     2
 67
     8
425
  7895160
 79
     3
170
     0
171
     0
290
     0
174
     0
 93
        5
 44
0.0
173
     0
291
     0
 45
0.0
  0
VISUALSTYLE
  5
41
102
{ACAD_REACTORS
330
2A
102
}
102
{ACAD_XDICTIONARY
360
339
102
}
330
2A
100
AcDbVisualStyle
  2
Shaded with edges
 70
    26
 71
     2
 72
     2
 73
     1
 90
        2
 40
0.6
 41
30.0
 62
     5
 63
     7
421
 16777215
 74
     1
 91
       10
 64
     7
 65
   257
 75
     2
175
     1
 42
1.0
 92
        8
 66
   257
 43
1.0
 76
     1
 77
     6
 78
     2
 67
     7
 79
     3
170
     0
171
     0
290
     0
174
     0
 93
        5
 44
0.0
173
     0
291
     0
 45
0.0
  0
VISUALSTYLE
  5
3E
102
{ACAD_REACTORS
330
2A
102
}
102
{ACAD_XDICTIONARY
360
333
102
}
330
2A
100
AcDbVisualStyle
  2
Shades of Gray
 70
    23
 71
     2
 72
     2
 73
     3
 90
        0
 40
0.6
 41
30.0
 62
     5
 63
     7
421
 16777215
 74
     2
 91
        2
 64
     7
 65
     7
 75
     1
175
     1
 42
40.0
 92
        8
 66
     7
 43
1.0
 76
     1
 77
     6
 78
     2
 67
     7
 79
     3
170
     0
171
     0
290
     0
174
     0
 93
        1
 44
0.0
173
     0
291
     0
 45
0.0
  0
VISUALSTYLE
  5
3F
102
{ACAD_REACTORS
330
2A
102
}
102
{ACAD_XDICTIONARY
360
335
102
}
330
2A
100
AcDbVisualStyle
  2
Sketchy
 70
    24
 71
     1
 72
     2
 73
     2
 90
        0
 40
0.6
 41
30.0
 62
     5
 63
     7
421
 16777215
 74
     2
 91
        2
 64
     7
 65
     7
 75
     1
175
     1
 42
40.0
 92
       11
 66
     7
 43
1.0
 76
     1
 77
     6
 78
     2
 67
     7
 79
     6
170
     0
171
     0
290
     0
174
     0
 93
        1
 44
0.0
173
     0
291
     0
 45
0.0
  0
VISUALSTYLE
  5
37
102
{ACAD_REACTORS
330
2A
102
}
102
{ACAD_XDICTIONARY
360
325
102
}
330
2A
100
AcDbVisualStyle
  2
Thicken
 70
    13
 71
     2
 72
     2
 73
     0
 90
        0
 40
0.6
 41
30.0
 62
     5
 63
     7
421
 16777215
 74
     1
 91
        4
 64
     7
 65
   257
 75
     1
175
     1
 42
1.0
 92
       12
 66
     7
 43
1.0
 76
     1
 77
     6
 78
     2
 67
     7
 79
     5
170
     0
171
     0
290
     0
174
     0
 93
        1
 44
0.0
173
     0
291
     1
 45
0.0
  0
VISUALSTYLE
  5
30
102
{ACAD_REACTORS
330
2A
102
}
102
{ACAD_XDICTIONARY
360
317
102
}
330
2A
100
AcDbVisualStyle
  2
Wireframe
 70
     5
 71
     0
 72
     2
 73
     0
 90
        0
 40
0.6
 41
30.0
 62
     5
 63
     7
421
 16777215
 74
     1
 91
        4
 64
     7
 65
   257
 75
     1
175
     1
 42
1.0
 92
        0
 66
   257
 43
1.0
 76
     1
 77
     6
 78
     2
 67
     7
 79
     3
170
     0
171
     0
290
     0
174
     0
 93
        1
 44
0.0
173
     0
291
     0
 45
0.0
  0
VISUALSTYLE
  5
40
102
{ACAD_REACTORS
330
2A
102
}
102
{ACAD_XDICTIONARY
360
337
102
}
330
2A
100
AcDbVisualStyle
  2
X-Ray
 70
    25
 71
     2
 72
     2
 73
     1
 90
        1
 40
0.5
 41
30.0
 62
     5
 63
     7
421
 16777215
 74
     1
 91
        0
 64
     7
 65
   257
 75
     1
175
     1
 42
1.0
 92
        8
 66
     7
 43
1.0
 76
     1
 77
     6
 78
     2
 67
     7
 79
     3
170
     0
171
     0
290
     0
174
     0
 93
       13
 44
0.0
173
     0
291
     0
 45
0.0
  0
DICTIONARYVAR
  5
30B
102
{ACAD_REACTORS
330
30A
102
}
330
30A
100
DictionaryVariables
280
     0
  1
1:1
  0
DICTIONARYVAR
  5
346
102
{ACAD_REACTORS
330
30A
102
}
330
30A
100
DictionaryVariables
280
     0
  1
3.500000
  0
DICTIONARYVAR
  5
347
102
{ACAD_REACTORS
330
30A
102
}
330
30A
100
DictionaryVariables
280
     0
  1
acadiso.lin
  0
DICTIONARYVAR
  5
343
102
{ACAD_REACTORS
330
30A
102
}
330
30A
100
DictionaryVariables
280
     0
  1
Standard
  0
DICTIONARYVAR
  5
342
102
{ACAD_REACTORS
330
30A
102
}
330
30A
100
DictionaryVariables
280
     0
  1
Standard
  0
DICTIONARYVAR
  5
30C
102
{ACAD_REACTORS
330
30A
102
}
330
30A
100
DictionaryVariables
280
     0
  1
2
  0
DICTIONARY
  5
33F
330
6C
100
AcDbDictionary
280
     1
281
     1
  3
ACAD_XREC_ROUNDTRIP
360
340
  0
DICTIONARY
  5
33D
330
6A
100
AcDbDictionary
280
     1
281
     1
  3
ACAD_ROUNDTRIP_2008_TABLESTYLE_CELLSTYLEMAP
360
33E
  0
DICTIONARY
  5
315
330
2F
100
AcDbDictionary
280
     1
281
     1
  3
ACAD_XREC_ROUNDTRIP
360
316
  0
DICTIONARY
  5
31B
330
32
100
AcDbDictionary
280
     1
281
     1
  3
ACAD_XREC_ROUNDTRIP
360
31C
  0
DICTIONARY
  5
323
330
36
100
AcDbDictionary
280
     1
281
     1
  3
ACAD_XREC_ROUNDTRIP
360
324
  0
DICTIONARY
  5
32B
330
3A
100
AcDbDictionary
280
     1
281
     1
  3
ACAD_XREC_ROUNDTRIP
360
32C
  0
DICTIONARY
  5
31F
330
34
100
AcDbDictionary
280
     1
281
     1
  3
ACAD_XREC_ROUNDTRIP
360
320
  0
DICTIONARY
  5
321
330
35
100
AcDbDictionary
280
     1
281
     1
  3
ACAD_XREC_ROUNDTRIP
360
322
  0
DICTIONARY
  5
331
330
3D
100
AcDbDictionary
280
     1
281
     1
  3
ACAD_XREC_ROUNDTRIP
360
332
  0
DICTIONARY
  5
329
330
39
100
AcDbDictionary
280
     1
281
     1
  3
ACAD_XREC_ROUNDTRIP
360
32A
  0
DICTIONARY
  5
30D
330
2B
100
AcDbDictionary
280
     1
281
     1
  3
ACAD_XREC_ROUNDTRIP
360
30E
  0
DICTIONARY
  5
30F
330
2C
100
AcDbDictionary
280
     1
281
     1
  3
ACAD_XREC_ROUNDTRIP
360
310
  0
DICTIONARY
  5
311
330
2D
100
AcDbDictionary
280
     1
281
     1
  3
ACAD_XREC_ROUNDTRIP
360
312
  0
DICTIONARY
  5
313
330
2E
100
AcDbDictionary
280
     1
281
     1
  3
ACAD_XREC_ROUNDTRIP
360
314
  0
DICTIONARY
  5
319
330
31
100
AcDbDictionary
280
     1
281
     1
  3
ACAD_XREC_ROUNDTRIP
360
31A
  0
DICTIONARY
  5
32D
330
3B
100
AcDbDictionary
280
     1
281
     1
  3
ACAD_XREC_ROUNDTRIP
360
32E
  0
DICTIONARY
  5
327
330
38
100
AcDbDictionary
280
     1
281
     1
  3
ACAD_XREC_ROUNDTRIP
360
328
  0
DICTIONARY
  5
32F
330
3C
100
AcDbDictionary
280
     1
281
     1
  3
ACAD_XREC_ROUNDTRIP
360
330
  0
DICTIONARY
  5
31D
330
33
100
AcDbDictionary
280
     1
281
     1
  3
ACAD_XREC_ROUNDTRIP
360
31E
  0
DICTIONARY
  5
33B
330
42
100
AcDbDictionary
280
     1
281
     1
  3
ACAD_XREC_ROUNDTRIP
360
33C
  0
DICTIONARY
  5
339
330
41
100
AcDbDictionary
280
     1
281
     1
  3
ACAD_XREC_ROUNDTRIP
360
33A
  0
DICTIONARY
  5
333
330
3E
100
AcDbDictionary
280
     1
281
     1
  3
ACAD_XREC_ROUNDTRIP
360
334
  0
DICTIONARY
  5
335
330
3F
100
AcDbDictionary
280
     1
281
     1
  3
ACAD_XREC_ROUNDTRIP
360
336
  0
DICTIONARY
  5
325
330
37
100
AcDbDictionary
280
     1
281
     1
  3
ACAD_XREC_ROUNDTRIP
360
326
  0
DICTIONARY
  5
317
330
30
100
AcDbDictionary
280
     1
281
     1
  3
ACAD_XREC_ROUNDTRIP
360
318
  0
DICTIONARY
  5
337
330
40
100
AcDbDictionary
280
     1
281
     1
  3
ACAD_XREC_ROUNDTRIP
360
338
  0
XRECORD
  5
340
102
{ACAD_REACTORS
330
33F
102
}
330
33F
100
AcDbXrecord
280
     1
102
ACAD_ROUNDTRIP_2010_MLEADER_STYLE
  0
CELLSTYLEMAP
  5
33E
102
{ACAD_REACTORS
330
33D
102
}
330
33D
100
AcDbCellStyleMap
 90
        3
300
CELLSTYLE
  1
TABLEFORMAT_BEGIN
 90
        5
170
     1
 91
        0
 92
    32768
 62
   257
 93
        1
300
CONTENTFORMAT
  1
CONTENTFORMAT_BEGIN
 90
        0
 91
        0
 92
        4
 93
        0
300

 40
0.0
140
1.0
 94
        5
 62
     0
340
11
144
6.0
309
CONTENTFORMAT_END
171
     1
301
MARGIN
  1
CELLMARGIN_BEGIN
 40
1.5
 40
1.5
 40
1.5
 40
1.5
 40
1.5
 40
1.5
309
CELLMARGIN_END
 94
        6
 95
        1
302
GRIDFORMAT
  1
GRIDFORMAT_BEGIN
 90
        0
 91
        1
 62
     0
 92
       -2
340
14
 93
        0
 40
0.045
309
GRIDFORMAT_END
 95
        2
302
GRIDFORMAT
  1
GRIDFORMAT_BEGIN
 90
        0
 91
        1
 62
     0
 92
       -2
340
14
 93
        0
 40
0.045
309
GRIDFORMAT_END
 95
        4
302
GRIDFORMAT
  1
GRIDFORMAT_BEGIN
 90
        0
 91
        1
 62
     0
 92
       -2
340
14
 93
        0
 40
0.045
309
GRIDFORMAT_END
 95
        8
302
GRIDFORMAT
  1
GRIDFORMAT_BEGIN
 90
        0
 91
        1
 62
     0
 92
       -2
340
14
 93
        0
 40
0.045
309
GRIDFORMAT_END
 95
       16
302
GRIDFORMAT
  1
GRIDFORMAT_BEGIN
 90
        0
 91
        1
 62
     0
 92
       -2
340
14
 93
        0
 40
0.045
309
GRIDFORMAT_END
 95
       32
302
GRIDFORMAT
  1
GRIDFORMAT_BEGIN
 90
        0
 91
        1
 62
     0
 92
       -2
340
14
 93
        0
 40
0.045
309
GRIDFORMAT_END
309
TABLEFORMAT_END
  1
CELLSTYLE_BEGIN
 90
        1
 91
        1
300
_TITLE
309
CELLSTYLE_END
300
CELLSTYLE
  1
TABLEFORMAT_BEGIN
 90
        5
170
     1
 91
        0
 92
        0
 62
   257
 93
        1
300
CONTENTFORMAT
  1
CONTENTFORMAT_BEGIN
 90
        0
 91
        0
 92
        4
 93
        0
300

 40
0.0
140
1.0
 94
        5
 62
     0
340
11
144
4.5
309
CONTENTFORMAT_END
171
     1
301
MARGIN
  1
CELLMARGIN_BEGIN
 40
1.5
 40
1.5
 40
1.5
 40
1.5
 40
1.5
 40
1.5
309
CELLMARGIN_END
 94
        6
 95
        1
302
GRIDFORMAT
  1
GRIDFORMAT_BEGIN
 90
        0
 91
        1
 62
     0
 92
       -2
340
14
 93
        0
 40
0.045
309
GRIDFORMAT_END
 95
        2
302
GRIDFORMAT
  1
GRIDFORMAT_BEGIN
 90
        0
 91
        1
 62
     0
 92
       -2
340
14
 93
        0
 40
0.045
309
GRIDFORMAT_END
 95
        4
302
GRIDFORMAT
  1
GRIDFORMAT_BEGIN
 90
        0
 91
        1
 62
     0
 92
       -2
340
14
 93
        0
 40
0.045
309
GRIDFORMAT_END
 95
        8
302
GRIDFORMAT
  1
GRIDFORMAT_BEGIN
 90
        0
 91
        1
 62
     0
 92
       -2
340
14
 93
        0
 40
0.045
309
GRIDFORMAT_END
 95
       16
302
GRIDFORMAT
  1
GRIDFORMAT_BEGIN
 90
        0
 91
        1
 62
     0
 92
       -2
340
14
 93
        0
 40
0.045
309
GRIDFORMAT_END
 95
       32
302
GRIDFORMAT
  1
GRIDFORMAT_BEGIN
 90
        0
 91
        1
 62
     0
 92
       -2
340
14
 93
        0
 40
0.045
309
GRIDFORMAT_END
309
TABLEFORMAT_END
  1
CELLSTYLE_BEGIN
 90
        2
 91
        1
300
_HEADER
309
CELLSTYLE_END
300
CELLSTYLE
  1
TABLEFORMAT_BEGIN
 90
        5
170
     1
 91
        0
 92
        0
 62
   257
 93
        1
300
CONTENTFORMAT
  1
CONTENTFORMAT_BEGIN
 90
        0
 91
        0
 92
        4
 93
        0
300

 40
0.0
140
1.0
 94
        2
 62
     0
340
11
144
4.5
309
CONTENTFORMAT_END
171
     1
301
MARGIN
  1
CELLMARGIN_BEGIN
 40
1.5
 40
1.5
 40
1.5
 40
1.5
 40
1.5
 40
1.5
309
CELLMARGIN_END
 94
        6
 95
        1
302
GRIDFORMAT
  1
GRIDFORMAT_BEGIN
 90
        0
 91
        1
 62
     0
 92
       -2
340
14
 93
        0
 40
0.045
309
GRIDFORMAT_END
 95
        2
302
GRIDFORMAT
  1
GRIDFORMAT_BEGIN
 90
        0
 91
        1
 62
     0
 92
       -2
340
14
 93
        0
 40
0.045
309
GRIDFORMAT_END
 95
        4
302
GRIDFORMAT
  1
GRIDFORMAT_BEGIN
 90
        0
 91
        1
 62
     0
 92
       -2
340
14
 93
        0
 40
0.045
309
GRIDFORMAT_END
 95
        8
302
GRIDFORMAT
  1
GRIDFORMAT_BEGIN
 90
        0
 91
        1
 62
     0
 92
       -2
340
14
 93
        0
 40
0.045
309
GRIDFORMAT_END
 95
       16
302
GRIDFORMAT
  1
GRIDFORMAT_BEGIN
 90
        0
 91
        1
 62
     0
 92
       -2
340
14
 93
        0
 40
0.045
309
GRIDFORMAT_END
 95
       32
302
GRIDFORMAT
  1
GRIDFORMAT_BEGIN
 90
        0
 91
        1
 62
     0
 92
       -2
340
14
 93
        0
 40
0.045
309
GRIDFORMAT_END
309
TABLEFORMAT_END
  1
CELLSTYLE_BEGIN
 90
        3
 91
        2
300
_DATA
309
CELLSTYLE_END
  0
XRECORD
  5
316
102
{ACAD_REACTORS
330
315
102
}
330
315
100
AcDbXrecord
280
     1
102
RTVSPropertyOp0
 70
     1
102
RTVSPropertyOp1
 70
     1
102
RTVSPropertyOp2
 70
     1
102
RTVSPropertyOp3
 70
     1
102
RTVSPropertyOp4
 70
     1
102
RTVSPropertyOp5
 70
     1
102
RTVSPropertyOp6
 70
     1
102
RTVSPropertyOp7
 70
     1
102
RTVSPropertyOp8
 70
     1
102
RTVSPropertyOp9
 70
     1
102
RTVSPropertyOp10
 70
     1
102
RTVSPropertyOp11
 70
     1
102
RTVSPropertyOp12
 70
     1
102
RTVSPropertyOp13
 70
     1
102
RTVSPropertyOp14
 70
     1
102
RTVSPropertyOp15
 70
     1
102
RTVSPropertyOp16
 70
     1
102
RTVSPropertyOp17
 70
     1
102
RTVSPropertyOp18
 70
     1
102
RTVSPropertyOp19
 70
     1
102
RTVSPropertyOp20
 70
     1
102
RTVSPropertyOp21
 70
     1
102
RTVSPropertyOp22
 70
     1
102
RTVSPropertyOp23
 70
     1
102
RTVSPropertyOp24
 70
     1
102
RTVSPropertyOp25
 70
     1
102
RTVSPropertyOp26
 70
     1
102
RTVSPropertyOp27
 70
     1
102
RTVSPropertyOp28
 70
     1
102
RTVSPropertyOp29
 70
     1
102
RTVSPropertyOp30
 70
     1
102
RTVSPropertyOp31
 70
     1
102
RTVSPropertyOp32
 70
     1
102
RTVSPropertyOp33
 70
     1
102
RTVSPropertyOp34
 70
     1
102
RTVSPropertyOp35
 70
     1
102
RTVSPropertyOp36
 70
     1
102
RTVSPropertyOp37
 70
     1
102
RTVSPropertyOp38
 70
     1
102
RTVSPropertyOp39
 70
     1
102
RTVSPropertyOp40
 70
     1
102
RTVSPropertyOp41
 70
     1
102
RTVSPropertyOp42
 70
     1
102
RTVSPropertyOp43
 70
     1
102
RTVSPropertyOp44
 70
     1
102
RTVSPropertyOp45
 70
     1
102
RTVSPropertyOp46
 70
     1
102
RTVSPropertyOp47
 70
     1
102
RTVSPropertyOp48
 70
     1
102
RTVSPropertyOp49
 70
     1
102
RTVSPropertyOp50
 70
     1
102
RTVSPropertyOp51
 70
     0
102
RTVSPropertyOp52
 70
     0
102
RTVSPropertyOp53
 70
     1
102
RTVSPropertyOp54
 70
     1
102
RTVSPropertyOp55
 70
     1
102
RTVSPropertyOp56
 70
     1
102
RTVSPropertyOp57
 70
     1
102
RTVSPost2010Prop28
280
     1
102
RTVSPost2010PropOp28
 70
     1
102
RTVSPost2010Prop29
280
     1
102
RTVSPost2010PropOp29
 70
     1
102
RTVSPost2010Prop30
280
     0
102
RTVSPost2010PropOp30
 70
     1
102
RTVSPost2010Prop31
280
     0
102
RTVSPost2010PropOp31
 70
     1
102
RTVSPost2010Prop32
280
     0
102
RTVSPost2010PropOp32
 70
     1
102
RTVSPost2010Prop33
280
     0
102
RTVSPost2010PropOp33
 70
     1
102
RTVSPost2010Prop34
280
     0
102
RTVSPost2010PropOp34
 70
     1
102
RTVSPost2010Prop35
280
     0
102
RTVSPost2010PropOp35
 70
     1
102
RTVSPost2010Prop36
280
     0
102
RTVSPost2010PropOp36
 70
     1
102
RTVSPost2010Prop37
 90
       50
102
RTVSPost2010PropOp37
 70
     1
102
RTVSPost2010Prop38
140
0.0
102
RTVSPost2010PropOp38
 70
     1
102
RTVSPost2010Prop39
140
1.0
102
RTVSPost2010PropOp39
 70
     1
102
RTVSPost2010Prop40
 90
        0
102
RTVSPost2010PropOp40
 70
     1
102
RTVSPost2010Prop41ColorIndex
 90
       18
102
RTVSPost2010Prop41ColorRGB
 90
        0
102
RTVSPost2010PropOp41
 70
     1
102
RTVSPost2010Prop42
 90
       50
102
RTVSPost2010PropOp42
 70
     1
102
RTVSPost2010Prop43
 90
        3
102
RTVSPost2010PropOp43
 70
     1
102
RTVSPost2010Prop44ColorIndex
 90
        5
102
RTVSPost2010Prop44ColorRGB
 90
      255
102
RTVSPost2010PropOp44
 70
     1
102
RTVSPost2010Prop45
280
     0
102
RTVSPost2010PropOp45
 70
     1
102
RTVSPost2010Prop46
 90
       50
102
RTVSPost2010PropOp46
 70
     1
102
RTVSPost2010Prop47
 90
       50
102
RTVSPost2010PropOp47
 70
     1
102
RTVSPost2010Prop48
 90
       50
102
RTVSPost2010PropOp48
 70
     1
102
RTVSPost2010Prop49
280
     0
102
RTVSPost2010PropOp49
 70
     1
102
RTVSPost2010Prop50
 90
       50
102
RTVSPost2010PropOp50
 70
     1
102
RTVSPost2010Prop51ColorIndex
 90
      256
102
RTVSPost2010Prop51ColorRGB
 90
-16777216
102
RTVSPost2010PropOp51
 70
     0
102
RTVSPost2010Prop52
140
1.0
102
RTVSPost2010PropOp52
 70
     0
102
RTVSPost2010Prop53
 90
        2
102
RTVSPost2010PropOp53
 70
     1
102
RTVSPost2010Prop54
  1
strokes_ogs.tif
102
RTVSPost2010PropOp54
 70
     1
102
RTVSPost2010Prop55
280
     0
102
RTVSPost2010PropOp55
 70
     1
102
RTVSPost2010Prop56
140
1.0
102
RTVSPost2010PropOp56
 70
     1
102
RTVSPost2010Prop57
140
1.0
102
RTVSPost2010PropOp57
 70
     1
  0
XRECORD
  5
31C
102
{ACAD_REACTORS
330
31B
102
}
330
31B
100
AcDbXrecord
280
     1
102
RTVSPropertyOp0
 70
     1
102
RTVSPropertyOp1
 70
     1
102
RTVSPropertyOp2
 70
     1
102
RTVSPropertyOp3
 70
     1
102
RTVSPropertyOp4
 70
     1
102
RTVSPropertyOp5
 70
     1
102
RTVSPropertyOp6
 70
     1
102
RTVSPropertyOp7
 70
     1
102
RTVSPropertyOp8
 70
     1
102
RTVSPropertyOp9
 70
     1
102
RTVSPropertyOp10
 70
     1
102
RTVSPropertyOp11
 70
     1
102
RTVSPropertyOp12
 70
     1
102
RTVSPropertyOp13
 70
     1
102
RTVSPropertyOp14
 70
     1
102
RTVSPropertyOp15
 70
     1
102
RTVSPropertyOp16
 70
     1
102
RTVSPropertyOp17
 70
     1
102
RTVSPropertyOp18
 70
     1
102
RTVSPropertyOp19
 70
     1
102
RTVSPropertyOp20
 70
     1
102
RTVSPropertyOp21
 70
     1
102
RTVSPropertyOp22
 70
     1
102
RTVSPropertyOp23
 70
     1
102
RTVSPropertyOp24
 70
     1
102
RTVSPropertyOp25
 70
     1
102
RTVSPropertyOp26
 70
     1
102
RTVSPropertyOp27
 70
     1
102
RTVSPropertyOp28
 70
     1
102
RTVSPropertyOp29
 70
     1
102
RTVSPropertyOp30
 70
     1
102
RTVSPropertyOp31
 70
     1
102
RTVSPropertyOp32
 70
     1
102
RTVSPropertyOp33
 70
     1
102
RTVSPropertyOp34
 70
     1
102
RTVSPropertyOp35
 70
     1
102
RTVSPropertyOp36
 70
     1
102
RTVSPropertyOp37
 70
     1
102
RTVSPropertyOp38
 70
     1
102
RTVSPropertyOp39
 70
     1
102
RTVSPropertyOp40
 70
     1
102
RTVSPropertyOp41
 70
     1
102
RTVSPropertyOp42
 70
     1
102
RTVSPropertyOp43
 70
     1
102
RTVSPropertyOp44
 70
     1
102
RTVSPropertyOp45
 70
     1
102
RTVSPropertyOp46
 70
     1
102
RTVSPropertyOp47
 70
     1
102
RTVSPropertyOp48
 70
     1
102
RTVSPropertyOp49
 70
     1
102
RTVSPropertyOp50
 70
     1
102
RTVSPropertyOp51
 70
     0
102
RTVSPropertyOp52
 70
     0
102
RTVSPropertyOp53
 70
     1
102
RTVSPropertyOp54
 70
     1
102
RTVSPropertyOp55
 70
     1
102
RTVSPropertyOp56
 70
     1
102
RTVSPropertyOp57
 70
     1
102
RTVSPost2010Prop28
280
     0
102
RTVSPost2010PropOp28
 70
     1
102
RTVSPost2010Prop29
280
     1
102
RTVSPost2010PropOp29
 70
     1
102
RTVSPost2010Prop30
280
     1
102
RTVSPost2010PropOp30
 70
     1
102
RTVSPost2010Prop31
280
     0
102
RTVSPost2010PropOp31
 70
     1
102
RTVSPost2010Prop32
280
     0
102
RTVSPost2010PropOp32
 70
     1
102
RTVSPost2010Prop33
280
     0
102
RTVSPost2010PropOp33
 70
     1
102
RTVSPost2010Prop34
280
     0
102
RTVSPost2010PropOp34
 70
     1
102
RTVSPost2010Prop35
280
     0
102
RTVSPost2010PropOp35
 70
     1
102
RTVSPost2010Prop36
280
     0
102
RTVSPost2010PropOp36
 70
     1
102
RTVSPost2010Prop37
 90
       50
102
RTVSPost2010PropOp37
 70
     1
102
RTVSPost2010Prop38
140
0.0
102
RTVSPost2010PropOp38
 70
     1
102
RTVSPost2010Prop39
140
1.0
102
RTVSPost2010PropOp39
 70
     1
102
RTVSPost2010Prop40
 90
        0
102
RTVSPost2010PropOp40
 70
     1
102
RTVSPost2010Prop41ColorIndex
 90
       18
102
RTVSPost2010Prop41ColorRGB
 90
        0
102
RTVSPost2010PropOp41
 70
     1
102
RTVSPost2010Prop42
 90
       50
102
RTVSPost2010PropOp42
 70
     1
102
RTVSPost2010Prop43
 90
        3
102
RTVSPost2010PropOp43
 70
     1
102
RTVSPost2010Prop44ColorIndex
 90
        5
102
RTVSPost2010Prop44ColorRGB
 90
      255
102
RTVSPost2010PropOp44
 70
     1
102
RTVSPost2010Prop45
280
     0
102
RTVSPost2010PropOp45
 70
     1
102
RTVSPost2010Prop46
 90
       50
102
RTVSPost2010PropOp46
 70
     1
102
RTVSPost2010Prop47
 90
       50
102
RTVSPost2010PropOp47
 70
     1
102
RTVSPost2010Prop48
 90
       50
102
RTVSPost2010PropOp48
 70
     1
102
RTVSPost2010Prop49
280
     0
102
RTVSPost2010PropOp49
 70
     1
102
RTVSPost2010Prop50
 90
       50
102
RTVSPost2010PropOp50
 70
     1
102
RTVSPost2010Prop51ColorIndex
 90
      256
102
RTVSPost2010Prop51ColorRGB
 90
-16777216
102
RTVSPost2010PropOp51
 70
     0
102
RTVSPost2010Prop52
140
1.0
102
RTVSPost2010PropOp52
 70
     0
102
RTVSPost2010Prop53
 90
        2
102
RTVSPost2010PropOp53
 70
     1
102
RTVSPost2010Prop54
  1
strokes_ogs.tif
102
RTVSPost2010PropOp54
 70
     1
102
RTVSPost2010Prop55
280
     0
102
RTVSPost2010PropOp55
 70
     1
102
RTVSPost2010Prop56
140
1.0
102
RTVSPost2010PropOp56
 70
     1
102
RTVSPost2010Prop57
140
1.0
102
RTVSPost2010PropOp57
 70
     1
  0
XRECORD
  5
324
102
{ACAD_REACTORS
330
323
102
}
330
323
100
AcDbXrecord
280
     1
102
RTVSPropertyOp0
 70
     1
102
RTVSPropertyOp1
 70
     1
102
RTVSPropertyOp2
 70
     1
102
RTVSPropertyOp3
 70
     1
102
RTVSPropertyOp4
 70
     1
102
RTVSPropertyOp5
 70
     1
102
RTVSPropertyOp6
 70
     1
102
RTVSPropertyOp7
 70
     1
102
RTVSPropertyOp8
 70
     1
102
RTVSPropertyOp9
 70
     1
102
RTVSPropertyOp10
 70
     1
102
RTVSPropertyOp11
 70
     1
102
RTVSPropertyOp12
 70
     1
102
RTVSPropertyOp13
 70
     1
102
RTVSPropertyOp14
 70
     1
102
RTVSPropertyOp15
 70
     1
102
RTVSPropertyOp16
 70
     1
102
RTVSPropertyOp17
 70
     1
102
RTVSPropertyOp18
 70
     1
102
RTVSPropertyOp19
 70
     1
102
RTVSPropertyOp20
 70
     1
102
RTVSPropertyOp21
 70
     1
102
RTVSPropertyOp22
 70
     1
102
RTVSPropertyOp23
 70
     1
102
RTVSPropertyOp24
 70
     1
102
RTVSPropertyOp25
 70
     1
102
RTVSPropertyOp26
 70
     1
102
RTVSPropertyOp27
 70
     1
102
RTVSPropertyOp28
 70
     1
102
RTVSPropertyOp29
 70
     1
102
RTVSPropertyOp30
 70
     1
102
RTVSPropertyOp31
 70
     1
102
RTVSPropertyOp32
 70
     1
102
RTVSPropertyOp33
 70
     1
102
RTVSPropertyOp34
 70
     1
102
RTVSPropertyOp35
 70
     1
102
RTVSPropertyOp36
 70
     1
102
RTVSPropertyOp37
 70
     1
102
RTVSPropertyOp38
 70
     1
102
RTVSPropertyOp39
 70
     1
102
RTVSPropertyOp40
 70
     1
102
RTVSPropertyOp41
 70
     1
102
RTVSPropertyOp42
 70
     1
102
RTVSPropertyOp43
 70
     1
102
RTVSPropertyOp44
 70
     1
102
RTVSPropertyOp45
 70
     1
102
RTVSPropertyOp46
 70
     1
102
RTVSPropertyOp47
 70
     1
102
RTVSPropertyOp48
 70
     1
102
RTVSPropertyOp49
 70
     1
102
RTVSPropertyOp50
 70
     1
102
RTVSPropertyOp51
 70
     0
102
RTVSPropertyOp52
 70
     0
102
RTVSPropertyOp53
 70
     1
102
RTVSPropertyOp54
 70
     1
102
RTVSPropertyOp55
 70
     1
102
RTVSPropertyOp56
 70
     1
102
RTVSPropertyOp57
 70
     1
102
RTVSPost2010Prop28
280
     0
102
RTVSPost2010PropOp28
 70
     1
102
RTVSPost2010Prop29
280
     1
102
RTVSPost2010PropOp29
 70
     1
102
RTVSPost2010Prop30
280
     1
102
RTVSPost2010PropOp30
 70
     1
102
RTVSPost2010Prop31
280
     0
102
RTVSPost2010PropOp31
 70
     1
102
RTVSPost2010Prop32
280
     0
102
RTVSPost2010PropOp32
 70
     1
102
RTVSPost2010Prop33
280
     0
102
RTVSPost2010PropOp33
 70
     1
102
RTVSPost2010Prop34
280
     0
102
RTVSPost2010PropOp34
 70
     1
102
RTVSPost2010Prop35
280
     0
102
RTVSPost2010PropOp35
 70
     1
102
RTVSPost2010Prop36
280
     0
102
RTVSPost2010PropOp36
 70
     1
102
RTVSPost2010Prop37
 90
       50
102
RTVSPost2010PropOp37
 70
     1
102
RTVSPost2010Prop38
140
0.0
102
RTVSPost2010PropOp38
 70
     1
102
RTVSPost2010Prop39
140
1.0
102
RTVSPost2010PropOp39
 70
     1
102
RTVSPost2010Prop40
 90
        0
102
RTVSPost2010PropOp40
 70
     1
102
RTVSPost2010Prop41ColorIndex
 90
       18
102
RTVSPost2010Prop41ColorRGB
 90
        0
102
RTVSPost2010PropOp41
 70
     1
102
RTVSPost2010Prop42
 90
       50
102
RTVSPost2010PropOp42
 70
     1
102
RTVSPost2010Prop43
 90
        3
102
RTVSPost2010PropOp43
 70
     1
102
RTVSPost2010Prop44ColorIndex
 90
        5
102
RTVSPost2010Prop44ColorRGB
 90
      255
102
RTVSPost2010PropOp44
 70
     1
102
RTVSPost2010Prop45
280
     0
102
RTVSPost2010PropOp45
 70
     1
102
RTVSPost2010Prop46
 90
       50
102
RTVSPost2010PropOp46
 70
     1
102
RTVSPost2010Prop47
 90
       50
102
RTVSPost2010PropOp47
 70
     1
102
RTVSPost2010Prop48
 90
       50
102
RTVSPost2010PropOp48
 70
     1
102
RTVSPost2010Prop49
280
     0
102
RTVSPost2010PropOp49
 70
     1
102
RTVSPost2010Prop50
 90
       50
102
RTVSPost2010PropOp50
 70
     1
102
RTVSPost2010Prop51ColorIndex
 90
      256
102
RTVSPost2010Prop51ColorRGB
 90
-16777216
102
RTVSPost2010PropOp51
 70
     0
102
RTVSPost2010Prop52
140
1.0
102
RTVSPost2010PropOp52
 70
     0
102
RTVSPost2010Prop53
 90
        2
102
RTVSPost2010PropOp53
 70
     1
102
RTVSPost2010Prop54
  1
strokes_ogs.tif
102
RTVSPost2010PropOp54
 70
     1
102
RTVSPost2010Prop55
280
     0
102
RTVSPost2010PropOp55
 70
     1
102
RTVSPost2010Prop56
140
1.0
102
RTVSPost2010PropOp56
 70
     1
102
RTVSPost2010Prop57
140
1.0
102
RTVSPost2010PropOp57
 70
     1
  0
XRECORD
  5
32C
102
{ACAD_REACTORS
330
32B
102
}
330
32B
100
AcDbXrecord
280
     1
102
RTVSPropertyOp0
 70
     1
102
RTVSPropertyOp1
 70
     1
102
RTVSPropertyOp2
 70
     1
102
RTVSPropertyOp3
 70
     1
102
RTVSPropertyOp4
 70
     1
102
RTVSPropertyOp5
 70
     1
102
RTVSPropertyOp6
 70
     1
102
RTVSPropertyOp7
 70
     1
102
RTVSPropertyOp8
 70
     1
102
RTVSPropertyOp9
 70
     1
102
RTVSPropertyOp10
 70
     1
102
RTVSPropertyOp11
 70
     1
102
RTVSPropertyOp12
 70
     1
102
RTVSPropertyOp13
 70
     1
102
RTVSPropertyOp14
 70
     1
102
RTVSPropertyOp15
 70
     1
102
RTVSPropertyOp16
 70
     1
102
RTVSPropertyOp17
 70
     1
102
RTVSPropertyOp18
 70
     1
102
RTVSPropertyOp19
 70
     1
102
RTVSPropertyOp20
 70
     1
102
RTVSPropertyOp21
 70
     1
102
RTVSPropertyOp22
 70
     1
102
RTVSPropertyOp23
 70
     1
102
RTVSPropertyOp24
 70
     1
102
RTVSPropertyOp25
 70
     1
102
RTVSPropertyOp26
 70
     1
102
RTVSPropertyOp27
 70
     1
102
RTVSPropertyOp28
 70
     1
102
RTVSPropertyOp29
 70
     1
102
RTVSPropertyOp30
 70
     1
102
RTVSPropertyOp31
 70
     1
102
RTVSPropertyOp32
 70
     1
102
RTVSPropertyOp33
 70
     1
102
RTVSPropertyOp34
 70
     1
102
RTVSPropertyOp35
 70
     1
102
RTVSPropertyOp36
 70
     1
102
RTVSPropertyOp37
 70
     1
102
RTVSPropertyOp38
 70
     1
102
RTVSPropertyOp39
 70
     1
102
RTVSPropertyOp40
 70
     1
102
RTVSPropertyOp41
 70
     1
102
RTVSPropertyOp42
 70
     1
102
RTVSPropertyOp43
 70
     1
102
RTVSPropertyOp44
 70
     1
102
RTVSPropertyOp45
 70
     1
102
RTVSPropertyOp46
 70
     1
102
RTVSPropertyOp47
 70
     1
102
RTVSPropertyOp48
 70
     1
102
RTVSPropertyOp49
 70
     1
102
RTVSPropertyOp50
 70
     1
102
RTVSPropertyOp51
 70
     0
102
RTVSPropertyOp52
 70
     0
102
RTVSPropertyOp53
 70
     1
102
RTVSPropertyOp54
 70
     1
102
RTVSPropertyOp55
 70
     1
102
RTVSPropertyOp56
 70
     1
102
RTVSPropertyOp57
 70
     1
102
RTVSPost2010Prop28
280
     0
102
RTVSPost2010PropOp28
 70
     1
102
RTVSPost2010Prop29
280
     1
102
RTVSPost2010PropOp29
 70
     1
102
RTVSPost2010Prop30
280
     1
102
RTVSPost2010PropOp30
 70
     1
102
RTVSPost2010Prop31
280
     0
102
RTVSPost2010PropOp31
 70
     1
102
RTVSPost2010Prop32
280
     0
102
RTVSPost2010PropOp32
 70
     1
102
RTVSPost2010Prop33
280
     0
102
RTVSPost2010PropOp33
 70
     1
102
RTVSPost2010Prop34
280
     0
102
RTVSPost2010PropOp34
 70
     1
102
RTVSPost2010Prop35
280
     0
102
RTVSPost2010PropOp35
 70
     1
102
RTVSPost2010Prop36
280
     0
102
RTVSPost2010PropOp36
 70
     1
102
RTVSPost2010Prop37
 90
       50
102
RTVSPost2010PropOp37
 70
     1
102
RTVSPost2010Prop38
140
0.0
102
RTVSPost2010PropOp38
 70
     1
102
RTVSPost2010Prop39
140
1.0
102
RTVSPost2010PropOp39
 70
     1
102
RTVSPost2010Prop40
 90
        0
102
RTVSPost2010PropOp40
 70
     1
102
RTVSPost2010Prop41ColorIndex
 90
       18
102
RTVSPost2010Prop41ColorRGB
 90
        0
102
RTVSPost2010PropOp41
 70
     1
102
RTVSPost2010Prop42
 90
       50
102
RTVSPost2010PropOp42
 70
     1
102
RTVSPost2010Prop43
 90
        3
102
RTVSPost2010PropOp43
 70
     1
102
RTVSPost2010Prop44ColorIndex
 90
        5
102
RTVSPost2010Prop44ColorRGB
 90
      255
102
RTVSPost2010PropOp44
 70
     1
102
RTVSPost2010Prop45
280
     0
102
RTVSPost2010PropOp45
 70
     1
102
RTVSPost2010Prop46
 90
       50
102
RTVSPost2010PropOp46
 70
     1
102
RTVSPost2010Prop47
 90
       50
102
RTVSPost2010PropOp47
 70
     1
102
RTVSPost2010Prop48
 90
       50
102
RTVSPost2010PropOp48
 70
     1
102
RTVSPost2010Prop49
280
     0
102
RTVSPost2010PropOp49
 70
     1
102
RTVSPost2010Prop50
 90
       50
102
RTVSPost2010PropOp50
 70
     1
102
RTVSPost2010Prop51ColorIndex
 90
      256
102
RTVSPost2010Prop51ColorRGB
 90
-16777216
102
RTVSPost2010PropOp51
 70
     0
102
RTVSPost2010Prop52
140
1.0
102
RTVSPost2010PropOp52
 70
     0
102
RTVSPost2010Prop53
 90
        2
102
RTVSPost2010PropOp53
 70
     1
102
RTVSPost2010Prop54
  1
strokes_ogs.tif
102
RTVSPost2010PropOp54
 70
     1
102
RTVSPost2010Prop55
280
     0
102
RTVSPost2010PropOp55
 70
     1
102
RTVSPost2010Prop56
140
1.0
102
RTVSPost2010PropOp56
 70
     1
102
RTVSPost2010Prop57
140
1.0
102
RTVSPost2010PropOp57
 70
     1
  0
XRECORD
  5
320
102
{ACAD_REACTORS
330
31F
102
}
330
31F
100
AcDbXrecord
280
     1
102
RTVSPropertyOp0
 70
     1
102
RTVSPropertyOp1
 70
     1
102
RTVSPropertyOp2
 70
     1
102
RTVSPropertyOp3
 70
     1
102
RTVSPropertyOp4
 70
     1
102
RTVSPropertyOp5
 70
     1
102
RTVSPropertyOp6
 70
     1
102
RTVSPropertyOp7
 70
     1
102
RTVSPropertyOp8
 70
     1
102
RTVSPropertyOp9
 70
     1
102
RTVSPropertyOp10
 70
     1
102
RTVSPropertyOp11
 70
     1
102
RTVSPropertyOp12
 70
     1
102
RTVSPropertyOp13
 70
     1
102
RTVSPropertyOp14
 70
     1
102
RTVSPropertyOp15
 70
     1
102
RTVSPropertyOp16
 70
     1
102
RTVSPropertyOp17
 70
     1
102
RTVSPropertyOp18
 70
     1
102
RTVSPropertyOp19
 70
     1
102
RTVSPropertyOp20
 70
     1
102
RTVSPropertyOp21
 70
     1
102
RTVSPropertyOp22
 70
     1
102
RTVSPropertyOp23
 70
     1
102
RTVSPropertyOp24
 70
     1
102
RTVSPropertyOp25
 70
     1
102
RTVSPropertyOp26
 70
     1
102
RTVSPropertyOp27
 70
     1
102
RTVSPropertyOp28
 70
     1
102
RTVSPropertyOp29
 70
     1
102
RTVSPropertyOp30
 70
     1
102
RTVSPropertyOp31
 70
     1
102
RTVSPropertyOp32
 70
     1
102
RTVSPropertyOp33
 70
     1
102
RTVSPropertyOp34
 70
     1
102
RTVSPropertyOp35
 70
     1
102
RTVSPropertyOp36
 70
     1
102
RTVSPropertyOp37
 70
     1
102
RTVSPropertyOp38
 70
     1
102
RTVSPropertyOp39
 70
     1
102
RTVSPropertyOp40
 70
     1
102
RTVSPropertyOp41
 70
     1
102
RTVSPropertyOp42
 70
     1
102
RTVSPropertyOp43
 70
     1
102
RTVSPropertyOp44
 70
     1
102
RTVSPropertyOp45
 70
     1
102
RTVSPropertyOp46
 70
     1
102
RTVSPropertyOp47
 70
     1
102
RTVSPropertyOp48
 70
     1
102
RTVSPropertyOp49
 70
     1
102
RTVSPropertyOp50
 70
     1
102
RTVSPropertyOp51
 70
     0
102
RTVSPropertyOp52
 70
     0
102
RTVSPropertyOp53
 70
     1
102
RTVSPropertyOp54
 70
     1
102
RTVSPropertyOp55
 70
     1
102
RTVSPropertyOp56
 70
     1
102
RTVSPropertyOp57
 70
     1
102
RTVSPost2010Prop28
280
     0
102
RTVSPost2010PropOp28
 70
     1
102
RTVSPost2010Prop29
280
     1
102
RTVSPost2010PropOp29
 70
     1
102
RTVSPost2010Prop30
280
     1
102
RTVSPost2010PropOp30
 70
     1
102
RTVSPost2010Prop31
280
     0
102
RTVSPost2010PropOp31
 70
     1
102
RTVSPost2010Prop32
280
     0
102
RTVSPost2010PropOp32
 70
     1
102
RTVSPost2010Prop33
280
     0
102
RTVSPost2010PropOp33
 70
     1
102
RTVSPost2010Prop34
280
     0
102
RTVSPost2010PropOp34
 70
     1
102
RTVSPost2010Prop35
280
     0
102
RTVSPost2010PropOp35
 70
     1
102
RTVSPost2010Prop36
280
     0
102
RTVSPost2010PropOp36
 70
     1
102
RTVSPost2010Prop37
 90
       50
102
RTVSPost2010PropOp37
 70
     1
102
RTVSPost2010Prop38
140
0.0
102
RTVSPost2010PropOp38
 70
     1
102
RTVSPost2010Prop39
140
1.0
102
RTVSPost2010PropOp39
 70
     1
102
RTVSPost2010Prop40
 90
        0
102
RTVSPost2010PropOp40
 70
     1
102
RTVSPost2010Prop41ColorIndex
 90
       18
102
RTVSPost2010Prop41ColorRGB
 90
        0
102
RTVSPost2010PropOp41
 70
     1
102
RTVSPost2010Prop42
 90
       50
102
RTVSPost2010PropOp42
 70
     1
102
RTVSPost2010Prop43
 90
        3
102
RTVSPost2010PropOp43
 70
     1
102
RTVSPost2010Prop44ColorIndex
 90
        5
102
RTVSPost2010Prop44ColorRGB
 90
      255
102
RTVSPost2010PropOp44
 70
     1
102
RTVSPost2010Prop45
280
     0
102
RTVSPost2010PropOp45
 70
     1
102
RTVSPost2010Prop46
 90
       50
102
RTVSPost2010PropOp46
 70
     1
102
RTVSPost2010Prop47
 90
       50
102
RTVSPost2010PropOp47
 70
     1
102
RTVSPost2010Prop48
 90
       50
102
RTVSPost2010PropOp48
 70
     1
102
RTVSPost2010Prop49
280
     0
102
RTVSPost2010PropOp49
 70
     1
102
RTVSPost2010Prop50
 90
       50
102
RTVSPost2010PropOp50
 70
     1
102
RTVSPost2010Prop51ColorIndex
 90
      256
102
RTVSPost2010Prop51ColorRGB
 90
-16777216
102
RTVSPost2010PropOp51
 70
     0
102
RTVSPost2010Prop52
140
1.0
102
RTVSPost2010PropOp52
 70
     0
102
RTVSPost2010Prop53
 90
        2
102
RTVSPost2010PropOp53
 70
     1
102
RTVSPost2010Prop54
  1
strokes_ogs.tif
102
RTVSPost2010PropOp54
 70
     1
102
RTVSPost2010Prop55
280
     0
102
RTVSPost2010PropOp55
 70
     1
102
RTVSPost2010Prop56
140
1.0
102
RTVSPost2010PropOp56
 70
     1
102
RTVSPost2010Prop57
140
1.0
102
RTVSPost2010PropOp57
 70
     1
  0
XRECORD
  5
322
102
{ACAD_REACTORS
330
321
102
}
330
321
100
AcDbXrecord
280
     1
102
RTVSPropertyOp0
 70
     1
102
RTVSPropertyOp1
 70
     1
102
RTVSPropertyOp2
 70
     1
102
RTVSPropertyOp3
 70
     1
102
RTVSPropertyOp4
 70
     1
102
RTVSPropertyOp5
 70
     1
102
RTVSPropertyOp6
 70
     1
102
RTVSPropertyOp7
 70
     1
102
RTVSPropertyOp8
 70
     1
102
RTVSPropertyOp9
 70
     1
102
RTVSPropertyOp10
 70
     1
102
RTVSPropertyOp11
 70
     1
102
RTVSPropertyOp12
 70
     1
102
RTVSPropertyOp13
 70
     1
102
RTVSPropertyOp14
 70
     1
102
RTVSPropertyOp15
 70
     1
102
RTVSPropertyOp16
 70
     1
102
RTVSPropertyOp17
 70
     1
102
RTVSPropertyOp18
 70
     1
102
RTVSPropertyOp19
 70
     1
102
RTVSPropertyOp20
 70
     1
102
RTVSPropertyOp21
 70
     1
102
RTVSPropertyOp22
 70
     1
102
RTVSPropertyOp23
 70
     1
102
RTVSPropertyOp24
 70
     1
102
RTVSPropertyOp25
 70
     1
102
RTVSPropertyOp26
 70
     1
102
RTVSPropertyOp27
 70
     1
102
RTVSPropertyOp28
 70
     1
102
RTVSPropertyOp29
 70
     1
102
RTVSPropertyOp30
 70
     1
102
RTVSPropertyOp31
 70
     1
102
RTVSPropertyOp32
 70
     1
102
RTVSPropertyOp33
 70
     1
102
RTVSPropertyOp34
 70
     1
102
RTVSPropertyOp35
 70
     1
102
RTVSPropertyOp36
 70
     1
102
RTVSPropertyOp37
 70
     1
102
RTVSPropertyOp38
 70
     1
102
RTVSPropertyOp39
 70
     1
102
RTVSPropertyOp40
 70
     1
102
RTVSPropertyOp41
 70
     1
102
RTVSPropertyOp42
 70
     1
102
RTVSPropertyOp43
 70
     1
102
RTVSPropertyOp44
 70
     1
102
RTVSPropertyOp45
 70
     1
102
RTVSPropertyOp46
 70
     1
102
RTVSPropertyOp47
 70
     1
102
RTVSPropertyOp48
 70
     1
102
RTVSPropertyOp49
 70
     1
102
RTVSPropertyOp50
 70
     1
102
RTVSPropertyOp51
 70
     0
102
RTVSPropertyOp52
 70
     0
102
RTVSPropertyOp53
 70
     1
102
RTVSPropertyOp54
 70
     1
102
RTVSPropertyOp55
 70
     1
102
RTVSPropertyOp56
 70
     1
102
RTVSPropertyOp57
 70
     1
102
RTVSPost2010Prop28
280
     0
102
RTVSPost2010PropOp28
 70
     1
102
RTVSPost2010Prop29
280
     1
102
RTVSPost2010PropOp29
 70
     1
102
RTVSPost2010Prop30
280
     1
102
RTVSPost2010PropOp30
 70
     1
102
RTVSPost2010Prop31
280
     0
102
RTVSPost2010PropOp31
 70
     1
102
RTVSPost2010Prop32
280
     0
102
RTVSPost2010PropOp32
 70
     1
102
RTVSPost2010Prop33
280
     0
102
RTVSPost2010PropOp33
 70
     1
102
RTVSPost2010Prop34
280
     0
102
RTVSPost2010PropOp34
 70
     1
102
RTVSPost2010Prop35
280
     0
102
RTVSPost2010PropOp35
 70
     1
102
RTVSPost2010Prop36
280
     0
102
RTVSPost2010PropOp36
 70
     1
102
RTVSPost2010Prop37
 90
       50
102
RTVSPost2010PropOp37
 70
     1
102
RTVSPost2010Prop38
140
0.0
102
RTVSPost2010PropOp38
 70
     1
102
RTVSPost2010Prop39
140
1.0
102
RTVSPost2010PropOp39
 70
     1
102
RTVSPost2010Prop40
 90
        0
102
RTVSPost2010PropOp40
 70
     1
102
RTVSPost2010Prop41ColorIndex
 90
       18
102
RTVSPost2010Prop41ColorRGB
 90
        0
102
RTVSPost2010PropOp41
 70
     1
102
RTVSPost2010Prop42
 90
       50
102
RTVSPost2010PropOp42
 70
     1
102
RTVSPost2010Prop43
 90
        3
102
RTVSPost2010PropOp43
 70
     1
102
RTVSPost2010Prop44ColorIndex
 90
        5
102
RTVSPost2010Prop44ColorRGB
 90
      255
102
RTVSPost2010PropOp44
 70
     1
102
RTVSPost2010Prop45
280
     0
102
RTVSPost2010PropOp45
 70
     1
102
RTVSPost2010Prop46
 90
       50
102
RTVSPost2010PropOp46
 70
     1
102
RTVSPost2010Prop47
 90
       50
102
RTVSPost2010PropOp47
 70
     1
102
RTVSPost2010Prop48
 90
       50
102
RTVSPost2010PropOp48
 70
     1
102
RTVSPost2010Prop49
280
     0
102
RTVSPost2010PropOp49
 70
     1
102
RTVSPost2010Prop50
 90
       50
102
RTVSPost2010PropOp50
 70
     1
102
RTVSPost2010Prop51ColorIndex
 90
      256
102
RTVSPost2010Prop51ColorRGB
 90
-16777216
102
RTVSPost2010PropOp51
 70
     0
102
RTVSPost2010Prop52
140
1.0
102
RTVSPost2010PropOp52
 70
     0
102
RTVSPost2010Prop53
 90
        2
102
RTVSPost2010PropOp53
 70
     1
102
RTVSPost2010Prop54
  1
strokes_ogs.tif
102
RTVSPost2010PropOp54
 70
     1
102
RTVSPost2010Prop55
280
     0
102
RTVSPost2010PropOp55
 70
     1
102
RTVSPost2010Prop56
140
1.0
102
RTVSPost2010PropOp56
 70
     1
102
RTVSPost2010Prop57
140
1.0
102
RTVSPost2010PropOp57
 70
     1
  0
XRECORD
  5
332
102
{ACAD_REACTORS
330
331
102
}
330
331
100
AcDbXrecord
280
     1
102
RTVSPropertyOp0
 70
     0
102
RTVSPropertyOp1
 70
     0
102
RTVSPropertyOp2
 70
     0
102
RTVSPropertyOp3
 70
     0
102
RTVSPropertyOp4
 70
     0
102
RTVSPropertyOp5
 70
     0
102
RTVSPropertyOp6
 70
     0
102
RTVSPropertyOp7
 70
     0
102
RTVSPropertyOp8
 70
     0
102
RTVSPropertyOp9
 70
     0
102
RTVSPropertyOp10
 70
     0
102
RTVSPropertyOp11
 70
     0
102
RTVSPropertyOp12
 70
     0
102
RTVSPropertyOp13
 70
     0
102
RTVSPropertyOp14
 70
     2
102
RTVSPropertyOp15
 70
     0
102
RTVSPropertyOp16
 70
     0
102
RTVSPropertyOp17
 70
     0
102
RTVSPropertyOp18
 70
     0
102
RTVSPropertyOp19
 70
     0
102
RTVSPropertyOp20
 70
     0
102
RTVSPropertyOp21
 70
     0
102
RTVSPropertyOp22
 70
     0
102
RTVSPropertyOp23
 70
     0
102
RTVSPropertyOp24
 70
     0
102
RTVSPropertyOp25
 70
     0
102
RTVSPropertyOp26
 70
     0
102
RTVSPropertyOp27
 70
     0
102
RTVSPropertyOp28
 70
     0
102
RTVSPropertyOp29
 70
     0
102
RTVSPropertyOp30
 70
     0
102
RTVSPropertyOp31
 70
     0
102
RTVSPropertyOp32
 70
     0
102
RTVSPropertyOp33
 70
     0
102
RTVSPropertyOp34
 70
     0
102
RTVSPropertyOp35
 70
     0
102
RTVSPropertyOp36
 70
     0
102
RTVSPropertyOp37
 70
     0
102
RTVSPropertyOp38
 70
     0
102
RTVSPropertyOp39
 70
     0
102
RTVSPropertyOp40
 70
     0
102
RTVSPropertyOp41
 70
     0
102
RTVSPropertyOp42
 70
     0
102
RTVSPropertyOp43
 70
     0
102
RTVSPropertyOp44
 70
     0
102
RTVSPropertyOp45
 70
     0
102
RTVSPropertyOp46
 70
     0
102
RTVSPropertyOp47
 70
     0
102
RTVSPropertyOp48
 70
     0
102
RTVSPropertyOp49
 70
     0
102
RTVSPropertyOp50
 70
     0
102
RTVSPropertyOp51
 70
     0
102
RTVSPropertyOp52
 70
     0
102
RTVSPropertyOp53
 70
     0
102
RTVSPropertyOp54
 70
     0
102
RTVSPropertyOp55
 70
     0
102
RTVSPropertyOp56
 70
     0
102
RTVSPropertyOp57
 70
     0
102
RTVSPost2010Prop28
280
     0
102
RTVSPost2010PropOp28
 70
     0
102
RTVSPost2010Prop29
280
     1
102
RTVSPost2010PropOp29
 70
     0
102
RTVSPost2010Prop30
280
     1
102
RTVSPost2010PropOp30
 70
     0
102
RTVSPost2010Prop31
280
     0
102
RTVSPost2010PropOp31
 70
     0
102
RTVSPost2010Prop32
280
     0
102
RTVSPost2010PropOp32
 70
     0
102
RTVSPost2010Prop33
280
     0
102
RTVSPost2010PropOp33
 70
     0
102
RTVSPost2010Prop34
280
     0
102
RTVSPost2010PropOp34
 70
     0
102
RTVSPost2010Prop35
280
     0
102
RTVSPost2010PropOp35
 70
     0
102
RTVSPost2010Prop36
280
     0
102
RTVSPost2010PropOp36
 70
     0
102
RTVSPost2010Prop37
 90
       50
102
RTVSPost2010PropOp37
 70
     0
102
RTVSPost2010Prop38
140
0.0
102
RTVSPost2010PropOp38
 70
     0
102
RTVSPost2010Prop39
140
1.0
102
RTVSPost2010PropOp39
 70
     0
102
RTVSPost2010Prop40
 90
        0
102
RTVSPost2010PropOp40
 70
     0
102
RTVSPost2010Prop41ColorIndex
 90
       18
102
RTVSPost2010Prop41ColorRGB
 90
        0
102
RTVSPost2010PropOp41
 70
     0
102
RTVSPost2010Prop42
 90
       50
102
RTVSPost2010PropOp42
 70
     0
102
RTVSPost2010Prop43
 90
        3
102
RTVSPost2010PropOp43
 70
     0
102
RTVSPost2010Prop44ColorIndex
 90
        5
102
RTVSPost2010Prop44ColorRGB
 90
      255
102
RTVSPost2010PropOp44
 70
     0
102
RTVSPost2010Prop45
280
     0
102
RTVSPost2010PropOp45
 70
     0
102
RTVSPost2010Prop46
 90
       50
102
RTVSPost2010PropOp46
 70
     0
102
RTVSPost2010Prop47
 90
       50
102
RTVSPost2010PropOp47
 70
     0
102
RTVSPost2010Prop48
 90
       50
102
RTVSPost2010PropOp48
 70
     0
102
RTVSPost2010Prop49
280
     0
102
RTVSPost2010PropOp49
 70
     0
102
RTVSPost2010Prop50
 90
       50
102
RTVSPost2010PropOp50
 70
     0
102
RTVSPost2010Prop51ColorIndex
 90
      256
102
RTVSPost2010Prop51ColorRGB
 90
-16777216
102
RTVSPost2010PropOp51
 70
     0
102
RTVSPost2010Prop52
140
1.0
102
RTVSPost2010PropOp52
 70
     0
102
RTVSPost2010Prop53
 90
        2
102
RTVSPost2010PropOp53
 70
     0
102
RTVSPost2010Prop54
  1
strokes_ogs.tif
102
RTVSPost2010PropOp54
 70
     0
102
RTVSPost2010Prop55
280
     0
102
RTVSPost2010PropOp55
 70
     0
102
RTVSPost2010Prop56
140
1.0
102
RTVSPost2010PropOp56
 70
     0
102
RTVSPost2010Prop57
140
1.0
102
RTVSPost2010PropOp57
 70
     0
  0
XRECORD
  5
32A
102
{ACAD_REACTORS
330
329
102
}
330
329
100
AcDbXrecord
280
     1
102
RTVSPropertyOp0
 70
     1
102
RTVSPropertyOp1
 70
     1
102
RTVSPropertyOp2
 70
     1
102
RTVSPropertyOp3
 70
     1
102
RTVSPropertyOp4
 70
     1
102
RTVSPropertyOp5
 70
     1
102
RTVSPropertyOp6
 70
     1
102
RTVSPropertyOp7
 70
     1
102
RTVSPropertyOp8
 70
     1
102
RTVSPropertyOp9
 70
     1
102
RTVSPropertyOp10
 70
     1
102
RTVSPropertyOp11
 70
     1
102
RTVSPropertyOp12
 70
     1
102
RTVSPropertyOp13
 70
     1
102
RTVSPropertyOp14
 70
     1
102
RTVSPropertyOp15
 70
     1
102
RTVSPropertyOp16
 70
     1
102
RTVSPropertyOp17
 70
     1
102
RTVSPropertyOp18
 70
     1
102
RTVSPropertyOp19
 70
     1
102
RTVSPropertyOp20
 70
     1
102
RTVSPropertyOp21
 70
     1
102
RTVSPropertyOp22
 70
     1
102
RTVSPropertyOp23
 70
     1
102
RTVSPropertyOp24
 70
     1
102
RTVSPropertyOp25
 70
     1
102
RTVSPropertyOp26
 70
     1
102
RTVSPropertyOp27
 70
     1
102
RTVSPropertyOp28
 70
     1
102
RTVSPropertyOp29
 70
     1
102
RTVSPropertyOp30
 70
     1
102
RTVSPropertyOp31
 70
     1
102
RTVSPropertyOp32
 70
     1
102
RTVSPropertyOp33
 70
     1
102
RTVSPropertyOp34
 70
     1
102
RTVSPropertyOp35
 70
     1
102
RTVSPropertyOp36
 70
     1
102
RTVSPropertyOp37
 70
     1
102
RTVSPropertyOp38
 70
     1
102
RTVSPropertyOp39
 70
     1
102
RTVSPropertyOp40
 70
     1
102
RTVSPropertyOp41
 70
     1
102
RTVSPropertyOp42
 70
     1
102
RTVSPropertyOp43
 70
     1
102
RTVSPropertyOp44
 70
     1
102
RTVSPropertyOp45
 70
     1
102
RTVSPropertyOp46
 70
     1
102
RTVSPropertyOp47
 70
     1
102
RTVSPropertyOp48
 70
     1
102
RTVSPropertyOp49
 70
     1
102
RTVSPropertyOp50
 70
     1
102
RTVSPropertyOp51
 70
     0
102
RTVSPropertyOp52
 70
     0
102
RTVSPropertyOp53
 70
     1
102
RTVSPropertyOp54
 70
     1
102
RTVSPropertyOp55
 70
     1
102
RTVSPropertyOp56
 70
     1
102
RTVSPropertyOp57
 70
     1
102
RTVSPost2010Prop28
280
     0
102
RTVSPost2010PropOp28
 70
     1
102
RTVSPost2010Prop29
280
     1
102
RTVSPost2010PropOp29
 70
     1
102
RTVSPost2010Prop30
280
     1
102
RTVSPost2010PropOp30
 70
     1
102
RTVSPost2010Prop31
280
     0
102
RTVSPost2010PropOp31
 70
     1
102
RTVSPost2010Prop32
280
     0
102
RTVSPost2010PropOp32
 70
     1
102
RTVSPost2010Prop33
280
     0
102
RTVSPost2010PropOp33
 70
     1
102
RTVSPost2010Prop34
280
     0
102
RTVSPost2010PropOp34
 70
     1
102
RTVSPost2010Prop35
280
     0
102
RTVSPost2010PropOp35
 70
     1
102
RTVSPost2010Prop36
280
     0
102
RTVSPost2010PropOp36
 70
     1
102
RTVSPost2010Prop37
 90
       50
102
RTVSPost2010PropOp37
 70
     1
102
RTVSPost2010Prop38
140
0.0
102
RTVSPost2010PropOp38
 70
     1
102
RTVSPost2010Prop39
140
1.0
102
RTVSPost2010PropOp39
 70
     1
102
RTVSPost2010Prop40
 90
        0
102
RTVSPost2010PropOp40
 70
     1
102
RTVSPost2010Prop41ColorIndex
 90
       18
102
RTVSPost2010Prop41ColorRGB
 90
        0
102
RTVSPost2010PropOp41
 70
     1
102
RTVSPost2010Prop42
 90
       50
102
RTVSPost2010PropOp42
 70
     1
102
RTVSPost2010Prop43
 90
        3
102
RTVSPost2010PropOp43
 70
     1
102
RTVSPost2010Prop44ColorIndex
 90
        5
102
RTVSPost2010Prop44ColorRGB
 90
      255
102
RTVSPost2010PropOp44
 70
     1
102
RTVSPost2010Prop45
280
     0
102
RTVSPost2010PropOp45
 70
     1
102
RTVSPost2010Prop46
 90
       50
102
RTVSPost2010PropOp46
 70
     1
102
RTVSPost2010Prop47
 90
       50
102
RTVSPost2010PropOp47
 70
     1
102
RTVSPost2010Prop48
 90
       50
102
RTVSPost2010PropOp48
 70
     1
102
RTVSPost2010Prop49
280
     0
102
RTVSPost2010PropOp49
 70
     1
102
RTVSPost2010Prop50
 90
       50
102
RTVSPost2010PropOp50
 70
     1
102
RTVSPost2010Prop51ColorIndex
 90
      256
102
RTVSPost2010Prop51ColorRGB
 90
-16777216
102
RTVSPost2010PropOp51
 70
     0
102
RTVSPost2010Prop52
140
1.0
102
RTVSPost2010PropOp52
 70
     0
102
RTVSPost2010Prop53
 90
        2
102
RTVSPost2010PropOp53
 70
     1
102
RTVSPost2010Prop54
  1
strokes_ogs.tif
102
RTVSPost2010PropOp54
 70
     1
102
RTVSPost2010Prop55
280
     0
102
RTVSPost2010PropOp55
 70
     1
102
RTVSPost2010Prop56
140
1.0
102
RTVSPost2010PropOp56
 70
     1
102
RTVSPost2010Prop57
140
1.0
102
RTVSPost2010PropOp57
 70
     1
  0
XRECORD
  5
30E
102
{ACAD_REACTORS
330
30D
102
}
330
30D
100
AcDbXrecord
280
     1
102
RTVSPropertyOp0
 70
     1
102
RTVSPropertyOp1
 70
     1
102
RTVSPropertyOp2
 70
     1
102
RTVSPropertyOp3
 70
     1
102
RTVSPropertyOp4
 70
     1
102
RTVSPropertyOp5
 70
     1
102
RTVSPropertyOp6
 70
     1
102
RTVSPropertyOp7
 70
     1
102
RTVSPropertyOp8
 70
     1
102
RTVSPropertyOp9
 70
     1
102
RTVSPropertyOp10
 70
     1
102
RTVSPropertyOp11
 70
     1
102
RTVSPropertyOp12
 70
     1
102
RTVSPropertyOp13
 70
     1
102
RTVSPropertyOp14
 70
     1
102
RTVSPropertyOp15
 70
     1
102
RTVSPropertyOp16
 70
     1
102
RTVSPropertyOp17
 70
     1
102
RTVSPropertyOp18
 70
     1
102
RTVSPropertyOp19
 70
     1
102
RTVSPropertyOp20
 70
     1
102
RTVSPropertyOp21
 70
     1
102
RTVSPropertyOp22
 70
     1
102
RTVSPropertyOp23
 70
     1
102
RTVSPropertyOp24
 70
     1
102
RTVSPropertyOp25
 70
     1
102
RTVSPropertyOp26
 70
     1
102
RTVSPropertyOp27
 70
     1
102
RTVSPropertyOp28
 70
     1
102
RTVSPropertyOp29
 70
     1
102
RTVSPropertyOp30
 70
     1
102
RTVSPropertyOp31
 70
     1
102
RTVSPropertyOp32
 70
     1
102
RTVSPropertyOp33
 70
     1
102
RTVSPropertyOp34
 70
     1
102
RTVSPropertyOp35
 70
     1
102
RTVSPropertyOp36
 70
     1
102
RTVSPropertyOp37
 70
     1
102
RTVSPropertyOp38
 70
     1
102
RTVSPropertyOp39
 70
     1
102
RTVSPropertyOp40
 70
     1
102
RTVSPropertyOp41
 70
     1
102
RTVSPropertyOp42
 70
     1
102
RTVSPropertyOp43
 70
     1
102
RTVSPropertyOp44
 70
     1
102
RTVSPropertyOp45
 70
     1
102
RTVSPropertyOp46
 70
     1
102
RTVSPropertyOp47
 70
     1
102
RTVSPropertyOp48
 70
     1
102
RTVSPropertyOp49
 70
     1
102
RTVSPropertyOp50
 70
     1
102
RTVSPropertyOp51
 70
     0
102
RTVSPropertyOp52
 70
     0
102
RTVSPropertyOp53
 70
     1
102
RTVSPropertyOp54
 70
     1
102
RTVSPropertyOp55
 70
     1
102
RTVSPropertyOp56
 70
     1
102
RTVSPropertyOp57
 70
     1
102
RTVSPost2010Prop28
280
     0
102
RTVSPost2010PropOp28
 70
     1
102
RTVSPost2010Prop29
280
     1
102
RTVSPost2010PropOp29
 70
     1
102
RTVSPost2010Prop30
280
     1
102
RTVSPost2010PropOp30
 70
     1
102
RTVSPost2010Prop31
280
     0
102
RTVSPost2010PropOp31
 70
     1
102
RTVSPost2010Prop32
280
     0
102
RTVSPost2010PropOp32
 70
     1
102
RTVSPost2010Prop33
280
     0
102
RTVSPost2010PropOp33
 70
     1
102
RTVSPost2010Prop34
280
     0
102
RTVSPost2010PropOp34
 70
     1
102
RTVSPost2010Prop35
280
     0
102
RTVSPost2010PropOp35
 70
     1
102
RTVSPost2010Prop36
280
     0
102
RTVSPost2010PropOp36
 70
     1
102
RTVSPost2010Prop37
 90
       50
102
RTVSPost2010PropOp37
 70
     1
102
RTVSPost2010Prop38
140
0.0
102
RTVSPost2010PropOp38
 70
     1
102
RTVSPost2010Prop39
140
1.0
102
RTVSPost2010PropOp39
 70
     1
102
RTVSPost2010Prop40
 90
        0
102
RTVSPost2010PropOp40
 70
     1
102
RTVSPost2010Prop41ColorIndex
 90
       18
102
RTVSPost2010Prop41ColorRGB
 90
        0
102
RTVSPost2010PropOp41
 70
     1
102
RTVSPost2010Prop42
 90
       50
102
RTVSPost2010PropOp42
 70
     1
102
RTVSPost2010Prop43
 90
        3
102
RTVSPost2010PropOp43
 70
     1
102
RTVSPost2010Prop44ColorIndex
 90
        5
102
RTVSPost2010Prop44ColorRGB
 90
      255
102
RTVSPost2010PropOp44
 70
     1
102
RTVSPost2010Prop45
280
     0
102
RTVSPost2010PropOp45
 70
     1
102
RTVSPost2010Prop46
 90
       50
102
RTVSPost2010PropOp46
 70
     1
102
RTVSPost2010Prop47
 90
       50
102
RTVSPost2010PropOp47
 70
     1
102
RTVSPost2010Prop48
 90
       50
102
RTVSPost2010PropOp48
 70
     1
102
RTVSPost2010Prop49
280
     0
102
RTVSPost2010PropOp49
 70
     1
102
RTVSPost2010Prop50
 90
       50
102
RTVSPost2010PropOp50
 70
     1
102
RTVSPost2010Prop51ColorIndex
 90
      256
102
RTVSPost2010Prop51ColorRGB
 90
-16777216
102
RTVSPost2010PropOp51
 70
     0
102
RTVSPost2010Prop52
140
1.0
102
RTVSPost2010PropOp52
 70
     0
102
RTVSPost2010Prop53
 90
        2
102
RTVSPost2010PropOp53
 70
     1
102
RTVSPost2010Prop54
  1
strokes_ogs.tif
102
RTVSPost2010PropOp54
 70
     1
102
RTVSPost2010Prop55
280
     0
102
RTVSPost2010PropOp55
 70
     1
102
RTVSPost2010Prop56
140
1.0
102
RTVSPost2010PropOp56
 70
     1
102
RTVSPost2010Prop57
140
1.0
102
RTVSPost2010PropOp57
 70
     1
  0
XRECORD
  5
310
102
{ACAD_REACTORS
330
30F
102
}
330
30F
100
AcDbXrecord
280
     1
102
RTVSPropertyOp0
 70
     1
102
RTVSPropertyOp1
 70
     1
102
RTVSPropertyOp2
 70
     1
102
RTVSPropertyOp3
 70
     1
102
RTVSPropertyOp4
 70
     1
102
RTVSPropertyOp5
 70
     1
102
RTVSPropertyOp6
 70
     1
102
RTVSPropertyOp7
 70
     1
102
RTVSPropertyOp8
 70
     1
102
RTVSPropertyOp9
 70
     1
102
RTVSPropertyOp10
 70
     1
102
RTVSPropertyOp11
 70
     1
102
RTVSPropertyOp12
 70
     1
102
RTVSPropertyOp13
 70
     1
102
RTVSPropertyOp14
 70
     1
102
RTVSPropertyOp15
 70
     1
102
RTVSPropertyOp16
 70
     1
102
RTVSPropertyOp17
 70
     1
102
RTVSPropertyOp18
 70
     1
102
RTVSPropertyOp19
 70
     1
102
RTVSPropertyOp20
 70
     1
102
RTVSPropertyOp21
 70
     1
102
RTVSPropertyOp22
 70
     1
102
RTVSPropertyOp23
 70
     1
102
RTVSPropertyOp24
 70
     1
102
RTVSPropertyOp25
 70
     1
102
RTVSPropertyOp26
 70
     1
102
RTVSPropertyOp27
 70
     1
102
RTVSPropertyOp28
 70
     1
102
RTVSPropertyOp29
 70
     1
102
RTVSPropertyOp30
 70
     1
102
RTVSPropertyOp31
 70
     1
102
RTVSPropertyOp32
 70
     1
102
RTVSPropertyOp33
 70
     1
102
RTVSPropertyOp34
 70
     1
102
RTVSPropertyOp35
 70
     1
102
RTVSPropertyOp36
 70
     1
102
RTVSPropertyOp37
 70
     1
102
RTVSPropertyOp38
 70
     1
102
RTVSPropertyOp39
 70
     1
102
RTVSPropertyOp40
 70
     1
102
RTVSPropertyOp41
 70
     1
102
RTVSPropertyOp42
 70
     1
102
RTVSPropertyOp43
 70
     1
102
RTVSPropertyOp44
 70
     1
102
RTVSPropertyOp45
 70
     1
102
RTVSPropertyOp46
 70
     1
102
RTVSPropertyOp47
 70
     1
102
RTVSPropertyOp48
 70
     1
102
RTVSPropertyOp49
 70
     1
102
RTVSPropertyOp50
 70
     1
102
RTVSPropertyOp51
 70
     0
102
RTVSPropertyOp52
 70
     0
102
RTVSPropertyOp53
 70
     1
102
RTVSPropertyOp54
 70
     1
102
RTVSPropertyOp55
 70
     1
102
RTVSPropertyOp56
 70
     1
102
RTVSPropertyOp57
 70
     1
102
RTVSPost2010Prop28
280
     0
102
RTVSPost2010PropOp28
 70
     1
102
RTVSPost2010Prop29
280
     1
102
RTVSPost2010PropOp29
 70
     1
102
RTVSPost2010Prop30
280
     1
102
RTVSPost2010PropOp30
 70
     1
102
RTVSPost2010Prop31
280
     0
102
RTVSPost2010PropOp31
 70
     1
102
RTVSPost2010Prop32
280
     0
102
RTVSPost2010PropOp32
 70
     1
102
RTVSPost2010Prop33
280
     0
102
RTVSPost2010PropOp33
 70
     1
102
RTVSPost2010Prop34
280
     0
102
RTVSPost2010PropOp34
 70
     1
102
RTVSPost2010Prop35
280
     0
102
RTVSPost2010PropOp35
 70
     1
102
RTVSPost2010Prop36
280
     0
102
RTVSPost2010PropOp36
 70
     1
102
RTVSPost2010Prop37
 90
       50
102
RTVSPost2010PropOp37
 70
     1
102
RTVSPost2010Prop38
140
0.0
102
RTVSPost2010PropOp38
 70
     1
102
RTVSPost2010Prop39
140
1.0
102
RTVSPost2010PropOp39
 70
     1
102
RTVSPost2010Prop40
 90
        0
102
RTVSPost2010PropOp40
 70
     1
102
RTVSPost2010Prop41ColorIndex
 90
       18
102
RTVSPost2010Prop41ColorRGB
 90
        0
102
RTVSPost2010PropOp41
 70
     1
102
RTVSPost2010Prop42
 90
       50
102
RTVSPost2010PropOp42
 70
     1
102
RTVSPost2010Prop43
 90
        3
102
RTVSPost2010PropOp43
 70
     1
102
RTVSPost2010Prop44ColorIndex
 90
        5
102
RTVSPost2010Prop44ColorRGB
 90
      255
102
RTVSPost2010PropOp44
 70
     1
102
RTVSPost2010Prop45
280
     0
102
RTVSPost2010PropOp45
 70
     1
102
RTVSPost2010Prop46
 90
       50
102
RTVSPost2010PropOp46
 70
     1
102
RTVSPost2010Prop47
 90
       50
102
RTVSPost2010PropOp47
 70
     1
102
RTVSPost2010Prop48
 90
       50
102
RTVSPost2010PropOp48
 70
     1
102
RTVSPost2010Prop49
280
     0
102
RTVSPost2010PropOp49
 70
     1
102
RTVSPost2010Prop50
 90
       50
102
RTVSPost2010PropOp50
 70
     1
102
RTVSPost2010Prop51ColorIndex
 90
      256
102
RTVSPost2010Prop51ColorRGB
 90
-16777216
102
RTVSPost2010PropOp51
 70
     0
102
RTVSPost2010Prop52
140
1.0
102
RTVSPost2010PropOp52
 70
     0
102
RTVSPost2010Prop53
 90
        2
102
RTVSPost2010PropOp53
 70
     1
102
RTVSPost2010Prop54
  1
strokes_ogs.tif
102
RTVSPost2010PropOp54
 70
     1
102
RTVSPost2010Prop55
280
     0
102
RTVSPost2010PropOp55
 70
     1
102
RTVSPost2010Prop56
140
1.0
102
RTVSPost2010PropOp56
 70
     1
102
RTVSPost2010Prop57
140
1.0
102
RTVSPost2010PropOp57
 70
     1
  0
XRECORD
  5
312
102
{ACAD_REACTORS
330
311
102
}
330
311
100
AcDbXrecord
280
     1
102
RTVSPropertyOp0
 70
     1
102
RTVSPropertyOp1
 70
     1
102
RTVSPropertyOp2
 70
     1
102
RTVSPropertyOp3
 70
     1
102
RTVSPropertyOp4
 70
     1
102
RTVSPropertyOp5
 70
     1
102
RTVSPropertyOp6
 70
     1
102
RTVSPropertyOp7
 70
     1
102
RTVSPropertyOp8
 70
     1
102
RTVSPropertyOp9
 70
     1
102
RTVSPropertyOp10
 70
     1
102
RTVSPropertyOp11
 70
     1
102
RTVSPropertyOp12
 70
     1
102
RTVSPropertyOp13
 70
     1
102
RTVSPropertyOp14
 70
     1
102
RTVSPropertyOp15
 70
     1
102
RTVSPropertyOp16
 70
     1
102
RTVSPropertyOp17
 70
     1
102
RTVSPropertyOp18
 70
     1
102
RTVSPropertyOp19
 70
     1
102
RTVSPropertyOp20
 70
     1
102
RTVSPropertyOp21
 70
     1
102
RTVSPropertyOp22
 70
     1
102
RTVSPropertyOp23
 70
     1
102
RTVSPropertyOp24
 70
     1
102
RTVSPropertyOp25
 70
     1
102
RTVSPropertyOp26
 70
     1
102
RTVSPropertyOp27
 70
     1
102
RTVSPropertyOp28
 70
     1
102
RTVSPropertyOp29
 70
     1
102
RTVSPropertyOp30
 70
     1
102
RTVSPropertyOp31
 70
     1
102
RTVSPropertyOp32
 70
     1
102
RTVSPropertyOp33
 70
     1
102
RTVSPropertyOp34
 70
     1
102
RTVSPropertyOp35
 70
     1
102
RTVSPropertyOp36
 70
     1
102
RTVSPropertyOp37
 70
     1
102
RTVSPropertyOp38
 70
     1
102
RTVSPropertyOp39
 70
     1
102
RTVSPropertyOp40
 70
     1
102
RTVSPropertyOp41
 70
     1
102
RTVSPropertyOp42
 70
     1
102
RTVSPropertyOp43
 70
     1
102
RTVSPropertyOp44
 70
     1
102
RTVSPropertyOp45
 70
     1
102
RTVSPropertyOp46
 70
     1
102
RTVSPropertyOp47
 70
     1
102
RTVSPropertyOp48
 70
     1
102
RTVSPropertyOp49
 70
     1
102
RTVSPropertyOp50
 70
     1
102
RTVSPropertyOp51
 70
     0
102
RTVSPropertyOp52
 70
     0
102
RTVSPropertyOp53
 70
     1
102
RTVSPropertyOp54
 70
     1
102
RTVSPropertyOp55
 70
     1
102
RTVSPropertyOp56
 70
     1
102
RTVSPropertyOp57
 70
     1
102
RTVSPost2010Prop28
280
     0
102
RTVSPost2010PropOp28
 70
     1
102
RTVSPost2010Prop29
280
     1
102
RTVSPost2010PropOp29
 70
     1
102
RTVSPost2010Prop30
280
     1
102
RTVSPost2010PropOp30
 70
     1
102
RTVSPost2010Prop31
280
     0
102
RTVSPost2010PropOp31
 70
     1
102
RTVSPost2010Prop32
280
     0
102
RTVSPost2010PropOp32
 70
     1
102
RTVSPost2010Prop33
280
     0
102
RTVSPost2010PropOp33
 70
     1
102
RTVSPost2010Prop34
280
     0
102
RTVSPost2010PropOp34
 70
     1
102
RTVSPost2010Prop35
280
     0
102
RTVSPost2010PropOp35
 70
     1
102
RTVSPost2010Prop36
280
     0
102
RTVSPost2010PropOp36
 70
     1
102
RTVSPost2010Prop37
 90
       50
102
RTVSPost2010PropOp37
 70
     1
102
RTVSPost2010Prop38
140
0.0
102
RTVSPost2010PropOp38
 70
     1
102
RTVSPost2010Prop39
140
1.0
102
RTVSPost2010PropOp39
 70
     1
102
RTVSPost2010Prop40
 90
        0
102
RTVSPost2010PropOp40
 70
     1
102
RTVSPost2010Prop41ColorIndex
 90
       18
102
RTVSPost2010Prop41ColorRGB
 90
        0
102
RTVSPost2010PropOp41
 70
     1
102
RTVSPost2010Prop42
 90
       50
102
RTVSPost2010PropOp42
 70
     1
102
RTVSPost2010Prop43
 90
        3
102
RTVSPost2010PropOp43
 70
     1
102
RTVSPost2010Prop44ColorIndex
 90
        5
102
RTVSPost2010Prop44ColorRGB
 90
      255
102
RTVSPost2010PropOp44
 70
     1
102
RTVSPost2010Prop45
280
     0
102
RTVSPost2010PropOp45
 70
     1
102
RTVSPost2010Prop46
 90
       50
102
RTVSPost2010PropOp46
 70
     1
102
RTVSPost2010Prop47
 90
       50
102
RTVSPost2010PropOp47
 70
     1
102
RTVSPost2010Prop48
 90
       50
102
RTVSPost2010PropOp48
 70
     1
102
RTVSPost2010Prop49
280
     0
102
RTVSPost2010PropOp49
 70
     1
102
RTVSPost2010Prop50
 90
       50
102
RTVSPost2010PropOp50
 70
     1
102
RTVSPost2010Prop51ColorIndex
 90
      256
102
RTVSPost2010Prop51ColorRGB
 90
-16777216
102
RTVSPost2010PropOp51
 70
     0
102
RTVSPost2010Prop52
140
1.0
102
RTVSPost2010PropOp52
 70
     0
102
RTVSPost2010Prop53
 90
        2
102
RTVSPost2010PropOp53
 70
     1
102
RTVSPost2010Prop54
  1
strokes_ogs.tif
102
RTVSPost2010PropOp54
 70
     1
102
RTVSPost2010Prop55
280
     0
102
RTVSPost2010PropOp55
 70
     1
102
RTVSPost2010Prop56
140
1.0
102
RTVSPost2010PropOp56
 70
     1
102
RTVSPost2010Prop57
140
1.0
102
RTVSPost2010PropOp57
 70
     1
  0
XRECORD
  5
314
102
{ACAD_REACTORS
330
313
102
}
330
313
100
AcDbXrecord
280
     1
102
RTVSPropertyOp0
 70
     1
102
RTVSPropertyOp1
 70
     1
102
RTVSPropertyOp2
 70
     1
102
RTVSPropertyOp3
 70
     1
102
RTVSPropertyOp4
 70
     1
102
RTVSPropertyOp5
 70
     1
102
RTVSPropertyOp6
 70
     1
102
RTVSPropertyOp7
 70
     1
102
RTVSPropertyOp8
 70
     1
102
RTVSPropertyOp9
 70
     1
102
RTVSPropertyOp10
 70
     1
102
RTVSPropertyOp11
 70
     1
102
RTVSPropertyOp12
 70
     1
102
RTVSPropertyOp13
 70
     1
102
RTVSPropertyOp14
 70
     1
102
RTVSPropertyOp15
 70
     1
102
RTVSPropertyOp16
 70
     1
102
RTVSPropertyOp17
 70
     1
102
RTVSPropertyOp18
 70
     1
102
RTVSPropertyOp19
 70
     1
102
RTVSPropertyOp20
 70
     1
102
RTVSPropertyOp21
 70
     1
102
RTVSPropertyOp22
 70
     1
102
RTVSPropertyOp23
 70
     1
102
RTVSPropertyOp24
 70
     1
102
RTVSPropertyOp25
 70
     1
102
RTVSPropertyOp26
 70
     1
102
RTVSPropertyOp27
 70
     1
102
RTVSPropertyOp28
 70
     1
102
RTVSPropertyOp29
 70
     1
102
RTVSPropertyOp30
 70
     1
102
RTVSPropertyOp31
 70
     1
102
RTVSPropertyOp32
 70
     1
102
RTVSPropertyOp33
 70
     1
102
RTVSPropertyOp34
 70
     1
102
RTVSPropertyOp35
 70
     1
102
RTVSPropertyOp36
 70
     1
102
RTVSPropertyOp37
 70
     1
102
RTVSPropertyOp38
 70
     1
102
RTVSPropertyOp39
 70
     1
102
RTVSPropertyOp40
 70
     1
102
RTVSPropertyOp41
 70
     1
102
RTVSPropertyOp42
 70
     1
102
RTVSPropertyOp43
 70
     1
102
RTVSPropertyOp44
 70
     1
102
RTVSPropertyOp45
 70
     1
102
RTVSPropertyOp46
 70
     1
102
RTVSPropertyOp47
 70
     1
102
RTVSPropertyOp48
 70
     1
102
RTVSPropertyOp49
 70
     1
102
RTVSPropertyOp50
 70
     1
102
RTVSPropertyOp51
 70
     0
102
RTVSPropertyOp52
 70
     0
102
RTVSPropertyOp53
 70
     1
102
RTVSPropertyOp54
 70
     1
102
RTVSPropertyOp55
 70
     1
102
RTVSPropertyOp56
 70
     1
102
RTVSPropertyOp57
 70
     1
102
RTVSPost2010Prop28
280
     0
102
RTVSPost2010PropOp28
 70
     1
102
RTVSPost2010Prop29
280
     1
102
RTVSPost2010PropOp29
 70
     1
102
RTVSPost2010Prop30
280
     1
102
RTVSPost2010PropOp30
 70
     1
102
RTVSPost2010Prop31
280
     0
102
RTVSPost2010PropOp31
 70
     1
102
RTVSPost2010Prop32
280
     0
102
RTVSPost2010PropOp32
 70
     1
102
RTVSPost2010Prop33
280
     0
102
RTVSPost2010PropOp33
 70
     1
102
RTVSPost2010Prop34
280
     0
102
RTVSPost2010PropOp34
 70
     1
102
RTVSPost2010Prop35
280
     0
102
RTVSPost2010PropOp35
 70
     1
102
RTVSPost2010Prop36
280
     0
102
RTVSPost2010PropOp36
 70
     1
102
RTVSPost2010Prop37
 90
       50
102
RTVSPost2010PropOp37
 70
     1
102
RTVSPost2010Prop38
140
0.0
102
RTVSPost2010PropOp38
 70
     1
102
RTVSPost2010Prop39
140
1.0
102
RTVSPost2010PropOp39
 70
     1
102
RTVSPost2010Prop40
 90
        0
102
RTVSPost2010PropOp40
 70
     1
102
RTVSPost2010Prop41ColorIndex
 90
       18
102
RTVSPost2010Prop41ColorRGB
 90
        0
102
RTVSPost2010PropOp41
 70
     1
102
RTVSPost2010Prop42
 90
       50
102
RTVSPost2010PropOp42
 70
     1
102
RTVSPost2010Prop43
 90
        3
102
RTVSPost2010PropOp43
 70
     1
102
RTVSPost2010Prop44ColorIndex
 90
        5
102
RTVSPost2010Prop44ColorRGB
 90
      255
102
RTVSPost2010PropOp44
 70
     1
102
RTVSPost2010Prop45
280
     0
102
RTVSPost2010PropOp45
 70
     1
102
RTVSPost2010Prop46
 90
       50
102
RTVSPost2010PropOp46
 70
     1
102
RTVSPost2010Prop47
 90
       50
102
RTVSPost2010PropOp47
 70
     1
102
RTVSPost2010Prop48
 90
       50
102
RTVSPost2010PropOp48
 70
     1
102
RTVSPost2010Prop49
280
     0
102
RTVSPost2010PropOp49
 70
     1
102
RTVSPost2010Prop50
 90
       50
102
RTVSPost2010PropOp50
 70
     1
102
RTVSPost2010Prop51ColorIndex
 90
      256
102
RTVSPost2010Prop51ColorRGB
 90
-16777216
102
RTVSPost2010PropOp51
 70
     0
102
RTVSPost2010Prop52
140
1.0
102
RTVSPost2010PropOp52
 70
     0
102
RTVSPost2010Prop53
 90
        2
102
RTVSPost2010PropOp53
 70
     1
102
RTVSPost2010Prop54
  1
strokes_ogs.tif
102
RTVSPost2010PropOp54
 70
     1
102
RTVSPost2010Prop55
280
     0
102
RTVSPost2010PropOp55
 70
     1
102
RTVSPost2010Prop56
140
1.0
102
RTVSPost2010PropOp56
 70
     1
102
RTVSPost2010Prop57
140
1.0
102
RTVSPost2010PropOp57
 70
     1
  0
XRECORD
  5
31A
102
{ACAD_REACTORS
330
319
102
}
330
319
100
AcDbXrecord
280
     1
102
RTVSPropertyOp0
 70
     1
102
RTVSPropertyOp1
 70
     1
102
RTVSPropertyOp2
 70
     1
102
RTVSPropertyOp3
 70
     1
102
RTVSPropertyOp4
 70
     1
102
RTVSPropertyOp5
 70
     1
102
RTVSPropertyOp6
 70
     1
102
RTVSPropertyOp7
 70
     1
102
RTVSPropertyOp8
 70
     1
102
RTVSPropertyOp9
 70
     1
102
RTVSPropertyOp10
 70
     1
102
RTVSPropertyOp11
 70
     1
102
RTVSPropertyOp12
 70
     1
102
RTVSPropertyOp13
 70
     1
102
RTVSPropertyOp14
 70
     1
102
RTVSPropertyOp15
 70
     1
102
RTVSPropertyOp16
 70
     1
102
RTVSPropertyOp17
 70
     1
102
RTVSPropertyOp18
 70
     1
102
RTVSPropertyOp19
 70
     1
102
RTVSPropertyOp20
 70
     1
102
RTVSPropertyOp21
 70
     1
102
RTVSPropertyOp22
 70
     1
102
RTVSPropertyOp23
 70
     1
102
RTVSPropertyOp24
 70
     1
102
RTVSPropertyOp25
 70
     1
102
RTVSPropertyOp26
 70
     1
102
RTVSPropertyOp27
 70
     1
102
RTVSPropertyOp28
 70
     1
102
RTVSPropertyOp29
 70
     1
102
RTVSPropertyOp30
 70
     1
102
RTVSPropertyOp31
 70
     1
102
RTVSPropertyOp32
 70
     1
102
RTVSPropertyOp33
 70
     1
102
RTVSPropertyOp34
 70
     1
102
RTVSPropertyOp35
 70
     1
102
RTVSPropertyOp36
 70
     1
102
RTVSPropertyOp37
 70
     1
102
RTVSPropertyOp38
 70
     1
102
RTVSPropertyOp39
 70
     1
102
RTVSPropertyOp40
 70
     1
102
RTVSPropertyOp41
 70
     1
102
RTVSPropertyOp42
 70
     1
102
RTVSPropertyOp43
 70
     1
102
RTVSPropertyOp44
 70
     1
102
RTVSPropertyOp45
 70
     1
102
RTVSPropertyOp46
 70
     1
102
RTVSPropertyOp47
 70
     1
102
RTVSPropertyOp48
 70
     1
102
RTVSPropertyOp49
 70
     1
102
RTVSPropertyOp50
 70
     1
102
RTVSPropertyOp51
 70
     0
102
RTVSPropertyOp52
 70
     0
102
RTVSPropertyOp53
 70
     1
102
RTVSPropertyOp54
 70
     1
102
RTVSPropertyOp55
 70
     1
102
RTVSPropertyOp56
 70
     1
102
RTVSPropertyOp57
 70
     1
102
RTVSPost2010Prop28
280
     0
102
RTVSPost2010PropOp28
 70
     1
102
RTVSPost2010Prop29
280
     1
102
RTVSPost2010PropOp29
 70
     1
102
RTVSPost2010Prop30
280
     1
102
RTVSPost2010PropOp30
 70
     1
102
RTVSPost2010Prop31
280
     0
102
RTVSPost2010PropOp31
 70
     1
102
RTVSPost2010Prop32
280
     0
102
RTVSPost2010PropOp32
 70
     1
102
RTVSPost2010Prop33
280
     0
102
RTVSPost2010PropOp33
 70
     1
102
RTVSPost2010Prop34
280
     0
102
RTVSPost2010PropOp34
 70
     1
102
RTVSPost2010Prop35
280
     0
102
RTVSPost2010PropOp35
 70
     1
102
RTVSPost2010Prop36
280
     0
102
RTVSPost2010PropOp36
 70
     1
102
RTVSPost2010Prop37
 90
       50
102
RTVSPost2010PropOp37
 70
     1
102
RTVSPost2010Prop38
140
0.0
102
RTVSPost2010PropOp38
 70
     1
102
RTVSPost2010Prop39
140
1.0
102
RTVSPost2010PropOp39
 70
     1
102
RTVSPost2010Prop40
 90
        0
102
RTVSPost2010PropOp40
 70
     1
102
RTVSPost2010Prop41ColorIndex
 90
       18
102
RTVSPost2010Prop41ColorRGB
 90
        0
102
RTVSPost2010PropOp41
 70
     1
102
RTVSPost2010Prop42
 90
       50
102
RTVSPost2010PropOp42
 70
     1
102
RTVSPost2010Prop43
 90
        3
102
RTVSPost2010PropOp43
 70
     1
102
RTVSPost2010Prop44ColorIndex
 90
        5
102
RTVSPost2010Prop44ColorRGB
 90
      255
102
RTVSPost2010PropOp44
 70
     1
102
RTVSPost2010Prop45
280
     0
102
RTVSPost2010PropOp45
 70
     1
102
RTVSPost2010Prop46
 90
       50
102
RTVSPost2010PropOp46
 70
     1
102
RTVSPost2010Prop47
 90
       50
102
RTVSPost2010PropOp47
 70
     1
102
RTVSPost2010Prop48
 90
       50
102
RTVSPost2010PropOp48
 70
     1
102
RTVSPost2010Prop49
280
     0
102
RTVSPost2010PropOp49
 70
     1
102
RTVSPost2010Prop50
 90
       50
102
RTVSPost2010PropOp50
 70
     1
102
RTVSPost2010Prop51ColorIndex
 90
      256
102
RTVSPost2010Prop51ColorRGB
 90
-16777216
102
RTVSPost2010PropOp51
 70
     0
102
RTVSPost2010Prop52
140
1.0
102
RTVSPost2010PropOp52
 70
     0
102
RTVSPost2010Prop53
 90
        2
102
RTVSPost2010PropOp53
 70
     1
102
RTVSPost2010Prop54
  1
strokes_ogs.tif
102
RTVSPost2010PropOp54
 70
     1
102
RTVSPost2010Prop55
280
     0
102
RTVSPost2010PropOp55
 70
     1
102
RTVSPost2010Prop56
140
1.0
102
RTVSPost2010PropOp56
 70
     1
102
RTVSPost2010Prop57
140
1.0
102
RTVSPost2010PropOp57
 70
     1
  0
XRECORD
  5
32E
102
{ACAD_REACTORS
330
32D
102
}
330
32D
100
AcDbXrecord
280
     1
102
RTVSPropertyOp0
 70
     0
102
RTVSPropertyOp1
 70
     0
102
RTVSPropertyOp2
 70
     0
102
RTVSPropertyOp3
 70
     0
102
RTVSPropertyOp4
 70
     0
102
RTVSPropertyOp5
 70
     0
102
RTVSPropertyOp6
 70
     0
102
RTVSPropertyOp7
 70
     0
102
RTVSPropertyOp8
 70
     0
102
RTVSPropertyOp9
 70
     0
102
RTVSPropertyOp10
 70
     0
102
RTVSPropertyOp11
 70
     0
102
RTVSPropertyOp12
 70
     0
102
RTVSPropertyOp13
 70
     0
102
RTVSPropertyOp14
 70
     2
102
RTVSPropertyOp15
 70
     0
102
RTVSPropertyOp16
 70
     0
102
RTVSPropertyOp17
 70
     0
102
RTVSPropertyOp18
 70
     0
102
RTVSPropertyOp19
 70
     0
102
RTVSPropertyOp20
 70
     0
102
RTVSPropertyOp21
 70
     0
102
RTVSPropertyOp22
 70
     0
102
RTVSPropertyOp23
 70
     0
102
RTVSPropertyOp24
 70
     0
102
RTVSPropertyOp25
 70
     0
102
RTVSPropertyOp26
 70
     0
102
RTVSPropertyOp27
 70
     0
102
RTVSPropertyOp28
 70
     0
102
RTVSPropertyOp29
 70
     0
102
RTVSPropertyOp30
 70
     0
102
RTVSPropertyOp31
 70
     0
102
RTVSPropertyOp32
 70
     0
102
RTVSPropertyOp33
 70
     0
102
RTVSPropertyOp34
 70
     0
102
RTVSPropertyOp35
 70
     0
102
RTVSPropertyOp36
 70
     0
102
RTVSPropertyOp37
 70
     0
102
RTVSPropertyOp38
 70
     0
102
RTVSPropertyOp39
 70
     0
102
RTVSPropertyOp40
 70
     0
102
RTVSPropertyOp41
 70
     0
102
RTVSPropertyOp42
 70
     0
102
RTVSPropertyOp43
 70
     0
102
RTVSPropertyOp44
 70
     0
102
RTVSPropertyOp45
 70
     0
102
RTVSPropertyOp46
 70
     0
102
RTVSPropertyOp47
 70
     0
102
RTVSPropertyOp48
 70
     0
102
RTVSPropertyOp49
 70
     0
102
RTVSPropertyOp50
 70
     0
102
RTVSPropertyOp51
 70
     0
102
RTVSPropertyOp52
 70
     0
102
RTVSPropertyOp53
 70
     0
102
RTVSPropertyOp54
 70
     0
102
RTVSPropertyOp55
 70
     0
102
RTVSPropertyOp56
 70
     0
102
RTVSPropertyOp57
 70
     0
102
RTVSPost2010Prop28
280
     0
102
RTVSPost2010PropOp28
 70
     0
102
RTVSPost2010Prop29
280
     1
102
RTVSPost2010PropOp29
 70
     0
102
RTVSPost2010Prop30
280
     1
102
RTVSPost2010PropOp30
 70
     0
102
RTVSPost2010Prop31
280
     0
102
RTVSPost2010PropOp31
 70
     0
102
RTVSPost2010Prop32
280
     0
102
RTVSPost2010PropOp32
 70
     0
102
RTVSPost2010Prop33
280
     0
102
RTVSPost2010PropOp33
 70
     0
102
RTVSPost2010Prop34
280
     0
102
RTVSPost2010PropOp34
 70
     0
102
RTVSPost2010Prop35
280
     0
102
RTVSPost2010PropOp35
 70
     0
102
RTVSPost2010Prop36
280
     0
102
RTVSPost2010PropOp36
 70
     0
102
RTVSPost2010Prop37
 90
       50
102
RTVSPost2010PropOp37
 70
     0
102
RTVSPost2010Prop38
140
0.0
102
RTVSPost2010PropOp38
 70
     0
102
RTVSPost2010Prop39
140
1.0
102
RTVSPost2010PropOp39
 70
     0
102
RTVSPost2010Prop40
 90
        0
102
RTVSPost2010PropOp40
 70
     0
102
RTVSPost2010Prop41ColorIndex
 90
       18
102
RTVSPost2010Prop41ColorRGB
 90
        0
102
RTVSPost2010PropOp41
 70
     0
102
RTVSPost2010Prop42
 90
       50
102
RTVSPost2010PropOp42
 70
     0
102
RTVSPost2010Prop43
 90
        3
102
RTVSPost2010PropOp43
 70
     0
102
RTVSPost2010Prop44ColorIndex
 90
        5
102
RTVSPost2010Prop44ColorRGB
 90
      255
102
RTVSPost2010PropOp44
 70
     0
102
RTVSPost2010Prop45
280
     0
102
RTVSPost2010PropOp45
 70
     0
102
RTVSPost2010Prop46
 90
       50
102
RTVSPost2010PropOp46
 70
     0
102
RTVSPost2010Prop47
 90
       50
102
RTVSPost2010PropOp47
 70
     0
102
RTVSPost2010Prop48
 90
       50
102
RTVSPost2010PropOp48
 70
     0
102
RTVSPost2010Prop49
280
     0
102
RTVSPost2010PropOp49
 70
     0
102
RTVSPost2010Prop50
 90
       50
102
RTVSPost2010PropOp50
 70
     0
102
RTVSPost2010Prop51ColorIndex
 90
      256
102
RTVSPost2010Prop51ColorRGB
 90
-16777216
102
RTVSPost2010PropOp51
 70
     0
102
RTVSPost2010Prop52
140
1.0
102
RTVSPost2010PropOp52
 70
     0
102
RTVSPost2010Prop53
 90
        2
102
RTVSPost2010PropOp53
 70
     0
102
RTVSPost2010Prop54
  1
strokes_ogs.tif
102
RTVSPost2010PropOp54
 70
     0
102
RTVSPost2010Prop55
280
     0
102
RTVSPost2010PropOp55
 70
     0
102
RTVSPost2010Prop56
140
1.0
102
RTVSPost2010PropOp56
 70
     0
102
RTVSPost2010Prop57
140
1.0
102
RTVSPost2010PropOp57
 70
     0
  0
XRECORD
  5
328
102
{ACAD_REACTORS
330
327
102
}
330
327
100
AcDbXrecord
280
     1
102
RTVSPropertyOp0
 70
     1
102
RTVSPropertyOp1
 70
     1
102
RTVSPropertyOp2
 70
     1
102
RTVSPropertyOp3
 70
     1
102
RTVSPropertyOp4
 70
     1
102
RTVSPropertyOp5
 70
     1
102
RTVSPropertyOp6
 70
     1
102
RTVSPropertyOp7
 70
     1
102
RTVSPropertyOp8
 70
     1
102
RTVSPropertyOp9
 70
     1
102
RTVSPropertyOp10
 70
     1
102
RTVSPropertyOp11
 70
     1
102
RTVSPropertyOp12
 70
     1
102
RTVSPropertyOp13
 70
     1
102
RTVSPropertyOp14
 70
     1
102
RTVSPropertyOp15
 70
     1
102
RTVSPropertyOp16
 70
     1
102
RTVSPropertyOp17
 70
     1
102
RTVSPropertyOp18
 70
     1
102
RTVSPropertyOp19
 70
     1
102
RTVSPropertyOp20
 70
     1
102
RTVSPropertyOp21
 70
     1
102
RTVSPropertyOp22
 70
     1
102
RTVSPropertyOp23
 70
     1
102
RTVSPropertyOp24
 70
     1
102
RTVSPropertyOp25
 70
     1
102
RTVSPropertyOp26
 70
     1
102
RTVSPropertyOp27
 70
     1
102
RTVSPropertyOp28
 70
     1
102
RTVSPropertyOp29
 70
     1
102
RTVSPropertyOp30
 70
     1
102
RTVSPropertyOp31
 70
     1
102
RTVSPropertyOp32
 70
     1
102
RTVSPropertyOp33
 70
     1
102
RTVSPropertyOp34
 70
     1
102
RTVSPropertyOp35
 70
     1
102
RTVSPropertyOp36
 70
     1
102
RTVSPropertyOp37
 70
     1
102
RTVSPropertyOp38
 70
     1
102
RTVSPropertyOp39
 70
     1
102
RTVSPropertyOp40
 70
     1
102
RTVSPropertyOp41
 70
     1
102
RTVSPropertyOp42
 70
     1
102
RTVSPropertyOp43
 70
     1
102
RTVSPropertyOp44
 70
     1
102
RTVSPropertyOp45
 70
     1
102
RTVSPropertyOp46
 70
     1
102
RTVSPropertyOp47
 70
     1
102
RTVSPropertyOp48
 70
     1
102
RTVSPropertyOp49
 70
     1
102
RTVSPropertyOp50
 70
     1
102
RTVSPropertyOp51
 70
     0
102
RTVSPropertyOp52
 70
     0
102
RTVSPropertyOp53
 70
     1
102
RTVSPropertyOp54
 70
     1
102
RTVSPropertyOp55
 70
     1
102
RTVSPropertyOp56
 70
     1
102
RTVSPropertyOp57
 70
     1
102
RTVSPost2010Prop28
280
     0
102
RTVSPost2010PropOp28
 70
     1
102
RTVSPost2010Prop29
280
     1
102
RTVSPost2010PropOp29
 70
     1
102
RTVSPost2010Prop30
280
     1
102
RTVSPost2010PropOp30
 70
     1
102
RTVSPost2010Prop31
280
     0
102
RTVSPost2010PropOp31
 70
     1
102
RTVSPost2010Prop32
280
     0
102
RTVSPost2010PropOp32
 70
     1
102
RTVSPost2010Prop33
280
     0
102
RTVSPost2010PropOp33
 70
     1
102
RTVSPost2010Prop34
280
     0
102
RTVSPost2010PropOp34
 70
     1
102
RTVSPost2010Prop35
280
     0
102
RTVSPost2010PropOp35
 70
     1
102
RTVSPost2010Prop36
280
     0
102
RTVSPost2010PropOp36
 70
     1
102
RTVSPost2010Prop37
 90
       50
102
RTVSPost2010PropOp37
 70
     1
102
RTVSPost2010Prop38
140
0.0
102
RTVSPost2010PropOp38
 70
     1
102
RTVSPost2010Prop39
140
1.0
102
RTVSPost2010PropOp39
 70
     1
102
RTVSPost2010Prop40
 90
        0
102
RTVSPost2010PropOp40
 70
     1
102
RTVSPost2010Prop41ColorIndex
 90
       18
102
RTVSPost2010Prop41ColorRGB
 90
        0
102
RTVSPost2010PropOp41
 70
     1
102
RTVSPost2010Prop42
 90
       50
102
RTVSPost2010PropOp42
 70
     1
102
RTVSPost2010Prop43
 90
        3
102
RTVSPost2010PropOp43
 70
     1
102
RTVSPost2010Prop44ColorIndex
 90
        5
102
RTVSPost2010Prop44ColorRGB
 90
      255
102
RTVSPost2010PropOp44
 70
     1
102
RTVSPost2010Prop45
280
     0
102
RTVSPost2010PropOp45
 70
     1
102
RTVSPost2010Prop46
 90
       50
102
RTVSPost2010PropOp46
 70
     1
102
RTVSPost2010Prop47
 90
       50
102
RTVSPost2010PropOp47
 70
     1
102
RTVSPost2010Prop48
 90
       50
102
RTVSPost2010PropOp48
 70
     1
102
RTVSPost2010Prop49
280
     0
102
RTVSPost2010PropOp49
 70
     1
102
RTVSPost2010Prop50
 90
       50
102
RTVSPost2010PropOp50
 70
     1
102
RTVSPost2010Prop51ColorIndex
 90
      256
102
RTVSPost2010Prop51ColorRGB
 90
-16777216
102
RTVSPost2010PropOp51
 70
     0
102
RTVSPost2010Prop52
140
1.0
102
RTVSPost2010PropOp52
 70
     0
102
RTVSPost2010Prop53
 90
        2
102
RTVSPost2010PropOp53
 70
     1
102
RTVSPost2010Prop54
  1
strokes_ogs.tif
102
RTVSPost2010PropOp54
 70
     1
102
RTVSPost2010Prop55
280
     0
102
RTVSPost2010PropOp55
 70
     1
102
RTVSPost2010Prop56
140
1.0
102
RTVSPost2010PropOp56
 70
     1
102
RTVSPost2010Prop57
140
1.0
102
RTVSPost2010PropOp57
 70
     1
  0
XRECORD
  5
330
102
{ACAD_REACTORS
330
32F
102
}
330
32F
100
AcDbXrecord
280
     1
102
RTVSPropertyOp0
 70
     0
102
RTVSPropertyOp1
 70
     0
102
RTVSPropertyOp2
 70
     0
102
RTVSPropertyOp3
 70
     0
102
RTVSPropertyOp4
 70
     0
102
RTVSPropertyOp5
 70
     0
102
RTVSPropertyOp6
 70
     0
102
RTVSPropertyOp7
 70
     0
102
RTVSPropertyOp8
 70
     0
102
RTVSPropertyOp9
 70
     0
102
RTVSPropertyOp10
 70
     0
102
RTVSPropertyOp11
 70
     0
102
RTVSPropertyOp12
 70
     0
102
RTVSPropertyOp13
 70
     0
102
RTVSPropertyOp14
 70
     2
102
RTVSPropertyOp15
 70
     0
102
RTVSPropertyOp16
 70
     0
102
RTVSPropertyOp17
 70
     0
102
RTVSPropertyOp18
 70
     0
102
RTVSPropertyOp19
 70
     0
102
RTVSPropertyOp20
 70
     0
102
RTVSPropertyOp21
 70
     0
102
RTVSPropertyOp22
 70
     0
102
RTVSPropertyOp23
 70
     0
102
RTVSPropertyOp24
 70
     0
102
RTVSPropertyOp25
 70
     0
102
RTVSPropertyOp26
 70
     0
102
RTVSPropertyOp27
 70
     0
102
RTVSPropertyOp28
 70
     0
102
RTVSPropertyOp29
 70
     0
102
RTVSPropertyOp30
 70
     0
102
RTVSPropertyOp31
 70
     0
102
RTVSPropertyOp32
 70
     0
102
RTVSPropertyOp33
 70
     0
102
RTVSPropertyOp34
 70
     0
102
RTVSPropertyOp35
 70
     0
102
RTVSPropertyOp36
 70
     0
102
RTVSPropertyOp37
 70
     0
102
RTVSPropertyOp38
 70
     0
102
RTVSPropertyOp39
 70
     0
102
RTVSPropertyOp40
 70
     0
102
RTVSPropertyOp41
 70
     0
102
RTVSPropertyOp42
 70
     0
102
RTVSPropertyOp43
 70
     0
102
RTVSPropertyOp44
 70
     0
102
RTVSPropertyOp45
 70
     0
102
RTVSPropertyOp46
 70
     0
102
RTVSPropertyOp47
 70
     0
102
RTVSPropertyOp48
 70
     0
102
RTVSPropertyOp49
 70
     0
102
RTVSPropertyOp50
 70
     0
102
RTVSPropertyOp51
 70
     0
102
RTVSPropertyOp52
 70
     0
102
RTVSPropertyOp53
 70
     0
102
RTVSPropertyOp54
 70
     0
102
RTVSPropertyOp55
 70
     0
102
RTVSPropertyOp56
 70
     0
102
RTVSPropertyOp57
 70
     0
102
RTVSPost2010Prop28
280
     0
102
RTVSPost2010PropOp28
 70
     0
102
RTVSPost2010Prop29
280
     1
102
RTVSPost2010PropOp29
 70
     0
102
RTVSPost2010Prop30
280
     1
102
RTVSPost2010PropOp30
 70
     0
102
RTVSPost2010Prop31
280
     0
102
RTVSPost2010PropOp31
 70
     0
102
RTVSPost2010Prop32
280
     0
102
RTVSPost2010PropOp32
 70
     0
102
RTVSPost2010Prop33
280
     0
102
RTVSPost2010PropOp33
 70
     0
102
RTVSPost2010Prop34
280
     0
102
RTVSPost2010PropOp34
 70
     0
102
RTVSPost2010Prop35
280
     0
102
RTVSPost2010PropOp35
 70
     0
102
RTVSPost2010Prop36
280
     0
102
RTVSPost2010PropOp36
 70
     0
102
RTVSPost2010Prop37
 90
       50
102
RTVSPost2010PropOp37
 70
     0
102
RTVSPost2010Prop38
140
0.0
102
RTVSPost2010PropOp38
 70
     0
102
RTVSPost2010Prop39
140
1.0
102
RTVSPost2010PropOp39
 70
     0
102
RTVSPost2010Prop40
 90
        0
102
RTVSPost2010PropOp40
 70
     0
102
RTVSPost2010Prop41ColorIndex
 90
       18
102
RTVSPost2010Prop41ColorRGB
 90
        0
102
RTVSPost2010PropOp41
 70
     0
102
RTVSPost2010Prop42
 90
       50
102
RTVSPost2010PropOp42
 70
     0
102
RTVSPost2010Prop43
 90
        3
102
RTVSPost2010PropOp43
 70
     0
102
RTVSPost2010Prop44ColorIndex
 90
        5
102
RTVSPost2010Prop44ColorRGB
 90
      255
102
RTVSPost2010PropOp44
 70
     0
102
RTVSPost2010Prop45
280
     0
102
RTVSPost2010PropOp45
 70
     0
102
RTVSPost2010Prop46
 90
       50
102
RTVSPost2010PropOp46
 70
     0
102
RTVSPost2010Prop47
 90
       50
102
RTVSPost2010PropOp47
 70
     0
102
RTVSPost2010Prop48
 90
       50
102
RTVSPost2010PropOp48
 70
     0
102
RTVSPost2010Prop49
280
     0
102
RTVSPost2010PropOp49
 70
     0
102
RTVSPost2010Prop50
 90
       50
102
RTVSPost2010PropOp50
 70
     0
102
RTVSPost2010Prop51ColorIndex
 90
      256
102
RTVSPost2010Prop51ColorRGB
 90
-16777216
102
RTVSPost2010PropOp51
 70
     0
102
RTVSPost2010Prop52
140
1.0
102
RTVSPost2010PropOp52
 70
     0
102
RTVSPost2010Prop53
 90
        2
102
RTVSPost2010PropOp53
 70
     0
102
RTVSPost2010Prop54
  1
strokes_ogs.tif
102
RTVSPost2010PropOp54
 70
     0
102
RTVSPost2010Prop55
280
     0
102
RTVSPost2010PropOp55
 70
     0
102
RTVSPost2010Prop56
140
1.0
102
RTVSPost2010PropOp56
 70
     0
102
RTVSPost2010Prop57
140
1.0
102
RTVSPost2010PropOp57
 70
     0
  0
XRECORD
  5
31E
102
{ACAD_REACTORS
330
31D
102
}
330
31D
100
AcDbXrecord
280
     1
102
RTVSPropertyOp0
 70
     1
102
RTVSPropertyOp1
 70
     1
102
RTVSPropertyOp2
 70
     1
102
RTVSPropertyOp3
 70
     1
102
RTVSPropertyOp4
 70
     1
102
RTVSPropertyOp5
 70
     1
102
RTVSPropertyOp6
 70
     1
102
RTVSPropertyOp7
 70
     1
102
RTVSPropertyOp8
 70
     1
102
RTVSPropertyOp9
 70
     1
102
RTVSPropertyOp10
 70
     1
102
RTVSPropertyOp11
 70
     1
102
RTVSPropertyOp12
 70
     1
102
RTVSPropertyOp13
 70
     1
102
RTVSPropertyOp14
 70
     1
102
RTVSPropertyOp15
 70
     1
102
RTVSPropertyOp16
 70
     1
102
RTVSPropertyOp17
 70
     1
102
RTVSPropertyOp18
 70
     1
102
RTVSPropertyOp19
 70
     1
102
RTVSPropertyOp20
 70
     1
102
RTVSPropertyOp21
 70
     1
102
RTVSPropertyOp22
 70
     1
102
RTVSPropertyOp23
 70
     1
102
RTVSPropertyOp24
 70
     1
102
RTVSPropertyOp25
 70
     1
102
RTVSPropertyOp26
 70
     1
102
RTVSPropertyOp27
 70
     1
102
RTVSPropertyOp28
 70
     1
102
RTVSPropertyOp29
 70
     1
102
RTVSPropertyOp30
 70
     1
102
RTVSPropertyOp31
 70
     1
102
RTVSPropertyOp32
 70
     1
102
RTVSPropertyOp33
 70
     1
102
RTVSPropertyOp34
 70
     1
102
RTVSPropertyOp35
 70
     1
102
RTVSPropertyOp36
 70
     1
102
RTVSPropertyOp37
 70
     1
102
RTVSPropertyOp38
 70
     1
102
RTVSPropertyOp39
 70
     1
102
RTVSPropertyOp40
 70
     1
102
RTVSPropertyOp41
 70
     1
102
RTVSPropertyOp42
 70
     1
102
RTVSPropertyOp43
 70
     1
102
RTVSPropertyOp44
 70
     1
102
RTVSPropertyOp45
 70
     1
102
RTVSPropertyOp46
 70
     1
102
RTVSPropertyOp47
 70
     1
102
RTVSPropertyOp48
 70
     1
102
RTVSPropertyOp49
 70
     1
102
RTVSPropertyOp50
 70
     1
102
RTVSPropertyOp51
 70
     0
102
RTVSPropertyOp52
 70
     0
102
RTVSPropertyOp53
 70
     1
102
RTVSPropertyOp54
 70
     1
102
RTVSPropertyOp55
 70
     1
102
RTVSPropertyOp56
 70
     1
102
RTVSPropertyOp57
 70
     1
102
RTVSPost2010Prop28
280
     0
102
RTVSPost2010PropOp28
 70
     1
102
RTVSPost2010Prop29
280
     1
102
RTVSPost2010PropOp29
 70
     1
102
RTVSPost2010Prop30
280
     1
102
RTVSPost2010PropOp30
 70
     1
102
RTVSPost2010Prop31
280
     0
102
RTVSPost2010PropOp31
 70
     1
102
RTVSPost2010Prop32
280
     0
102
RTVSPost2010PropOp32
 70
     1
102
RTVSPost2010Prop33
280
     0
102
RTVSPost2010PropOp33
 70
     1
102
RTVSPost2010Prop34
280
     0
102
RTVSPost2010PropOp34
 70
     1
102
RTVSPost2010Prop35
280
     0
102
RTVSPost2010PropOp35
 70
     1
102
RTVSPost2010Prop36
280
     0
102
RTVSPost2010PropOp36
 70
     1
102
RTVSPost2010Prop37
 90
       50
102
RTVSPost2010PropOp37
 70
     1
102
RTVSPost2010Prop38
140
0.0
102
RTVSPost2010PropOp38
 70
     1
102
RTVSPost2010Prop39
140
1.0
102
RTVSPost2010PropOp39
 70
     1
102
RTVSPost2010Prop40
 90
        0
102
RTVSPost2010PropOp40
 70
     1
102
RTVSPost2010Prop41ColorIndex
 90
       18
102
RTVSPost2010Prop41ColorRGB
 90
        0
102
RTVSPost2010PropOp41
 70
     1
102
RTVSPost2010Prop42
 90
       50
102
RTVSPost2010PropOp42
 70
     1
102
RTVSPost2010Prop43
 90
        3
102
RTVSPost2010PropOp43
 70
     1
102
RTVSPost2010Prop44ColorIndex
 90
        5
102
RTVSPost2010Prop44ColorRGB
 90
      255
102
RTVSPost2010PropOp44
 70
     1
102
RTVSPost2010Prop45
280
     0
102
RTVSPost2010PropOp45
 70
     1
102
RTVSPost2010Prop46
 90
       50
102
RTVSPost2010PropOp46
 70
     1
102
RTVSPost2010Prop47
 90
       50
102
RTVSPost2010PropOp47
 70
     1
102
RTVSPost2010Prop48
 90
       50
102
RTVSPost2010PropOp48
 70
     1
102
RTVSPost2010Prop49
280
     0
102
RTVSPost2010PropOp49
 70
     1
102
RTVSPost2010Prop50
 90
       50
102
RTVSPost2010PropOp50
 70
     1
102
RTVSPost2010Prop51ColorIndex
 90
      256
102
RTVSPost2010Prop51ColorRGB
 90
-16777216
102
RTVSPost2010PropOp51
 70
     0
102
RTVSPost2010Prop52
140
1.0
102
RTVSPost2010PropOp52
 70
     0
102
RTVSPost2010Prop53
 90
        2
102
RTVSPost2010PropOp53
 70
     1
102
RTVSPost2010Prop54
  1
strokes_ogs.tif
102
RTVSPost2010PropOp54
 70
     1
102
RTVSPost2010Prop55
280
     0
102
RTVSPost2010PropOp55
 70
     1
102
RTVSPost2010Prop56
140
1.0
102
RTVSPost2010PropOp56
 70
     1
102
RTVSPost2010Prop57
140
1.0
102
RTVSPost2010PropOp57
 70
     1
  0
XRECORD
  5
33C
102
{ACAD_REACTORS
330
33B
102
}
330
33B
100
AcDbXrecord
280
     1
102
RTVSPropertyOp0
 70
     1
102
RTVSPropertyOp1
 70
     1
102
RTVSPropertyOp2
 70
     1
102
RTVSPropertyOp3
 70
     1
102
RTVSPropertyOp4
 70
     1
102
RTVSPropertyOp5
 70
     1
102
RTVSPropertyOp6
 70
     1
102
RTVSPropertyOp7
 70
     1
102
RTVSPropertyOp8
 70
     1
102
RTVSPropertyOp9
 70
     1
102
RTVSPropertyOp10
 70
     1
102
RTVSPropertyOp11
 70
     1
102
RTVSPropertyOp12
 70
     1
102
RTVSPropertyOp13
 70
     1
102
RTVSPropertyOp14
 70
     1
102
RTVSPropertyOp15
 70
     1
102
RTVSPropertyOp16
 70
     1
102
RTVSPropertyOp17
 70
     1
102
RTVSPropertyOp18
 70
     1
102
RTVSPropertyOp19
 70
     1
102
RTVSPropertyOp20
 70
     1
102
RTVSPropertyOp21
 70
     1
102
RTVSPropertyOp22
 70
     1
102
RTVSPropertyOp23
 70
     1
102
RTVSPropertyOp24
 70
     1
102
RTVSPropertyOp25
 70
     1
102
RTVSPropertyOp26
 70
     1
102
RTVSPropertyOp27
 70
     1
102
RTVSPropertyOp28
 70
     1
102
RTVSPropertyOp29
 70
     1
102
RTVSPropertyOp30
 70
     1
102
RTVSPropertyOp31
 70
     1
102
RTVSPropertyOp32
 70
     1
102
RTVSPropertyOp33
 70
     1
102
RTVSPropertyOp34
 70
     1
102
RTVSPropertyOp35
 70
     1
102
RTVSPropertyOp36
 70
     1
102
RTVSPropertyOp37
 70
     1
102
RTVSPropertyOp38
 70
     1
102
RTVSPropertyOp39
 70
     1
102
RTVSPropertyOp40
 70
     1
102
RTVSPropertyOp41
 70
     1
102
RTVSPropertyOp42
 70
     1
102
RTVSPropertyOp43
 70
     1
102
RTVSPropertyOp44
 70
     1
102
RTVSPropertyOp45
 70
     1
102
RTVSPropertyOp46
 70
     1
102
RTVSPropertyOp47
 70
     1
102
RTVSPropertyOp48
 70
     1
102
RTVSPropertyOp49
 70
     1
102
RTVSPropertyOp50
 70
     1
102
RTVSPropertyOp51
 70
     0
102
RTVSPropertyOp52
 70
     0
102
RTVSPropertyOp53
 70
     1
102
RTVSPropertyOp54
 70
     1
102
RTVSPropertyOp55
 70
     1
102
RTVSPropertyOp56
 70
     1
102
RTVSPropertyOp57
 70
     1
102
RTVSPost2010Prop28
280
     0
102
RTVSPost2010PropOp28
 70
     1
102
RTVSPost2010Prop29
280
     1
102
RTVSPost2010PropOp29
 70
     1
102
RTVSPost2010Prop30
280
     1
102
RTVSPost2010PropOp30
 70
     1
102
RTVSPost2010Prop31
280
     0
102
RTVSPost2010PropOp31
 70
     1
102
RTVSPost2010Prop32
280
     0
102
RTVSPost2010PropOp32
 70
     1
102
RTVSPost2010Prop33
280
     0
102
RTVSPost2010PropOp33
 70
     1
102
RTVSPost2010Prop34
280
     0
102
RTVSPost2010PropOp34
 70
     1
102
RTVSPost2010Prop35
280
     0
102
RTVSPost2010PropOp35
 70
     1
102
RTVSPost2010Prop36
280
     0
102
RTVSPost2010PropOp36
 70
     1
102
RTVSPost2010Prop37
 90
       50
102
RTVSPost2010PropOp37
 70
     1
102
RTVSPost2010Prop38
140
0.0
102
RTVSPost2010PropOp38
 70
     1
102
RTVSPost2010Prop39
140
1.0
102
RTVSPost2010PropOp39
 70
     1
102
RTVSPost2010Prop40
 90
        0
102
RTVSPost2010PropOp40
 70
     1
102
RTVSPost2010Prop41ColorIndex
 90
       18
102
RTVSPost2010Prop41ColorRGB
 90
        0
102
RTVSPost2010PropOp41
 70
     1
102
RTVSPost2010Prop42
 90
       50
102
RTVSPost2010PropOp42
 70
     1
102
RTVSPost2010Prop43
 90
        3
102
RTVSPost2010PropOp43
 70
     1
102
RTVSPost2010Prop44ColorIndex
 90
        5
102
RTVSPost2010Prop44ColorRGB
 90
      255
102
RTVSPost2010PropOp44
 70
     1
102
RTVSPost2010Prop45
280
     0
102
RTVSPost2010PropOp45
 70
     1
102
RTVSPost2010Prop46
 90
       50
102
RTVSPost2010PropOp46
 70
     1
102
RTVSPost2010Prop47
 90
       50
102
RTVSPost2010PropOp47
 70
     1
102
RTVSPost2010Prop48
 90
       50
102
RTVSPost2010PropOp48
 70
     1
102
RTVSPost2010Prop49
280
     0
102
RTVSPost2010PropOp49
 70
     1
102
RTVSPost2010Prop50
 90
       50
102
RTVSPost2010PropOp50
 70
     1
102
RTVSPost2010Prop51ColorIndex
 90
      256
102
RTVSPost2010Prop51ColorRGB
 90
-16777216
102
RTVSPost2010PropOp51
 70
     0
102
RTVSPost2010Prop52
140
1.0
102
RTVSPost2010PropOp52
 70
     0
102
RTVSPost2010Prop53
 90
        2
102
RTVSPost2010PropOp53
 70
     1
102
RTVSPost2010Prop54
  1
strokes_ogs.tif
102
RTVSPost2010PropOp54
 70
     1
102
RTVSPost2010Prop55
280
     0
102
RTVSPost2010PropOp55
 70
     1
102
RTVSPost2010Prop56
140
1.0
102
RTVSPost2010PropOp56
 70
     1
102
RTVSPost2010Prop57
140
1.0
102
RTVSPost2010PropOp57
 70
     1
  0
XRECORD
  5
33A
102
{ACAD_REACTORS
330
339
102
}
330
339
100
AcDbXrecord
280
     1
102
RTVSPropertyOp0
 70
     1
102
RTVSPropertyOp1
 70
     1
102
RTVSPropertyOp2
 70
     1
102
RTVSPropertyOp3
 70
     1
102
RTVSPropertyOp4
 70
     1
102
RTVSPropertyOp5
 70
     1
102
RTVSPropertyOp6
 70
     1
102
RTVSPropertyOp7
 70
     1
102
RTVSPropertyOp8
 70
     1
102
RTVSPropertyOp9
 70
     1
102
RTVSPropertyOp10
 70
     1
102
RTVSPropertyOp11
 70
     1
102
RTVSPropertyOp12
 70
     1
102
RTVSPropertyOp13
 70
     1
102
RTVSPropertyOp14
 70
     1
102
RTVSPropertyOp15
 70
     1
102
RTVSPropertyOp16
 70
     1
102
RTVSPropertyOp17
 70
     1
102
RTVSPropertyOp18
 70
     1
102
RTVSPropertyOp19
 70
     1
102
RTVSPropertyOp20
 70
     1
102
RTVSPropertyOp21
 70
     1
102
RTVSPropertyOp22
 70
     1
102
RTVSPropertyOp23
 70
     1
102
RTVSPropertyOp24
 70
     1
102
RTVSPropertyOp25
 70
     1
102
RTVSPropertyOp26
 70
     1
102
RTVSPropertyOp27
 70
     1
102
RTVSPropertyOp28
 70
     1
102
RTVSPropertyOp29
 70
     1
102
RTVSPropertyOp30
 70
     1
102
RTVSPropertyOp31
 70
     1
102
RTVSPropertyOp32
 70
     1
102
RTVSPropertyOp33
 70
     1
102
RTVSPropertyOp34
 70
     1
102
RTVSPropertyOp35
 70
     1
102
RTVSPropertyOp36
 70
     1
102
RTVSPropertyOp37
 70
     1
102
RTVSPropertyOp38
 70
     1
102
RTVSPropertyOp39
 70
     1
102
RTVSPropertyOp40
 70
     1
102
RTVSPropertyOp41
 70
     1
102
RTVSPropertyOp42
 70
     1
102
RTVSPropertyOp43
 70
     1
102
RTVSPropertyOp44
 70
     1
102
RTVSPropertyOp45
 70
     1
102
RTVSPropertyOp46
 70
     1
102
RTVSPropertyOp47
 70
     1
102
RTVSPropertyOp48
 70
     1
102
RTVSPropertyOp49
 70
     1
102
RTVSPropertyOp50
 70
     1
102
RTVSPropertyOp51
 70
     0
102
RTVSPropertyOp52
 70
     0
102
RTVSPropertyOp53
 70
     1
102
RTVSPropertyOp54
 70
     1
102
RTVSPropertyOp55
 70
     1
102
RTVSPropertyOp56
 70
     1
102
RTVSPropertyOp57
 70
     1
102
RTVSPost2010Prop28
280
     0
102
RTVSPost2010PropOp28
 70
     1
102
RTVSPost2010Prop29
280
     1
102
RTVSPost2010PropOp29
 70
     1
102
RTVSPost2010Prop30
280
     1
102
RTVSPost2010PropOp30
 70
     1
102
RTVSPost2010Prop31
280
     0
102
RTVSPost2010PropOp31
 70
     1
102
RTVSPost2010Prop32
280
     0
102
RTVSPost2010PropOp32
 70
     1
102
RTVSPost2010Prop33
280
     0
102
RTVSPost2010PropOp33
 70
     1
102
RTVSPost2010Prop34
280
     0
102
RTVSPost2010PropOp34
 70
     1
102
RTVSPost2010Prop35
280
     0
102
RTVSPost2010PropOp35
 70
     1
102
RTVSPost2010Prop36
280
     0
102
RTVSPost2010PropOp36
 70
     1
102
RTVSPost2010Prop37
 90
       50
102
RTVSPost2010PropOp37
 70
     1
102
RTVSPost2010Prop38
140
0.0
102
RTVSPost2010PropOp38
 70
     1
102
RTVSPost2010Prop39
140
1.0
102
RTVSPost2010PropOp39
 70
     1
102
RTVSPost2010Prop40
 90
        0
102
RTVSPost2010PropOp40
 70
     1
102
RTVSPost2010Prop41ColorIndex
 90
       18
102
RTVSPost2010Prop41ColorRGB
 90
        0
102
RTVSPost2010PropOp41
 70
     1
102
RTVSPost2010Prop42
 90
       50
102
RTVSPost2010PropOp42
 70
     1
102
RTVSPost2010Prop43
 90
        3
102
RTVSPost2010PropOp43
 70
     1
102
RTVSPost2010Prop44ColorIndex
 90
        5
102
RTVSPost2010Prop44ColorRGB
 90
      255
102
RTVSPost2010PropOp44
 70
     1
102
RTVSPost2010Prop45
280
     0
102
RTVSPost2010PropOp45
 70
     1
102
RTVSPost2010Prop46
 90
       50
102
RTVSPost2010PropOp46
 70
     1
102
RTVSPost2010Prop47
 90
       50
102
RTVSPost2010PropOp47
 70
     1
102
RTVSPost2010Prop48
 90
       50
102
RTVSPost2010PropOp48
 70
     1
102
RTVSPost2010Prop49
280
     0
102
RTVSPost2010PropOp49
 70
     1
102
RTVSPost2010Prop50
 90
       50
102
RTVSPost2010PropOp50
 70
     1
102
RTVSPost2010Prop51ColorIndex
 90
      256
102
RTVSPost2010Prop51ColorRGB
 90
-16777216
102
RTVSPost2010PropOp51
 70
     0
102
RTVSPost2010Prop52
140
1.0
102
RTVSPost2010PropOp52
 70
     0
102
RTVSPost2010Prop53
 90
        2
102
RTVSPost2010PropOp53
 70
     1
102
RTVSPost2010Prop54
  1
strokes_ogs.tif
102
RTVSPost2010PropOp54
 70
     1
102
RTVSPost2010Prop55
280
     0
102
RTVSPost2010PropOp55
 70
     1
102
RTVSPost2010Prop56
140
1.0
102
RTVSPost2010PropOp56
 70
     1
102
RTVSPost2010Prop57
140
1.0
102
RTVSPost2010PropOp57
 70
     1
  0
XRECORD
  5
334
102
{ACAD_REACTORS
330
333
102
}
330
333
100
AcDbXrecord
280
     1
102
RTVSPropertyOp0
 70
     1
102
RTVSPropertyOp1
 70
     1
102
RTVSPropertyOp2
 70
     1
102
RTVSPropertyOp3
 70
     1
102
RTVSPropertyOp4
 70
     1
102
RTVSPropertyOp5
 70
     1
102
RTVSPropertyOp6
 70
     1
102
RTVSPropertyOp7
 70
     1
102
RTVSPropertyOp8
 70
     1
102
RTVSPropertyOp9
 70
     1
102
RTVSPropertyOp10
 70
     1
102
RTVSPropertyOp11
 70
     1
102
RTVSPropertyOp12
 70
     1
102
RTVSPropertyOp13
 70
     1
102
RTVSPropertyOp14
 70
     1
102
RTVSPropertyOp15
 70
     1
102
RTVSPropertyOp16
 70
     1
102
RTVSPropertyOp17
 70
     1
102
RTVSPropertyOp18
 70
     1
102
RTVSPropertyOp19
 70
     1
102
RTVSPropertyOp20
 70
     1
102
RTVSPropertyOp21
 70
     1
102
RTVSPropertyOp22
 70
     1
102
RTVSPropertyOp23
 70
     1
102
RTVSPropertyOp24
 70
     1
102
RTVSPropertyOp25
 70
     1
102
RTVSPropertyOp26
 70
     1
102
RTVSPropertyOp27
 70
     1
102
RTVSPropertyOp28
 70
     1
102
RTVSPropertyOp29
 70
     1
102
RTVSPropertyOp30
 70
     1
102
RTVSPropertyOp31
 70
     1
102
RTVSPropertyOp32
 70
     1
102
RTVSPropertyOp33
 70
     1
102
RTVSPropertyOp34
 70
     1
102
RTVSPropertyOp35
 70
     1
102
RTVSPropertyOp36
 70
     1
102
RTVSPropertyOp37
 70
     1
102
RTVSPropertyOp38
 70
     1
102
RTVSPropertyOp39
 70
     1
102
RTVSPropertyOp40
 70
     1
102
RTVSPropertyOp41
 70
     1
102
RTVSPropertyOp42
 70
     1
102
RTVSPropertyOp43
 70
     1
102
RTVSPropertyOp44
 70
     1
102
RTVSPropertyOp45
 70
     1
102
RTVSPropertyOp46
 70
     1
102
RTVSPropertyOp47
 70
     1
102
RTVSPropertyOp48
 70
     1
102
RTVSPropertyOp49
 70
     1
102
RTVSPropertyOp50
 70
     1
102
RTVSPropertyOp51
 70
     0
102
RTVSPropertyOp52
 70
     0
102
RTVSPropertyOp53
 70
     1
102
RTVSPropertyOp54
 70
     1
102
RTVSPropertyOp55
 70
     1
102
RTVSPropertyOp56
 70
     1
102
RTVSPropertyOp57
 70
     1
102
RTVSPost2010Prop28
280
     0
102
RTVSPost2010PropOp28
 70
     1
102
RTVSPost2010Prop29
280
     1
102
RTVSPost2010PropOp29
 70
     1
102
RTVSPost2010Prop30
280
     1
102
RTVSPost2010PropOp30
 70
     1
102
RTVSPost2010Prop31
280
     0
102
RTVSPost2010PropOp31
 70
     1
102
RTVSPost2010Prop32
280
     0
102
RTVSPost2010PropOp32
 70
     1
102
RTVSPost2010Prop33
280
     0
102
RTVSPost2010PropOp33
 70
     1
102
RTVSPost2010Prop34
280
     0
102
RTVSPost2010PropOp34
 70
     1
102
RTVSPost2010Prop35
280
     0
102
RTVSPost2010PropOp35
 70
     1
102
RTVSPost2010Prop36
280
     0
102
RTVSPost2010PropOp36
 70
     1
102
RTVSPost2010Prop37
 90
       50
102
RTVSPost2010PropOp37
 70
     1
102
RTVSPost2010Prop38
140
0.0
102
RTVSPost2010PropOp38
 70
     1
102
RTVSPost2010Prop39
140
1.0
102
RTVSPost2010PropOp39
 70
     1
102
RTVSPost2010Prop40
 90
        0
102
RTVSPost2010PropOp40
 70
     1
102
RTVSPost2010Prop41ColorIndex
 90
       18
102
RTVSPost2010Prop41ColorRGB
 90
        0
102
RTVSPost2010PropOp41
 70
     1
102
RTVSPost2010Prop42
 90
       50
102
RTVSPost2010PropOp42
 70
     1
102
RTVSPost2010Prop43
 90
        3
102
RTVSPost2010PropOp43
 70
     1
102
RTVSPost2010Prop44ColorIndex
 90
        5
102
RTVSPost2010Prop44ColorRGB
 90
      255
102
RTVSPost2010PropOp44
 70
     1
102
RTVSPost2010Prop45
280
     0
102
RTVSPost2010PropOp45
 70
     1
102
RTVSPost2010Prop46
 90
       50
102
RTVSPost2010PropOp46
 70
     1
102
RTVSPost2010Prop47
 90
       50
102
RTVSPost2010PropOp47
 70
     1
102
RTVSPost2010Prop48
 90
       50
102
RTVSPost2010PropOp48
 70
     1
102
RTVSPost2010Prop49
280
     0
102
RTVSPost2010PropOp49
 70
     1
102
RTVSPost2010Prop50
 90
       50
102
RTVSPost2010PropOp50
 70
     1
102
RTVSPost2010Prop51ColorIndex
 90
      256
102
RTVSPost2010Prop51ColorRGB
 90
-16777216
102
RTVSPost2010PropOp51
 70
     0
102
RTVSPost2010Prop52
140
1.0
102
RTVSPost2010PropOp52
 70
     0
102
RTVSPost2010Prop53
 90
        2
102
RTVSPost2010PropOp53
 70
     1
102
RTVSPost2010Prop54
  1
strokes_ogs.tif
102
RTVSPost2010PropOp54
 70
     1
102
RTVSPost2010Prop55
280
     0
102
RTVSPost2010PropOp55
 70
     1
102
RTVSPost2010Prop56
140
1.0
102
RTVSPost2010PropOp56
 70
     1
102
RTVSPost2010Prop57
140
1.0
102
RTVSPost2010PropOp57
 70
     1
  0
XRECORD
  5
336
102
{ACAD_REACTORS
330
335
102
}
330
335
100
AcDbXrecord
280
     1
102
RTVSPropertyOp0
 70
     1
102
RTVSPropertyOp1
 70
     1
102
RTVSPropertyOp2
 70
     1
102
RTVSPropertyOp3
 70
     1
102
RTVSPropertyOp4
 70
     1
102
RTVSPropertyOp5
 70
     1
102
RTVSPropertyOp6
 70
     1
102
RTVSPropertyOp7
 70
     1
102
RTVSPropertyOp8
 70
     1
102
RTVSPropertyOp9
 70
     1
102
RTVSPropertyOp10
 70
     1
102
RTVSPropertyOp11
 70
     1
102
RTVSPropertyOp12
 70
     1
102
RTVSPropertyOp13
 70
     1
102
RTVSPropertyOp14
 70
     1
102
RTVSPropertyOp15
 70
     1
102
RTVSPropertyOp16
 70
     1
102
RTVSPropertyOp17
 70
     1
102
RTVSPropertyOp18
 70
     1
102
RTVSPropertyOp19
 70
     1
102
RTVSPropertyOp20
 70
     1
102
RTVSPropertyOp21
 70
     1
102
RTVSPropertyOp22
 70
     1
102
RTVSPropertyOp23
 70
     1
102
RTVSPropertyOp24
 70
     1
102
RTVSPropertyOp25
 70
     1
102
RTVSPropertyOp26
 70
     1
102
RTVSPropertyOp27
 70
     1
102
RTVSPropertyOp28
 70
     1
102
RTVSPropertyOp29
 70
     1
102
RTVSPropertyOp30
 70
     1
102
RTVSPropertyOp31
 70
     1
102
RTVSPropertyOp32
 70
     1
102
RTVSPropertyOp33
 70
     1
102
RTVSPropertyOp34
 70
     1
102
RTVSPropertyOp35
 70
     1
102
RTVSPropertyOp36
 70
     1
102
RTVSPropertyOp37
 70
     1
102
RTVSPropertyOp38
 70
     1
102
RTVSPropertyOp39
 70
     1
102
RTVSPropertyOp40
 70
     1
102
RTVSPropertyOp41
 70
     1
102
RTVSPropertyOp42
 70
     1
102
RTVSPropertyOp43
 70
     1
102
RTVSPropertyOp44
 70
     1
102
RTVSPropertyOp45
 70
     1
102
RTVSPropertyOp46
 70
     1
102
RTVSPropertyOp47
 70
     1
102
RTVSPropertyOp48
 70
     1
102
RTVSPropertyOp49
 70
     1
102
RTVSPropertyOp50
 70
     1
102
RTVSPropertyOp51
 70
     0
102
RTVSPropertyOp52
 70
     0
102
RTVSPropertyOp53
 70
     1
102
RTVSPropertyOp54
 70
     1
102
RTVSPropertyOp55
 70
     1
102
RTVSPropertyOp56
 70
     1
102
RTVSPropertyOp57
 70
     1
102
RTVSPost2010Prop28
280
     0
102
RTVSPost2010PropOp28
 70
     1
102
RTVSPost2010Prop29
280
     1
102
RTVSPost2010PropOp29
 70
     1
102
RTVSPost2010Prop30
280
     1
102
RTVSPost2010PropOp30
 70
     1
102
RTVSPost2010Prop31
280
     0
102
RTVSPost2010PropOp31
 70
     1
102
RTVSPost2010Prop32
280
     0
102
RTVSPost2010PropOp32
 70
     1
102
RTVSPost2010Prop33
280
     0
102
RTVSPost2010PropOp33
 70
     1
102
RTVSPost2010Prop34
280
     0
102
RTVSPost2010PropOp34
 70
     1
102
RTVSPost2010Prop35
280
     0
102
RTVSPost2010PropOp35
 70
     1
102
RTVSPost2010Prop36
280
     0
102
RTVSPost2010PropOp36
 70
     1
102
RTVSPost2010Prop37
 90
       50
102
RTVSPost2010PropOp37
 70
     1
102
RTVSPost2010Prop38
140
0.0
102
RTVSPost2010PropOp38
 70
     1
102
RTVSPost2010Prop39
140
1.0
102
RTVSPost2010PropOp39
 70
     1
102
RTVSPost2010Prop40
 90
        0
102
RTVSPost2010PropOp40
 70
     1
102
RTVSPost2010Prop41ColorIndex
 90
       18
102
RTVSPost2010Prop41ColorRGB
 90
        0
102
RTVSPost2010PropOp41
 70
     1
102
RTVSPost2010Prop42
 90
       50
102
RTVSPost2010PropOp42
 70
     1
102
RTVSPost2010Prop43
 90
        3
102
RTVSPost2010PropOp43
 70
     1
102
RTVSPost2010Prop44ColorIndex
 90
        5
102
RTVSPost2010Prop44ColorRGB
 90
      255
102
RTVSPost2010PropOp44
 70
     1
102
RTVSPost2010Prop45
280
     0
102
RTVSPost2010PropOp45
 70
     1
102
RTVSPost2010Prop46
 90
       50
102
RTVSPost2010PropOp46
 70
     1
102
RTVSPost2010Prop47
 90
       50
102
RTVSPost2010PropOp47
 70
     1
102
RTVSPost2010Prop48
 90
       50
102
RTVSPost2010PropOp48
 70
     1
102
RTVSPost2010Prop49
280
     0
102
RTVSPost2010PropOp49
 70
     1
102
RTVSPost2010Prop50
 90
       50
102
RTVSPost2010PropOp50
 70
     1
102
RTVSPost2010Prop51ColorIndex
 90
      256
102
RTVSPost2010Prop51ColorRGB
 90
-16777216
102
RTVSPost2010PropOp51
 70
     0
102
RTVSPost2010Prop52
140
1.0
102
RTVSPost2010PropOp52
 70
     0
102
RTVSPost2010Prop53
 90
        2
102
RTVSPost2010PropOp53
 70
     1
102
RTVSPost2010Prop54
  1
strokes_ogs.tif
102
RTVSPost2010PropOp54
 70
     1
102
RTVSPost2010Prop55
280
     0
102
RTVSPost2010PropOp55
 70
     1
102
RTVSPost2010Prop56
140
1.0
102
RTVSPost2010PropOp56
 70
     1
102
RTVSPost2010Prop57
140
1.0
102
RTVSPost2010PropOp57
 70
     1
  0
XRECORD
  5
326
102
{ACAD_REACTORS
330
325
102
}
330
325
100
AcDbXrecord
280
     1
102
RTVSPropertyOp0
 70
     1
102
RTVSPropertyOp1
 70
     1
102
RTVSPropertyOp2
 70
     1
102
RTVSPropertyOp3
 70
     1
102
RTVSPropertyOp4
 70
     1
102
RTVSPropertyOp5
 70
     1
102
RTVSPropertyOp6
 70
     1
102
RTVSPropertyOp7
 70
     1
102
RTVSPropertyOp8
 70
     1
102
RTVSPropertyOp9
 70
     1
102
RTVSPropertyOp10
 70
     1
102
RTVSPropertyOp11
 70
     1
102
RTVSPropertyOp12
 70
     1
102
RTVSPropertyOp13
 70
     1
102
RTVSPropertyOp14
 70
     1
102
RTVSPropertyOp15
 70
     1
102
RTVSPropertyOp16
 70
     1
102
RTVSPropertyOp17
 70
     1
102
RTVSPropertyOp18
 70
     1
102
RTVSPropertyOp19
 70
     1
102
RTVSPropertyOp20
 70
     1
102
RTVSPropertyOp21
 70
     1
102
RTVSPropertyOp22
 70
     1
102
RTVSPropertyOp23
 70
     1
102
RTVSPropertyOp24
 70
     1
102
RTVSPropertyOp25
 70
     1
102
RTVSPropertyOp26
 70
     1
102
RTVSPropertyOp27
 70
     1
102
RTVSPropertyOp28
 70
     1
102
RTVSPropertyOp29
 70
     1
102
RTVSPropertyOp30
 70
     1
102
RTVSPropertyOp31
 70
     1
102
RTVSPropertyOp32
 70
     1
102
RTVSPropertyOp33
 70
     1
102
RTVSPropertyOp34
 70
     1
102
RTVSPropertyOp35
 70
     1
102
RTVSPropertyOp36
 70
     1
102
RTVSPropertyOp37
 70
     1
102
RTVSPropertyOp38
 70
     1
102
RTVSPropertyOp39
 70
     1
102
RTVSPropertyOp40
 70
     1
102
RTVSPropertyOp41
 70
     1
102
RTVSPropertyOp42
 70
     1
102
RTVSPropertyOp43
 70
     1
102
RTVSPropertyOp44
 70
     1
102
RTVSPropertyOp45
 70
     1
102
RTVSPropertyOp46
 70
     1
102
RTVSPropertyOp47
 70
     1
102
RTVSPropertyOp48
 70
     1
102
RTVSPropertyOp49
 70
     1
102
RTVSPropertyOp50
 70
     1
102
RTVSPropertyOp51
 70
     0
102
RTVSPropertyOp52
 70
     0
102
RTVSPropertyOp53
 70
     1
102
RTVSPropertyOp54
 70
     1
102
RTVSPropertyOp55
 70
     1
102
RTVSPropertyOp56
 70
     1
102
RTVSPropertyOp57
 70
     1
102
RTVSPost2010Prop28
280
     0
102
RTVSPost2010PropOp28
 70
     1
102
RTVSPost2010Prop29
280
     1
102
RTVSPost2010PropOp29
 70
     1
102
RTVSPost2010Prop30
280
     1
102
RTVSPost2010PropOp30
 70
     1
102
RTVSPost2010Prop31
280
     0
102
RTVSPost2010PropOp31
 70
     1
102
RTVSPost2010Prop32
280
     0
102
RTVSPost2010PropOp32
 70
     1
102
RTVSPost2010Prop33
280
     0
102
RTVSPost2010PropOp33
 70
     1
102
RTVSPost2010Prop34
280
     0
102
RTVSPost2010PropOp34
 70
     1
102
RTVSPost2010Prop35
280
     0
102
RTVSPost2010PropOp35
 70
     1
102
RTVSPost2010Prop36
280
     0
102
RTVSPost2010PropOp36
 70
     1
102
RTVSPost2010Prop37
 90
       50
102
RTVSPost2010PropOp37
 70
     1
102
RTVSPost2010Prop38
140
0.0
102
RTVSPost2010PropOp38
 70
     1
102
RTVSPost2010Prop39
140
1.0
102
RTVSPost2010PropOp39
 70
     1
102
RTVSPost2010Prop40
 90
        0
102
RTVSPost2010PropOp40
 70
     1
102
RTVSPost2010Prop41ColorIndex
 90
       18
102
RTVSPost2010Prop41ColorRGB
 90
        0
102
RTVSPost2010PropOp41
 70
     1
102
RTVSPost2010Prop42
 90
       50
102
RTVSPost2010PropOp42
 70
     1
102
RTVSPost2010Prop43
 90
        3
102
RTVSPost2010PropOp43
 70
     1
102
RTVSPost2010Prop44ColorIndex
 90
        5
102
RTVSPost2010Prop44ColorRGB
 90
      255
102
RTVSPost2010PropOp44
 70
     1
102
RTVSPost2010Prop45
280
     0
102
RTVSPost2010PropOp45
 70
     1
102
RTVSPost2010Prop46
 90
       50
102
RTVSPost2010PropOp46
 70
     1
102
RTVSPost2010Prop47
 90
       50
102
RTVSPost2010PropOp47
 70
     1
102
RTVSPost2010Prop48
 90
       50
102
RTVSPost2010PropOp48
 70
     1
102
RTVSPost2010Prop49
280
     0
102
RTVSPost2010PropOp49
 70
     1
102
RTVSPost2010Prop50
 90
       50
102
RTVSPost2010PropOp50
 70
     1
102
RTVSPost2010Prop51ColorIndex
 90
      256
102
RTVSPost2010Prop51ColorRGB
 90
-16777216
102
RTVSPost2010PropOp51
 70
     0
102
RTVSPost2010Prop52
140
1.0
102
RTVSPost2010PropOp52
 70
     0
102
RTVSPost2010Prop53
 90
        2
102
RTVSPost2010PropOp53
 70
     1
102
RTVSPost2010Prop54
  1
strokes_ogs.tif
102
RTVSPost2010PropOp54
 70
     1
102
RTVSPost2010Prop55
280
     0
102
RTVSPost2010PropOp55
 70
     1
102
RTVSPost2010Prop56
140
1.0
102
RTVSPost2010PropOp56
 70
     1
102
RTVSPost2010Prop57
140
1.0
102
RTVSPost2010PropOp57
 70
     1
  0
XRECORD
  5
318
102
{ACAD_REACTORS
330
317
102
}
330
317
100
AcDbXrecord
280
     1
102
RTVSPropertyOp0
 70
     1
102
RTVSPropertyOp1
 70
     1
102
RTVSPropertyOp2
 70
     1
102
RTVSPropertyOp3
 70
     1
102
RTVSPropertyOp4
 70
     1
102
RTVSPropertyOp5
 70
     1
102
RTVSPropertyOp6
 70
     1
102
RTVSPropertyOp7
 70
     1
102
RTVSPropertyOp8
 70
     1
102
RTVSPropertyOp9
 70
     1
102
RTVSPropertyOp10
 70
     1
102
RTVSPropertyOp11
 70
     1
102
RTVSPropertyOp12
 70
     1
102
RTVSPropertyOp13
 70
     1
102
RTVSPropertyOp14
 70
     1
102
RTVSPropertyOp15
 70
     1
102
RTVSPropertyOp16
 70
     1
102
RTVSPropertyOp17
 70
     1
102
RTVSPropertyOp18
 70
     1
102
RTVSPropertyOp19
 70
     1
102
RTVSPropertyOp20
 70
     1
102
RTVSPropertyOp21
 70
     1
102
RTVSPropertyOp22
 70
     1
102
RTVSPropertyOp23
 70
     1
102
RTVSPropertyOp24
 70
     1
102
RTVSPropertyOp25
 70
     1
102
RTVSPropertyOp26
 70
     1
102
RTVSPropertyOp27
 70
     1
102
RTVSPropertyOp28
 70
     1
102
RTVSPropertyOp29
 70
     1
102
RTVSPropertyOp30
 70
     1
102
RTVSPropertyOp31
 70
     1
102
RTVSPropertyOp32
 70
     1
102
RTVSPropertyOp33
 70
     1
102
RTVSPropertyOp34
 70
     1
102
RTVSPropertyOp35
 70
     1
102
RTVSPropertyOp36
 70
     1
102
RTVSPropertyOp37
 70
     1
102
RTVSPropertyOp38
 70
     1
102
RTVSPropertyOp39
 70
     1
102
RTVSPropertyOp40
 70
     1
102
RTVSPropertyOp41
 70
     1
102
RTVSPropertyOp42
 70
     1
102
RTVSPropertyOp43
 70
     1
102
RTVSPropertyOp44
 70
     1
102
RTVSPropertyOp45
 70
     1
102
RTVSPropertyOp46
 70
     1
102
RTVSPropertyOp47
 70
     1
102
RTVSPropertyOp48
 70
     1
102
RTVSPropertyOp49
 70
     1
102
RTVSPropertyOp50
 70
     1
102
RTVSPropertyOp51
 70
     0
102
RTVSPropertyOp52
 70
     0
102
RTVSPropertyOp53
 70
     1
102
RTVSPropertyOp54
 70
     1
102
RTVSPropertyOp55
 70
     1
102
RTVSPropertyOp56
 70
     1
102
RTVSPropertyOp57
 70
     1
102
RTVSPost2010Prop28
280
     0
102
RTVSPost2010PropOp28
 70
     1
102
RTVSPost2010Prop29
280
     1
102
RTVSPost2010PropOp29
 70
     1
102
RTVSPost2010Prop30
280
     1
102
RTVSPost2010PropOp30
 70
     1
102
RTVSPost2010Prop31
280
     0
102
RTVSPost2010PropOp31
 70
     1
102
RTVSPost2010Prop32
280
     0
102
RTVSPost2010PropOp32
 70
     1
102
RTVSPost2010Prop33
280
     0
102
RTVSPost2010PropOp33
 70
     1
102
RTVSPost2010Prop34
280
     0
102
RTVSPost2010PropOp34
 70
     1
102
RTVSPost2010Prop35
280
     0
102
RTVSPost2010PropOp35
 70
     1
102
RTVSPost2010Prop36
280
     0
102
RTVSPost2010PropOp36
 70
     1
102
RTVSPost2010Prop37
 90
       50
102
RTVSPost2010PropOp37
 70
     1
102
RTVSPost2010Prop38
140
0.0
102
RTVSPost2010PropOp38
 70
     1
102
RTVSPost2010Prop39
140
1.0
102
RTVSPost2010PropOp39
 70
     1
102
RTVSPost2010Prop40
 90
        0
102
RTVSPost2010PropOp40
 70
     1
102
RTVSPost2010Prop41ColorIndex
 90
       18
102
RTVSPost2010Prop41ColorRGB
 90
        0
102
RTVSPost2010PropOp41
 70
     1
102
RTVSPost2010Prop42
 90
       50
102
RTVSPost2010PropOp42
 70
     1
102
RTVSPost2010Prop43
 90
        3
102
RTVSPost2010PropOp43
 70
     1
102
RTVSPost2010Prop44ColorIndex
 90
        5
102
RTVSPost2010Prop44ColorRGB
 90
      255
102
RTVSPost2010PropOp44
 70
     1
102
RTVSPost2010Prop45
280
     0
102
RTVSPost2010PropOp45
 70
     1
102
RTVSPost2010Prop46
 90
       50
102
RTVSPost2010PropOp46
 70
     1
102
RTVSPost2010Prop47
 90
       50
102
RTVSPost2010PropOp47
 70
     1
102
RTVSPost2010Prop48
 90
       50
102
RTVSPost2010PropOp48
 70
     1
102
RTVSPost2010Prop49
280
     0
102
RTVSPost2010PropOp49
 70
     1
102
RTVSPost2010Prop50
 90
       50
102
RTVSPost2010PropOp50
 70
     1
102
RTVSPost2010Prop51ColorIndex
 90
      256
102
RTVSPost2010Prop51ColorRGB
 90
-16777216
102
RTVSPost2010PropOp51
 70
     0
102
RTVSPost2010Prop52
140
1.0
102
RTVSPost2010PropOp52
 70
     0
102
RTVSPost2010Prop53
 90
        2
102
RTVSPost2010PropOp53
 70
     1
102
RTVSPost2010Prop54
  1
strokes_ogs.tif
102
RTVSPost2010PropOp54
 70
     1
102
RTVSPost2010Prop55
280
     0
102
RTVSPost2010PropOp55
 70
     1
102
RTVSPost2010Prop56
140
1.0
102
RTVSPost2010PropOp56
 70
     1
102
RTVSPost2010Prop57
140
1.0
102
RTVSPost2010PropOp57
 70
     1
  0
XRECORD
  5
338
102
{ACAD_REACTORS
330
337
102
}
330
337
100
AcDbXrecord
280
     1
102
RTVSPropertyOp0
 70
     1
102
RTVSPropertyOp1
 70
     1
102
RTVSPropertyOp2
 70
     1
102
RTVSPropertyOp3
 70
     1
102
RTVSPropertyOp4
 70
     1
102
RTVSPropertyOp5
 70
     1
102
RTVSPropertyOp6
 70
     1
102
RTVSPropertyOp7
 70
     1
102
RTVSPropertyOp8
 70
     1
102
RTVSPropertyOp9
 70
     1
102
RTVSPropertyOp10
 70
     1
102
RTVSPropertyOp11
 70
     1
102
RTVSPropertyOp12
 70
     1
102
RTVSPropertyOp13
 70
     1
102
RTVSPropertyOp14
 70
     1
102
RTVSPropertyOp15
 70
     1
102
RTVSPropertyOp16
 70
     1
102
RTVSPropertyOp17
 70
     1
102
RTVSPropertyOp18
 70
     1
102
RTVSPropertyOp19
 70
     1
102
RTVSPropertyOp20
 70
     1
102
RTVSPropertyOp21
 70
     1
102
RTVSPropertyOp22
 70
     1
102
RTVSPropertyOp23
 70
     1
102
RTVSPropertyOp24
 70
     1
102
RTVSPropertyOp25
 70
     1
102
RTVSPropertyOp26
 70
     1
102
RTVSPropertyOp27
 70
     1
102
RTVSPropertyOp28
 70
     1
102
RTVSPropertyOp29
 70
     1
102
RTVSPropertyOp30
 70
     1
102
RTVSPropertyOp31
 70
     1
102
RTVSPropertyOp32
 70
     1
102
RTVSPropertyOp33
 70
     1
102
RTVSPropertyOp34
 70
     1
102
RTVSPropertyOp35
 70
     1
102
RTVSPropertyOp36
 70
     1
102
RTVSPropertyOp37
 70
     1
102
RTVSPropertyOp38
 70
     1
102
RTVSPropertyOp39
 70
     1
102
RTVSPropertyOp40
 70
     1
102
RTVSPropertyOp41
 70
     1
102
RTVSPropertyOp42
 70
     1
102
RTVSPropertyOp43
 70
     1
102
RTVSPropertyOp44
 70
     1
102
RTVSPropertyOp45
 70
     1
102
RTVSPropertyOp46
 70
     1
102
RTVSPropertyOp47
 70
     1
102
RTVSPropertyOp48
 70
     1
102
RTVSPropertyOp49
 70
     1
102
RTVSPropertyOp50
 70
     1
102
RTVSPropertyOp51
 70
     0
102
RTVSPropertyOp52
 70
     0
102
RTVSPropertyOp53
 70
     1
102
RTVSPropertyOp54
 70
     1
102
RTVSPropertyOp55
 70
     1
102
RTVSPropertyOp56
 70
     1
102
RTVSPropertyOp57
 70
     1
102
RTVSPost2010Prop28
280
     0
102
RTVSPost2010PropOp28
 70
     1
102
RTVSPost2010Prop29
280
     1
102
RTVSPost2010PropOp29
 70
     1
102
RTVSPost2010Prop30
280
     1
102
RTVSPost2010PropOp30
 70
     1
102
RTVSPost2010Prop31
280
     0
102
RTVSPost2010PropOp31
 70
     1
102
RTVSPost2010Prop32
280
     0
102
RTVSPost2010PropOp32
 70
     1
102
RTVSPost2010Prop33
280
     0
102
RTVSPost2010PropOp33
 70
     1
102
RTVSPost2010Prop34
280
     0
102
RTVSPost2010PropOp34
 70
     1
102
RTVSPost2010Prop35
280
     0
102
RTVSPost2010PropOp35
 70
     1
102
RTVSPost2010Prop36
280
     0
102
RTVSPost2010PropOp36
 70
     1
102
RTVSPost2010Prop37
 90
       50
102
RTVSPost2010PropOp37
 70
     1
102
RTVSPost2010Prop38
140
0.0
102
RTVSPost2010PropOp38
 70
     1
102
RTVSPost2010Prop39
140
1.0
102
RTVSPost2010PropOp39
 70
     1
102
RTVSPost2010Prop40
 90
        0
102
RTVSPost2010PropOp40
 70
     1
102
RTVSPost2010Prop41ColorIndex
 90
       18
102
RTVSPost2010Prop41ColorRGB
 90
        0
102
RTVSPost2010PropOp41
 70
     1
102
RTVSPost2010Prop42
 90
       50
102
RTVSPost2010PropOp42
 70
     1
102
RTVSPost2010Prop43
 90
        3
102
RTVSPost2010PropOp43
 70
     1
102
RTVSPost2010Prop44ColorIndex
 90
        5
102
RTVSPost2010Prop44ColorRGB
 90
      255
102
RTVSPost2010PropOp44
 70
     1
102
RTVSPost2010Prop45
280
     0
102
RTVSPost2010PropOp45
 70
     1
102
RTVSPost2010Prop46
 90
       50
102
RTVSPost2010PropOp46
 70
     1
102
RTVSPost2010Prop47
 90
       50
102
RTVSPost2010PropOp47
 70
     1
102
RTVSPost2010Prop48
 90
       50
102
RTVSPost2010PropOp48
 70
     1
102
RTVSPost2010Prop49
280
     0
102
RTVSPost2010PropOp49
 70
     1
102
RTVSPost2010Prop50
 90
       50
102
RTVSPost2010PropOp50
 70
     1
102
RTVSPost2010Prop51ColorIndex
 90
      256
102
RTVSPost2010Prop51ColorRGB
 90
-16777216
102
RTVSPost2010PropOp51
 70
     0
102
RTVSPost2010Prop52
140
1.0
102
RTVSPost2010PropOp52
 70
     0
102
RTVSPost2010Prop53
 90
        2
102
RTVSPost2010PropOp53
 70
     1
102
RTVSPost2010Prop54
  1
strokes_ogs.tif
102
RTVSPost2010PropOp54
 70
     1
102
RTVSPost2010Prop55
280
     0
102
RTVSPost2010PropOp55
 70
     1
102
RTVSPost2010Prop56
140
1.0
102
RTVSPost2010PropOp56
 70
     1
102
RTVSPost2010Prop57
140
1.0
102
RTVSPost2010PropOp57
 70
     1
  0
ENDSEC
  0
EOF
