  0
SECTION
  2
HEADER
  9
$ACADVER
  1
AC1015
  9
$ACADMAINTVER
 70
     6
  9
$DWGCODEPAGE
  3
ANSI_1252
  9
$INSBASE
 10
0.0
 20
0.0
 30
0.0
  9
$EXTMIN
 10
0.0
 20
0.0
 30
0.0
  9
$EXTMAX
 10
420.0
 20
297.0
 30
0.0
  9
$LIMMIN
 10
0.0
 20
0.0
  9
$LIMMAX
 10
420.0
 20
297.0
  9
$ORTHOMODE
 70
     0
  9
$REGENMODE
 70
     1
  9
$FILLMODE
 70
     1
  9
$QTEXTMODE
 70
     0
  9
$MIRRTEXT
 70
     1
  9
$LTSCALE
 40
1.0
  9
$ATTMODE
 70
     1
  9
$TEXTSIZE
 40
2.5
  9
$TRACEWID
 40
1.0
  9
$TEXTSTYLE
  7
Standard
  9
$CLAYER
  8
0
  9
$CELTYPE
  6
ByLayer
  9
$CECOLOR
 62
   256
  9
$CELTSCALE
 40
1.0
  9
$DISPSILH
 70
     0
  9
$DIMSCALE
 40
1.0
  9
$DIMASZ
 40
2.5
  9
$DIMEXO
 40
0.625
  9
$DIMDLI
 40
3.75
  9
$DIMRND
 40
0.0
  9
$DIMDLE
 40
0.0
  9
$DIMEXE
 40
1.25
  9
$DIMTP
 40
0.0
  9
$DIMTM
 40
0.0
  9
$DIMTXT
 40
2.5
  9
$DIMCEN
 40
2.5
  9
$DIMTSZ
 40
0.0
  9
$DIMTOL
 70
     0
  9
$DIMLIM
 70
     0
  9
$DIMTIH
 70
     0
  9
$DIMTOH
 70
     0
  9
$DIMSE1
 70
     0
  9
$DIMSE2
 70
     0
  9
$DIMTAD
 70
     1
  9
$DIMZIN
 70
     8
  9
$DIMBLK
  1

  9
$DIMASO
 70
     1
  9
$DIMSHO
 70
     1
  9
$DIMPOST
  1

  9
$DIMAPOST
  1

  9
$DIMALT
 70
     0
  9
$DIMALTD
 70
     3
  9
$DIMALTF
 40
0.0393700787
  9
$DIMLFAC
 40
1.0
  9
$DIMTOFL
 70
     1
  9
$DIMTVP
 40
0.0
  9
$DIMTIX
 70
     0
  9
$DIMSOXD
 70
     0
  9
$DIMSAH
 70
     0
  9
$DIMBLK1
  1

  9
$DIMBLK2
  1

  9
$DIMSTYLE
  2
ISO-25
  9
$DIMCLRD
 70
     0
  9
$DIMCLRE
 70
     0
  9
$DIMCLRT
 70
     0
  9
$DIMTFAC
 40
1.0
  9
$DIMGAP
 40
0.625
  9
$DIMJUST
 70
     0
  9
$DIMSD1
 70
     0
  9
$DIMSD2
 70
     0
  9
$DIMTOLJ
 70
     0
  9
$DIMTZIN
 70
     8
  9
$DIMALTZ
 70
     0
  9
$DIMALTTZ
 70
     0
  9
$DIMUPT
 70
     0
  9
$DIMDEC
 70
     2
  9
$DIMTDEC
 70
     2
  9
$DIMALTU
 70
     2
  9
$DIMALTTD
 70
     3
  9
$DIMTXSTY
  7
Standard
  9
$DIMAUNIT
 70
     0
  9
$DIMADEC
 70
     0
  9
$DIMALTRND
 40
0.0
  9
$DIMAZIN
 70
     0
  9
$DIMDSEP
 70
    44
  9
$DIMATFIT
 70
     3
  9
$DIMFRAC
 70
     0
  9
$DIMLDRBLK
  1

  9
$DIMLUNIT
 70
     2
  9
$DIMLWD
 70
    -2
  9
$DIMLWE
 70
    -2
  9
$DIMTMOVE
 70
     0
  9
$LUNITS
 70
     2
  9
$LUPREC
 70
     4
  9
$SKETCHINC
 40
1.0
  9
$FILLETRAD
 40
10.0
  9
$AUNITS
 70
     0
  9
$AUPREC
 70
     0
  9
$MENU
  1
.
  9
$ELEVATION
 40
0.0
  9
$PELEVATION
 40
0.0
  9
$THICKNESS
 40
0.0
  9
$LIMCHECK
 70
     0
  9
$CHAMFERA
 40
10.0
  9
$CHAMFERB
 40
10.0
  9
$CHAMFERC
 40
20.0
  9
$CHAMFERD
 40
0.0
  9
$SKPOLY
 70
     0
  9
$TDCREATE
 40
2455119.354913357
  9
$TDUCREATE
 40
2455119.271580023
  9
$TDUPDATE
 40
2455119.354913368
  9
$TDUUPDATE
 40
2455119.271580035
  9
$TDINDWG
 40
0.0000000116
  9
$TDUSRTIMER
 40
0.0000000116
  9
$USRTIMER
 70
     1
  9
$ANGBASE
 50
0.0
  9
$ANGDIR
 70
     0
  9
$PDMODE
 70
     0
  9
$PDSIZE
 40
0.0
  9
$PLINEWID
 40
0.0
  9
$SPLFRAME
 70
     0
  9
$SPLINETYPE
 70
     6
  9
$SPLINESEGS
 70
     8
  9
$HANDSEED
  5
452
  9
$SURFTAB1
 70
     6
  9
$SURFTAB2
 70
     6
  9
$SURFTYPE
 70
     6
  9
$SURFU
 70
     6
  9
$SURFV
 70
     6
  9
$UCSBASE
  2

  9
$UCSNAME
  2

  9
$UCSORG
 10
0.0
 20
0.0
 30
0.0
  9
$UCSXDIR
 10
1.0
 20
0.0
 30
0.0
  9
$UCSYDIR
 10
0.0
 20
1.0
 30
0.0
  9
$UCSORTHOREF
  2

  9
$UCSORTHOVIEW
 70
     0
  9
$UCSORGTOP
 10
0.0
 20
0.0
 30
0.0
  9
$UCSORGBOTTOM
 10
0.0
 20
0.0
 30
0.0
  9
$UCSORGLEFT
 10
0.0
 20
0.0
 30
0.0
  9
$UCSORGRIGHT
 10
0.0
 20
0.0
 30
0.0
  9
$UCSORGFRONT
 10
0.0
 20
0.0
 30
0.0
  9
$UCSORGBACK
 10
0.0
 20
0.0
 30
0.0
  9
$PUCSBASE
  2

  9
$PUCSNAME
  2

  9
$PUCSORG
 10
0.0
 20
0.0
 30
0.0
  9
$PUCSXDIR
 10
1.0
 20
0.0
 30
0.0
  9
$PUCSYDIR
 10
0.0
 20
1.0
 30
0.0
  9
$PUCSORTHOREF
  2

  9
$PUCSORTHOVIEW
 70
     0
  9
$PUCSORGTOP
 10
0.0
 20
0.0
 30
0.0
  9
$PUCSORGBOTTOM
 10
0.0
 20
0.0
 30
0.0
  9
$PUCSORGLEFT
 10
0.0
 20
0.0
 30
0.0
  9
$PUCSORGRIGHT
 10
0.0
 20
0.0
 30
0.0
  9
$PUCSORGFRONT
 10
0.0
 20
0.0
 30
0.0
  9
$PUCSORGBACK
 10
0.0
 20
0.0
 30
0.0
  9
$USERI1
 70
     0
  9
$USERI2
 70
     0
  9
$USERI3
 70
     0
  9
$USERI4
 70
     0
  9
$USERI5
 70
     0
  9
$USERR1
 40
0.0
  9
$USERR2
 40
0.0
  9
$USERR3
 40
0.0
  9
$USERR4
 40
0.0
  9
$USERR5
 40
0.0
  9
$WORLDVIEW
 70
     1
  9
$SHADEDGE
 70
     3
  9
$SHADEDIF
 70
    70
  9
$TILEMODE
 70
     1
  9
$MAXACTVP
 70
    64
  9
$PINSBASE
 10
0.0
 20
0.0
 30
0.0
  9
$PLIMCHECK
 70
     0
  9
$PEXTMIN
 10
0.0
 20
0.0
 30
0.0
  9
$PEXTMAX
 10
420.0
 20
297.0
 30
0.0
  9
$PLIMMIN
 10
0.0
 20
0.0
  9
$PLIMMAX
 10
420.0
 20
297.0
  9
$UNITMODE
 70
     0
  9
$VISRETAIN
 70
     1
  9
$PLINEGEN
 70
     0
  9
$PSLTSCALE
 70
     1
  9
$TREEDEPTH
 70
  3020
  9
$CMLSTYLE
  2
Standard
  9
$CMLJUST
 70
     0
  9
$CMLSCALE
 40
20.0
  9
$PROXYGRAPHICS
 70
     1
  9
$MEASUREMENT
 70
     1
  9
$CELWEIGHT
370
    -1
  9
$ENDCAPS
280
     0
  9
$JOINSTYLE
280
     0
  9
$LWDISPLAY
290
     0
  9
$INSUNITS
 70
     4
  9
$HYPERLINKBASE
  1

  9
$STYLESHEET
  1

  9
$XEDIT
290
     1
  9
$CEPSNTYPE
380
     0
  9
$PSTYLEMODE
290
     1
  9
$FINGERPRINTGUID
  2
{6432D7C3-9AF3-44C4-9EB1-79636F6CCAA3}
  9
$VERSIONGUID
  2
{FAEB1C32-E019-11D5-929B-00C0DF256EC4}
  9
$EXTNAMES
290
     1
  9
$PSVPSCALE
 40
0.0
  9
$OLESTARTUP
290
     0
  0
ENDSEC
  0
SECTION
  2
CLASSES
  0
CLASS
  1
ACDBDICTIONARYWDFLT
  2
AcDbDictionaryWithDefault
  3
ObjectDBX Classes
 90
        0
280
     0
281
     0
  0
CLASS
  1
VISUALSTYLE
  2
AcDbVisualStyle
  3
ObjectDBX Classes
 90
     4095
280
     0
281
     0
  0
CLASS
  1
SCALE
  2
AcDbScale
  3
ObjectDBX Classes
 90
     1153
280
     0
281
     0
  0
CLASS
  1
DICTIONARYVAR
  2
AcDbDictionaryVar
  3
ObjectDBX Classes
 90
        0
280
     0
281
     0
  0
CLASS
  1
ACDBPLACEHOLDER
  2
AcDbPlaceHolder
  3
ObjectDBX Classes
 90
        0
280
     0
281
     0
  0
CLASS
  1
LAYOUT
  2
AcDbLayout
  3
ObjectDBX Classes
 90
        0
280
     0
281
     0
  0
ENDSEC
  0
SECTION
  2
TABLES
  0
TABLE
  2
VPORT
  5
8
330
0
100
AcDbSymbolTable
 70
     1
  0
VPORT
  5
29
330
8
100
AcDbSymbolTableRecord
100
AcDbViewportTableRecord
  2
*Active
 70
     0
 10
0.0
 20
0.0
 11
1.0
 21
1.0
 12
344.1869158879
 22
148.5
 13
0.0
 23
0.0
 14
10.0
 24
10.0
 15
10.0
 25
10.0
 16
0.0
 26
0.0
 36
1.0
 17
0.0
 27
0.0
 37
0.0
 40
297.0
 41
1.9729729729
 42
50.0
 43
0.0
 44
0.0
 50
0.0
 51
0.0
 71
     0
 72
   100
 73
     1
 74
     3
 75
     0
 76
     0
 77
     0
 78
     0
281
     0
 65
     1
110
0.0
120
0.0
130
0.0
111
1.0
121
0.0
131
0.0
112
0.0
122
1.0
132
0.0
 79
     0
146
0.0
  0
ENDTAB
  0
TABLE
  2
LTYPE
  5
5
330
0
100
AcDbSymbolTable
 70
     2
  0
LTYPE
  5
14
330
5
100
AcDbSymbolTableRecord
100
AcDbLinetypeTableRecord
  2
ByBlock
 70
     0
  3

 72
    65
 73
     0
 40
0.0
  0
LTYPE
  5
15
330
5
100
AcDbSymbolTableRecord
100
AcDbLinetypeTableRecord
  2
ByLayer
 70
     0
  3

 72
    65
 73
     0
 40
0.0
  0
LTYPE
  5
16
330
5
100
AcDbSymbolTableRecord
100
AcDbLinetypeTableRecord
  2
Continuous
 70
     0
  3
Solid line
 72
    65
 73
     0
 40
0.0
  0
LTYPE
  5
1A1
330
5
100
AcDbSymbolTableRecord
100
AcDbLinetypeTableRecord
  2
CENTER2
 70
     0
  3
Center (.5x) ___ _ ___ _ ___ _ ___ _ ___ _ ___
 72
    65
 73
     4
 40
28.575
 49
19.05
 74
     4
 75
     0
340
0
 46
0.0
 50
0.0
 44
0.0
 45
0.0
 49
-3.175
 74
     4
 75
     0
340
0
 46
0.0
 50
0.0
 44
0.0
 45
0.0
 49
3.175
 74
     4
 75
     0
340
0
 46
0.0
 50
0.0
 44
0.0
 45
0.0
 49
-3.175
 74
     4
 75
     0
340
0
 46
0.0
 50
0.0
 44
0.0
 45
0.0
  0
ENDTAB
  0
TABLE
  2
LAYER
  5
2
330
0
100
AcDbSymbolTable
 70
     9
  0
LAYER
  5
10
330
2
100
AcDbSymbolTableRecord
100
AcDbLayerTableRecord
  2
0
 70
     0
 62
     7
  6
Continuous
370
    -3
390
F
  0
LAYER
  5
5D
330
2
100
AcDbSymbolTableRecord
100
AcDbLayerTableRecord
  2
Default
 70
     0
 62
     7
  6
Continuous
370
    -3
390
F
  0
LAYER
  5
65
330
2
100
AcDbSymbolTableRecord
100
AcDbLayerTableRecord
  2
Défaut
 70
     0
 62
     7
  6
Continuous
370
    -3
390
F
  0
LAYER
  5
71
330
2
100
AcDbSymbolTableRecord
100
AcDbLayerTableRecord
  2
F405
 70
     0
 62
     7
  6
Continuous
370
    -3
390
F
  0
LAYER
  5
DE
330
2
100
AcDbSymbolTableRecord
100
AcDbLayerTableRecord
  2
K132
 70
     0
 62
     7
  6
Continuous
370
    -3
390
F
  0
LAYER
  5
F2
330
2
100
AcDbSymbolTableRecord
100
AcDbLayerTableRecord
  2
K1007
 70
     0
 62
     7
  6
Continuous
370
    -3
390
F
  0
LAYER
  5
F4
330
2
100
AcDbSymbolTableRecord
100
AcDbLayerTableRecord
  2
K113
 70
     0
 62
     7
  6
Continuous
370
    -3
390
F
  0
LAYER
  5
1A0
330
2
100
AcDbSymbolTableRecord
100
AcDbLayerTableRecord
  2
DV1_Défaut
 70
     0
 62
     7
  6
Continuous
370
    -3
390
F
  0
LAYER
  5
2E0
330
2
100
AcDbSymbolTableRecord
100
AcDbLayerTableRecord
  2
F351
 70
     0
 62
     7
  6
Continuous
370
    -3
390
F
  0
ENDTAB
  0
TABLE
  2
STYLE
  5
3
330
0
100
AcDbSymbolTable
 70
     3
  0
STYLE
  5
11
330
3
100
AcDbSymbolTableRecord
100
AcDbTextStyleTableRecord
  2
Standard
 70
     0
 40
0.0
 41
1.0
 50
0.0
 71
     0
 42
2.5
  3
txt
  4

  0
STYLE
  5
60
330
3
100
AcDbSymbolTableRecord
100
AcDbTextStyleTableRecord
  2
SEACAD_arial_ttf
 70
     0
 40
0.0
 41
1.0
 50
0.0
 71
     0
 42
0.2
  3
arial.ttf
  4

  0
STYLE
  5
6B
330
3
100
AcDbSymbolTableRecord
100
AcDbTextStyleTableRecord
  2
SEACAD_arial_ttfB
 70
     0
 40
0.0
 41
1.0
 50
0.0
 71
     0
 42
0.2
  3
arial.ttf
  4

  0
ENDTAB
  0
TABLE
  2
VIEW
  5
6
330
0
100
AcDbSymbolTable
 70
     0
  0
ENDTAB
  0
TABLE
  2
UCS
  5
7
330
0
100
AcDbSymbolTable
 70
     0
  0
ENDTAB
  0
TABLE
  2
APPID
  5
9
330
0
100
AcDbSymbolTable
 70
     1
  0
APPID
  5
12
330
9
100
AcDbSymbolTableRecord
100
AcDbRegAppTableRecord
  2
ACAD
 70
     0
  0
ENDTAB
  0
TABLE
  2
DIMSTYLE
  5
A
330
0
100
AcDbSymbolTable
 70
     3
100
AcDbDimStyleTable
  0
DIMSTYLE
105
27
330
A
100
AcDbSymbolTableRecord
100
AcDbDimStyleTableRecord
  2
ISO-25
 70
     0
 41
2.5
 42
0.625
 43
3.75
 44
1.25
 73
     0
 74
     0
 77
     1
 78
     8
140
2.5
141
2.5
143
0.0393700787
147
0.625
171
     3
172
     1
271
     2
272
     2
274
     3
278
    44
283
     0
284
     8
340
11
  0
DIMSTYLE
105
1A6
330
A
100
AcDbSymbolTableRecord
100
AcDbDimStyleTableRecord
  2
Standard
 70
     0
340
11
  0
DIMSTYLE
105
1B8
102
{ACAD_REACTORS
330
1B9
330
1C3
330
1CD
330
1D7
330
1E1
330
438
330
442
102
}
330
A
100
AcDbSymbolTableRecord
100
AcDbDimStyleTableRecord
  2
presto
 70
     0
 41
7.5
 42
0.0
 44
1.5
 73
     0
 74
     0
 77
     1
 78
     8
140
5.0
141
0.0
147
2.5
172
     1
173
     1
271
     0
272
     0
278
    44
284
     8
340
60
343
1B3
344
1B3
  0
ENDTAB
  0
TABLE
  2
BLOCK_RECORD
  5
1
330
0
100
AcDbSymbolTable
 70
    16
  0
BLOCK_RECORD
  5
1F
330
1
100
AcDbSymbolTableRecord
100
AcDbBlockTableRecord
  2
*Model_Space
340
22
  0
BLOCK_RECORD
  5
1B
330
1
100
AcDbSymbolTableRecord
100
AcDbBlockTableRecord
  2
*Paper_Space
340
1E
  0
BLOCK_RECORD
  5
5E
330
1
100
AcDbSymbolTableRecord
100
AcDbBlockTableRecord
  2
SEANNOT_GROUP
340
0
102
{BLKREFS
331
5F
102
}
  0
BLOCK_RECORD
  5
66
330
1
100
AcDbSymbolTableRecord
100
AcDbBlockTableRecord
  2
SEANNOT_GROUP1
340
0
102
{BLKREFS
331
67
102
}
  0
BLOCK_RECORD
  5
6F
330
1
100
AcDbSymbolTableRecord
100
AcDbBlockTableRecord
  2
SE
340
0
102
{BLKREFS
331
70
102
}
  0
BLOCK_RECORD
  5
1A7
330
1
100
AcDbSymbolTableRecord
100
AcDbBlockTableRecord
  2
_OBLIQUE
340
0
  0
BLOCK_RECORD
  5
1AB
330
1
100
AcDbSymbolTableRecord
100
AcDbBlockTableRecord
  2
_DOT
340
0
  0
BLOCK_RECORD
  5
1B3
330
1
100
AcDbSymbolTableRecord
100
AcDbBlockTableRecord
  2
_SE_FILLED
340
0
  0
BLOCK_RECORD
  5
1BA
330
1
100
AcDbSymbolTableRecord
100
AcDbBlockTableRecord
  2
DMBLK1
340
0
  0
BLOCK_RECORD
  5
1C4
330
1
100
AcDbSymbolTableRecord
100
AcDbBlockTableRecord
  2
DMBLK2
340
0
  0
BLOCK_RECORD
  5
1CE
330
1
100
AcDbSymbolTableRecord
100
AcDbBlockTableRecord
  2
DMBLK3
340
0
  0
BLOCK_RECORD
  5
1D8
330
1
100
AcDbSymbolTableRecord
100
AcDbBlockTableRecord
  2
DMBLK4
340
0
  0
BLOCK_RECORD
  5
1E2
330
1
100
AcDbSymbolTableRecord
100
AcDbBlockTableRecord
  2
DMBLK5
340
0
  0
BLOCK_RECORD
  5
1EC
330
1
100
AcDbSymbolTableRecord
100
AcDbBlockTableRecord
  2
SE1
340
0
102
{BLKREFS
331
1ED
102
}
  0
BLOCK_RECORD
  5
34C
330
1
100
AcDbSymbolTableRecord
100
AcDbBlockTableRecord
  2
SE2
340
0
102
{BLKREFS
331
34D
102
}
  0
BLOCK_RECORD
  5
439
330
1
100
AcDbSymbolTableRecord
100
AcDbBlockTableRecord
  2
DMBLK6
340
0
  0
BLOCK_RECORD
  5
443
330
1
100
AcDbSymbolTableRecord
100
AcDbBlockTableRecord
  2
DMBLK7
340
0
  0
ENDTAB
  0
ENDSEC
  0
SECTION
  2
BLOCKS
  0
BLOCK
  5
20
330
1F
100
AcDbEntity
  8
0
100
AcDbBlockBegin
  2
*Model_Space
 70
     0
 10
0.0
 20
0.0
 30
0.0
  3
*Model_Space
  1

  0
ENDBLK
  5
21
330
1F
100
AcDbEntity
  8
0
100
AcDbBlockEnd
  0
BLOCK
  5
1C
330
1B
100
AcDbEntity
 67
     1
  8
0
100
AcDbBlockBegin
  2
*Paper_Space
 70
     0
 10
0.0
 20
0.0
 30
0.0
  3
*Paper_Space
  1

  0
ENDBLK
  5
1D
330
1B
100
AcDbEntity
 67
     1
  8
0
100
AcDbBlockEnd
  0
BLOCK
  5
63
330
5E
100
AcDbEntity
  8
0
100
AcDbBlockBegin
  2
SEANNOT_GROUP
 70
     0
 10
0.0
 20
0.0
 30
0.0
  3
SEANNOT_GROUP
  1

  0
TEXT
  5
61
330
5E
100
AcDbEntity
  8
Default
  6
Continuous
 62
     7
100
AcDbText
 10
196.2624068247
 20
76.5588918343
 30
0.0
 40
4.0
  1
P504
  7
SEACAD_arial_ttf
 11
196.2624068247
 21
80.5588918343
 31
0.0
100
AcDbText
 73
     3
  0
TEXT
  5
62
330
5E
100
AcDbEntity
  8
Default
  6
Continuous
 62
     7
100
AcDbText
 10
196.2624068247
 20
64.5588918343
 30
0.0
 40
4.0
  1
Réf.  63000
  7
SEACAD_arial_ttf
 11
196.2624068247
 21
68.5588918343
 31
0.0
100
AcDbText
 73
     3
  0
ENDBLK
  5
64
330
5E
100
AcDbEntity
  8
0
100
AcDbBlockEnd
  0
BLOCK
  5
6D
330
66
100
AcDbEntity
  8
0
100
AcDbBlockBegin
  2
SEANNOT_GROUP1
 70
     0
 10
0.0
 20
0.0
 30
0.0
  3
SEANNOT_GROUP1
  1

  0
LWPOLYLINE
  5
68
330
66
100
AcDbEntity
  8
Défaut
  6
Continuous
 62
     7
100
AcDbPolyline
 90
        2
 70
     0
 43
0.0
 10
241.9547760777
 20
211.0436912965
 10
241.9547760777
 20
231.9379127486
  0
HATCH
  5
69
330
66
100
AcDbEntity
  8
Défaut
  6
Continuous
 62
     7
100
AcDbHatch
 10
0.0
 20
0.0
 30
0.0
210
0.0
220
0.0
230
1.0
  2
SOLID
 70
     1
 71
     0
 91
        1
 92
        1
 93
        3
 72
     1
 10
243.2047760497264
 20
224.4379129162513
 11
241.9547760776661
 21
231.9379127486133
 72
     1
 10
241.9547760776661
 20
231.9379127486133
 11
240.7047761056058
 21
224.4379129162513
 72
     1
 10
240.7047761056058
 20
224.4379129162513
 11
243.2047760497264
 21
224.4379129162513
 97
        0
 75
     0
 76
     1
 98
        0
  0
LINE
  5
6A
330
66
100
AcDbEntity
  8
Défaut
  6
Continuous
 62
     7
100
AcDbLine
 10
241.9547760777
 20
211.0436912965
 30
0.0
 11
224.7259590099
 21
211.0436912965
 31
0.0
  0
TEXT
  5
6C
330
66
100
AcDbEntity
  8
Défaut
  6
Continuous
 62
     7
100
AcDbText
 10
204.9759590099
 20
208.5436912965
 30
0.0
 40
5.0
  1
G1/2"
  7
SEACAD_arial_ttfB
 11
204.9759590099
 21
213.5436912965
 31
0.0
100
AcDbText
 73
     3
  0
ENDBLK
  5
6E
330
66
100
AcDbEntity
  8
0
100
AcDbBlockEnd
  0
BLOCK
  5
1A4
330
6F
100
AcDbEntity
  8
0
100
AcDbBlockBegin
  2
SE
 70
     0
 10
0.0
 20
0.0
 30
0.0
  3
SE
  1

  0
LINE
  5
72
330
6F
100
AcDbEntity
  8
F405
  6
Continuous
 62
     7
100
AcDbLine
 10
160.1371285884
 20
200.4384014859
 30
0.0
 11
167.9022649783
 21
196.9811400191
 31
0.0
  0
LINE
  5
73
330
6F
100
AcDbEntity
  8
F405
  6
Continuous
 62
     7
100
AcDbLine
 10
164.2898432403
 20
207.3708948296
 30
0.0
 11
161.6919797427
 21
203.0340518451
 31
0.0
  0
LINE
  5
74
330
6F
100
AcDbEntity
  8
F405
  6
Continuous
 62
     7
100
AcDbLine
 10
161.6919797427
 20
203.0340518451
 30
0.0
 11
160.1371285884
 21
200.4384014859
 31
0.0
  0
LINE
  5
75
330
6F
100
AcDbEntity
  8
F405
  6
Continuous
 62
     7
100
AcDbLine
 10
169.4915950466
 20
216.0546385481
 30
0.0
 11
165.4251177763
 21
209.2661088822
 31
0.0
  0
LINE
  5
76
330
6F
100
AcDbEntity
  8
F405
  6
Continuous
 62
     7
100
AcDbLine
 10
165.4251177763
 20
209.2661088822
 30
0.0
 11
164.2898432403
 21
207.3708948296
 31
0.0
  0
LINE
  5
77
330
6F
100
AcDbEntity
  8
F405
  6
Continuous
 62
     7
100
AcDbLine
 10
167.9022649784
 20
196.9811400198
 30
0.0
 11
171.5909658103
 21
205.2660977361
 31
0.0
  0
LINE
  5
78
330
6F
100
AcDbEntity
  8
F405
  6
Continuous
 62
     7
100
AcDbLine
 10
175.4072223227
 20
213.8375502018
 30
0.0
 11
179.3685361441
 21
222.7348067175
 31
0.0
  0
LINE
  5
79
330
6F
100
AcDbEntity
  8
F405
  6
Continuous
 62
     7
100
AcDbLine
 10
179.3685361441
 20
222.7348067175
 30
0.0
 11
182.3266012973
 21
229.3787298313
 31
0.0
  0
LINE
  5
7A
330
6F
100
AcDbEntity
  8
F405
  6
Continuous
 62
     7
100
AcDbLine
 10
182.3266012973
 20
229.3787298313
 30
0.0
 11
185.2601240223
 21
235.9675297486
 31
0.0
  0
LINE
  5
7B
330
6F
100
AcDbEntity
  8
F405
  6
Continuous
 62
     7
100
AcDbLine
 10
185.2601240353
 20
235.967529747
 30
0.0
 11
188.1409241004
 21
242.4379127486
 31
0.0
  0
LINE
  5
7C
330
6F
100
AcDbEntity
  8
F405
  6
Continuous
 62
     7
100
AcDbLine
 10
169.4916149608
 20
216.0546717925
 30
0.0
 11
182.5290272275
 21
237.8191755775
 31
0.0
  0
LINE
  5
7D
330
6F
100
AcDbEntity
  8
F405
  6
Continuous
 62
     7
100
AcDbLine
 10
182.5290272275
 20
237.8191755775
 30
0.0
 11
185.2957514886
 21
242.4379127486
 31
0.0
  0
LINE
  5
7E
330
6F
100
AcDbEntity
  8
F405
  6
Continuous
 62
     7
100
AcDbLine
 10
161.7463518976
 20
205.0820806941
 30
0.0
 11
160.1371285884
 21
200.4384014859
 31
0.0
  0
LINE
  5
7F
330
6F
100
AcDbEntity
  8
F405
  6
Continuous
 62
     7
100
AcDbLine
 10
165.5576702596
 20
216.0802682864
 30
0.0
 11
162.847399424
 21
208.2593348861
 31
0.0
  0
ARC
  5
80
330
6F
100
AcDbEntity
  8
F405
  6
Continuous
 62
     7
100
AcDbCircle
 10
175.7040524211
 20
210.6559492232
 30
0.0
 40
11.50531652181617
100
AcDbArc
 50
145.8689197019
 51
151.870762645
  0
ARC
  5
81
330
6F
100
AcDbEntity
  8
F405
  6
Continuous
 62
     7
100
AcDbCircle
 10
141.9367134603
 20
228.0816602342
 30
0.0
 40
26.49496195126073
100
AcDbArc
 50
349.9556153686
 51
351.0021406701
  0
ARC
  5
82
330
6F
100
AcDbEntity
  8
F405
  6
Continuous
 62
     7
100
AcDbCircle
 10
141.9367134603
 20
228.0816602342
 30
0.0
 40
26.49496195126073
100
AcDbArc
 50
333.0656787761
 51
349.2793839439
  0
LINE
  5
83
330
6F
100
AcDbEntity
  8
F405
  6
Continuous
 62
     7
100
AcDbLine
 10
175.6674013684
 20
193.5238785536
 30
0.0
 11
174.6270703426
 21
193.9870637654
 31
0.0
  0
LINE
  5
84
330
6F
100
AcDbEntity
  8
F405
  6
Continuous
 62
     7
100
AcDbLine
 10
174.6270703426
 20
193.9870637654
 30
0.0
 11
171.7848331698
 21
195.2525092839
 31
0.0
  0
LINE
  5
85
330
6F
100
AcDbEntity
  8
F405
  6
Continuous
 62
     7
100
AcDbLine
 10
171.7848331698
 20
195.2525092839
 30
0.0
 11
167.9022649783
 21
196.9811400191
 31
0.0
  0
LINE
  5
86
330
6F
100
AcDbEntity
  8
F405
  6
Continuous
 62
     7
100
AcDbLine
 10
182.2166205142
 20
204.4570685127
 30
0.0
 11
185.4912300871
 21
209.9236634922
 31
0.0
  0
LINE
  5
87
330
6F
100
AcDbEntity
  8
F405
  6
Continuous
 62
     7
100
AcDbLine
 10
178.9420109413
 20
198.9904735332
 30
0.0
 11
182.2166205142
 21
204.4570685127
 31
0.0
  0
LINE
  5
88
330
6F
100
AcDbEntity
  8
F405
  6
Continuous
 62
     7
100
AcDbLine
 10
175.6674013684
 20
193.5238785536
 30
0.0
 11
178.9420109413
 21
198.9904735332
 31
0.0
  0
SPLINE
  5
89
330
6F
100
AcDbEntity
  8
F405
  6
Continuous
 62
     7
100
AcDbSpline
210
0.0
220
0.0
230
1.0
 70
     8
 71
     3
 72
    12
 73
     8
 74
     0
 42
0.0000000150928431
 43
0.0000000001
 40
0.0
 40
0.0
 40
0.0
 40
0.0
 40
0.2500000000000001
 40
0.2500000000000001
 40
0.625
 40
0.625
 40
0.8277760454447277
 40
0.8277760454447277
 40
0.8277760454447277
 40
0.8277760454447277
 10
192.9628007079316
 20
219.3637993927734
 30
0.0
 10
193.0201246592893
 20
219.2524235185089
 30
0.0
 10
193.0702230176958
 20
219.1622361424276
 30
0.0
 10
193.1678331116822
 20
218.9962457228995
 30
0.0
 10
193.2015268462692
 20
218.9501823787649
 30
0.0
 10
193.2394547970771
 20
218.9341365241849
 30
0.0
 10
193.2501117295943
 20
218.9389290115724
 30
0.0
 10
193.2636851871237
 20
218.9500134378804
 30
0.0
  0
SPLINE
  5
8A
330
6F
100
AcDbEntity
  8
F405
  6
Continuous
 62
     7
100
AcDbSpline
210
0.0
220
0.0
230
1.0
 70
     8
 71
     3
 72
    12
 73
     8
 74
     0
 42
0.0000000370312793
 43
0.0000000001
 40
0.0
 40
0.0
 40
0.0
 40
0.0
 40
0.2500000000000001
 40
0.2500000000000001
 40
0.625
 40
0.625
 40
0.9835423108472148
 40
0.9835423108472148
 40
0.9835423108472148
 40
0.9835423108472148
 10
203.6577001752069
 20
225.1382459200007
 30
0.0
 10
203.6774279325928
 20
225.0925681380954
 30
0.0
 10
203.6936569715599
 20
225.0532602844533
 30
0.0
 10
203.7231240515595
 20
224.972613633429
 30
0.0
 10
203.7308092004845
 20
224.9400872468694
 30
0.0
 10
203.7327777559862
 20
224.9004794851881
 30
0.0
 10
203.7276337642553
 20
224.8923454823072
 30
0.0
 10
203.723080752056
 20
224.8909868757525
 30
0.0
  0
LINE
  5
8B
330
6F
100
AcDbEntity
  8
F405
  6
Continuous
 62
     7
100
AcDbLine
 10
215.5164323376
 20
226.9379127486
 30
0.0
 11
215.4299154078
 21
227.1189236003
 31
0.0
  0
ARC
  5
8C
330
6F
100
AcDbEntity
  8
F405
  6
Continuous
 62
     7
100
AcDbCircle
 10
213.8781950522
 20
193.4175055847
 30
0.0
 40
33.3266242357798
100
AcDbArc
 50
107.859058963
 51
128.8724036952
  0
ARC
  5
8D
330
6F
100
AcDbEntity
  8
F405
  6
Continuous
 62
     7
100
AcDbCircle
 10
216.0048809286
 20
187.7270091983
 30
0.0
 40
39.39611028521016
100
AcDbArc
 50
90.836231472
 51
108.2649237893
  0
LINE
  5
8E
330
6F
100
AcDbEntity
  8
F405
  6
Continuous
 62
     7
100
AcDbLine
 10
233.1056332999
 20
257.9379127486
 30
0.0
 11
233.1056332999
 21
242.7935864757
 31
0.0
  0
LINE
  5
8F
330
6F
100
AcDbEntity
  8
F405
  6
Continuous
 62
     7
100
AcDbLine
 10
185.2957514886
 20
242.4379127486
 30
0.0
 11
196.377654817
 21
260.9379127486
 31
0.0
  0
ARC
  5
90
330
6F
100
AcDbEntity
  8
F405
  6
Continuous
 62
     7
100
AcDbCircle
 10
194.4360935319
 20
10.843971808
 30
0.0
 40
250.1014773155669
100
AcDbArc
 50
81.1055086409
 51
89.5552030085
  0
LINE
  5
91
330
6F
100
AcDbEntity
  8
F405
  6
Continuous
 62
     7
100
AcDbLine
 10
233.1056332999
 20
226.9379127486
 30
0.0
 11
215.5164323376
 21
226.9379127486
 31
0.0
  0
ARC
  5
92
330
6F
100
AcDbEntity
  8
F405
  6
Continuous
 62
     7
100
AcDbCircle
 10
215.5179492756
 20
191.9307887318
 30
0.0
 40
35.0071240496686
100
AcDbArc
 50
90.0024827559
 51
109.6908831634
  0
ARC
  5
93
330
6F
100
AcDbEntity
  8
F405
  6
Continuous
 62
     7
100
AcDbCircle
 10
215.5125377272
 20
191.9446934503
 30
0.0
 40
34.99220902693661
100
AcDbArc
 50
109.6902118807
 51
129.2535991245
  0
ARC
  5
94
330
6F
100
AcDbEntity
  8
F405
  6
Continuous
 62
     7
100
AcDbCircle
 10
215.5259924077
 20
191.92936488
 30
0.0
 40
35.01259388003387
100
AcDbArc
 50
132.786141045
 51
149.0735115503
  0
SPLINE
  5
95
330
6F
100
AcDbEntity
  8
F405
  6
Continuous
 62
     7
100
AcDbSpline
210
0.0
220
0.0
230
1.0
 70
     8
 71
     3
 72
    16
 73
    12
 74
     0
 42
0.0000000013718514
 43
0.0000000001
 40
0.0
 40
0.0
 40
0.0
 40
0.0
 40
0.0001219344330431
 40
0.0001219344330431
 40
0.0030598719420548
 40
0.0030598719420548
 40
0.008935746960078
 40
0.008935746960078
 40
0.0206874969961245
 40
0.0206874969961245
 40
0.0267066752169985
 40
0.0267066752169985
 40
0.0267066752169985
 40
0.0267066752169985
 10
168.1063438929139
 20
224.1128715016218
 30
0.0
 10
168.1063531702768
 20
224.112574397278
 30
0.0
 10
168.1063624053293
 20
224.1122772966407
 30
0.0
 10
168.1065930919755
 20
224.1048218262976
 30
0.0
 10
168.1067900290204
 20
224.0976656071248
 30
0.0
 10
168.1073076073924
 20
224.0762035859827
 30
0.0
 10
168.107555015957
 20
224.0619044203897
 30
0.0
 10
168.1080078128712
 20
224.0190348582714
 30
0.0
 10
168.1079237724416
 20
223.9904923964071
 30
0.0
 10
168.1072272465992
 20
223.9473925763978
 30
0.0
 10
168.1068925375118
 20
223.9328050107293
 30
0.0
 10
168.1064602940385
 20
223.9182286859322
 30
0.0
  0
SPLINE
  5
96
330
6F
100
AcDbEntity
  8
F405
  6
Continuous
 62
     7
100
AcDbSpline
210
0.0
220
0.0
230
1.0
 70
     8
 71
     3
 72
    14
 73
    10
 74
     0
 42
0.0000000013721094
 43
0.0000000001
 40
0.1661889011293903
 40
0.1661889011293903
 40
0.1661889011293903
 40
0.1661889011293903
 40
0.1852119975007756
 40
0.1852119975007756
 40
0.3732399980775197
 40
0.3732399980775197
 40
0.7492959992310078
 40
0.7492959992310078
 40
1.0
 40
1.0
 40
1.0
 40
1.0
 10
167.9421676945551
 20
222.926349888202
 30
0.0
 10
167.9305669738239
 20
222.8819731074554
 30
0.0
 10
167.9186608313478
 20
222.8376382439391
 30
0.0
 10
167.7861406775411
 20
222.3554900141445
 30
0.0
 10
167.6394837731231
 20
221.9212399676013
 30
0.0
 10
167.2251512437049
 20
220.6146113891218
 30
0.0
 10
166.9831138025402
 20
219.7383544183354
 30
0.0
 10
166.5483985838515
 20
218.2788150112324
 30
0.0
 10
166.3661606341322
 20
217.6952362824021
 30
0.0
 10
166.1804565774555
 20
217.1114453678955
 30
0.0
  0
ARC
  5
97
330
6F
100
AcDbEntity
  8
F405
  6
Continuous
 62
     7
100
AcDbCircle
 10
197.8596885714
 20
223.9045478107
 30
0.0
 40
29.75407397844317
100
AcDbArc
 50
179.5988392785
 51
179.615041245
  0
ARC
  5
98
330
6F
100
AcDbEntity
  8
F405
  6
Continuous
 62
     7
100
AcDbCircle
 10
197.8596885714
 20
223.9045478107
 30
0.0
 40
29.75407397844317
100
AcDbArc
 50
179.615041245
 51
179.9357509654
  0
LINE
  5
99
330
6F
100
AcDbEntity
  8
F405
  6
Continuous
 62
     7
100
AcDbLine
 10
168.1056332999
 20
225.75421701
 30
0.0
 11
168.1056332999
 21
239.0364180542
 31
0.0
  0
LINE
  5
9A
330
6F
100
AcDbEntity
  8
F405
  6
Continuous
 62
     7
100
AcDbLine
 10
168.1056332999
 20
239.0364180542
 30
0.0
 11
168.1056332999
 21
242.4379127486
 31
0.0
  0
LINE
  5
9B
330
6F
100
AcDbEntity
  8
F405
  6
Continuous
 62
     7
100
AcDbLine
 10
168.1056332999
 20
224.7707765878
 30
0.0
 11
168.1056332999
 21
225.75421701
 31
0.0
  0
LINE
  5
9C
330
6F
100
AcDbEntity
  8
F405
  6
Continuous
 62
     7
100
AcDbLine
 10
168.1056332999
 20
242.4379127486
 30
0.0
 11
168.1056332999
 21
259.4379127486
 31
0.0
  0
LINE
  5
9D
330
6F
100
AcDbEntity
  8
F405
  6
Continuous
 62
     7
100
AcDbLine
 10
168.1056332999
 20
224.158463492
 30
0.0
 11
168.1056332999
 21
224.7707765878
 31
0.0
  0
LINE
  5
9E
330
6F
100
AcDbEntity
  8
F405
  6
Continuous
 62
     7
100
AcDbLine
 10
168.1056332999
 20
223.9462833414
 30
0.0
 11
168.1056332999
 21
224.158463492
 31
0.0
  0
ARC
  5
9F
330
6F
100
AcDbEntity
  8
F405
  6
Continuous
 62
     7
100
AcDbCircle
 10
-75.894830261
 20
225.8154355525
 30
0.0
 40
244.0071140619238
100
AcDbArc
 50
359.6002144183
 51
359.7303007979
  0
LINE
  5
A0
330
6F
100
AcDbEntity
  8
F405
  6
Continuous
 62
     7
100
AcDbLine
 10
169.6056332999
 20
260.9379127486
 30
0.0
 11
196.377654817
 21
260.9379127486
 31
0.0
  0
ARC
  5
A1
330
6F
100
AcDbEntity
  8
F405
  6
Continuous
 62
     7
100
AcDbCircle
 10
169.6056332999
 20
259.4379127486
 30
0.0
 40
1.500000000000029
100
AcDbArc
 50
90.0
 51
180.0
  0
ARC
  5
A2
330
6F
100
AcDbEntity
  8
F405
  6
Continuous
 62
     7
100
AcDbCircle
 10
201.2753389091
 20
224.8089218022
 30
0.0
 40
33.16606258800694
100
AcDbArc
 50
178.6622443787
 51
180.2454109801
  0
LINE
  5
A3
330
6F
100
AcDbEntity
  8
F405
  6
Continuous
 62
     7
100
AcDbLine
 10
168.1183159894
 20
225.5832206426
 30
0.0
 11
168.1056332999
 21
225.75421701
 31
0.0
  0
ELLIPSE
  5
A4
330
6F
100
AcDbEntity
  8
F405
  6
Continuous
 62
     7
100
AcDbEllipse
 10
169.6056332998
 20
224.7707765878
 30
0.0
 11
1.499999999906673
 21
-6.317862899507531E-11
 31
0.0
210
0.0
220
0.0
230
1.0
 40
0.9555300195
 41
3.141592653589793
 42
3.214155144472511
  0
ARC
  5
A5
330
6F
100
AcDbEntity
  8
F405
  6
Continuous
 62
     7
100
AcDbCircle
 10
169.5685994717
 20
224.1584634921
 30
0.0
 40
1.462966167535758
100
AcDbArc
 50
180.0000000003
 51
181.7858592406
  0
SPLINE
  5
A6
330
6F
100
AcDbEntity
  8
F405
  6
Continuous
 62
     7
100
AcDbSpline
210
0.0
220
0.0
230
1.0
 70
     8
 71
     3
 72
     8
 73
     4
 74
     0
 42
0.0000001668296858
 43
0.0000000001
 40
0.9833170314173127
 40
0.9833170314173127
 40
0.9833170314173127
 40
0.9833170314173127
 40
1.0
 40
1.0
 40
1.0
 40
1.0
 10
203.7230893350049
 20
224.8909894446985
 30
0.0
 10
203.7228774489801
 20
224.8909258325059
 30
0.0
 10
203.722666833339
 20
224.8908768953681
 30
0.0
 10
203.7224581627491
 20
224.8908421849789
 30
0.0
  0
LINE
  5
A7
330
6F
100
AcDbEntity
  8
F405
  6
Continuous
 62
     7
100
AcDbLine
 10
246.3556332999
 20
231.9379127486
 30
0.0
 11
246.3556332999
 21
252.9379127486
 31
0.0
  0
LINE
  5
A8
330
6F
100
AcDbEntity
  8
F405
  6
Continuous
 62
     7
100
AcDbLine
 10
248.1056332999
 20
233.6879127486
 30
0.0
 11
248.1056332999
 21
251.1879127486
 31
0.0
  0
ARC
  5
A9
330
6F
100
AcDbEntity
  8
F405
  6
Continuous
 62
     7
100
AcDbCircle
 10
217.7370895836
 20
232.656972925
 30
0.0
 40
18.68973506135976
100
AcDbArc
 50
150.2544672975
 51
168.2999375831
  0
LINE
  5
AA
330
6F
100
AcDbEntity
  8
F405
  6
Continuous
 62
     7
100
AcDbLine
 10
199.3851390791
 20
234.5867253255
 30
0.0
 11
207.8967380464
 21
248.7958892415
 31
0.0
  0
ARC
  5
AB
330
6F
100
AcDbEntity
  8
F405
  6
Continuous
 62
     7
100
AcDbCircle
 10
226.5567364221
 20
226.3889652484
 30
0.0
 40
29.1593172453661
100
AcDbArc
 50
129.7867955654
 51
147.0330541458
  0
LINE
  5
AC
330
6F
100
AcDbEntity
  8
F405
  6
Continuous
 62
     7
100
AcDbLine
 10
202.0925173554
 20
242.2561567979
 30
0.0
 11
201.7919537384
 21
241.7641911951
 31
0.0
  0
ARC
  5
AD
330
6F
100
AcDbEntity
  8
F405
  6
Continuous
 62
     7
100
AcDbCircle
 10
217.1322709912
 20
232.7066619082
 30
0.0
 40
17.81471779737056
100
AcDbArc
 50
149.4407193885
 51
167.9556259467
  0
ARC
  5
AE
330
6F
100
AcDbEntity
  8
F405
  6
Continuous
 62
     7
100
AcDbCircle
 10
219.0603363633
 20
232.0582195998
 30
0.0
 40
19.83700404237341
100
AcDbArc
 50
167.2859810547
 51
172.6769235987
  0
ARC
  5
AF
330
6F
100
AcDbEntity
  8
F405
  6
Continuous
 62
     7
100
AcDbCircle
 10
220.0106542436
 20
152.4895304201
 30
0.0
 40
82.56394156968729
100
AcDbArc
 50
102.2603299567
 51
103.3018498621
  0
SPLINE
  5
B0
330
6F
100
AcDbEntity
  8
F405
  6
Continuous
 62
     7
100
AcDbSpline
210
0.0
220
0.0
230
1.0
 70
     8
 71
     3
 72
    14
 73
    10
 74
     0
 42
0.0000000030412451
 43
0.0000000001
 40
0.0
 40
0.0
 40
0.0
 40
0.0
 40
0.25
 40
0.25
 40
0.5
 40
0.5
 40
0.75
 40
0.75
 40
1.0
 40
1.0
 40
1.0
 40
1.0
 10
201.0142470158664
 20
232.838400729279
 30
0.0
 10
200.7331127583912
 20
232.7718773906896
 30
0.0
 10
200.4455836983405
 20
232.7329607979235
 30
0.0
 10
199.880660621753
 20
232.7862678733859
 30
0.0
 10
199.6096189324803
 20
232.8932648749653
 30
0.0
 10
199.2481471670257
 20
233.2755293339381
 30
0.0
 10
199.1589894811044
 20
233.5294030538435
 30
0.0
 10
199.0829155465281
 20
234.047779733063
 30
0.0
 10
199.0923168018134
 20
234.311130952883
 30
0.0
 10
199.123361579312
 20
234.5769449626891
 30
0.0
  0
ARC
  5
B1
330
6F
100
AcDbEntity
  8
F405
  6
Continuous
 62
     7
100
AcDbCircle
 10
218.7861348698
 20
232.2542551261
 30
0.0
 40
19.79948336578114
100
AcDbArc
 50
167.7743689636
 51
173.26308342
  0
LINE
  5
B2
330
6F
100
AcDbEntity
  8
F405
  6
Continuous
 62
     7
100
AcDbLine
 10
211.4072933796
 20
250.528311886
 30
0.0
 11
200.9559990329
 21
233.0810431557
 31
0.0
  0
SPLINE
  5
B3
330
6F
100
AcDbEntity
  8
F405
  6
Continuous
 62
     7
100
AcDbSpline
210
0.0
220
0.0
230
1.0
 70
     8
 71
     3
 72
    16
 73
    12
 74
     0
 42
0.0000000004158357
 43
0.0000000001
 40
0.0
 40
0.0
 40
0.0
 40
0.0
 40
0.0625
 40
0.0625
 40
0.125
 40
0.125
 40
0.25
 40
0.25
 40
0.5000000000000001
 40
0.5000000000000001
 40
1.0
 40
1.0
 40
1.0
 40
1.0
 10
233.0742587378027
 20
242.438385644674
 30
0.0
 10
233.0738890418539
 20
242.9417389984411
 30
0.0
 10
232.8599506902569
 20
243.4260532467524
 30
0.0
 10
232.250041386482
 20
244.2360247844532
 30
0.0
 10
231.868807350272
 20
244.5701932629661
 30
0.0
 10
230.6465100852348
 20
245.4650300887114
 30
0.0
 10
229.7458669595428
 20
245.9081991532172
 30
0.0
 10
226.9967556828587
 20
247.0864381740355
 30
0.0
 10
225.066375574975
 20
247.6602358329831
 30
0.0
 10
219.2771756761907
 20
249.1802828339903
 30
0.0
 10
215.3552721231858
 20
249.9129172505462
 30
0.0
 10
211.4072933795804
 20
250.528311886024
 30
0.0
  0
SPLINE
  5
B4
330
6F
100
AcDbEntity
  8
F405
  6
Continuous
 62
     7
100
AcDbSpline
210
0.0
220
0.0
230
1.0
 70
     8
 71
     3
 72
    16
 73
    12
 74
     0
 42
0.0000000004246265
 43
0.0000000001
 40
0.0
 40
0.0
 40
0.0
 40
0.0
 40
0.5
 40
0.5
 40
0.75
 40
0.75
 40
0.875
 40
0.875
 40
0.9375
 40
0.9375
 40
1.0
 40
1.0
 40
1.0
 40
1.0
 10
211.6787817867871
 20
235.1314320314778
 30
0.0
 10
215.5381010256882
 20
235.7967432229399
 30
0.0
 10
219.4307683238266
 20
236.2767073031841
 30
0.0
 10
225.1674078965602
 20
237.5379619633942
 30
0.0
 10
227.0690487939333
 20
238.0362216228238
 30
0.0
 10
229.7982227705311
 20
239.1193837523631
 30
0.0
 10
230.6898777635073
 20
239.531197866136
 30
0.0
 10
231.8931001392854
 20
240.374810905925
 30
0.0
 10
232.2725493074074
 20
240.6960342176404
 30
0.0
 10
232.8705847776446
 20
241.4786843407416
 30
0.0
 10
233.0745534975012
 20
241.9472386877212
 30
0.0
 10
233.0742587378027
 20
242.438385644674
 30
0.0
  0
ARC
  5
B5
330
6F
100
AcDbEntity
  8
F405
  6
Continuous
 62
     7
100
AcDbCircle
 10
242.9478090677
 20
40.3109728981
 30
0.0
 40
197.3138701765449
100
AcDbArc
 50
99.1183060603
 51
101.8518410363
  0
LINE
  5
B6
330
6F
100
AcDbEntity
  8
F405
  6
Continuous
 62
     7
100
AcDbLine
 10
200.9559990329
 20
233.0810431557
 30
0.0
 11
202.4231620137
 21
233.4184982439
 31
0.0
  0
ARC
  5
B7
330
6F
100
AcDbEntity
  8
F405
  6
Continuous
 62
     7
100
AcDbCircle
 10
246.8664014259
 20
18.4086446877
 30
0.0
 40
219.3010758416955
100
AcDbArc
 50
99.2215400575
 51
101.6778681386
  0
SPLINE
  5
B8
330
6F
100
AcDbEntity
  8
F405
  6
Continuous
 62
     7
100
AcDbSpline
210
0.0
220
0.0
230
1.0
 70
     8
 71
     3
 72
    16
 73
    12
 74
     0
 42
0.0000000024857372
 43
0.0000000001
 40
0.0
 40
0.0
 40
0.0
 40
0.0
 40
0.1250000000000012
 40
0.1250000000000012
 40
0.2500000000000024
 40
0.2500000000000024
 40
0.5000000000000017
 40
0.5000000000000017
 40
0.7500000000000009
 40
0.7500000000000009
 40
1.0
 40
1.0
 40
1.0
 40
1.0
 10
211.4072933795804
 20
250.528311886024
 30
0.0
 10
211.2333120190804
 20
250.5454178474423
 30
0.0
 10
211.0624717818689
 20
250.5367402790971
 30
0.0
 10
210.724589392665
 20
250.4881221966972
 30
0.0
 10
210.5567453692516
 20
250.4472465789638
 30
0.0
 10
210.0731989634295
 20
250.2946091548432
 30
0.0
 10
209.770445806594
 20
250.1529972615035
 30
0.0
 10
209.1883470853166
 20
249.8231288971446
 30
0.0
 10
208.9148640472679
 20
249.6372855858468
 30
0.0
 10
208.3902985103486
 20
249.2368808557481
 30
0.0
 10
208.1394424242093
 20
249.0220715303394
 30
0.0
 10
207.8967380463899
 20
248.7958892415376
 30
0.0
  0
SPLINE
  5
B9
330
6F
100
AcDbEntity
  8
F405
  6
Continuous
 62
     7
100
AcDbSpline
210
0.0
220
0.0
230
1.0
 70
     8
 71
     3
 72
    20
 73
    16
 74
     0
 42
0.0000000033992814
 43
0.0000000001
 40
0.0
 40
0.0
 40
0.0
 40
0.0
 40
0.2500000000000005
 40
0.2500000000000005
 40
0.3750000000000004
 40
0.3750000000000004
 40
0.5000000000000003
 40
0.5000000000000003
 40
0.6250000000000002
 40
0.6250000000000002
 40
0.7500000000000001
 40
0.7500000000000001
 40
0.8750000000000001
 40
0.8750000000000001
 40
1.0
 40
1.0
 40
1.0
 40
1.0
 10
199.3851390791189
 20
234.5867253255474
 30
0.0
 10
199.3416045999821
 20
234.347860023328
 30
0.0
 10
199.3144314978558
 20
234.1067402305846
 30
0.0
 10
199.3322437463299
 20
233.7531388031978
 30
0.0
 10
199.3480154215009
 20
233.6374669499992
 30
0.0
 10
199.413812543454
 20
233.4133837623874
 30
0.0
 10
199.464518586366
 20
233.3054646834435
 30
0.0
 10
199.6169409907757
 20
233.1230192689638
 30
0.0
 10
199.717297522571
 20
233.0526764860555
 30
0.0
 10
199.9469864005713
 20
232.9647646301411
 30
0.0
 10
200.0743967433066
 20
232.9466024439894
 30
0.0
 10
200.3274925952558
 20
232.9440580104007
 30
0.0
 10
200.4564547551769
 20
232.9591077898402
 30
0.0
 10
200.7087065047444
 20
233.0076873780572
 30
0.0
 10
200.8329641196063
 20
233.041295797766
 30
0.0
 10
200.9559990328757
 20
233.0810431557158
 30
0.0
  0
LINE
  5
BA
330
6F
100
AcDbEntity
  8
F405
  6
Continuous
 62
     7
100
AcDbLine
 10
233.0940245306
 20
242.852334278
 30
0.0
 11
233.1056332999
 21
242.7935864757
 31
0.0
  0
SPLINE
  5
BB
330
6F
100
AcDbEntity
  8
F405
  6
Continuous
 62
     7
100
AcDbSpline
210
0.0
220
0.0
230
1.0
 70
     8
 71
     3
 72
    16
 73
    12
 74
     0
 42
0.0000000004208823
 43
0.0000000001
 40
0.0
 40
0.0
 40
0.0
 40
0.0
 40
0.5
 40
0.5
 40
0.75
 40
0.75
 40
0.875
 40
0.875
 40
0.9375
 40
0.9375
 40
1.0
 40
1.0
 40
1.0
 40
1.0
 10
211.4442136092189
 20
250.7651684873307
 30
0.0
 10
215.3490076855374
 20
250.1457109587872
 30
0.0
 10
219.2374856143228
 20
249.4058955018304
 30
0.0
 10
224.9666586955262
 20
247.8744664259022
 30
0.0
 10
226.8638719577734
 20
247.2991450318055
 30
0.0
 10
229.5870963885161
 20
246.1281172359585
 30
0.0
 10
230.47563568332
 20
245.688083498284
 30
0.0
 10
231.6853518019169
 20
244.8400779092548
 30
0.0
 10
232.0731922251325
 20
244.520719884231
 30
0.0
 10
232.7253308887944
 20
243.7751005369095
 30
0.0
 10
232.99406382013
 20
243.3363202024665
 30
0.0
 10
233.0940245305745
 20
242.8523342779926
 30
0.0
  0
SPLINE
  5
BC
330
6F
100
AcDbEntity
  8
F405
  6
Continuous
 62
     7
100
AcDbSpline
210
0.0
220
0.0
230
1.0
 70
     8
 71
     3
 72
    16
 73
    12
 74
     0
 42
0.0000000023426842
 43
0.0000000001
 40
0.0
 40
0.0
 40
0.0
 40
0.0
 40
0.2499999999999999
 40
0.2499999999999999
 40
0.4999999999999999
 40
0.4999999999999999
 40
0.7499999999999998
 40
0.7499999999999998
 40
0.8749999999999999
 40
0.8749999999999999
 40
1.0
 40
1.0
 40
1.0
 40
1.0
 10
207.6249358053132
 20
249.1674827069366
 30
0.0
 10
207.8883928134162
 20
249.3983451380971
 30
0.0
 10
208.1612306131991
 20
249.6145985019928
 30
0.0
 10
208.733013546023
 20
250.0105310181482
 30
0.0
 10
209.0317148077584
 20
250.1904955431396
 30
0.0
 10
209.6687551356926
 20
250.4994300042213
 30
0.0
 10
210.0037320587112
 20
250.6271104333931
 30
0.0
 10
210.5330706037347
 20
250.7483467413856
 30
0.0
 10
210.7145256373494
 20
250.7766953827496
 30
0.0
 10
211.0771475005086
 20
250.7993887488859
 30
0.0
 10
211.2597289983129
 20
250.7944351730763
 30
0.0
 10
211.4442136092189
 20
250.7651684873307
 30
0.0
  0
ARC
  5
BD
330
6F
100
AcDbEntity
  8
F405
  6
Continuous
 62
     7
100
AcDbCircle
 10
227.1477956088
 20
226.4239749384
 30
0.0
 40
29.97347494907912
100
AcDbArc
 50
130.642548839
 51
147.7055607112
  0
LINE
  5
BE
330
6F
100
AcDbEntity
  8
F405
  6
Continuous
 62
     7
100
AcDbLine
 10
233.1056332999
 20
242.0869809494
 30
0.0
 11
233.1056332999
 21
226.9379127486
 31
0.0
  0
LINE
  5
BF
330
6F
100
AcDbEntity
  8
F405
  6
Continuous
 62
     7
100
AcDbLine
 10
233.1056332999
 20
242.7907658196
 30
0.0
 11
233.1056332999
 21
242.438404474
 31
0.0
  0
LINE
  5
C0
330
6F
100
AcDbEntity
  8
F405
  6
Continuous
 62
     7
100
AcDbLine
 10
233.1056332999
 20
242.7935861429
 30
0.0
 11
233.1056332999
 21
242.7907658196
 31
0.0
  0
LINE
  5
C1
330
6F
100
AcDbEntity
  8
F405
  6
Continuous
 62
     7
100
AcDbLine
 10
233.1056332999
 20
242.4379183627
 30
0.0
 11
233.1056332999
 21
242.0869813963
 31
0.0
  0
SPLINE
  5
C2
330
6F
100
AcDbEntity
  8
F405
  6
Continuous
 62
     7
100
AcDbSpline
210
0.0
220
0.0
230
1.0
 70
     8
 71
     3
 72
    18
 73
    14
 74
     0
 42
0.0000000004289539
 43
0.0000000001
 40
0.0
 40
0.0
 40
0.0
 40
0.0
 40
0.0625
 40
0.0625
 40
0.125
 40
0.125
 40
0.25
 40
0.25
 40
0.5
 40
0.5
 40
0.75
 40
0.75
 40
1.0
 40
1.0
 40
1.0
 40
1.0
 10
233.1056332999262
 20
242.0869809493889
 30
0.0
 10
233.020113739692
 20
241.6055920907659
 30
0.0
 10
232.7577194858286
 20
241.165419176672
 30
0.0
 10
232.1111475925719
 20
240.4333638432604
 30
0.0
 10
231.7238100313336
 20
240.1251019434759
 30
0.0
 10
230.5131972916173
 20
239.3121448478722
 30
0.0
 10
229.6189382540796
 20
238.8986922613928
 30
0.0
 10
226.9253501674611
 20
237.8266832298527
 30
0.0
 10
225.0604381004364
 20
237.3244852233218
 30
0.0
 10
221.282383973717
 20
236.4682101724765
 30
0.0
 10
219.3728482019584
 20
236.128727745799
 30
0.0
 10
215.5488772953834
 20
235.4964344427714
 30
0.0
 10
213.6496675544375
 20
235.2106997739357
 30
0.0
 10
211.7229028638222
 20
234.875492898047
 30
0.0
  0
LINE
  5
C3
330
6F
100
AcDbEntity
  8
F405
  6
Continuous
 62
     7
100
AcDbLine
 10
211.7229028638
 20
234.875492898
 30
0.0
 11
211.6787817868
 21
235.1314320315
 31
0.0
  0
LINE
  5
C4
330
6F
100
AcDbEntity
  8
F405
  6
Continuous
 62
     7
100
AcDbLine
 10
233.0742587378
 20
242.4383856447
 30
0.0
 11
233.1056331541
 21
242.4384044739
 31
0.0
  0
LINE
  5
C5
330
6F
100
AcDbEntity
  8
F405
  6
Continuous
 62
     7
100
AcDbLine
 10
202.4778829326
 20
233.1704226913
 30
0.0
 11
202.4231620137
 21
233.4184982439
 31
0.0
  0
LINE
  5
C6
330
6F
100
AcDbEntity
  8
F405
  6
Continuous
 62
     7
100
AcDbLine
 10
211.4072933796
 20
250.528311886
 30
0.0
 11
211.4442136092
 21
250.7651684873
 31
0.0
  0
LINE
  5
C7
330
6F
100
AcDbEntity
  8
F405
  6
Continuous
 62
     7
100
AcDbLine
 10
201.0142470159
 20
232.8384007293
 30
0.0
 11
200.9559990329
 21
233.0810431557
 31
0.0
  0
ELLIPSE
  5
C8
330
6F
100
AcDbEntity
  8
F405
  6
Continuous
 62
     7
100
AcDbEllipse
 10
207.5934377018
 20
248.9775727603
 30
0.0
 11
0.3245383258212303
 21
-0.3803615057720129
 31
0.0
210
0.0
220
0.0
230
1.0
 40
0.3039541711
 41
0.836382753108691
 42
1.821461465824689
  0
ELLIPSE
  5
C9
330
6F
100
AcDbEntity
  8
F405
  6
Continuous
 62
     7
100
AcDbEllipse
 10
199.0818387346
 20
234.7684088443
 30
0.0
 11
0.496000945079976
 21
-0.06311150829906888
 31
0.0
210
0.0
220
0.0
230
1.0
 40
0.3725795636
 41
4.843479898749618
 42
5.416838282941465
  0
ARC
  5
CA
330
6F
100
AcDbEntity
  8
F405
  6
Continuous
 62
     7
100
AcDbCircle
 10
193.2640693221
 20
228.8818049815
 30
0.0
 40
16.0254416845762
100
AcDbArc
 50
56.5710833551
 51
57.7697432462
  0
ARC
  5
CB
330
6F
100
AcDbEntity
  8
F405
  6
Continuous
 62
     7
100
AcDbCircle
 10
199.6775590527
 20
237.6855058684
 30
0.0
 40
1.261871386107019
100
AcDbArc
 50
258.9489378601
 51
271.4604983484
  0
ARC
  5
CC
330
6F
100
AcDbEntity
  8
F405
  6
Continuous
 62
     7
100
AcDbCircle
 10
233.259935045
 20
295.649338369
 30
0.0
 40
62.40066452740586
100
AcDbArc
 50
239.4155180573
 51
239.7158206433
  0
SPLINE
  5
CD
330
6F
100
AcDbEntity
  8
F405
  6
Continuous
 62
     7
100
AcDbSpline
210
0.0
220
0.0
230
1.0
 70
     8
 71
     3
 72
    24
 73
    20
 74
     0
 42
0.0000000029523844
 43
0.0000000001
 40
0.0
 40
0.0
 40
0.0
 40
0.0
 40
0.1022114572558435
 40
0.1616126779902353
 40
0.2187797521635255
 40
0.2766471747889871
 40
0.3346150546002379
 40
0.3927255882071368
 40
0.4512754734466811
 40
0.5110664276079567
 40
0.5775083738324326
 40
0.6481705287837101
 40
0.7288873515081388
 40
0.7879442258451582
 40
0.832092076520304
 40
0.8576234188695405
 40
0.8892136810151418
 40
0.9350545561475506
 40
1.0
 40
1.0
 40
1.0
 40
1.0
 10
162.8550022644948
 20
208.2825950761423
 30
0.0
 10
162.8115126635371
 20
208.1571335984484
 30
0.0
 10
162.7539910875884
 20
207.991189713858
 30
0.0
 10
162.668068314626
 20
207.7432613651251
 30
0.0
 10
162.6008051971894
 20
207.5491506043606
 30
0.0
 10
162.5337753510102
 20
207.3556874730431
 30
0.0
 10
162.4665023317104
 20
207.1614966401387
 30
0.0
 10
162.3989966199511
 20
206.9666092512492
 30
0.0
 10
162.3309581427258
 20
206.7701605680714
 30
0.0
 10
162.2598156132136
 20
206.5647294233677
 30
0.0
 10
162.1852487541271
 20
206.3493883452319
 30
0.0
 10
162.1013814326151
 20
206.1071859611296
 30
0.0
 10
162.0214260225183
 20
205.8762825376634
 30
0.0
 10
161.9512823014151
 20
205.6737361836595
 30
0.0
 10
161.9064162231847
 20
205.5441870868485
 30
0.0
 10
161.8687262813515
 20
205.4353707166826
 30
0.0
 10
161.8292058048594
 20
205.3212816978262
 30
0.0
 10
161.7869461507972
 20
205.1992652057582
 30
0.0
 10
161.7624461473193
 20
205.1285409578251
 30
0.0
 10
161.7463518976519
 20
205.0820806940565
 30
0.0
  0
ARC
  5
CE
330
6F
100
AcDbEntity
  8
F405
  6
Continuous
 62
     7
100
AcDbCircle
 10
214.7731129351
 20
192.7694944519
 30
0.0
 40
33.88322060305002
100
AcDbArc
 50
129.4063823276
 51
135.2647057444
  0
LINE
  5
CF
330
6F
100
AcDbEntity
  8
F405
  6
Continuous
 62
     7
100
AcDbLine
 10
203.2848475146
 20
224.7186290494
 30
0.0
 11
203.7231728142
 21
224.8907566483
 31
0.0
  0
ARC
  5
D0
330
6F
100
AcDbEntity
  8
F405
  6
Continuous
 62
     7
100
AcDbCircle
 10
214.1866862803
 20
193.6759161562
 30
0.0
 40
32.81081678412108
100
AcDbArc
 50
125.6211796767
 51
129.6199512923
  0
LINE
  5
D1
330
6F
100
AcDbEntity
  8
F405
  6
Continuous
 62
     7
100
AcDbLine
 10
203.7231728142
 20
224.8907566483
 30
0.0
 11
204.8947817207
 21
225.2682708085
 31
0.0
  0
ARC
  5
D2
330
6F
100
AcDbEntity
  8
F405
  6
Continuous
 62
     7
100
AcDbCircle
 10
-1646.4483570184
 20
838.9318248037
 30
0.0
 40
1916.063392432292
100
AcDbArc
 50
340.7828008166
 51
340.990611662
  0
ARC
  5
D3
330
6F
100
AcDbEntity
  8
F405
  6
Continuous
 62
     7
100
AcDbCircle
 10
214.7731135127
 20
192.7694937958
 30
0.0
 40
33.88322147662672
100
AcDbArc
 50
134.852284901
 51
135.2647055603
  0
ARC
  5
D4
330
6F
100
AcDbEntity
  8
F405
  6
Continuous
 62
     7
100
AcDbCircle
 10
214.7731135127
 20
192.7694937958
 30
0.0
 40
33.88322147662672
100
AcDbArc
 50
129.4063823781
 51
129.4594009355
  0
LINE
  5
D5
330
6F
100
AcDbEntity
  8
F405
  6
Continuous
 62
     7
100
AcDbLine
 10
234.1056332999
 20
231.9379127486
 30
0.0
 11
246.3556332999
 21
231.9379127486
 31
0.0
  0
LINE
  5
D6
330
6F
100
AcDbEntity
  8
F405
  6
Continuous
 62
     7
100
AcDbLine
 10
246.3556332999
 20
252.9379127486
 30
0.0
 11
234.1056332999
 21
252.9379127486
 31
0.0
  0
LINE
  5
D7
330
6F
100
AcDbEntity
  8
F405
  6
Continuous
 62
     7
100
AcDbLine
 10
246.3556332999
 20
231.9379127486
 30
0.0
 11
248.1056332999
 21
233.6879127486
 31
0.0
  0
LINE
  5
D8
330
6F
100
AcDbEntity
  8
F405
  6
Continuous
 62
     7
100
AcDbLine
 10
248.1056332999
 20
251.1879127486
 30
0.0
 11
246.3556332999
 21
252.9379127486
 31
0.0
  0
ARC
  5
D9
330
6F
100
AcDbEntity
  8
F405
  6
Continuous
 62
     7
100
AcDbCircle
 10
234.1056332999
 20
230.9379127486
 30
0.0
 40
1.0
100
AcDbArc
 50
90.0
 51
180.0
  0
ARC
  5
DA
330
6F
100
AcDbEntity
  8
F405
  6
Continuous
 62
     7
100
AcDbCircle
 10
234.1056332999
 20
253.9379127486
 30
0.0
 40
0.9999999999999991
100
AcDbArc
 50
180.0
 51
270.0
  0
LINE
  5
DB
330
6F
100
AcDbEntity
  8
F405
  6
Continuous
 62
     7
100
AcDbLine
 10
247.5401332999
 20
233.1224127486
 30
0.0
 11
235.1056332999
 21
233.1224127486
 31
0.0
  0
LINE
  5
DC
330
6F
100
AcDbEntity
  8
F405
  6
Continuous
 62
     7
100
AcDbLine
 10
247.5401332999
 20
251.7534127486
 30
0.0
 11
235.1056332999
 21
251.7534127486
 31
0.0
  0
LINE
  5
DD
330
6F
100
AcDbEntity
  8
F405
  6
Continuous
 62
     7
100
AcDbLine
 10
235.1056332999
 20
252.9379127486
 30
0.0
 11
235.1056332999
 21
231.9379127486
 31
0.0
  0
LINE
  5
DF
330
6F
100
AcDbEntity
  8
K132
  6
Continuous
 62
     7
100
AcDbLine
 10
165.7056332999
 20
257.4379127486
 30
0.0
 11
165.7056332999
 21
227.4379127486
 31
0.0
  0
LINE
  5
E0
330
6F
100
AcDbEntity
  8
K132
  6
Continuous
 62
     7
100
AcDbLine
 10
165.5056332999
 20
255.3379127486
 30
0.0
 11
165.5056332999
 21
248.8371314509
 31
0.0
  0
ARC
  5
E1
330
6F
100
AcDbEntity
  8
K132
  6
Continuous
 62
     7
100
AcDbCircle
 10
164.7056332999
 20
255.9379127486
 30
0.0
 40
0.9999999999911833
100
AcDbArc
 50
269.9999999997
 51
323.1301023544
  0
ARC
  5
E2
330
6F
100
AcDbEntity
  8
K132
  6
Continuous
 62
     7
100
AcDbCircle
 10
164.7056333
 20
255.9379127486
 30
0.0
 40
0.999999999900453
100
AcDbArc
 50
323.1301023523
 51
0.0
  0
LINE
  5
E3
330
6F
100
AcDbEntity
  8
K132
  6
Continuous
 62
     7
100
AcDbLine
 10
154.2064668649
 20
254.9379127486
 30
0.0
 11
164.7056332999
 21
254.9379127486
 31
0.0
  0
LINE
  5
E4
330
6F
100
AcDbEntity
  8
K132
  6
Continuous
 62
     7
100
AcDbLine
 10
154.2064668649
 20
229.9379127486
 30
0.0
 11
164.7056332999
 21
229.9379127486
 31
0.0
  0
ARC
  5
E5
330
6F
100
AcDbEntity
  8
K132
  6
Continuous
 62
     7
100
AcDbCircle
 10
164.7056332999
 20
228.9379127486
 30
0.0
 40
0.9999999999911817
100
AcDbArc
 50
36.8698976456
 51
90.0000000003
  0
ARC
  5
E6
330
6F
100
AcDbEntity
  8
K132
  6
Continuous
 62
     7
100
AcDbCircle
 10
164.7056333
 20
228.9379127486
 30
0.0
 40
0.9999999999005516
100
AcDbArc
 50
0.0
 51
36.8698976477
  0
LINE
  5
E7
330
6F
100
AcDbEntity
  8
K132
  6
Continuous
 62
     7
100
AcDbLine
 10
154.2064668649
 20
249.5870385693
 30
0.0
 11
164.7056332999
 21
249.5870385693
 31
0.0
  0
SPLINE
  5
E8
330
6F
100
AcDbEntity
  8
K132
  6
Continuous
 62
     7
100
AcDbSpline
210
0.0
220
0.0
230
1.0
 70
     8
 71
     3
 72
    12
 73
     8
 74
     0
 42
0.0000000085128033
 43
0.0000000001
 40
0.0
 40
0.0
 40
0.0
 40
0.0
 40
0.2500000000000002
 40
0.2500000000000002
 40
0.5000000000000004
 40
0.5000000000000004
 40
1.0
 40
1.0
 40
1.0
 40
1.0
 10
164.7056332999263
 20
249.5870385692994
 30
0.0
 10
164.8107253401188
 20
249.5870385692994
 30
0.0
 10
164.9120379900287
 20
249.5571115414814
 30
0.0
 10
165.0884137420388
 20
249.4606522095607
 30
0.0
 10
165.1628229935833
 20
249.3962501078694
 30
0.0
 10
165.3550353738188
 20
249.1806435173562
 30
0.0
 10
165.4400818088197
 20
249.0133225922933
 30
0.0
 10
165.5056332999263
 20
248.8371314509237
 30
0.0
  0
ARC
  5
E9
330
6F
100
AcDbEntity
  8
K132
  6
Continuous
 62
     7
100
AcDbCircle
 10
163.4416688044
 20
247.9018497847
 30
0.0
 40
2.265987915700008
100
AcDbArc
 50
2.4214984393
 51
24.3775684454
  0
LINE
  5
EA
330
6F
100
AcDbEntity
  8
K132
  6
Continuous
 62
     7
100
AcDbLine
 10
165.5056332999
 20
236.0386940463
 30
0.0
 11
165.5056332999
 21
229.5379127486
 31
0.0
  0
SPLINE
  5
EB
330
6F
100
AcDbEntity
  8
K132
  6
Continuous
 62
     7
100
AcDbSpline
210
0.0
220
0.0
230
1.0
 70
     8
 71
     3
 72
    12
 73
     8
 74
     0
 42
0.0000000085128033
 43
0.0000000001
 40
0.0
 40
0.0
 40
0.0
 40
0.0
 40
0.2499999999999998
 40
0.2499999999999998
 40
0.4999999999999997
 40
0.4999999999999997
 40
1.0
 40
1.0
 40
1.0
 40
1.0
 10
164.7056332999263
 20
235.2887869279273
 30
0.0
 10
164.8107253401188
 20
235.2887869279273
 30
0.0
 10
164.9120379900287
 20
235.3187139557451
 30
0.0
 10
165.0884137420388
 20
235.4151732876659
 30
0.0
 10
165.1628229935833
 20
235.4795753893572
 30
0.0
 10
165.3550353738188
 20
235.6951819798703
 30
0.0
 10
165.4400818088197
 20
235.8625029049333
 30
0.0
 10
165.5056332999263
 20
236.0386940463029
 30
0.0
  0
ARC
  5
EC
330
6F
100
AcDbEntity
  8
K132
  6
Continuous
 62
     7
100
AcDbCircle
 10
163.4416688044
 20
236.9739757126
 30
0.0
 40
2.265987915700219
100
AcDbArc
 50
335.6224315546
 51
357.5785015607
  0
LINE
  5
ED
330
6F
100
AcDbEntity
  8
K132
  6
Continuous
 62
     7
100
AcDbLine
 10
154.2064668649
 20
235.2887869279
 30
0.0
 11
164.7056332999
 21
235.2887869279
 31
0.0
  0
ARC
  5
EE
330
6F
100
AcDbEntity
  8
K132
  6
Continuous
 62
     7
100
AcDbCircle
 10
166.7056332999
 20
257.4379127486
 30
0.0
 40
1.000000000000003
100
AcDbArc
 50
90.0
 51
180.0
  0
ARC
  5
EF
330
6F
100
AcDbEntity
  8
K132
  6
Continuous
 62
     7
100
AcDbCircle
 10
166.7056332999
 20
227.4379127486
 30
0.0
 40
1.000000000000001
100
AcDbArc
 50
180.0
 51
270.0
  0
LINE
  5
F0
330
6F
100
AcDbEntity
  8
K132
  6
Continuous
 62
     7
100
AcDbLine
 10
168.1056332999
 20
258.4379127486
 30
0.0
 11
166.7056332999
 21
258.4379127486
 31
0.0
  0
LINE
  5
F1
330
6F
100
AcDbEntity
  8
K132
  6
Continuous
 62
     7
100
AcDbLine
 10
166.7056332999
 20
226.4379127486
 30
0.0
 11
168.1056332999
 21
226.4379127486
 31
0.0
  0
ARC
  5
F3
330
6F
100
AcDbEntity
  8
K1007
  6
Continuous
 62
     7
100
AcDbCircle
 10
140.3297304637
 20
242.4379127486
 30
0.0
 40
3.624930728728341
100
AcDbArc
 50
148.1688977762
 51
211.8311022238
  0
LINE
  5
F5
330
6F
100
AcDbEntity
  8
K113
  6
Continuous
 62
     7
100
AcDbLine
 10
154.2064668649
 20
257.9379127486
 30
0.0
 11
154.2064668649
 21
226.9379127486
 31
0.0
  0
LINE
  5
F6
330
6F
100
AcDbEntity
  8
K113
  6
Continuous
 62
     7
100
AcDbLine
 10
137.2499656926
 20
244.4379127486
 30
0.0
 11
137.2499656926
 21
240.4379127486
 31
0.0
  0
LINE
  5
F7
330
6F
100
AcDbEntity
  8
K113
  6
Continuous
 62
     7
100
AcDbLine
 10
140.615237257
 20
259.8156905264
 30
0.0
 11
140.615237257
 21
225.0601349708
 31
0.0
  0
LINE
  5
F8
330
6F
100
AcDbEntity
  8
K113
  6
Continuous
 62
     7
100
AcDbLine
 10
141.736246551
 20
260.4186935182
 30
0.0
 11
141.736246551
 21
224.457131979
 31
0.0
  0
ELLIPSE
  5
F9
330
6F
100
AcDbEntity
  8
K113
  6
Continuous
 62
     7
100
AcDbEllipse
 10
183.2065063996
 20
242.8996618486
 30
0.0
 11
-45.99630731829004
 21
-8.118238528794475E-6
 31
0.0
210
0.0
220
0.0
230
1.0
 40
0.6156612281
 41
0.2038056718674048
 42
0.2131389591743187
  0
ARC
  5
FA
330
6F
100
AcDbEntity
  8
K113
  6
Continuous
 62
     7
100
AcDbCircle
 10
166.1327269581
 20
236.7063862276
 30
0.0
 40
27.97437131957139
100
AcDbArc
 50
179.0542414739
 51
180.7973936851
  0
SPLINE
  5
FB
330
6F
100
AcDbEntity
  8
K113
  6
Continuous
 62
     7
100
AcDbSpline
210
0.0
220
0.0
230
1.0
 70
     8
 71
     3
 72
    35
 73
    31
 74
     0
 42
0.0000000226987264
 43
0.0000000001
 40
0.0
 40
0.0
 40
0.0
 40
0.0
 40
0.1038574849161999
 40
0.1038574849161999
 40
0.1038574849161999
 40
0.208145099708326
 40
0.208145099708326
 40
0.208145099708326
 40
0.3132794528734433
 40
0.3132794528734433
 40
0.3132794528734433
 40
0.4205320405917958
 40
0.4205320405917958
 40
0.4205320405917958
 40
0.5300109781850706
 40
0.5300109781850706
 40
0.5300109781850706
 40
0.6408664358498115
 40
0.6408664358498115
 40
0.6408664358498115
 40
0.7515856970907178
 40
0.7515856970907178
 40
0.7515856970907178
 40
0.8606725104240859
 40
0.8606725104240859
 40
0.8606725104240859
 40
0.9673908401217257
 40
0.9673908401217257
 40
0.9673908401217257
 40
1.0
 40
1.0
 40
1.0
 40
1.0
 10
138.2499119067719
 20
236.0584975869834
 30
0.0
 10
138.2501644521827
 20
236.0403881963703
 30
0.0
 10
138.2495982298816
 20
236.0244149640031
 30
0.0
 10
138.2482638091652
 20
236.011882494165
 30
0.0
 10
138.2469235550372
 20
235.9992952387152
 30
0.0
 10
138.24477284103
 20
235.9898329184691
 30
0.0
 10
138.24199870533
 20
235.9842089513946
 30
0.0
 10
138.2392016337214
 20
235.9785384866686
 30
0.0
 10
138.2356969450254
 20
235.9766105396228
 30
0.0
 10
138.2317755686931
 20
235.9784998534859
 30
0.0
 10
138.227775873734
 20
235.9804269011584
 30
0.0
 10
138.2232360108347
 20
235.9863719340294
 30
0.0
 10
138.2185232947253
 20
235.99579965256
 30
0.0
 10
138.2137143991665
 20
236.0054197766497
 30
0.0
 10
138.2085950522053
 20
236.0189263245418
 30
0.0
 10
138.2035798774338
 20
236.0352095716632
 30
0.0
 10
138.1985035919399
 20
236.051691232806
 30
0.0
 10
138.1933935508953
 20
236.0714765366318
 30
0.0
 10
138.188675905849
 20
236.0929430767676
 30
0.0
 10
138.183965274083
 20
236.1143777046119
 30
0.0
 10
138.1795135899014
 20
236.1380963849137
 30
0.0
 10
138.1757092467065
 20
236.1620992453812
 30
0.0
 10
138.1719609776695
 20
236.1857483154259
 30
0.0
 10
138.1687355398913
 20
236.2103469775655
 30
0.0
 10
138.1663255741659
 20
236.23376497991
 30
0.0
 10
138.1639672699588
 20
236.2566809794485
 30
0.0
 10
138.1623239136268
 20
236.2791137116484
 30
0.0
 10
138.1615467604032
 20
236.299116814854
 30
0.0
 10
138.1613060726579
 20
236.3053118632229
 30
0.0
 10
138.1611449006719
 20
236.3113152030867
 30
0.0
 10
138.1610647299066
 20
236.3170754066202
 30
0.0
  0
ARC
  5
FC
330
6F
100
AcDbEntity
  8
K113
  6
Continuous
 62
     7
100
AcDbCircle
 10
166.1664039557
 20
236.4478084204
 30
0.0
 40
27.919206396587
100
AcDbArc
 50
179.0523726299
 51
180.7989693619
  0
SPLINE
  5
FD
330
6F
100
AcDbEntity
  8
K113
  6
Continuous
 62
     7
100
AcDbSpline
210
0.0
220
0.0
230
1.0
 70
     8
 71
     3
 72
    35
 73
    31
 74
     0
 42
0.0000000047362878
 43
0.0000000001
 40
0.0
 40
0.0
 40
0.0
 40
0.0
 40
0.1046230373314494
 40
0.1046230373314494
 40
0.1046230373314494
 40
0.2092531589315407
 40
0.2092531589315407
 40
0.2092531589315407
 40
0.3149943894629096
 40
0.3149943894629096
 40
0.3149943894629096
 40
0.4229767152587905
 40
0.4229767152587905
 40
0.4229767152587905
 40
0.5330101085775001
 40
0.5330101085775001
 40
0.5330101085775001
 40
0.6439992374802515
 40
0.6439992374802515
 40
0.6439992374802515
 40
0.754352610785646
 40
0.754352610785646
 40
0.754352610785646
 40
0.8627271122790608
 40
0.8627271122790608
 40
0.8627271122790608
 40
0.9687093418799605
 40
0.9687093418799605
 40
0.9687093418799605
 40
1.0
 40
1.0
 40
1.0
 40
1.0
 10
138.0038698040897
 20
236.8071182254557
 30
0.0
 10
138.0050818246299
 20
236.7197316542808
 30
0.0
 10
138.0102855181533
 20
236.6195554640461
 30
0.0
 10
138.0190176588659
 20
236.5150105482
 30
0.0
 10
138.0277529904299
 20
236.4104274301205
 30
0.0
 10
138.040251085793
 20
236.298634708026
 30
0.0
 10
138.0554471845724
 20
236.1887381136891
 30
0.0
 10
138.0708061218154
 20
236.0776638886442
 30
0.0
 10
138.0893284101637
 20
235.9655442949989
 30
0.0
 10
138.1095022680664
 20
235.8612168295087
 30
0.0
 10
138.1300988857016
 20
235.7547030964434
 30
0.0
 10
138.1529693623058
 20
235.6534402457993
 30
0.0
 10
138.1762753095301
 20
235.5653854727613
 30
0.0
 10
138.2000151899218
 20
235.4756912089014
 30
0.0
 10
138.22485516833
 20
235.397253821842
 30
0.0
 10
138.2487712145278
 20
235.3364521286953
 30
0.0
 10
138.272886237117
 20
235.2751445784603
 30
0.0
 10
138.2967327927497
 20
235.2300796508736
 30
0.0
 10
138.318288914581
 20
235.205269886524
 30
0.0
 10
138.3397174799081
 20
235.1806069318293
 30
0.0
 10
138.3594853929865
 20
235.1752984249487
 30
0.0
 10
138.3758317847075
 20
235.1902165194477
 30
0.0
 10
138.3918865849755
 20
235.2048685008543
 30
0.0
 10
138.4050917562961
 20
235.2394822594055
 30
0.0
 10
138.4142284024234
 20
235.2914265515405
 30
0.0
 10
138.4231664745287
 20
235.3422418969191
 30
0.0
 10
138.4284598288847
 20
235.4110856265545
 30
0.0
 10
138.4296169271707
 20
235.4922144256645
 30
0.0
 10
138.4299631933145
 20
235.5164925330255
 30
0.0
 10
138.4299508792352
 20
235.5419727403679
 30
0.0
 10
138.4295800909451
 20
235.568454768148
 30
0.0
  0
ARC
  5
FE
330
6F
100
AcDbEntity
  8
K113
  6
Continuous
 62
     7
100
AcDbCircle
 10
166.0731431543
 20
237.1964290245
 30
0.0
 40
28.07197292564221
100
AcDbArc
 50
179.0575299755
 51
180.7946210536
  0
ELLIPSE
  5
FF
330
6F
100
AcDbEntity
  8
K113
  6
Continuous
 62
     7
100
AcDbEllipse
 10
183.2064663137
 20
242.899656636
 30
0.0
 11
-45.99626722285957
 21
9.473916367120500E-8
 31
0.0
210
0.0
220
0.0
230
1.0
 40
0.6156614788
 41
0.1637880390615385
 42
0.1861664705362454
  0
ELLIPSE
  5
100
330
6F
100
AcDbEntity
  8
K113
  6
Continuous
 62
     7
100
AcDbEllipse
 10
183.2064669619
 20
237.8204516812
 30
0.0
 11
-45.38446880612204
 21
6.432751900597999E-9
 31
0.0
210
0.0
220
0.0
230
1.0
 40
0.7880107528
 41
6.250128332806451
 42
6.270273891197101
  0
ELLIPSE
  5
101
330
6F
100
AcDbEntity
  8
K113
  6
Continuous
 62
     7
100
AcDbEllipse
 10
183.2064668843
 20
243.6199288814
 30
0.0
 11
-45.97553699293162
 21
-3.780946259204776E-9
 31
0.0
210
0.0
220
0.0
230
1.0
 40
0.6156614752
 41
0.1638625583292795
 42
0.2309857043484081
  0
ELLIPSE
  5
102
330
6F
100
AcDbEntity
  8
K113
  6
Continuous
 62
     7
100
AcDbEllipse
 10
183.2064668387
 20
235.9577624352
 30
0.0
 11
44.77961211180418
 21
7.960819503605165E-10
 31
0.0
210
0.0
220
0.0
230
1.0
 40
0.7880107538
 41
3.108088998915021
 42
3.152625543765619
  0
LINE
  5
103
330
6F
100
AcDbEntity
  8
K113
  6
Continuous
 62
     7
100
AcDbLine
 10
138.4270371956
 20
236.058497587
 30
0.0
 11
138.2499119068
 21
236.058497587
 31
0.0
  0
LINE
  5
104
330
6F
100
AcDbEntity
  8
K113
  6
Continuous
 62
     7
100
AcDbLine
 10
138.3664292121
 20
237.1681270205
 30
0.0
 11
138.1621667071
 21
237.1681270205
 31
0.0
  0
ELLIPSE
  5
105
330
6F
100
AcDbEntity
  8
K113
  6
Continuous
 62
     7
100
AcDbEllipse
 10
183.2064637779
 20
237.8204517399
 30
0.0
 11
-45.18174101386276
 21
-1.483466882321038E-7
 31
0.0
210
0.0
220
0.0
230
1.0
 40
0.7880107805
 41
-0.0153104083330584
 42
-0.0129693542236931
  0
LINE
  5
106
330
6F
100
AcDbEntity
  8
K113
  6
Continuous
 62
     7
100
AcDbLine
 10
138.0285225873
 20
238.2821956308
 30
0.0
 11
137.8257810046
 21
238.2821956308
 31
0.0
  0
ELLIPSE
  5
107
330
6F
100
AcDbEntity
  8
K113
  6
Continuous
 62
     7
100
AcDbEllipse
 10
183.2064675507
 20
242.8996567705
 30
0.0
 11
-45.79625216078554
 21
-1.186264172287586E-7
 31
0.0
210
0.0
220
0.0
230
1.0
 40
0.6156614709
 41
0.1645098917244803
 42
0.1869891411882937
  0
LINE
  5
108
330
6F
100
AcDbEntity
  8
K113
  6
Continuous
 62
     7
100
AcDbLine
 10
138.2085168644
 20
237.6581698394
 30
0.0
 11
138.004967949
 21
237.6581698394
 31
0.0
  0
ARC
  5
109
330
6F
100
AcDbEntity
  8
K113
  6
Continuous
 62
     7
100
AcDbCircle
 10
166.150295281
 20
237.1964290529
 30
0.0
 40
27.94559331336992
100
AcDbArc
 50
179.0532674722
 51
180.0580265825
  0
LINE
  5
10A
330
6F
100
AcDbEntity
  8
K113
  6
Continuous
 62
     7
100
AcDbLine
 10
138.1585369919
 20
236.8071182255
 30
0.0
 11
138.0038698041
 21
236.8071182255
 31
0.0
  0
SPLINE
  5
10B
330
6F
100
AcDbEntity
  8
K113
  6
Continuous
 62
     7
100
AcDbSpline
210
0.0
220
0.0
230
1.0
 70
     8
 71
     3
 72
    14
 73
    10
 74
     0
 42
0.0000000036922912
 43
0.0000000001
 40
0.2774417589199041
 40
0.2774417589199041
 40
0.2774417589199041
 40
0.2774417589199041
 40
0.3150131519985424
 40
0.3150131519985424
 40
0.3150131519985424
 40
0.4230015581905978
 40
0.4230015581905978
 40
0.4230015581905978
 40
0.4895590731376611
 40
0.4895590731376611
 40
0.4895590731376611
 40
0.4895590731376611
 10
138.292637777126
 20
235.9748751461359
 30
0.0
 10
138.2993517165039
 20
235.9362369143651
 30
0.0
 10
138.3063431258902
 20
235.8981865765421
 30
0.0
 10
138.3135438684911
 20
235.861120469057
 30
0.0
 10
138.3342355066382
 20
235.7546094428872
 30
0.0
 10
138.3572104195799
 20
235.6533548394789
 30
0.0
 10
138.3806223058184
 20
235.5653094980312
 30
0.0
 10
138.3950466127756
 20
235.511063846132
 30
0.0
 10
138.409874972164
 20
235.4609372019239
 30
0.0
 10
138.4246576863
 20
235.4163401613011
 30
0.0
  0
ELLIPSE
  5
10C
330
6F
100
AcDbEntity
  8
K113
  6
Continuous
 62
     7
100
AcDbEllipse
 10
183.2064698675
 20
242.8996570882
 30
0.0
 11
-45.79625447818533
 21
-6.183323827458655E-7
 31
0.0
210
0.0
220
0.0
230
1.0
 40
0.6156614565
 41
0.2047085967503818
 42
0.2129087180019199
  0
LINE
  5
10D
330
6F
100
AcDbEntity
  8
K113
  6
Continuous
 62
     7
100
AcDbLine
 10
138.4431470767
 20
236.9095492009
 30
0.0
 11
138.2510160618
 21
236.9095492009
 31
0.0
  0
ELLIPSE
  5
10E
330
6F
100
AcDbEntity
  8
K113
  6
Continuous
 62
     7
100
AcDbEllipse
 10
183.2064653439
 20
236.0775716931
 30
0.0
 11
-45.38447101686304
 21
-2.381163235337658E-8
 31
0.0
210
0.0
220
0.0
230
1.0
 40
0.5299192731
 41
6.251654935734423
 42
6.271157146061341
  0
ELLIPSE
  5
10F
330
6F
100
AcDbEntity
  8
K113
  6
Continuous
 62
     7
100
AcDbEllipse
 10
183.2064693458
 20
242.7271846858
 30
0.0
 11
-45.99676341716165
 21
-1.299639617929546E-6
 31
0.0
210
0.0
220
0.0
230
1.0
 40
0.8480480743
 41
0.1637857259698105
 42
0.1847130775674088
  0
ELLIPSE
  5
110
330
6F
100
AcDbEntity
  8
K113
  6
Continuous
 62
     7
100
AcDbEllipse
 10
183.2064714428
 20
235.2736249989
 30
0.0
 11
45.217608956146
 21
-7.384057774950658E-9
 31
0.0
210
0.0
220
0.0
230
1.0
 40
0.5299192374
 41
3.129520103540651
 42
3.148800925396229
  0
SPLINE
  5
111
330
6F
100
AcDbEntity
  8
K113
  6
Continuous
 62
     7
100
AcDbSpline
210
0.0
220
0.0
230
1.0
 70
     8
 71
     3
 72
    10
 73
     6
 74
     0
 42
0.0000000626110046
 43
0.0000000001
 40
0.0
 40
0.0
 40
0.0
 40
0.0
 40
0.5
 40
0.5
 40
1.0
 40
1.0
 40
1.0
 40
1.0
 10
137.9512934139236
 20
235.1714790376838
 30
0.0
 10
137.9618511261093
 20
235.1222226024006
 30
0.0
 10
137.9720397033288
 20
235.0863801013932
 30
0.0
 10
137.9864132675483
 20
235.0598273898115
 30
0.0
 10
137.9904629732604
 20
235.0696050413957
 30
0.0
 10
137.9900372164948
 20
235.1009041934915
 30
0.0
  0
ELLIPSE
  5
112
330
6F
100
AcDbEntity
  8
K113
  6
Continuous
 62
     7
100
AcDbEllipse
 10
183.2064641862
 20
242.1476323476
 30
0.0
 11
-45.99673563318706
 21
1.385824932348574E-6
 31
0.0
210
0.0
220
0.0
230
1.0
 40
0.8480481198
 41
0.1637858658996276
 42
0.1798089630651239
  0
ELLIPSE
  5
113
330
6F
100
AcDbEntity
  8
K113
  6
Continuous
 62
     7
100
AcDbEllipse
 10
183.2064670728
 20
236.0775716781
 30
0.0
 11
-45.38447274571187
 21
-2.934854616276628E-9
 31
0.0
210
0.0
220
0.0
230
1.0
 40
0.529919263
 41
0.0120700943894801
 42
0.0315303705320974
  0
ELLIPSE
  5
114
330
6F
100
AcDbEntity
  8
K113
  6
Continuous
 62
     7
100
AcDbEllipse
 10
183.2064654984
 20
241.6797294199
 30
0.0
 11
-45.97774268735071
 21
7.165083153529149E-7
 31
0.0
210
0.0
220
0.0
230
1.0
 40
0.8480481082
 41
0.1638541261934328
 42
0.1835539758845418
  0
SPLINE
  5
115
330
6F
100
AcDbEntity
  8
K113
  6
Continuous
 62
     7
100
AcDbSpline
210
0.0
220
0.0
230
1.0
 70
     8
 71
     3
 72
    10
 73
     6
 74
     0
 42
0.0000000300792151
 43
0.0000000001
 40
0.0
 40
0.0
 40
0.0
 40
0.0
 40
0.5
 40
0.5
 40
1.0
 40
1.0
 40
1.0
 40
1.0
 10
138.0805243175247
 20
234.3997143462208
 30
0.0
 10
138.0821601815374
 20
234.3383887286744
 30
0.0
 10
138.0744185341965
 20
234.3219604294836
 30
0.0
 10
138.0451209561549
 20
234.3827113663819
 30
0.0
 10
138.0237681794246
 20
234.459252654669
 30
0.0
 10
138.001092959881
 20
234.5628365145634
 30
0.0
  0
ARC
  5
116
330
6F
100
AcDbEntity
  8
K113
  6
Continuous
 62
     7
100
AcDbCircle
 10
142.4195147256
 20
234.7940217804
 30
0.0
 40
4.356869990467345
100
AcDbArc
 50
185.1925136609
 51
193.872049936
  0
ELLIPSE
  5
117
330
6F
100
AcDbEntity
  8
K113
  6
Continuous
 62
     7
100
AcDbEllipse
 10
183.2064700087
 20
241.6797301985
 30
0.0
 11
-45.97774719870727
 21
-1.999046458532258E-6
 31
0.0
210
0.0
220
0.0
230
1.0
 40
0.8480480691
 41
0.2048147840082258
 42
0.2161572476961381
  0
SPLINE
  5
118
330
6F
100
AcDbEntity
  8
K113
  6
Continuous
 62
     7
100
AcDbSpline
210
0.0
220
0.0
230
1.0
 70
     8
 71
     3
 72
    12
 73
     8
 74
     0
 42
0.0000000218147863
 43
0.0000000001
 40
0.0
 40
0.0
 40
0.0
 40
0.0
 40
0.2500000000000004
 40
0.2500000000000004
 40
0.5000000000000008
 40
0.5000000000000008
 40
1.0
 40
1.0
 40
1.0
 40
1.0
 10
138.4343889134512
 20
233.1041944708015
 30
0.0
 10
138.4359081710797
 20
233.0568901350993
 30
0.0
 10
138.4334717704464
 20
233.0255223135783
 30
0.0
 10
138.421221789999
 20
232.9970906685466
 30
0.0
 10
138.4113761348303
 20
233.0004738196232
 30
0.0
 10
138.3735752427341
 20
233.0607206312329
 30
0.0
 10
138.3369523662921
 20
233.1691344374471
 30
0.0
 10
138.2986784898261
 20
233.3169480154482
 30
0.0
  0
ELLIPSE
  5
119
330
6F
100
AcDbEntity
  8
K113
  6
Continuous
 62
     7
100
AcDbEllipse
 10
183.2064669161
 20
233.5079859444
 30
0.0
 11
44.77856175140735
 21
-3.409997978431889E-10
 31
0.0
210
0.0
220
0.0
230
1.0
 40
0.5299192639
 41
3.109635492667409
 42
3.158610251529975
  0
ELLIPSE
  5
11A
330
6F
100
AcDbEntity
  8
K113
  6
Continuous
 62
     7
100
AcDbEllipse
 10
183.206466874
 20
243.1960958745
 30
0.0
 11
-45.97774406315025
 21
-5.353983966241427E-9
 31
0.0
210
0.0
220
0.0
230
1.0
 40
0.8480480961
 41
0.1638541104431742
 42
0.2310742438055634
  0
ELLIPSE
  5
11B
330
6F
100
AcDbEntity
  8
K113
  6
Continuous
 62
     7
100
AcDbEllipse
 10
183.2064655858
 20
234.6030551246
 30
0.0
 11
45.06269411825523
 21
6.275709119041295E-11
 31
0.0
210
0.0
220
0.0
230
1.0
 40
0.5299192718
 41
3.129478599652245
 42
3.152114221089095
  0
SPLINE
  5
11C
330
6F
100
AcDbEntity
  8
K113
  6
Continuous
 62
     7
100
AcDbSpline
210
0.0
220
0.0
230
1.0
 70
    12
 71
     2
 72
     6
 73
     3
 74
     0
 42
0.0000000324698621
 43
0.0000000001
 40
0.0
 40
0.0
 40
0.0
 40
1.0
 40
1.0
 40
1.0
 10
138.1470779090813
 20
234.8923266911359
 30
0.0
 41
1.0
 10
138.1832544983727
 20
234.7426952786406
 30
0.0
 41
1.0
 10
138.2208117701097
 20
234.5933087185944
 30
0.0
 41
1.0
  0
ELLIPSE
  5
11D
330
6F
100
AcDbEntity
  8
K113
  6
Continuous
 62
     7
100
AcDbEllipse
 10
183.2064656264
 20
234.3040371522
 30
0.0
 11
44.98896571691756
 21
2.876986843203255E-10
 31
0.0
210
0.0
220
0.0
230
1.0
 40
0.5299192715
 41
3.129458746028508
 42
3.152131464586462
  0
SPLINE
  5
11E
330
6F
100
AcDbEntity
  8
K113
  6
Continuous
 62
     7
100
AcDbSpline
210
0.0
220
0.0
230
1.0
 70
     8
 71
     3
 72
    11
 73
     7
 74
     0
 42
0.0000000613365632
 43
0.0000000001
 40
0.0
 40
0.0
 40
0.0
 40
0.0
 40
0.1039962731476459
 40
0.1039962731476459
 40
0.1039962731476459
 40
0.1764174590150419
 40
0.1764174590150419
 40
0.1764174590150419
 40
0.1764174590150419
 10
138.2199982707039
 20
234.052791069072
 30
0.0
 10
138.2202018240096
 20
234.042556249796
 30
0.0
 10
138.219724442741
 20
234.0349483091331
 30
0.0
 10
138.2186087264383
 20
234.0305818213849
 30
0.0
 10
138.2178315861219
 20
234.0275403908155
 30
0.0
 10
138.2167304425913
 20
234.0260124203395
 30
0.0
 10
138.2153573179856
 20
234.0260147234225
 30
0.0
  0
SPLINE
  5
11F
330
6F
100
AcDbEntity
  8
K113
  6
Continuous
 62
     7
100
AcDbSpline
210
0.0
220
0.0
230
1.0
 70
     8
 71
     3
 72
    29
 73
    25
 74
     0
 42
0.0000000237183178
 43
0.0000000001
 40
0.2083580280612773
 40
0.2083580280612773
 40
0.2083580280612773
 40
0.2083580280612773
 40
0.313553236105758
 40
0.313553236105758
 40
0.313553236105758
 40
0.4208230967543081
 40
0.4208230967543081
 40
0.4208230967543081
 40
0.5302670219467925
 40
0.5302670219467925
 40
0.5302670219467925
 40
0.641048262149778
 40
0.641048262149778
 40
0.641048262149778
 40
0.7516865838949591
 40
0.7516865838949591
 40
0.7516865838949591
 40
0.8607231940352061
 40
0.8607231940352061
 40
0.8607231940352061
 40
0.9674443076475568
 40
0.9674443076475568
 40
0.9674443076475568
 40
1.0
 40
1.0
 40
1.0
 40
1.0
 10
138.2133862627654
 20
234.0269121984901
 30
0.0
 10
138.2110576205959
 20
234.0288812549664
 30
0.0
 10
138.2081418439959
 20
234.0341424593439
 30
0.0
 10
138.2048808716382
 20
234.0422147544895
 30
0.0
 10
138.2015561508934
 20
234.0504448540381
 30
0.0
 10
138.1977838624996
 20
234.0618142669409
 30
0.0
 10
138.1938693129741
 20
234.075374628249
 30
0.0
 10
138.1898767673255
 20
234.089205175335
 30
0.0
 10
138.1856278587558
 20
234.1056898391251
 30
0.0
 10
138.1814669049237
 20
234.123484661277
 30
0.0
 10
138.1772566857078
 20
234.1414901727991
 30
0.0
 10
138.1730199982919
 20
234.1613368171377
 30
0.0
 10
138.1691102123486
 20
234.1813837544332
 30
0.0
 10
138.1652064508064
 20
234.2013998023668
 30
0.0
 10
138.1615190012779
 20
234.2221805043509
 30
0.0
 10
138.1583693371554
 20
234.2419506075555
 30
0.0
 10
138.1552652513986
 20
234.2614346202565
 30
0.0
 10
138.1525961208129
 20
234.2804895667217
 30
0.0
 10
138.1506037142101
 20
234.2974428306343
 30
0.0
 10
138.1486530802345
 20
234.3140406538594
 30
0.0
 10
138.1472965737912
 20
234.3290913483343
 30
0.0
 10
138.1466587936376
 20
234.3412749831615
 30
0.0
 10
138.1464616061872
 20
234.3450418922997
 30
0.0
 10
138.1463301872915
 20
234.3485633125653
 30
0.0
 10
138.1462657408384
 20
234.3518090416123
 30
0.0
  0
LINE
  5
120
330
6F
100
AcDbEntity
  8
K113
  6
Continuous
 62
     7
100
AcDbLine
 10
138.4293563627
 20
233.3169480154
 30
0.0
 11
138.2986784898
 21
233.3169480154
 31
0.0
  0
LINE
  5
121
330
6F
100
AcDbEntity
  8
K113
  6
Continuous
 62
     7
100
AcDbLine
 10
138.3941072408
 20
233.7494426885
 30
0.0
 11
138.1897191472
 21
233.7494426885
 31
0.0
  0
LINE
  5
122
330
6F
100
AcDbEntity
  8
K113
  6
Continuous
 62
     7
100
AcDbLine
 10
138.145405235
 20
234.3997143462
 30
0.0
 11
138.0805243175
 21
234.3997143462
 31
0.0
  0
LINE
  5
123
330
6F
100
AcDbEntity
  8
K113
  6
Continuous
 62
     7
100
AcDbLine
 10
138.1438353803
 20
234.5628365146
 30
0.0
 11
138.0010929599
 21
234.5628365146
 31
0.0
  0
LINE
  5
124
330
6F
100
AcDbEntity
  8
K113
  6
Continuous
 62
     7
100
AcDbLine
 10
137.9199371759
 20
235.3193885516
 30
0.0
 11
137.8445522687
 21
235.3193885516
 31
0.0
  0
LINE
  5
125
330
6F
100
AcDbEntity
  8
K113
  6
Continuous
 62
     7
100
AcDbLine
 10
138.193518615
 20
235.1009041935
 30
0.0
 11
137.9900372165
 21
235.1009041935
 31
0.0
  0
LINE
  5
126
330
6F
100
AcDbEntity
  8
K113
  6
Continuous
 62
     7
100
AcDbLine
 10
138.1183677732
 20
235.5628965708
 30
0.0
 11
137.9921576
 21
235.5628965708
 31
0.0
  0
SPLINE
  5
127
330
6F
100
AcDbEntity
  8
K113
  6
Continuous
 62
     7
100
AcDbSpline
210
0.0
220
0.0
230
1.0
 70
     8
 71
     3
 72
    11
 73
     7
 74
     0
 42
0.0000000613127375
 43
0.0000000001
 40
0.0
 40
0.0
 40
0.0
 40
0.0
 40
0.1043911307297575
 40
0.1043911307297575
 40
0.1043911307297575
 40
0.176397519241051
 40
0.176397519241051
 40
0.176397519241051
 40
0.176397519241051
 10
138.4245245602547
 20
234.052791069072
 30
0.0
 10
138.424729839156
 20
234.0425164115035
 30
0.0
 10
138.4242455814782
 20
234.0348892069131
 30
0.0
 10
138.4231153710895
 20
234.0305302719083
 30
0.0
 10
138.4223356021898
 20
234.0275229009032
 30
0.0
 10
138.4212341323556
 20
234.026012548908
 30
0.0
 10
138.4198625033666
 20
234.0260148880753
 30
0.0
  0
ELLIPSE
  5
128
330
6F
100
AcDbEntity
  8
K113
  6
Continuous
 62
     7
100
AcDbEllipse
 10
183.2064683094
 20
234.3040371504
 30
0.0
 11
44.78445352013072
 21
-2.164324275355511E-9
 31
0.0
210
0.0
220
0.0
230
1.0
 40
0.5299192557
 41
3.138820542367523
 42
3.15217959314541
  0
LINE
  5
129
330
6F
100
AcDbEntity
  8
K113
  6
Continuous
 62
     7
100
AcDbLine
 10
138.4245245603
 20
234.0527910691
 30
0.0
 11
138.2199982707
 21
234.0527910691
 31
0.0
  0
LINE
  5
12A
330
6F
100
AcDbEntity
  8
K113
  6
Continuous
 62
     7
100
AcDbLine
 10
138.3617600175
 20
234.5933087186
 30
0.0
 11
138.2208117701
 21
234.5933087186
 31
0.0
  0
LINE
  5
12B
330
6F
100
AcDbEntity
  8
K113
  6
Continuous
 62
     7
100
AcDbLine
 10
138.2834546934
 20
234.8923266911
 30
0.0
 11
138.1470779091
 21
234.8923266911
 31
0.0
  0
LINE
  5
12C
330
6F
100
AcDbEntity
  8
K113
  6
Continuous
 62
     7
100
AcDbLine
 10
137.9394409661
 20
236.3668432426
 30
0.0
 11
137.8252773242
 21
236.3668432426
 31
0.0
  0
ELLIPSE
  5
12D
330
6F
100
AcDbEntity
  8
K113
  6
Continuous
 62
     7
100
AcDbEllipse
 10
183.2064861575
 20
241.6797331382
 30
0.0
 11
-45.77766611647068
 21
-1.223446451461587E-5
 31
0.0
210
0.0
220
0.0
230
1.0
 40
0.8480479295
 41
0.2057226357519181
 42
0.2093510320771711
  0
ARC
  5
12E
330
6F
100
AcDbEntity
  8
K113
  6
Continuous
 62
     7
100
AcDbCircle
 10
142.605177102
 20
234.7941782886
 30
0.0
 40
4.338730442143748
100
AcDbArc
 50
190.1971117739
 51
193.9333442348
  0
ELLIPSE
  5
12F
330
6F
100
AcDbEntity
  8
K113
  6
Continuous
 62
     7
100
AcDbEllipse
 10
183.2064691057
 20
241.6797299603
 30
0.0
 11
-45.7776490602585
 21
-1.178631564091939E-6
 31
0.0
210
0.0
220
0.0
230
1.0
 40
0.8480480764
 41
0.1711656770229956
 42
0.1772316161217959
  0
SPLINE
  5
130
330
6F
100
AcDbEntity
  8
K113
  6
Continuous
 62
     7
100
AcDbSpline
210
0.0
220
0.0
230
1.0
 70
     8
 71
     3
 72
     8
 73
     4
 74
     0
 42
0.0000000944912269
 43
0.0000000001
 40
0.6476325937207486
 40
0.6476325937207486
 40
0.6476325937207486
 40
0.6476325937207486
 40
1.0
 40
1.0
 40
1.0
 40
1.0
 10
138.188194600428
 20
235.0673329376021
 30
0.0
 10
138.1918885642859
 20
235.067474845088
 30
0.0
 10
138.1938200690234
 20
235.0788427813855
 30
0.0
 10
138.193518614989
 20
235.1009041934915
 30
0.0
  0
ELLIPSE
  5
131
330
6F
100
AcDbEntity
  8
K113
  6
Continuous
 62
     7
100
AcDbEllipse
 10
183.2064626114
 20
235.2736250089
 30
0.0
 11
45.01412403654245
 21
6.488047078756499E-9
 31
0.0
210
0.0
220
0.0
230
1.0
 40
0.5299192893
 41
3.142370637365617
 42
3.1488335098563
  0
ELLIPSE
  5
132
330
6F
100
AcDbEntity
  8
K113
  6
Continuous
 62
     7
100
AcDbEllipse
 10
183.2064668078
 20
242.2269066109
 30
0.0
 11
-45.98223074978777
 21
4.089168794427309E-7
 31
0.0
210
0.0
220
0.0
230
1.0
 40
0.9862856021
 41
0.2129316293390059
 42
0.2311147700992356
  0
ELLIPSE
  5
133
330
6F
100
AcDbEntity
  8
K113
  6
Continuous
 62
     7
100
AcDbEllipse
 10
183.2064671028
 20
232.8539281883
 30
0.0
 11
44.96192898540557
 21
3.485059463237405E-10
 31
0.0
210
0.0
220
0.0
230
1.0
 40
0.1650476054
 41
3.132768134463723
 42
3.170030679095764
  0
ARC
  5
134
330
6F
100
AcDbEntity
  8
K113
  6
Continuous
 62
     7
100
AcDbCircle
 10
182.0338926465
 20
242.5148303755
 30
0.0
 40
44.82662483952567
100
AcDbArc
 50
191.9764114762
 51
192.3601632656
  0
ELLIPSE
  5
135
330
6F
100
AcDbEntity
  8
K113
  6
Continuous
 62
     7
100
AcDbEllipse
 10
183.2064671129
 20
233.1474188604
 30
0.0
 11
45.02521146629034
 21
2.968094520161557E-10
 31
0.0
210
0.0
220
0.0
230
1.0
 40
0.1650476054
 41
3.132780537557056
 42
3.167052298588721
  0
ELLIPSE
  5
136
330
6F
100
AcDbEntity
  8
K113
  6
Continuous
 62
     7
100
AcDbEllipse
 10
183.2064675653
 20
242.248734981
 30
0.0
 11
-45.98571827450752
 21
-4.971373584197964E-6
 31
0.0
210
0.0
220
0.0
230
1.0
 40
0.9862855945
 41
0.1879691881847518
 42
0.2062993465355566
  0
ELLIPSE
  5
137
330
6F
100
AcDbEntity
  8
K113
  6
Continuous
 62
     7
100
AcDbEllipse
 10
183.2064664893
 20
233.9626707265
 30
0.0
 11
45.19025062394203
 21
-5.325774543596395E-10
 31
0.0
210
0.0
220
0.0
230
1.0
 40
0.1650476065
 41
3.132812721147546
 42
3.166959297350029
  0
ARC
  5
138
330
6F
100
AcDbEntity
  8
K113
  6
Continuous
 62
     7
100
AcDbCircle
 10
182.0164966144
 20
242.5113018278
 30
0.0
 40
44.80887418399791
100
AcDbArc
 50
190.5734802198
 51
190.9130121876
  0
ELLIPSE
  5
139
330
6F
100
AcDbEntity
  8
K113
  6
Continuous
 62
     7
100
AcDbEllipse
 10
183.2064668621
 20
234.2235513244
 30
0.0
 11
45.23974697257348
 21
-1.486658018912124E-11
 31
0.0
210
0.0
220
0.0
230
1.0
 40
0.1650476059
 41
3.132822327391182
 42
3.170587144778398
  0
ELLIPSE
  5
13A
330
6F
100
AcDbEntity
  8
K113
  6
Continuous
 62
     7
100
AcDbEllipse
 10
183.2064659032
 20
242.2214494023
 30
0.0
 11
-45.98129867295628
 21
5.991770066812297E-6
 31
0.0
210
0.0
220
0.0
230
1.0
 40
0.9862856114
 41
0.1638419665992681
 42
0.1821352475327198
  0
ELLIPSE
  5
13B
330
6F
100
AcDbEntity
  8
K113
  6
Continuous
 62
     7
100
AcDbEllipse
 10
183.2064668881
 20
235.0407707371
 30
0.0
 11
45.38446873225426
 21
2.720913772069622E-12
 31
0.0
210
0.0
220
0.0
230
1.0
 40
0.1650476058
 41
3.112690645670655
 42
3.170494661508915
  0
ELLIPSE
  5
13C
330
6F
100
AcDbEntity
  8
K113
  6
Continuous
 62
     7
100
AcDbEllipse
 10
183.2064668826
 20
242.6543759329
 30
0.0
 11
-45.98129965302944
 21
-1.246045541324504E-7
 31
0.0
210
0.0
220
0.0
230
1.0
 40
0.9862856014
 41
0.1638418336705695
 42
0.2311195239419817
  0
ELLIPSE
  5
13D
330
6F
100
AcDbEntity
  8
K113
  6
Continuous
 62
     7
100
AcDbEllipse
 10
183.2064668857
 20
232.0495460626
 30
0.0
 11
44.77789351830358
 21
2.784231178942775E-12
 31
0.0
210
0.0
220
0.0
230
1.0
 40
0.1650476058
 41
3.112299018842839
 42
3.170147589961471
  0
LINE
  5
13E
330
6F
100
AcDbEntity
  8
K113
  6
Continuous
 62
     7
100
AcDbLine
 10
137.9157056803
 20
234.8243075563
 30
0.0
 11
137.8409522512
 21
234.8243075563
 31
0.0
  0
LINE
  5
13F
330
6F
100
AcDbEntity
  8
K113
  6
Continuous
 62
     7
100
AcDbLine
 10
138.0141960005
 20
234.2890359842
 30
0.0
 11
137.9684597679
 21
234.2890359842
 31
0.0
  0
LINE
  5
140
330
6F
100
AcDbEntity
  8
K113
  6
Continuous
 62
     7
100
AcDbLine
 10
138.0646409805
 20
234.0281553868
 30
0.0
 11
138.0179576494
 21
234.0281553868
 31
0.0
  0
LINE
  5
141
330
6F
100
AcDbEntity
  8
K113
  6
Continuous
 62
     7
100
AcDbLine
 10
138.1154346177
 20
233.7734928211
 30
0.0
 11
138.0307542945
 21
233.7734928211
 31
0.0
  0
LINE
  5
142
330
6F
100
AcDbEntity
  8
K113
  6
Continuous
 62
     7
100
AcDbLine
 10
138.2326718357
 20
233.2129035198
 30
0.0
 11
138.1830038154
 21
233.2129035198
 31
0.0
  0
LINE
  5
143
330
6F
100
AcDbEntity
  8
K113
  6
Continuous
 62
     7
100
AcDbLine
 10
138.297041045
 20
232.9194128477
 30
0.0
 11
138.2462887468
 21
232.9194128477
 31
0.0
  0
LINE
  5
144
330
6F
100
AcDbEntity
  8
K113
  6
Continuous
 62
     7
100
AcDbLine
 10
138.3595725009
 20
232.6429220621
 30
0.0
 11
138.2627177269
 21
232.6429220621
 31
0.0
  0
ELLIPSE
  5
145
330
6F
100
AcDbEntity
  8
K113
  6
Continuous
 62
     7
100
AcDbEllipse
 10
183.2064659209
 20
242.6543760919
 30
0.0
 11
-45.98129869043245
 21
-5.885778572368214E-6
 31
0.0
210
0.0
220
0.0
230
1.0
 40
0.9862856112
 41
6.111902818963231
 42
6.119343342885329
  0
ELLIPSE
  5
146
330
6F
100
AcDbEntity
  8
K113
  6
Continuous
 62
     7
100
AcDbEllipse
 10
183.2064668883
 20
249.8350547601
 30
0.0
 11
45.38446873245916
 21
-2.681015132122155E-12
 31
0.0
210
0.0
220
0.0
230
1.0
 40
0.1650476058
 41
-3.170494661508862
 42
-3.169250344166223
  0
ARC
  5
147
330
6F
100
AcDbEntity
  8
K113
  6
Continuous
 62
     7
100
AcDbCircle
 10
154.3491046991
 20
248.7563795963
 30
0.0
 40
16.45575438061081
100
AcDbArc
 50
166.4326745664
 51
167.5297509679
  0
ARC
  5
148
330
6F
100
AcDbEntity
  8
K113
  6
Continuous
 62
     7
100
AcDbCircle
 10
181.1935722077
 20
242.7640092703
 30
0.0
 40
43.96089627724598
100
AcDbArc
 50
167.4588454312
 51
167.7407134918
  0
ARC
  5
149
330
6F
100
AcDbEntity
  8
K113
  6
Continuous
 62
     7
100
AcDbCircle
 10
152.659471104
 20
248.788770566
 30
0.0
 40
14.79918573055152
100
AcDbArc
 50
167.0769536256
 51
171.1861163396
  0
ELLIPSE
  5
14A
330
6F
100
AcDbEntity
  8
K113
  6
Continuous
 62
     7
100
AcDbEllipse
 10
183.2064670535
 20
250.8902717804
 30
0.0
 11
45.17794136829901
 21
-1.116710890425310E-10
 31
0.0
210
0.0
220
0.0
230
1.0
 40
0.2164387443
 41
3.124604311424086
 42
3.152793260450635
  0
ARC
  5
14B
330
6F
100
AcDbEntity
  8
K113
  6
Continuous
 62
     7
100
AcDbCircle
 10
136.5487005395
 20
250.8869916318
 30
0.0
 40
1.486460424509858
100
AcDbArc
 50
342.9084299943
 51
355.9014742235
  0
ELLIPSE
  5
14C
330
6F
100
AcDbEntity
  8
K113
  6
Continuous
 62
     7
100
AcDbEllipse
 10
183.2064640989
 20
250.5635640708
 30
0.0
 11
45.24078303493508
 21
-1.550218287071914E-10
 31
0.0
210
0.0
220
0.0
230
1.0
 40
0.2164396206
 41
3.131350405096507
 42
3.152777530852105
  0
ARC
  5
14D
330
6F
100
AcDbEntity
  8
K113
  6
Continuous
 62
     7
100
AcDbCircle
 10
141.6430950601
 20
250.1908682219
 30
0.0
 40
3.705353114993194
100
AcDbArc
 50
168.3496970813
 51
172.6662337233
  0
ELLIPSE
  5
14E
330
6F
100
AcDbEntity
  8
K113
  6
Continuous
 62
     7
100
AcDbEllipse
 10
183.206466605
 20
250.788878917
 30
0.0
 11
-45.19771885396708
 21
-1.521924947178732E-9
 31
0.0
210
0.0
220
0.0
230
1.0
 40
0.2164396146
 41
-0.0354261497874981
 42
-0.0153585610226319
  0
ARC
  5
14F
330
6F
100
AcDbEntity
  8
K113
  6
Continuous
 62
     7
100
AcDbCircle
 10
155.2970935193
 20
247.5802819158
 30
0.0
 40
17.62230877508711
100
AcDbArc
 50
168.3614082166
 51
172.5063399634
  0
ELLIPSE
  5
150
330
6F
100
AcDbEntity
  8
K113
  6
Continuous
 62
     7
100
AcDbEllipse
 10
183.2064692788
 20
249.7601079615
 30
0.0
 11
45.38447532742925
 21
-1.037566733919082E-9
 31
0.0
210
0.0
220
0.0
230
1.0
 40
0.2164396082
 41
3.129537638829324
 42
3.149464621294413
  0
LINE
  5
151
330
6F
100
AcDbEntity
  8
K113
  6
Continuous
 62
     7
100
AcDbLine
 10
137.8446029798
 20
249.6393330623
 30
0.0
 11
137.8234001338
 21
249.6827824377
 31
0.0
  0
ARC
  5
152
330
6F
100
AcDbEntity
  8
K113
  6
Continuous
 62
     7
100
AcDbCircle
 10
134.0075598337
 20
250.9661091324
 30
0.0
 40
4.059955029981565
100
AcDbArc
 50
340.9255941742
 51
351.6794100236
  0
ARC
  5
153
330
6F
100
AcDbEntity
  8
K113
  6
Continuous
 62
     7
100
AcDbCircle
 10
181.1648231074
 20
242.0770047838
 30
0.0
 40
43.93153351921413
100
AcDbArc
 50
168.8268693806
 51
169.1075330183
  0
ARC
  5
154
330
6F
100
AcDbEntity
  8
K113
  6
Continuous
 62
     7
100
AcDbCircle
 10
132.5040643087
 20
251.8715783793
 30
0.0
 40
5.707682794407769
100
AcDbArc
 50
347.0224367032
 51
356.3183214547
  0
ELLIPSE
  5
155
330
6F
100
AcDbEntity
  8
K113
  6
Continuous
 62
     7
100
AcDbEllipse
 10
183.2064669504
 20
251.68546831
 30
0.0
 11
45.0142163737935
 21
-2.054953429642126E-11
 31
0.0
210
0.0
220
0.0
230
1.0
 40
0.2164396103
 41
3.128862186045505
 42
3.160109684266371
  0
ARC
  5
156
330
6F
100
AcDbEntity
  8
K113
  6
Continuous
 62
     7
100
AcDbCircle
 10
140.444792302
 20
251.496319633
 30
0.0
 40
2.270595620762976
100
AcDbArc
 50
163.5620742477
 51
172.0720905867
  0
ELLIPSE
  5
157
330
6F
100
AcDbEntity
  8
K113
  6
Continuous
 62
     7
100
AcDbEllipse
 10
183.2064681284
 20
252.0108906466
 30
0.0
 11
44.94278744550694
 21
-3.393760966696746E-10
 31
0.0
210
0.0
220
0.0
230
1.0
 40
0.2164396109
 41
3.128841951113129
 42
3.150411196334631
  0
ARC
  5
158
330
6F
100
AcDbEntity
  8
K113
  6
Continuous
 62
     7
100
AcDbCircle
 10
135.9545572233
 20
252.163766978
 30
0.0
 40
2.323162001110152
100
AcDbArc
 50
346.5223927696
 51
354.1036449464
  0
ELLIPSE
  5
159
330
6F
100
AcDbEntity
  8
K113
  6
Continuous
 62
     7
100
AcDbEllipse
 10
183.2064654741
 20
251.7630449294
 30
0.0
 11
-44.99742129028748
 21
7.492617637439025E-9
 31
0.0
210
0.0
220
0.0
230
1.0
 40
0.2164396173
 41
0.0144499536569261
 42
0.0333225893197868
  0
ARC
  5
15A
330
6F
100
AcDbEntity
  8
K113
  6
Continuous
 62
     7
100
AcDbCircle
 10
129.9580095891
 20
253.4688895277
 30
0.0
 40
8.521421369406873
100
AcDbArc
 50
346.2160856171
 51
354.6937672533
  0
ELLIPSE
  5
15B
330
6F
100
AcDbEntity
  8
K113
  6
Continuous
 62
     7
100
AcDbEllipse
 10
183.2064665098
 20
252.7721878811
 30
0.0
 11
44.76554254018455
 21
4.270195308464508E-11
 31
0.0
210
0.0
220
0.0
230
1.0
 40
0.2164396148
 41
3.128438535868182
 42
3.151020981265039
  0
SPLINE
  5
15C
330
6F
100
AcDbEntity
  8
K113
  6
Continuous
 62
     7
100
AcDbSpline
210
0.0
220
0.0
230
1.0
 70
     8
 71
     3
 72
    14
 73
    10
 74
     0
 42
0.0000000282011065
 43
0.0000000001
 40
0.0
 40
0.0
 40
0.0
 40
0.0
 40
0.25
 40
0.25
 40
0.5
 40
0.5
 40
0.75
 40
0.75
 40
1.0
 40
1.0
 40
1.0
 40
1.0
 10
138.3525491470637
 20
252.6166985863173
 30
0.0
 10
138.3678126650657
 20
252.6793999440247
 30
0.0
 10
138.3814181080044
 20
252.733128221262
 30
0.0
 10
138.4053594870645
 20
252.8229379331318
 30
0.0
 10
138.4156542465015
 20
252.8587588747473
 30
0.0
 10
138.4316861230443
 20
252.9080368552968
 30
0.0
 10
138.4376549117137
 20
252.9222280028759
 30
0.0
 10
138.4447809339396
 20
252.9277202191619
 30
0.0
 10
138.4459970286746
 20
252.9193821443116
 30
0.0
 10
138.4447968228575
 20
252.8996349360838
 30
0.0
  0
LINE
  5
15D
330
6F
100
AcDbEntity
  8
K113
  6
Continuous
 62
     7
100
AcDbLine
 10
138.438510734
 20
252.6166985863
 30
0.0
 11
138.3525491471
 21
252.6166985863
 31
0.0
  0
LINE
  5
15E
330
6F
100
AcDbEntity
  8
K113
  6
Continuous
 62
     7
100
AcDbLine
 10
138.272356592
 20
251.6223184896
 30
0.0
 11
138.213741859
 21
251.6223184896
 31
0.0
  0
LINE
  5
15F
330
6F
100
AcDbEntity
  8
K113
  6
Continuous
 62
     7
100
AcDbLine
 10
138.3315808599
 20
251.9251102711
 30
0.0
 11
138.2654281976
 21
251.9251102711
 31
0.0
  0
LINE
  5
160
330
6F
100
AcDbEntity
  8
K113
  6
Continuous
 62
     7
100
AcDbLine
 10
138.3696380529
 20
252.1349184621
 30
0.0
 11
138.2673340419
 21
252.1349184621
 31
0.0
  0
LINE
  5
161
330
6F
100
AcDbEntity
  8
K113
  6
Continuous
 62
     7
100
AcDbLine
 10
137.864466736
 20
249.6827824377
 30
0.0
 11
137.8234001338
 21
249.6827824377
 31
0.0
  0
LINE
  5
162
330
6F
100
AcDbEntity
  8
K113
  6
Continuous
 62
     7
100
AcDbLine
 10
137.9181025915
 20
249.8785214811
 30
0.0
 11
137.8252916241
 21
249.8785214811
 31
0.0
  0
LINE
  5
163
330
6F
100
AcDbEntity
  8
K113
  6
Continuous
 62
     7
100
AcDbLine
 10
138.1021620702
 20
250.7807516592
 30
0.0
 11
138.0313595232
 21
250.7807516592
 31
0.0
  0
LINE
  5
164
330
6F
100
AcDbEntity
  8
K113
  6
Continuous
 62
     7
100
AcDbLine
 10
138.1491085238
 20
251.0563801643
 30
0.0
 11
138.0350447905
 21
251.0563801643
 31
0.0
  0
LINE
  5
165
330
6F
100
AcDbEntity
  8
K113
  6
Continuous
 62
     7
100
AcDbLine
 10
138.2547682587
 20
252.0984927416
 30
0.0
 11
138.2351292678
 21
252.0984927416
 31
0.0
  0
LINE
  5
166
330
6F
100
AcDbEntity
  8
K113
  6
Continuous
 62
     7
100
AcDbLine
 10
138.3998753016
 20
252.3097140959
 30
0.0
 11
138.2815701599
 21
252.3097140959
 31
0.0
  0
ARC
  5
167
330
6F
100
AcDbEntity
  8
K113
  6
Continuous
 62
     7
100
AcDbCircle
 10
166.0584510973
 20
247.5532518612
 30
0.0
 40
28.09538927054879
100
AcDbArc
 50
179.214171244
 51
180.785828756
  0
SPLINE
  5
168
330
6F
100
AcDbEntity
  8
K113
  6
Continuous
 62
     7
100
AcDbSpline
210
0.0
220
0.0
230
1.0
 70
     8
 71
     3
 72
    10
 73
     6
 74
     0
 42
0.000000071158584
 43
0.0000000001
 40
0.0
 40
0.0
 40
0.0
 40
0.0
 40
0.5
 40
0.5
 40
1.0
 40
1.0
 40
1.0
 40
1.0
 10
138.0054986267629
 20
247.1334574178117
 30
0.0
 10
137.9956371075152
 20
247.101204356353
 30
0.0
 10
137.9857551274054
 20
247.0863218385385
 30
0.0
 10
137.9710129284532
 20
247.0985545713645
 30
0.0
 10
137.9662807609879
 20
247.1258986115236
 30
0.0
 10
137.9657042891695
 20
247.1679272734681
 30
0.0
  0
ELLIPSE
  5
169
330
6F
100
AcDbEntity
  8
K113
  6
Continuous
 62
     7
100
AcDbEllipse
 10
183.206467976
 20
241.8949858732
 30
0.0
 11
-45.99484105185856
 21
2.162485684227208E-7
 31
0.0
210
0.0
220
0.0
230
1.0
 40
0.6156614683
 41
-0.2075348551418141
 42
-0.1860639505518131
  0
ARC
  5
16A
330
6F
100
AcDbEntity
  8
K113
  6
Continuous
 62
     7
100
AcDbCircle
 10
137.2392876607
 20
248.0094600988
 30
0.0
 40
0.9992632480358458
100
AcDbArc
 50
343.7422240596
 51
0.0562716027
  0
ARC
  5
16B
330
6F
100
AcDbEntity
  8
K113
  6
Continuous
 62
     7
100
AcDbCircle
 10
166.1618704387
 20
248.3957660876
 30
0.0
 40
27.92597850620661
100
AcDbArc
 50
179.2094037737
 51
180.7905962263
  0
SPLINE
  5
16C
330
6F
100
AcDbEntity
  8
K113
  6
Continuous
 62
     7
100
AcDbSpline
210
0.0
220
0.0
230
1.0
 70
     8
 71
     3
 72
    10
 73
     6
 74
     0
 42
0.0000000708055572
 43
0.0000000001
 40
0.0
 40
0.0
 40
0.0
 40
0.0
 40
0.5
 40
0.5
 40
1.0
 40
1.0
 40
1.0
 40
1.0
 10
138.1985922383709
 20
248.8155605309461
 30
0.0
 10
138.2095848570322
 20
248.8477010974608
 30
0.0
 10
138.2201525033379
 20
248.8626699070095
 30
0.0
 10
138.2350066719631
 20
248.8505411358087
 30
0.0
 10
138.2391309345999
 20
248.8231583408241
 30
0.0
 10
138.2385504267708
 20
248.7810906752898
 30
0.0
  0
ELLIPSE
  5
16D
330
6F
100
AcDbEntity
  8
K113
  6
Continuous
 62
     7
100
AcDbEllipse
 10
183.2064680134
 20
242.9808393467
 30
0.0
 11
-45.99484108932364
 21
2.217422952069739E-7
 31
0.0
210
0.0
220
0.0
230
1.0
 40
0.6156614681
 41
-0.207534854983483
 42
-0.1860639504023061
  0
ARC
  5
16E
330
6F
100
AcDbEntity
  8
K113
  6
Continuous
 62
     7
100
AcDbCircle
 10
139.1805919759
 20
247.9095527873
 30
0.0
 40
1.215234324873535
100
AcDbArc
 50
165.232589976
 51
178.6314643883
  0
ARC
  5
16F
330
6F
100
AcDbEntity
  8
K113
  6
Continuous
 62
     7
100
AcDbCircle
 10
134.9711402653
 20
248.1585908911
 30
0.0
 40
3.455212109762313
100
AcDbArc
 50
343.1338436495
 51
0.8336177624
  0
ELLIPSE
  5
170
330
6F
100
AcDbEntity
  8
K113
  6
Continuous
 62
     7
100
AcDbEllipse
 10
183.2064669495
 20
241.1621080889
 30
0.0
 11
-45.97149969452825
 21
1.590379650889817E-8
 31
0.0
210
0.0
220
0.0
230
1.0
 40
0.6156614748
 41
-0.2133964131034745
 42
-0.1804359428619886
  0
SPLINE
  5
171
330
6F
100
AcDbEntity
  8
K113
  6
Continuous
 62
     7
100
AcDbSpline
210
0.0
220
0.0
230
1.0
 70
     8
 71
     3
 72
    12
 73
     8
 74
     0
 42
0.0000000191292543
 43
0.0000000001
 40
0.0
 40
0.0
 40
0.0
 40
0.0
 40
0.2500000000000009
 40
0.2500000000000009
 40
0.5000000000000018
 40
0.5000000000000018
 40
1.0
 40
1.0
 40
1.0
 40
1.0
 10
137.8303146480224
 20
246.3705614427059
 30
0.0
 10
137.8322290938142
 20
246.2917891579125
 30
0.0
 10
137.8377257842787
 20
246.2267752164634
 30
0.0
 10
137.8550633726635
 20
246.1300549582023
 30
0.0
 10
137.8668932918119
 20
246.0991132544709
 30
0.0
 10
137.9087092141383
 20
246.0644710121906
 30
0.0
 10
137.9454196656056
 20
246.1202411256324
 30
0.0
 10
137.981289148697
 20
246.2412994839951
 30
0.0
  0
ARC
  5
172
330
6F
100
AcDbEntity
  8
K113
  6
Continuous
 62
     7
100
AcDbCircle
 10
166.0071331361
 20
247.0553580272
 30
0.0
 40
28.18513875207117
100
AcDbArc
 50
178.607783494
 51
181.392216506
  0
ARC
  5
173
330
6F
100
AcDbEntity
  8
K113
  6
Continuous
 62
     7
100
AcDbCircle
 10
142.5966455469
 20
247.5938221547
 30
0.0
 40
4.768576666647261
100
AcDbArc
 50
165.4363197708
 51
178.2414986242
  0
ELLIPSE
  5
174
330
6F
100
AcDbEntity
  8
K113
  6
Continuous
 62
     7
100
AcDbEllipse
 10
183.2064669494
 20
243.7137173876
 30
0.0
 11
-45.97149969444411
 21
1.693061186039402E-8
 31
0.0
210
0.0
220
0.0
230
1.0
 40
0.6156614748
 41
-0.2133964130903641
 42
-0.1804359428489066
  0
SPLINE
  5
175
330
6F
100
AcDbEntity
  8
K113
  6
Continuous
 62
     7
100
AcDbSpline
210
0.0
220
0.0
230
1.0
 70
     8
 71
     3
 72
    12
 73
     8
 74
     0
 42
0.0000000190484098
 43
0.0000000001
 40
0.0
 40
0.0
 40
0.0
 40
0.0
 40
0.2499999999999992
 40
0.2499999999999992
 40
0.4999999999999984
 40
0.4999999999999984
 40
1.0
 40
1.0
 40
1.0
 40
1.0
 10
138.4259866744361
 20
249.5784534619949
 30
0.0
 10
138.4279285077567
 20
249.6573037707135
 30
0.0
 10
138.4254915923944
 20
249.7225115147214
 30
0.0
 10
138.4124147565536
 20
249.8193012217056
 30
0.0
 10
138.4017375666541
 20
249.8502004047353
 30
0.0
 10
138.3604349699547
 20
249.8843894646703
 30
0.0
 10
138.3200923749442
 20
249.8280814497963
 30
0.0
 10
138.2777268753633
 20
249.7077154207058
 30
0.0
  0
ARC
  5
176
330
6F
100
AcDbEntity
  8
K113
  6
Continuous
 62
     7
100
AcDbCircle
 10
166.2329160964
 20
248.8936568775
 30
0.0
 40
27.81536032916446
100
AcDbArc
 50
178.5892716001
 51
181.4107283999
  0
LINE
  5
177
330
6F
100
AcDbEntity
  8
K113
  6
Continuous
 62
     7
100
AcDbLine
 10
138.4177830822
 20
248.7810906753
 30
0.0
 11
138.2385504268
 21
248.7810906753
 31
0.0
  0
LINE
  5
178
330
6F
100
AcDbEntity
  8
K113
  6
Continuous
 62
     7
100
AcDbLine
 10
138.4431614822
 20
248.0104414998
 30
0.0
 11
138.2385504268
 21
248.0104414998
 31
0.0
  0
LINE
  5
179
330
6F
100
AcDbEntity
  8
K113
  6
Continuous
 62
     7
100
AcDbLine
 10
138.40302081
 20
247.729707054
 30
0.0
 11
138.1985922384
 21
247.729707054
 31
0.0
  0
ELLIPSE
  5
17A
330
6F
100
AcDbEntity
  8
K113
  6
Continuous
 62
     7
100
AcDbEllipse
 10
183.2064665584
 20
241.8949860473
 30
0.0
 11
-45.79481709843505
 21
-5.862696981530358E-8
 31
0.0
210
0.0
220
0.0
230
1.0
 40
0.6156614773
 41
-0.2084546639722733
 42
-0.1868862207863167
  0
LINE
  5
17B
330
6F
100
AcDbEntity
  8
K113
  6
Continuous
 62
     7
100
AcDbLine
 10
138.2090499428
 20
247.1334574178
 30
0.0
 11
138.0054986268
 21
247.1334574178
 31
0.0
  0
SPLINE
  5
17C
330
6F
100
AcDbEntity
  8
K113
  6
Continuous
 62
     7
100
AcDbSpline
210
0.0
220
0.0
230
1.0
 70
     8
 71
     3
 72
     8
 73
     4
 74
     0
 42
0.0000000807152495
 43
0.0000000001
 40
0.0
 40
0.0
 40
0.0
 40
0.0
 40
0.4251469598494141
 40
0.4251469598494141
 40
0.4251469598494141
 40
0.4251469598494141
 10
138.209049942758
 20
247.1334574178117
 30
0.0
 10
138.200625786878
 20
247.1060294672611
 30
0.0
 10
138.1921899417139
 20
247.09116653401
 30
0.0
 10
138.1853004687734
 20
247.0910903486979
 30
0.0
  0
LINE
  5
17D
330
6F
100
AcDbEntity
  8
K113
  6
Continuous
 62
     7
100
AcDbLine
 10
138.4228120615
 20
249.7077154207
 30
0.0
 11
138.2777268754
 21
249.7077154207
 31
0.0
  0
ELLIPSE
  5
17E
330
6F
100
AcDbEntity
  8
K113
  6
Continuous
 62
     7
100
AcDbEllipse
 10
183.2064665404
 20
243.7137174382
 30
0.0
 11
-45.77137475176266
 21
-6.294245485059802E-8
 31
0.0
210
0.0
220
0.0
230
1.0
 40
0.6156614774
 41
-0.2083683079012646
 42
-0.1812335909830329
  0
LINE
  5
17F
330
6F
100
AcDbEntity
  8
K113
  6
Continuous
 62
     7
100
AcDbLine
 10
138.1847310092
 20
248.7929087834
 30
0.0
 11
137.9812891487
 21
248.7929087834
 31
0.0
  0
ARC
  5
180
330
6F
100
AcDbEntity
  8
K113
  6
Continuous
 62
     7
100
AcDbCircle
 10
142.7794779209
 20
247.5937124569
 30
0.0
 40
4.748659917564571
100
AcDbArc
 50
165.3725098459
 51
166.3550869966
  0
LINE
  5
181
330
6F
100
AcDbEntity
  8
K113
  6
Continuous
 62
     7
100
AcDbLine
 10
137.9636834853
 20
247.7401546117
 30
0.0
 11
137.830314648
 21
247.7401546117
 31
0.0
  0
ARC
  5
182
330
6F
100
AcDbEntity
  8
K113
  6
Continuous
 62
     7
100
AcDbCircle
 10
166.0839878259
 20
247.0553580272
 30
0.0
 40
28.05926884643413
100
AcDbArc
 50
179.9270990214
 51
181.3178599105
  0
LINE
  5
183
330
6F
100
AcDbEntity
  8
K113
  6
Continuous
 62
     7
100
AcDbLine
 10
138.0200933557
 20
246.3705614427
 30
0.0
 11
137.830314648
 21
246.3705614427
 31
0.0
  0
ELLIPSE
  5
184
330
6F
100
AcDbEntity
  8
K113
  6
Continuous
 62
     7
100
AcDbEllipse
 10
183.2064680834
 20
250.6526120401
 30
0.0
 11
-44.96854420503895
 21
-1.763099388707445E-8
 31
0.0
210
0.0
220
0.0
230
1.0
 40
0.5299192571
 41
0.0103927923296826
 42
0.0299605023841417
  0
ELLIPSE
  5
185
330
6F
100
AcDbEntity
  8
K113
  6
Continuous
 62
     7
100
AcDbEllipse
 10
183.2064667988
 20
242.1902601148
 30
0.0
 11
-45.9976258837106
 21
-3.726253311985006E-8
 31
0.0
210
0.0
220
0.0
230
1.0
 40
0.8480480967
 41
6.071007831244341
 42
6.119402659988172
  0
ARC
  5
186
330
6F
100
AcDbEntity
  8
K113
  6
Continuous
 62
     7
100
AcDbCircle
 10
150.5683394998
 20
248.7982538213
 30
0.0
 40
12.74634500944972
100
AcDbArc
 50
178.8867126847
 51
181.1132873153
  0
ELLIPSE
  5
187
330
6F
100
AcDbEntity
  8
K113
  6
Continuous
 62
     7
100
AcDbEllipse
 10
183.2064668006
 20
242.6855654035
 30
0.0
 11
-45.99762588546901
 21
-3.628955192987518E-8
 31
0.0
210
0.0
220
0.0
230
1.0
 40
0.8480480967
 41
6.071007831266338
 42
6.119402660009224
  0
ELLIPSE
  5
188
330
6F
100
AcDbEntity
  8
K113
  6
Continuous
 62
     7
100
AcDbEllipse
 10
183.2064652304
 20
250.6526120458
 30
0.0
 11
-44.96854135195409
 21
-2.553609407263124E-8
 31
0.0
210
0.0
220
0.0
230
1.0
 40
0.5299192739
 41
6.253218980753601
 42
6.272792514011463
  0
ELLIPSE
  5
189
330
6F
100
AcDbEntity
  8
K113
  6
Continuous
 62
     7
100
AcDbEllipse
 10
183.2064719389
 20
243.151893374
 30
0.0
 11
-45.98026903790291
 21
3.375366130911953E-6
 31
0.0
210
0.0
220
0.0
230
1.0
 40
0.8480480528
 41
-0.2307824180475953
 42
-0.2122587437613719
  0
ELLIPSE
  5
18A
330
6F
100
AcDbEntity
  8
K113
  6
Continuous
 62
     7
100
AcDbEllipse
 10
183.2064668919
 20
251.3572545855
 30
0.0
 11
44.78149501466815
 21
-1.328451237903039E-11
 31
0.0
210
0.0
220
0.0
230
1.0
 40
0.5299192641
 41
3.111501123843486
 42
3.171678336411556
  0
ELLIPSE
  5
18B
330
6F
100
AcDbEntity
  8
K113
  6
Continuous
 62
     7
100
AcDbEllipse
 10
183.2064670644
 20
241.7240698017
 30
0.0
 11
-45.98027183007584
 21
1.321748946186627E-7
 31
0.0
210
0.0
220
0.0
230
1.0
 40
0.8480480944
 41
-0.2307824508269398
 42
-0.2122587787801651
  0
LINE
  5
18C
330
6F
100
AcDbEntity
  8
K113
  6
Continuous
 62
     7
100
AcDbLine
 10
138.4249753451
 20
251.3665936245
 30
0.0
 11
138.2581128087
 21
251.3665936245
 31
0.0
  0
LINE
  5
18D
330
6F
100
AcDbEntity
  8
K113
  6
Continuous
 62
     7
100
AcDbLine
 10
138.4332762245
 20
250.900264672
 30
0.0
 11
138.2403523858
 21
250.900264672
 31
0.0
  0
ELLIPSE
  5
18E
330
6F
100
AcDbEntity
  8
K113
  6
Continuous
 62
     7
100
AcDbEllipse
 10
183.2064667969
 20
242.6855654042
 30
0.0
 11
-45.79761551417212
 21
-3.879703887798777E-8
 31
0.0
210
0.0
220
0.0
230
1.0
 40
0.8480480968
 41
-0.2120650366237413
 42
-0.200088250859535
  0
LINE
  5
18F
330
6F
100
AcDbEntity
  8
K113
  6
Continuous
 62
     7
100
AcDbLine
 10
137.924792317
 20
249.0459064658
 30
0.0
 11
137.8244005771
 21
249.0459064658
 31
0.0
  0
LINE
  5
190
330
6F
100
AcDbEntity
  8
K113
  6
Continuous
 62
     7
100
AcDbLine
 10
138.3800998045
 20
250.404959383
 30
0.0
 11
138.2403523858
 21
250.404959383
 31
0.0
  0
ARC
  5
191
330
6F
100
AcDbEntity
  8
K113
  6
Continuous
 62
     7
100
AcDbCircle
 10
141.5411335529
 20
259.4379127486
 30
0.0
 40
0.9999999999999996
100
AcDbArc
 50
78.7486752997
 51
157.8038991432
  0
ARC
  5
192
330
6F
100
AcDbEntity
  8
K113
  6
Continuous
 62
     7
100
AcDbCircle
 10
141.5411335529
 20
225.4379127486
 30
0.0
 40
1.000000000000005
100
AcDbArc
 50
202.1961008568
 51
281.2513247003
  0
LINE
  5
193
330
6F
100
AcDbEntity
  8
K113
  6
Continuous
 62
     7
100
AcDbLine
 10
141.736246551
 20
224.457131979
 30
0.0
 11
154.2064668649
 21
226.9379127486
 31
0.0
  0
LINE
  5
194
330
6F
100
AcDbEntity
  8
K113
  6
Continuous
 62
     7
100
AcDbLine
 10
154.2064668649
 20
257.9379127486
 30
0.0
 11
141.736246551
 21
260.4186935182
 31
0.0
  0
LINE
  5
195
330
6F
100
AcDbEntity
  8
K113
  6
Continuous
 62
     7
100
AcDbLine
 10
138.2343179018
 20
235.9777864968
 30
0.0
 11
138.4268619368
 21
235.9777864968
 31
0.0
  0
LINE
  5
196
330
6F
100
AcDbEntity
  8
K113
  6
Continuous
 62
     7
100
AcDbLine
 10
137.9846856849
 20
235.0671946367
 30
0.0
 11
138.1881370201
 21
235.0671946367
 31
0.0
  0
LINE
  5
197
330
6F
100
AcDbEntity
  8
K113
  6
Continuous
 62
     7
100
AcDbLine
 10
138.2149905979
 20
234.0260022876
 30
0.0
 11
138.4194917674
 21
234.0260022876
 31
0.0
  0
LINE
  5
198
330
6F
100
AcDbEntity
  8
K113
  6
Continuous
 62
     7
100
AcDbLine
 10
138.3703214436
 20
252.1388690104
 30
0.0
 11
138.2665140213
 21
252.1388690104
 31
0.0
  0
LINE
  5
199
330
6F
100
AcDbEntity
  8
K113
  6
Continuous
 62
     7
100
AcDbLine
 10
137.9700402347
 20
250.4500790408
 30
0.0
 11
138.0385983066
 21
250.4500790408
 31
0.0
  0
ARC
  5
19A
330
6F
100
AcDbEntity
  8
K113
  6
Continuous
 62
     7
100
AcDbCircle
 10
183.2064668649
 20
242.4379127486
 30
0.0
 40
45.99999999999999
100
AcDbArc
 50
170.4847208694
 51
177.508093631
  0
ARC
  5
19B
330
6F
100
AcDbEntity
  8
K113
  6
Continuous
 62
     7
100
AcDbCircle
 10
183.2064668649
 20
242.4379127486
 30
0.0
 40
46.0
100
AcDbArc
 50
157.8038991432
 51
170.0524900249
  0
ARC
  5
19C
330
6F
100
AcDbEntity
  8
K113
  6
Continuous
 62
     7
100
AcDbCircle
 10
183.2064668649
 20
242.4379127486
 30
0.0
 40
46.00000000000001
100
AcDbArc
 50
189.9475099751
 51
202.1961008568
  0
ARC
  5
19D
330
6F
100
AcDbEntity
  8
K113
  6
Continuous
 62
     7
100
AcDbCircle
 10
183.2064668649
 20
242.4379127486
 30
0.0
 40
46.00000000000001
100
AcDbArc
 50
182.491906369
 51
189.5152791306
  0
LINE
  5
19E
330
6F
100
AcDbEntity
  8
K113
  6
Continuous
 62
     7
100
AcDbLine
 10
138.4175781934
 20
248.8579583802
 30
0.0
 11
138.2239828926
 21
248.8579583802
 31
0.0
  0
LINE
  5
19F
330
6F
100
AcDbEntity
  8
K113
  6
Continuous
 62
     7
100
AcDbLine
 10
137.9819247692
 20
247.0910595685
 30
0.0
 11
138.185373068
 21
247.0910595685
 31
0.0
  0
LINE
  5
1A2
330
6F
100
AcDbEntity
  8
DV1_Défaut
  6
CENTER2
 62
     7
100
AcDbLine
 10
221.3197773304
 20
242.4379127486
 30
0.0
 11
255.7240522901
 21
242.4379127486
 31
0.0
  0
LINE
  5
1A3
330
6F
100
AcDbEntity
  8
DV1_Défaut
  6
CENTER2
 62
     7
100
AcDbLine
 10
163.420704192
 20
186.915389689
 30
0.0
 11
176.1073490787
 21
215.410060642
 31
0.0
  0
ENDBLK
  5
1A5
330
6F
100
AcDbEntity
  8
0
100
AcDbBlockEnd
  0
BLOCK
  5
1A8
330
1A7
100
AcDbEntity
  8
0
100
AcDbBlockBegin
  2
_OBLIQUE
 70
     0
 10
0.0
 20
0.0
 30
0.0
  3
_OBLIQUE
  1

  0
LINE
  5
1AA
330
1A7
100
AcDbEntity
  8
0
  6
ByBlock
 62
     0
370
    -2
100
AcDbLine
 10
-0.5
 20
-0.5
 30
0.0
 11
0.5
 21
0.5
 31
0.0
  0
ENDBLK
  5
1A9
330
1A7
100
AcDbEntity
  8
0
100
AcDbBlockEnd
  0
BLOCK
  5
1AC
330
1AB
100
AcDbEntity
  8
0
100
AcDbBlockBegin
  2
_DOT
 70
     0
 10
0.0
 20
0.0
 30
0.0
  3
_DOT
  1

  0
POLYLINE
  5
1AE
330
1AB
100
AcDbEntity
  8
0
  6
ByBlock
 62
     0
100
AcDb2dPolyline
 66
     1
 10
0.0
 20
0.0
 30
0.0
 70
     1
 40
0.5
 41
0.5
  0
VERTEX
  5
1B1
330
1AE
100
AcDbEntity
  8
0
  6
ByBlock
 62
     0
100
AcDbVertex
100
AcDb2dVertex
 10
-0.25
 20
0.0
 30
0.0
 42
1.0
  0
VERTEX
  5
1B2
330
1AE
100
AcDbEntity
  8
0
  6
ByBlock
 62
     0
100
AcDbVertex
100
AcDb2dVertex
 10
0.25
 20
0.0
 30
0.0
 42
1.0
  0
SEQEND
  5
1B0
330
1AE
100
AcDbEntity
  8
0
  6
ByBlock
 62
     0
  0
LINE
  5
1AF
330
1AB
100
AcDbEntity
  8
0
  6
ByBlock
 62
     0
370
    -2
100
AcDbLine
 10
-0.5
 20
0.0
 30
0.0
 11
-1.0
 21
0.0
 31
0.0
  0
ENDBLK
  5
1AD
330
1AB
100
AcDbEntity
  8
0
100
AcDbBlockEnd
  0
BLOCK
  5
1B6
330
1B3
100
AcDbEntity
  8
0
100
AcDbBlockBegin
  2
_SE_FILLED
 70
     0
 10
0.0
 20
0.0
 30
0.0
  3
_SE_FILLED
  1

  0
SOLID
  5
1B4
330
1B3
100
AcDbEntity
  8
0
 62
     0
100
AcDbTrace
 10
0.0
 20
0.0
 30
0.0
 11
-1.0
 21
-0.1665
 31
0.0
 12
-1.0
 22
0.1665
 32
0.0
 13
0.0
 23
0.0
 33
0.0
  0
LINE
  5
1B5
330
1B3
100
AcDbEntity
  8
0
 62
     0
100
AcDbLine
 10
0.0
 20
0.0
 30
0.0
 11
-1.0
 21
0.0
 31
0.0
  0
ENDBLK
  5
1B7
330
1B3
100
AcDbEntity
  8
0
100
AcDbBlockEnd
  0
BLOCK
  5
1C1
330
1BA
100
AcDbEntity
  8
0
100
AcDbBlockBegin
  2
DMBLK1
 70
     0
 10
0.0
 20
0.0
 30
0.0
  3
DMBLK1
  1

  0
HATCH
  5
1BB
330
1BA
100
AcDbEntity
  8
Défaut
  6
Continuous
 62
     7
100
AcDbHatch
 10
0.0
 20
0.0
 30
0.0
210
0.0
220
0.0
230
1.0
  2
SOLID
 70
     1
 71
     0
 91
        1
 92
        1
 93
        3
 72
     1
 10
270.2764930651053
 20
234.9379129162513
 11
269.026493093045
 21
242.4379127486133
 72
     1
 10
269.026493093045
 20
242.4379127486133
 11
267.7764931209846
 21
234.9379129162513
 72
     1
 10
267.7764931209846
 20
234.9379129162513
 11
270.2764930651053
 21
234.9379129162513
 97
        0
 75
     0
 76
     1
 98
        0
  0
HATCH
  5
1BC
330
1BA
100
AcDbEntity
  8
Défaut
  6
Continuous
 62
     7
100
AcDbHatch
 10
0.0
 20
0.0
 30
0.0
210
0.0
220
0.0
230
1.0
  2
SOLID
 70
     1
 71
     0
 91
        1
 92
        1
 93
        3
 72
     1
 10
270.2764930651053
 20
204.4811380481802
 11
267.7764931209846
 21
204.4811380481802
 72
     1
 10
267.7764931209846
 20
204.4811380481802
 11
269.026493093045
 21
196.9811382158183
 72
     1
 10
269.026493093045
 20
196.9811382158183
 11
270.2764930651053
 21
204.4811380481802
 97
        0
 75
     0
 76
     1
 98
        0
  0
LINE
  5
1BD
330
1BA
100
AcDbEntity
  8
Défaut
  6
Continuous
 62
     7
100
AcDbLine
 10
255.7240514067
 20
242.4379127486
 30
0.0
 11
270.5264931061
 21
242.4379127486
 31
0.0
  0
LINE
  5
1BE
330
1BA
100
AcDbEntity
  8
Défaut
  6
Continuous
 62
     7
100
AcDbLine
 10
167.9022649783
 20
196.9811400191
 30
0.0
 11
270.5264931061
 21
196.9811400191
 31
0.0
  0
LINE
  5
1BF
330
1BA
100
AcDbEntity
  8
Défaut
  6
Continuous
 62
     7
100
AcDbLine
 10
269.026493093
 20
242.4379127486
 30
0.0
 11
269.026493093
 21
196.9811382158
 31
0.0
  0
TEXT
  5
1C0
330
1BA
100
AcDbEntity
  8
Défaut
  6
Continuous
 62
     7
100
AcDbText
 10
266.526493093
 20
215.796482004
 30
0.0
 40
5.0
  1
45
 50
90.0
  7
SEACAD_arial_ttfB
 11
261.526493093
 21
215.796482004
 31
0.0
100
AcDbText
 73
     3
  0
ENDBLK
  5
1C2
330
1BA
100
AcDbEntity
  8
0
100
AcDbBlockEnd
  0
BLOCK
  5
1CB
330
1C4
100
AcDbEntity
  8
0
100
AcDbBlockBegin
  2
DMBLK2
 70
     0
 10
0.0
 20
0.0
 30
0.0
  3
DMBLK2
  1

  0
HATCH
  5
1C5
330
1C4
100
AcDbEntity
  8
Défaut
  6
Continuous
 62
     7
100
AcDbHatch
 10
0.0
 20
0.0
 30
0.0
210
0.0
220
0.0
230
1.0
  2
SOLID
 70
     1
 71
     0
 91
        1
 92
        1
 93
        3
 72
     1
 10
225.6056334675643
 20
155.1111630345219
 11
233.1056332999263
 21
156.3611630065822
 72
     1
 10
233.1056332999263
 20
156.3611630065822
 11
225.6056334675643
 21
157.6111629786425
 72
     1
 10
225.6056334675643
 20
157.6111629786425
 11
225.6056334675643
 21
155.1111630345219
 97
        0
 75
     0
 76
     1
 98
        0
  0
HATCH
  5
1C6
330
1C4
100
AcDbEntity
  8
Défaut
  6
Continuous
 62
     7
100
AcDbHatch
 10
0.0
 20
0.0
 30
0.0
210
0.0
220
0.0
230
1.0
  2
SOLID
 70
     1
 71
     0
 91
        1
 92
        1
 93
        3
 72
     1
 10
144.2047985122893
 20
155.1111630345219
 11
144.2047985122893
 21
157.6111629786425
 72
     1
 10
144.2047985122893
 20
157.6111629786425
 11
136.7047986799273
 21
156.3611630065822
 72
     1
 10
136.7047986799273
 20
156.3611630065822
 11
144.2047985122893
 21
155.1111630345219
 97
        0
 75
     0
 76
     1
 98
        0
  0
LINE
  5
1C7
330
1C4
100
AcDbEntity
  8
Défaut
  6
Continuous
 62
     7
100
AcDbLine
 10
233.1056332999
 20
226.9379127486
 30
0.0
 11
233.1056332999
 21
154.8611629935
 31
0.0
  0
LINE
  5
1C8
330
1C4
100
AcDbEntity
  8
Défaut
  6
Continuous
 62
     7
100
AcDbLine
 10
136.704799735
 20
242.4379127486
 30
0.0
 11
136.704799735
 21
154.8611629935
 31
0.0
  0
LINE
  5
1C9
330
1C4
100
AcDbEntity
  8
Défaut
  6
Continuous
 62
     7
100
AcDbLine
 10
233.1056332999
 20
156.3611630066
 30
0.0
 11
136.7047986799
 21
156.3611630066
 31
0.0
  0
TEXT
  5
1CA
330
1C4
100
AcDbEntity
  8
Défaut
  6
Continuous
 62
     7
100
AcDbText
 10
180.9921725117
 20
158.8611630066
 30
0.0
 40
5.0
  1
96
  7
SEACAD_arial_ttfB
 11
180.9921725117
 21
163.8611630066
 31
0.0
100
AcDbText
 73
     3
  0
ENDBLK
  5
1CC
330
1C4
100
AcDbEntity
  8
0
100
AcDbBlockEnd
  0
BLOCK
  5
1D5
330
1CE
100
AcDbEntity
  8
0
100
AcDbBlockBegin
  2
DMBLK3
 70
     0
 10
0.0
 20
0.0
 30
0.0
  3
DMBLK3
  1

  0
HATCH
  5
1CF
330
1CE
100
AcDbEntity
  8
Défaut
  6
Continuous
 62
     7
100
AcDbHatch
 10
0.0
 20
0.0
 30
0.0
210
0.0
220
0.0
230
1.0
  2
SOLID
 70
     1
 71
     0
 91
        1
 92
        1
 93
        3
 72
     1
 10
175.402264810669
 20
167.9778018292895
 11
175.402264810669
 21
170.4778017734102
 72
     1
 10
175.402264810669
 20
170.4778017734102
 11
167.902264978307
 21
169.2278018013499
 72
     1
 10
167.902264978307
 20
169.2278018013499
 11
175.402264810669
 21
167.9778018292895
 97
        0
 75
     0
 76
     1
 98
        0
  0
HATCH
  5
1D0
330
1CE
100
AcDbEntity
  8
Défaut
  6
Continuous
 62
     7
100
AcDbHatch
 10
0.0
 20
0.0
 30
0.0
210
0.0
220
0.0
230
1.0
  2
SOLID
 70
     1
 71
     0
 91
        1
 92
        1
 93
        3
 72
     1
 10
225.605633809733
 20
167.9778018292895
 11
233.1056336420949
 21
169.2278018013499
 72
     1
 10
233.1056336420949
 20
169.2278018013499
 11
225.605633809733
 21
170.4778017734102
 72
     1
 10
225.605633809733
 20
170.4778017734102
 11
225.605633809733
 21
167.9778018292895
 97
        0
 75
     0
 76
     1
 98
        0
  0
LINE
  5
1D1
330
1CE
100
AcDbEntity
  8
Défaut
  6
Continuous
 62
     7
100
AcDbLine
 10
167.9022649783
 20
196.9811400191
 30
0.0
 11
167.9022649783
 21
167.7278017883
 31
0.0
  0
LINE
  5
1D2
330
1CE
100
AcDbEntity
  8
Défaut
  6
Continuous
 62
     7
100
AcDbLine
 10
233.1056332999
 20
226.9379127486
 30
0.0
 11
233.1056332999
 21
167.7278017883
 31
0.0
  0
LINE
  5
1D3
330
1CE
100
AcDbEntity
  8
Défaut
  6
Continuous
 62
     7
100
AcDbLine
 10
167.9022649783
 20
169.2278018013
 30
0.0
 11
233.1056336421
 21
169.2278018013
 31
0.0
  0
TEXT
  5
1D4
330
1CE
100
AcDbEntity
  8
Défaut
  6
Continuous
 62
     7
100
AcDbText
 10
196.5909058319
 20
171.7278018013
 30
0.0
 40
5.0
  1
65
  7
SEACAD_arial_ttfB
 11
196.5909058319
 21
176.7278018013
 31
0.0
100
AcDbText
 73
     3
  0
ENDBLK
  5
1D6
330
1CE
100
AcDbEntity
  8
0
100
AcDbBlockEnd
  0
BLOCK
  5
1DF
330
1D8
100
AcDbEntity
  8
0
100
AcDbBlockBegin
  2
DMBLK4
 70
     0
 10
0.0
 20
0.0
 30
0.0
  3
DMBLK4
  1

  0
HATCH
  5
1D9
330
1D8
100
AcDbEntity
  8
Défaut
  6
Continuous
 62
     7
100
AcDbHatch
 10
0.0
 20
0.0
 30
0.0
210
0.0
220
0.0
230
1.0
  2
SOLID
 70
     1
 71
     0
 91
        1
 92
        1
 93
        3
 72
     1
 10
225.6056334675643
 20
167.9778016353482
 11
233.1056332999263
 21
169.2278016074085
 72
     1
 10
233.1056332999263
 20
169.2278016074085
 11
225.6056334675643
 21
170.4778015794688
 72
     1
 10
225.6056334675643
 20
170.4778015794688
 11
225.6056334675643
 21
167.9778016353482
 97
        0
 75
     0
 76
     1
 98
        0
  0
HATCH
  5
1DA
330
1D8
100
AcDbEntity
  8
Défaut
  6
Continuous
 62
     7
100
AcDbHatch
 10
0.0
 20
0.0
 30
0.0
210
0.0
220
0.0
230
1.0
  2
SOLID
 70
     1
 71
     0
 91
        1
 92
        1
 93
        3
 72
     1
 10
255.6056331322882
 20
167.9778016353482
 11
255.6056331322882
 21
170.4778015794688
 72
     1
 10
255.6056331322882
 20
170.4778015794688
 11
248.1056332999262
 21
169.2278016074085
 72
     1
 10
248.1056332999262
 20
169.2278016074085
 11
255.6056331322882
 21
167.9778016353482
 97
        0
 75
     0
 76
     1
 98
        0
  0
LINE
  5
1DB
330
1D8
100
AcDbEntity
  8
Défaut
  6
Continuous
 62
     7
100
AcDbLine
 10
233.1056332999
 20
226.9379127486
 30
0.0
 11
233.1056332999
 21
167.7278015944
 31
0.0
  0
LINE
  5
1DC
330
1D8
100
AcDbEntity
  8
Défaut
  6
Continuous
 62
     7
100
AcDbLine
 10
248.1056332999
 20
233.6879127486
 30
0.0
 11
248.1056332999
 21
167.7278015944
 31
0.0
  0
LINE
  5
1DD
330
1D8
100
AcDbEntity
  8
Défaut
  6
Continuous
 62
     7
100
AcDbLine
 10
218.1056336352
 20
169.2278016074
 30
0.0
 11
271.2570725792
 21
169.2278016074
 31
0.0
  0
TEXT
  5
1DE
330
1D8
100
AcDbEntity
  8
Défaut
  6
Continuous
 62
     7
100
AcDbText
 10
261.6809849405
 20
171.7278016074
 30
0.0
 40
5.0
  1
15
  7
SEACAD_arial_ttfB
 11
261.6809849405
 21
176.7278016074
 31
0.0
100
AcDbText
 73
     3
  0
ENDBLK
  5
1E0
330
1D8
100
AcDbEntity
  8
0
100
AcDbBlockEnd
  0
BLOCK
  5
1EA
330
1E2
100
AcDbEntity
  8
0
100
AcDbBlockBegin
  2
DMBLK5
 70
     0
 10
0.0
 20
0.0
 30
0.0
  3
DMBLK5
  1

  0
HATCH
  5
1E3
330
1E2
100
AcDbEntity
  8
Défaut
  6
Continuous
 62
     7
100
AcDbHatch
 10
0.0
 20
0.0
 30
0.0
210
0.0
220
0.0
230
1.0
  2
SOLID
 70
     1
 71
     0
 91
        1
 92
        1
 93
        3
 72
     1
 10
152.835042128441
 20
181.82922881859
 11
159.7142460777721
 21
178.5905484640185
 72
     1
 10
159.7142460777721
 20
178.5905484640185
 11
154.2572738082659
 21
183.8852581883962
 72
     1
 10
154.2572738082659
 20
183.8852581883962
 11
152.835042128441
 21
181.82922881859
 97
        0
 75
     0
 76
     1
 98
        0
  0
HATCH
  5
1E4
330
1E2
100
AcDbEntity
  8
Défaut
  6
Continuous
 62
     7
100
AcDbHatch
 10
0.0
 20
0.0
 30
0.0
210
0.0
220
0.0
230
1.0
  2
SOLID
 70
     1
 71
     0
 91
        1
 92
        1
 93
        3
 72
     1
 10
175.0410096670009
 20
179.4675387553954
 11
167.902264978307
 21
176.8501313195488
 72
     1
 10
167.902264978307
 20
176.8501313195488
 11
175.5040204738326
 21
177.0107887246922
 72
     1
 10
175.5040204738326
 20
177.0107887246922
 11
175.0410096670009
 21
179.4675387553954
 97
        0
 75
     0
 76
     1
 98
        0
  0
LINE
  5
1E5
330
1E2
100
AcDbEntity
  8
Défaut
  6
Continuous
 62
     7
100
AcDbLine
 10
163.4207040547
 20
186.9153893807
 30
0.0
 11
159.1041413919
 21
177.2202309038
 31
0.0
  0
LINE
  5
1E6
330
1E2
100
AcDbEntity
  8
Défaut
  6
Continuous
 62
     7
100
AcDbLine
 10
167.9022649783
 20
196.9811400191
 30
0.0
 11
167.9022649783
 21
175.350132005
 31
0.0
  0
ARC
  5
1E7
330
1E2
100
AcDbEntity
  8
Défaut
  6
Continuous
 62
     7
100
AcDbCircle
 10
167.9022649783
 20
196.9811400191
 30
0.0
 40
20.13100869953636
100
AcDbArc
 50
203.3078172144
 51
270.0000006668
  0
ARC
  5
1E8
330
1E2
100
AcDbEntity
  8
Défaut
  6
Continuous
 62
     7
100
AcDbCircle
 10
167.9022649783
 20
196.9811400191
 30
0.0
 40
20.13100869953616
100
AcDbArc
 50
270.0
 51
304.4260863604
  0
TEXT
  5
1E9
330
1E2
100
AcDbEntity
  8
Défaut
  6
Continuous
 62
     7
100
AcDbText
 10
179.3133238369
 20
183.4274429777
 30
0.0
 40
5.0
  1
24°
 50
34.4260863604
  7
SEACAD_arial_ttfB
 11
176.4866107711
 21
187.5517239143
 31
0.0
100
AcDbText
 73
     3
  0
ENDBLK
  5
1EB
330
1E2
100
AcDbEntity
  8
0
100
AcDbBlockEnd
  0
BLOCK
  5
34A
330
1EC
100
AcDbEntity
  8
0
100
AcDbBlockBegin
  2
SE1
 70
     0
 10
0.0
 20
0.0
 30
0.0
  3
SE1
  1

  0
SPLINE
  5
1EE
330
1EC
100
AcDbEntity
  8
F405
  6
Continuous
 62
     7
100
AcDbSpline
210
0.0
220
0.0
230
1.0
 70
     8
 71
     3
 72
    14
 73
    10
 74
     0
 42
0.0000000010125192
 43
0.0000000001
 40
0.0
 40
0.0
 40
0.0
 40
0.0
 40
0.25
 40
0.25
 40
0.5
 40
0.5
 40
0.75
 40
0.75
 40
1.0
 40
1.0
 40
1.0
 40
1.0
 10
298.0160494325269
 20
200.4384014859361
 30
0.0
 10
299.1288974379695
 20
200.4384014859362
 30
0.0
 10
300.2409064495808
 20
200.3484182239147
 30
0.0
 10
302.2968107656795
 20
200.0020480298905
 30
0.0
 10
303.2396965523137
 20
199.7457973797685
 30
0.0
 10
304.8132175929114
 20
199.1057887139066
 30
0.0
 10
305.4432337335381
 20
198.7222825142472
 30
0.0
 10
306.2948171842076
 20
197.8860708942321
 30
0.0
 10
306.5160494325269
 20
197.4337760817793
 30
0.0
 10
306.5160494322407
 20
196.9811400190852
 30
0.0
  0
LINE
  5
1EF
330
1EC
100
AcDbEntity
  8
F405
  6
Continuous
 62
     7
100
AcDbLine
 10
306.5160494325
 20
196.9811400198
 30
0.0
 11
308.4277128463
 21
205.2660977361
 31
0.0
  0
LINE
  5
1F0
330
1EC
100
AcDbEntity
  8
F405
  6
Continuous
 62
     7
100
AcDbLine
 10
308.4277128463
 20
205.2660977361
 30
0.0
 11
310.405783241
 21
213.8375502018
 31
0.0
  0
LINE
  5
1F1
330
1EC
100
AcDbEntity
  8
F405
  6
Continuous
 62
     7
100
AcDbLine
 10
310.405783241
 20
213.8375502018
 30
0.0
 11
312.4621843059
 21
222.7348067175
 31
0.0
  0
LINE
  5
1F2
330
1EC
100
AcDbEntity
  8
F405
  6
Continuous
 62
     7
100
AcDbLine
 10
312.4621843059
 20
222.7348067175
 30
0.0
 11
313.9957547469
 21
229.3787298313
 31
0.0
  0
LINE
  5
1F3
330
1EC
100
AcDbEntity
  8
F405
  6
Continuous
 62
     7
100
AcDbLine
 10
313.9957547469
 20
229.3787298313
 30
0.0
 11
315.5134027486
 21
235.9675297486
 31
0.0
  0
SPLINE
  5
1F4
330
1EC
100
AcDbEntity
  8
F405
  6
Continuous
 62
     7
100
AcDbSpline
210
0.0
220
0.0
230
1.0
 70
    12
 71
     3
 72
    11
 73
     7
 74
     0
 42
0.0000000015350961
 43
0.0000000001
 40
0.0
 40
0.0
 40
0.0
 40
0.0
 40
0.0025183636058395
 40
0.113349656538524
 40
0.335012242403893
 40
0.4193091778197541
 40
0.4193091778197541
 40
0.4193091778197541
 40
0.4193091778197541
 10
315.5134027501888
 20
235.9675297470386
 30
0.0
 41
0.6434053563383547
 10
315.5146559537982
 20
235.9729015050412
 30
0.0
 41
0.6432662265285018
 10
315.5715833088692
 20
236.2168998401447
 30
0.0
 41
0.6370035433454722
 10
315.7403306930361
 20
236.9379926205347
 30
0.0
 41
0.6184539488697758
 10
315.9479374962783
 20
237.8162897739661
 30
0.0
 41
0.5976862539020887
 10
316.084158921207
 20
238.4532078203954
 30
0.0
 41
0.584566918495895
 10
316.1203185860892
 20
238.6305801634143
 30
0.0
 41
0.5810264479970811
  0
SPLINE
  5
1F5
330
1EC
100
AcDbEntity
  8
F405
  6
Continuous
 62
     7
100
AcDbSpline
210
0.0
220
0.0
230
1.0
 70
    12
 71
     3
 72
     9
 73
     5
 74
     0
 42
0.0000000015381839
 43
0.0000000001
 40
0.5530633230797427
 40
0.5530633230797427
 40
0.5530633230797427
 40
0.5530633230797427
 40
0.5566748282692621
 40
0.592311777443269
 40
0.592311777443269
 40
0.592311777443269
 40
0.592311777443269
 10
316.2774970767305
 20
239.4826040730278
 30
0.0
 41
0.5643847383330154
 10
316.2787459302759
 20
239.490319372287
 30
0.0
 41
0.5642337218356507
 10
316.2922949474888
 20
239.5743872062356
 30
0.0
 41
0.5625912494519371
 10
316.3051967271537
 20
239.6584524700652
 30
0.0
 41
0.5609340239586251
 10
316.3163875211083
 20
239.7347795275058
 30
0.0
 41
0.5594157875055783
  0
ARC
  5
1F6
330
1EC
100
AcDbEntity
  8
F405
  6
Continuous
 62
     7
100
AcDbCircle
 10
298.0160494325
 20
242.4379127486
 30
0.0
 40
18.50000000000012
100
AcDbArc
 50
348.1212869868
 51
349.1329590029
  0
ARC
  5
1F7
330
1EC
100
AcDbEntity
  8
F405
  6
Continuous
 62
     7
100
AcDbCircle
 10
298.0160494325
 20
242.4379127486
 30
0.0
 40
18.50000000000012
100
AcDbArc
 50
353.3272250688
 51
353.5582379808
  0
ARC
  5
1F8
330
1EC
100
AcDbEntity
  8
F405
  6
Continuous
 62
     7
100
AcDbCircle
 10
298.1077584628
 20
212.4121259098
 30
0.0
 40
18.88846999448008
100
AcDbArc
 50
269.7218111883
 51
282.7178256116
  0
ARC
  5
1F9
330
1EC
100
AcDbEntity
  8
F405
  6
Continuous
 62
     7
100
AcDbCircle
 10
300.4386288351
 20
202.9372780362
 30
0.0
 40
9.134867349731987
100
AcDbArc
 50
281.5398212913
 51
302.7269325438
  0
SPLINE
  5
1FA
330
1EC
100
AcDbEntity
  8
F405
  6
Continuous
 62
     7
100
AcDbSpline
210
0.0
220
0.0
230
1.0
 70
     8
 71
     2
 72
     8
 73
     5
 74
     0
 42
0.000000004561005
 43
0.0000000001
 40
0.0
 40
0.0
 40
0.0
 40
0.5
 40
0.5
 40
1.0
 40
1.0
 40
1.0
 10
305.3772653595719
 20
195.2525092838594
 30
0.0
 10
305.9369972320772
 20
195.6468926071425
 30
0.0
 10
306.226418953995
 20
196.0863349085656
 30
0.0
 10
306.5159799224571
 20
196.5259886344163
 30
0.0
 10
306.5160494322407
 20
196.9811400190852
 30
0.0
  0
ARC
  5
1FB
330
1EC
100
AcDbEntity
  8
F405
  6
Continuous
 62
     7
100
AcDbCircle
 10
294.4356533421
 20
225.5960655148
 30
0.0
 40
18.25219495138144
100
AcDbArc
 50
347.335064546
 51
350.9809731058
  0
ARC
  5
1FC
330
1EC
100
AcDbEntity
  8
F405
  6
Continuous
 62
     7
100
AcDbCircle
 10
300.5094245389
 20
215.1607587729
 30
0.0
 40
9.98442728943507
100
AcDbArc
 50
347.0136154502
 51
352.3843442007
  0
ARC
  5
1FD
330
1EC
100
AcDbEntity
  8
F405
  6
Continuous
 62
     7
100
AcDbCircle
 10
303.2284600833
 20
205.8469003269
 30
0.0
 40
5.231592233550419
100
AcDbArc
 50
346.7710550218
 51
353.6259800475
  0
SPLINE
  5
1FE
330
1EC
100
AcDbEntity
  8
F405
  6
Continuous
 62
     7
100
AcDbSpline
210
0.0
220
0.0
230
1.0
 70
     8
 71
     3
 72
    10
 73
     6
 74
     0
 42
0.000000020575308
 43
0.0000000001
 40
0.0
 40
0.0
 40
0.0
 40
0.0
 40
0.09375
 40
0.09375
 40
0.1644249326335894
 40
0.1644249326335894
 40
0.1644249326335894
 40
0.1644249326335894
 10
312.4621843074767
 20
222.7348067185207
 30
0.0
 10
312.482191450099
 20
222.7321290142287
 30
0.0
 10
312.4929961178929
 20
222.7363690552122
 30
0.0
 10
312.4969957507484
 20
222.7550473450246
 30
0.0
 10
312.4938704952201
 20
222.7667185975923
 30
0.0
 10
312.4861914128219
 20
222.7818149483292
 30
0.0
  0
ARC
  5
1FF
330
1EC
100
AcDbEntity
  8
F405
  6
Continuous
 62
     7
100
AcDbCircle
 10
308.7330173847
 20
223.9882194232
 30
0.0
 40
7.534562545389748
100
AcDbArc
 50
45.6870505094
 51
45.8471082775
  0
SPLINE
  5
200
330
1EC
100
AcDbEntity
  8
F405
  6
Continuous
 62
     7
100
AcDbSpline
210
0.0
220
0.0
230
1.0
 70
     8
 71
     3
 72
     8
 73
     4
 74
     0
 42
0.0000001141397958
 43
0.0000000001
 40
0.0
 40
0.0
 40
0.0
 40
0.0
 40
0.2979449892957877
 40
0.2979449892957877
 40
0.2979449892957877
 40
0.2979449892957877
 10
315.5134027501888
 20
235.9675297470386
 30
0.0
 10
315.5133259145834
 20
235.9527616479058
 30
0.0
 10
315.5119866274441
 20
235.9497424864827
 30
0.0
 10
315.5070065531663
 20
235.956044649725
 30
0.0
  0
ARC
  5
201
330
1EC
100
AcDbEntity
  8
F405
  6
Continuous
 62
     7
100
AcDbCircle
 10
298.0205269556
 20
242.4423902717
 30
0.0
 40
18.49552301887761
100
AcDbArc
 50
359.9861294445
 51
90.0138705555
  0
LINE
  5
202
330
1EC
100
AcDbEntity
  8
F405
  6
Continuous
 62
     7
100
AcDbLine
 10
298.0160494325
 20
260.4379127486
 30
0.0
 11
298.0160494325
 21
260.9379127486
 31
0.0
  0
ARC
  5
203
330
1EC
100
AcDbEntity
  8
F405
  6
Continuous
 62
     7
100
AcDbCircle
 10
833.435159517
 20
120.6940331858
 30
0.0
 40
530.5931605486604
100
AcDbArc
 50
167.146006546
 51
167.1836337911
  0
ARC
  5
204
330
1EC
100
AcDbEntity
  8
F405
  6
Continuous
 62
     7
100
AcDbCircle
 10
833.435159517
 20
120.6940331858
 30
0.0
 40
530.5931605486604
100
AcDbArc
 50
167.1844270989
 51
167.247288021
  0
ARC
  5
205
330
1EC
100
AcDbEntity
  8
F405
  6
Continuous
 62
     7
100
AcDbCircle
 10
298.1423599665
 20
242.4388479633
 30
0.0
 40
18.37368948981845
100
AcDbArc
 50
348.3661899735
 51
359.9970836638
  0
LINE
  5
206
330
1EC
100
AcDbEntity
  8
F405
  6
Continuous
 62
     7
100
AcDbLine
 10
316.5160494325
 20
242.4379127486
 30
0.0
 11
316.0066891332
 21
242.4379127486
 31
0.0
  0
LINE
  5
207
330
1EC
100
AcDbEntity
  8
F405
  6
Continuous
 62
     7
100
AcDbLine
 10
316.1385881648
 20
238.7336845251
 30
0.0
 11
315.6436518332
 21
238.8356725533
 31
0.0
  0
ARC
  5
208
330
1EC
100
AcDbEntity
  8
F405
  6
Continuous
 62
     7
100
AcDbCircle
 10
-237.4030606519
 20
120.6940331858
 30
0.0
 40
530.5931605486604
100
AcDbArc
 50
12.752711979
 51
12.853993454
  0
SPLINE
  5
209
330
1EC
100
AcDbEntity
  8
F405
  6
Continuous
 62
     7
100
AcDbSpline
210
0.0
220
0.0
230
1.0
 70
     8
 71
     2
 72
    20
 73
    17
 74
     0
 42
0.0000000010157139
 43
0.0000000001
 40
0.0
 40
0.0
 40
0.0
 40
0.125
 40
0.125
 40
0.25
 40
0.25
 40
0.375
 40
0.375
 40
0.5
 40
0.5
 40
0.625
 40
0.625
 40
0.75
 40
0.75
 40
0.875
 40
0.875
 40
1.0
 40
1.0
 40
1.0
 10
298.0160494325269
 20
200.4384014859361
 30
0.0
 10
297.178877839247
 20
200.4383794530398
 30
0.0
 10
296.3577816953899
 20
200.3719711762916
 30
0.0
 10
295.5372197610034
 20
200.3056061051176
 30
0.0
 10
294.7632402574237
 20
200.1752331269027
 30
0.0
 10
293.990277048604
 20
200.0450313384596
 30
0.0
 10
293.2937024518603
 20
199.8557478706755
 30
0.0
 10
292.5980425112355
 20
199.6667129466695
 30
0.0
 10
292.0056417924413
 20
199.4257930468376
 30
0.0
 10
291.4140189414071
 20
199.1851894933854
 30
0.0
 10
290.9485577279553
 20
198.9018915781475
 30
0.0
 10
290.4837077009167
 20
198.6189656548858
 30
0.0
 10
290.163073406181
 20
198.3041767042396
 30
0.0
 10
289.8428601289773
 20
197.9898010957384
 30
0.0
 10
289.6793745490995
 20
197.6556182725161
 30
0.0
 10
289.5161036383872
 20
197.3218742570947
 30
0.0
 10
289.5160494328132
 20
196.9811400190852
 30
0.0
  0
ARC
  5
20A
330
1EC
100
AcDbEntity
  8
F405
  6
Continuous
 62
     7
100
AcDbCircle
 10
295.520430269
 20
215.1598119953
 30
0.0
 40
9.98207757305192
100
AcDbArc
 50
187.6119763864
 51
192.9839828066
  0
SPLINE
  5
20B
330
1EC
100
AcDbEntity
  8
F405
  6
Continuous
 62
     7
100
AcDbSpline
210
0.0
220
0.0
230
1.0
 70
     8
 71
     3
 72
    12
 73
     8
 74
     0
 42
0.0000000010950731
 43
0.0000000001
 40
0.0
 40
0.0
 40
0.0
 40
0.0
 40
0.2499999999999999
 40
0.2499999999999999
 40
0.625
 40
0.625
 40
1.0
 40
1.0
 40
1.0
 40
1.0
 10
285.6263160273251
 20
213.8375502786456
 30
0.0
 10
285.4585414182995
 20
214.5641544785454
 30
0.0
 10
285.2899486145371
 20
215.2941512483785
 30
0.0
 10
284.8662399776446
 20
217.128313913405
 30
0.0
 10
284.6099654335097
 20
218.237254112993
 30
0.0
 10
284.0924382721956
 20
220.4755461555371
 30
0.0
 10
283.8314130854145
 20
221.6039633647529
 30
0.0
 10
283.5699145575771
 20
222.7348067185207
 30
0.0
  0
ARC
  5
20C
330
1EC
100
AcDbEntity
  8
F405
  6
Continuous
 62
     7
100
AcDbCircle
 10
297.9235606366
 20
212.4049710956
 30
0.0
 40
18.88131906817657
100
AcDbArc
 50
257.2797027847
 51
270.2806604153
  0
ARC
  5
20D
330
1EC
100
AcDbEntity
  8
F405
  6
Continuous
 62
     7
100
AcDbCircle
 10
292.8036387818
 20
205.8469003269
 30
0.0
 40
5.23159223355039
100
AcDbArc
 50
186.3740199525
 51
193.2289824063
  0
LINE
  5
20E
330
1EC
100
AcDbEntity
  8
F405
  6
Continuous
 62
     7
100
AcDbLine
 10
287.6043865334
 20
205.2660978365
 30
0.0
 11
285.6263162287
 21
213.8375503188
 31
0.0
  0
SPLINE
  5
20F
330
1EC
100
AcDbEntity
  8
F405
  6
Continuous
 62
     7
100
AcDbSpline
210
0.0
220
0.0
230
1.0
 70
     8
 71
     3
 72
    12
 73
     8
 74
     0
 42
0.0000000046228694
 43
0.0000000001
 40
0.0
 40
0.0
 40
0.0
 40
0.0
 40
0.2500000000000001
 40
0.4996168589190816
 40
0.4996168589190816
 40
0.625
 40
1.0
 40
1.0
 40
1.0
 40
1.0
 10
290.6548335054819
 20
195.2525092838594
 30
0.0
 10
290.4693930447447
 20
195.3831506451094
 30
0.0
 10
290.141059085251
 20
195.6541442272911
 30
0.0
 10
289.9020375033583
 20
195.9401847720856
 30
0.0
 10
289.757942535266
 20
196.1587400428066
 30
0.0
 10
289.5893418711009
 20
196.4529463255137
 30
0.0
 10
289.5160494336423
 20
196.7548627811138
 30
0.0
 10
289.5160494328132
 20
196.9811400190852
 30
0.0
  0
SPLINE
  5
210
330
1EC
100
AcDbEntity
  8
F405
  6
Continuous
 62
     7
100
AcDbSpline
210
0.0
220
0.0
230
1.0
 70
     8
 71
     3
 72
    30
 73
    26
 74
     0
 42
0.0000000011761045
 43
0.0000000001
 40
0.0
 40
0.0
 40
0.0
 40
0.0
 40
0.000732421875
 40
0.000732421875
 40
0.00146484375
 40
0.00146484375
 40
0.0029296875
 40
0.0029296875
 40
0.005859375
 40
0.005859375
 40
0.01171875
 40
0.01171875
 40
0.0234375
 40
0.0234375
 40
0.046875
 40
0.046875
 40
0.09375
 40
0.09375
 40
0.1875
 40
0.1875
 40
0.3749999999999999
 40
0.3749999999999999
 40
0.7499999999999999
 40
0.7499999999999999
 40
1.0
 40
1.0
 40
1.0
 40
1.0
 10
289.5160494328132
 20
196.9811400190852
 30
0.0
 10
289.5155915109004
 20
196.9831238819261
 30
0.0
 10
289.5151335823128
 20
196.9851077757395
 30
0.0
 10
289.5142177112177
 20
196.9890756253259
 30
0.0
 10
289.5137597687103
 20
196.9910595810988
 30
0.0
 10
289.5123859203113
 20
196.99701154134
 30
0.0
 10
289.5114699935434
 20
197.0009796387306
 30
0.0
 10
289.5087221297622
 20
197.0128843024563
 30
0.0
 10
289.506890109271
 20
197.0208212403451
 30
0.0
 10
289.5013937141089
 20
197.0446335391419
 30
0.0
 10
289.4977290057494
 20
197.06051038518
 30
0.0
 10
289.486733547698
 20
197.1081468551355
 30
0.0
 10
289.4794014650326
 20
197.139912410894
 30
0.0
 10
289.4573998993901
 20
197.2352327360947
 30
0.0
 10
289.4427250987665
 20
197.2988111634623
 30
0.0
 10
289.3986795402803
 20
197.4896405217538
 30
0.0
 10
289.369287625803
 20
197.6169855288668
 30
0.0
 10
289.2810281676796
 20
197.9993924108637
 30
0.0
 10
289.2220769093424
 20
198.2548261464055
 30
0.0
 10
289.0448955697165
 20
199.0225792428791
 30
0.0
 10
288.9263379238134
 20
199.5363504936592
 30
0.0
 10
288.5694130808508
 20
201.0831873831257
 30
0.0
 10
288.3297939785381
 20
202.1217761589384
 30
0.0
 10
287.9279061439169
 20
203.8637669910542
 30
0.0
 10
287.7664821651016
 20
204.5634825347219
 30
0.0
 10
287.6043863618813
 20
205.2660978024674
 30
0.0
  0
ARC
  5
211
330
1EC
100
AcDbEntity
  8
F405
  6
Continuous
 62
     7
100
AcDbCircle
 10
295.5949111936
 20
202.9408212717
 30
0.0
 40
9.138627292283937
100
AcDbArc
 50
237.2774763288
 51
258.4557698362
  0
ARC
  5
212
330
1EC
100
AcDbEntity
  8
F405
  6
Continuous
 62
     7
100
AcDbCircle
 10
301.6403872223
 20
225.6121901289
 30
0.0
 40
18.29812333589713
100
AcDbArc
 50
189.0473234123
 51
192.6840439693
  0
ARC
  5
213
330
1EC
100
AcDbEntity
  8
F405
  6
Continuous
 62
     7
100
AcDbCircle
 10
288.6507784656
 20
219.1921769181
 30
0.0
 40
6.215991012456149
100
AcDbArc
 50
144.8859189509
 51
145.1138831425
  0
SPLINE
  5
214
330
1EC
100
AcDbEntity
  8
F405
  6
Continuous
 62
     7
100
AcDbSpline
210
0.0
220
0.0
230
1.0
 70
     8
 71
     3
 72
    25
 73
    21
 74
     0
 42
0.0000000014665746
 43
0.0000000001
 40
0.0
 40
0.0
 40
0.0
 40
0.0
 40
0.1874985199645318
 40
0.1874985199645318
 40
0.2812477799467977
 40
0.2812477799467977
 40
0.3749970399290637
 40
0.3749970399290637
 40
0.5624955598935955
 40
0.5624955598935955
 40
0.7499940798581274
 40
0.7499940798581274
 40
0.8437433398403933
 40
0.8437433398403933
 40
0.9374925998226592
 40
0.9374925998226592
 40
0.999992106477503
 40
0.999992106477503
 40
0.999992106477503
 40
1.0
 40
1.0
 40
1.0
 40
1.0
 10
283.5699145575771
 20
222.7348067185207
 30
0.0
 10
283.4740856747038
 20
223.1492161326657
 30
0.0
 10
283.3782086312785
 20
223.5638820420508
 30
0.0
 10
283.2343610524422
 20
224.1861695638865
 30
0.0
 10
283.1864065238804
 20
224.393646847458
 30
0.0
 10
283.0904935010491
 20
224.8086816193015
 30
0.0
 10
283.0425350067797
 20
225.0162391075733
 30
0.0
 10
282.898663633698
 20
225.6390078576106
 30
0.0
 10
282.8027548646121
 20
226.0543154045977
 30
0.0
 10
282.6110019299127
 20
226.8850591427438
 30
0.0
 10
282.5151577642991
 20
227.3004953339027
 30
0.0
 10
282.3714802016343
 20
227.9236500164553
 30
0.0
 10
282.3235977037929
 20
228.1313895543303
 30
0.0
 10
282.2278432186909
 20
228.5469687288743
 30
0.0
 10
282.1799712314303
 20
228.7548083655432
 30
0.0
 10
282.1001853985525
 20
229.101339074052
 30
0.0
 10
282.0682712820831
 20
229.2399863745385
 30
0.0
 10
282.0363559696268
 20
229.3786772073786
 30
0.0
 10
282.0363519388072
 20
229.3786947236642
 30
0.0
 10
282.0363479079875
 20
229.3787122399498
 30
0.0
 10
282.036349667695
 20
229.3787031941098
 30
0.0
  0
ARC
  5
215
330
1EC
100
AcDbEntity
  8
F405
  6
Continuous
 62
     7
100
AcDbCircle
 10
287.1362774243
 20
224.1737930423
 30
0.0
 40
7.288100195873938
100
AcDbArc
 50
134.2507963784
 51
134.416309103
  0
ARC
  5
216
330
1EC
100
AcDbEntity
  8
F405
  6
Continuous
 62
     7
100
AcDbCircle
 10
-1611.6845120438
 20
-203.346944858
 30
0.0
 40
1942.531901556186
100
AcDbArc
 50
12.8714120831
 51
13.0708411077
  0
SPLINE
  5
217
330
1EC
100
AcDbEntity
  8
F405
  6
Continuous
 62
     7
100
AcDbSpline
210
0.0
220
0.0
230
1.0
 70
     8
 71
     3
 72
     8
 73
     4
 74
     0
 42
0.0000001141348313
 43
0.0000000001
 40
0.0
 40
0.0
 40
0.0
 40
0.0
 40
0.2979829367691066
 40
0.2979829367691066
 40
0.2979829367691066
 40
0.2979829367691066
 10
280.518696114865
 20
235.9675297470386
 30
0.0
 10
280.5187729602566
 20
235.9527597669813
 30
0.0
 10
280.5201125787842
 20
235.9497417176082
 30
0.0
 10
280.5250942149117
 20
235.9560470581852
 30
0.0
  0
ARC
  5
218
330
1EC
100
AcDbEntity
  8
F405
  6
Continuous
 62
     7
100
AcDbCircle
 10
303.4218759039
 20
242.7903556642
 30
0.0
 40
23.89783667921162
100
AcDbArc
 50
190.8394610885
 51
196.5887221525
  0
ARC
  5
219
330
1EC
100
AcDbEntity
  8
F405
  6
Continuous
 62
     7
100
AcDbCircle
 10
298.0115719094
 20
242.4423902717
 30
0.0
 40
18.49552301887762
100
AcDbArc
 50
89.9861294445
 51
180.0138705555
  0
LINE
  5
21A
330
1EC
100
AcDbEntity
  8
F405
  6
Continuous
 62
     7
100
AcDbLine
 10
279.5160494325
 20
242.4379127486
 30
0.0
 11
280.0122836665
 21
242.4379127486
 31
0.0
  0
ARC
  5
21B
330
1EC
100
AcDbEntity
  8
F405
  6
Continuous
 62
     7
100
AcDbCircle
 10
297.8894446252
 20
242.4388179768
 30
0.0
 40
18.37339521495855
100
AcDbArc
 50
180.0028228727
 51
191.63390349
  0
LINE
  5
21C
330
1EC
100
AcDbEntity
  8
F405
  6
Continuous
 62
     7
100
AcDbLine
 10
279.8935107003
 20
238.7336845251
 30
0.0
 11
280.3913248247
 21
238.8362655597
 31
0.0
  0
ELLIPSE
  5
21D
330
1EC
100
AcDbEntity
  8
F405
  6
Continuous
 62
     7
100
AcDbEllipse
 10
298.0160494325
 20
197.4379127486
 30
0.0
 11
-6.500000000000049
 21
0.0
 31
0.0
210
0.0
220
0.0
230
1.0
 40
0.4067366431
 41
5.897745367549686
 42
6.283185307179586
  0
ELLIPSE
  5
21E
330
1EC
100
AcDbEntity
  8
F405
  6
Continuous
 62
     7
100
AcDbEllipse
 10
298.0160494325
 20
197.4379127486
 30
0.0
 11
-6.500000000000049
 21
0.0
 31
0.0
210
0.0
220
0.0
230
1.0
 40
0.4067366431
 41
0.0
 42
3.527032593219717
  0
ELLIPSE
  5
21F
330
1EC
100
AcDbEntity
  8
F405
  6
Continuous
 62
     7
100
AcDbEllipse
 10
298.0160494325
 20
196.9811400198
 30
0.0
 11
7.000000000000032
 21
0.0
 31
0.0
210
0.0
220
0.0
230
1.0
 40
0.4067366431
 41
0.0
 42
6.283185307179586
  0
SPLINE
  5
220
330
1EC
100
AcDbEntity
  8
F405
  6
Continuous
 62
     7
100
AcDbSpline
210
0.0
220
0.0
230
1.0
 70
     8
 71
     3
 72
    13
 73
     9
 74
     0
 42
0.0000000229891928
 43
0.0000000001
 40
0.4256576992420298
 40
0.4256576992420298
 40
0.4256576992420298
 40
0.4256576992420298
 40
0.4963873140288764
 40
0.5811785902465416
 40
0.6772975011535729
 40
0.7847621915682029
 40
0.9036017955902381
 40
1.0
 40
1.0
 40
1.0
 40
1.0
 10
315.8370464049221
 20
237.4606983793922
 30
0.0
 10
315.8371295708515
 20
237.4606959028825
 30
0.0
 10
315.8387268343452
 20
237.4663197865322
 30
0.0
 10
315.8445778704577
 20
237.4883913722789
 30
0.0
 10
315.8542541810251
 20
237.5254569342473
 30
0.0
 10
315.8676117213877
 20
237.5769495188506
 30
0.0
 10
315.8834154951739
 20
237.6380661370854
 30
0.0
 10
315.8942344439324
 20
237.679989364124
 30
0.0
 10
315.9000157490986
 20
237.7023952071317
 30
0.0
  0
ARC
  5
221
330
1EC
100
AcDbEntity
  8
F405
  6
Continuous
 62
     7
100
AcDbCircle
 10
-5453.5707351731
 20
1543.017746289
 30
0.0
 40
5915.287164567271
100
AcDbArc
 50
347.0054716157
 51
347.0917323224
  0
LINE
  5
222
330
1EC
100
AcDbEntity
  8
F405
  6
Continuous
 62
     7
100
AcDbLine
 10
308.3302103336
 20
204.6476505417
 30
0.0
 11
310.2350503421
 21
212.9180860545
 31
0.0
  0
ARC
  5
223
330
1EC
100
AcDbEntity
  8
F405
  6
Continuous
 62
     7
100
AcDbCircle
 10
-1656.1850585596
 20
655.7021286704
 30
0.0
 40
2015.631509962673
100
AcDbArc
 50
346.836189262
 51
347.0689551295
  0
ARC
  5
224
330
1EC
100
AcDbEntity
  8
F405
  6
Continuous
 62
     7
100
AcDbCircle
 10
410.0913067933
 20
201.1776800416
 30
0.0
 40
99.96794913674952
100
AcDbArc
 50
167.518922841
 51
168.2137789764
  0
ARC
  5
225
330
1EC
100
AcDbEntity
  8
F405
  6
Continuous
 62
     7
100
AcDbCircle
 10
388.4943254558
 20
209.0537879986
 30
0.0
 40
77.23835863887145
100
AcDbArc
 50
164.7290561906
 51
169.7615980062
  0
ARC
  5
226
330
1EC
100
AcDbEntity
  8
F405
  6
Continuous
 62
     7
100
AcDbCircle
 10
-913.2341964902
 20
517.9700285808
 30
0.0
 40
1260.688994510004
100
AcDbArc
 50
346.7675526769
 51
347.0736563987
  0
ARC
  5
227
330
1EC
100
AcDbEntity
  8
F405
  6
Continuous
 62
     7
100
AcDbCircle
 10
273.4626797139
 20
246.939591774
 30
0.0
 40
43.45519547284496
100
AcDbArc
 50
345.3595114285
 51
347.3767693228
  0
ARC
  5
228
330
1EC
100
AcDbEntity
  8
F405
  6
Continuous
 62
     7
100
AcDbCircle
 10
273.4626797139
 20
246.939591774
 30
0.0
 40
43.45519547284496
100
AcDbArc
 50
347.8747873436
 51
348.6762254856
  0
ARC
  5
229
330
1EC
100
AcDbEntity
  8
F405
  6
Continuous
 62
     7
100
AcDbCircle
 10
298.2314862153
 20
242.6533495314
 30
0.0
 40
18.2858323587619
100
AcDbArc
 50
6.5552748505
 51
90.6750528902
  0
SPLINE
  5
22A
330
1EC
100
AcDbEntity
  8
F405
  6
Continuous
 62
     7
100
AcDbSpline
210
0.0
220
0.0
230
1.0
 70
     8
 71
     3
 72
    14
 73
    10
 74
     0
 42
0.0000000198978364
 43
0.0000000001
 40
0.0
 40
0.0
 40
0.0
 40
0.0
 40
0.0959997856215461
 40
0.2192649519906273
 40
0.3310700097549569
 40
0.4314830238758874
 40
0.5205576884895955
 40
0.5983356377603479
 40
0.6493917461314381
 40
0.6493917461314381
 40
0.6493917461314381
 40
0.6493917461314381
 10
280.1367728912417
 20
237.6841436348888
 30
0.0
 10
280.1431617197425
 20
237.65935922439
 30
0.0
 10
280.155423129289
 20
237.6117952747744
 30
0.0
 10
280.1740416244147
 20
237.5395948606589
 30
0.0
 10
280.1906175272788
 20
237.4753703197951
 30
0.0
 10
280.2034966078616
 20
237.4255625135773
 30
0.0
 10
280.2125136506
 20
237.3908407108462
 30
0.0
 10
280.217429458983
 20
237.3721279789988
 30
0.0
 10
280.218501378887
 20
237.3683128855965
 30
0.0
 10
280.2185712621857
 20
237.3682057028557
 30
0.0
  0
ARC
  5
22B
330
1EC
100
AcDbEntity
  8
F405
  6
Continuous
 62
     7
100
AcDbCircle
 10
297.735816289
 20
242.4397339385
 30
0.0
 40
18.21976694746097
100
AcDbArc
 50
192.3743396496
 51
192.8528746536
  0
ARC
  5
22C
330
1EC
100
AcDbEntity
  8
F405
  6
Continuous
 62
     7
100
AcDbCircle
 10
6300.3813844924
 20
1600.6905155622
 30
0.0
 40
6172.611849986319
100
AcDbArc
 50
192.910065702
 51
192.9927303599
  0
LINE
  5
22D
330
1EC
100
AcDbEntity
  8
F405
  6
Continuous
 62
     7
100
AcDbLine
 10
285.7970485229
 20
212.9180860545
 30
0.0
 11
287.7018885315
 21
204.6476505417
 31
0.0
  0
ARC
  5
22E
330
1EC
100
AcDbEntity
  8
F405
  6
Continuous
 62
     7
100
AcDbCircle
 10
1404.568219805
 20
459.2677522637
 30
0.0
 40
1145.522500055407
100
AcDbArc
 50
192.8426431347
 51
193.2522124738
  0
ARC
  5
22F
330
1EC
100
AcDbEntity
  8
F405
  6
Continuous
 62
     7
100
AcDbCircle
 10
185.9407920733
 20
201.177680042
 30
0.0
 40
99.9679491351876
100
AcDbArc
 50
11.7862210236
 51
12.481077159
  0
ARC
  5
230
330
1EC
100
AcDbEntity
  8
F405
  6
Continuous
 62
     7
100
AcDbCircle
 10
207.1652185023
 20
208.9694554889
 30
0.0
 40
77.6199726799335
100
AcDbArc
 50
10.250780993
 51
15.2585648102
  0
ARC
  5
231
330
1EC
100
AcDbEntity
  8
F405
  6
Continuous
 62
     7
100
AcDbCircle
 10
1855.0216500217
 20
598.2987581461
 30
0.0
 40
1615.652046843846
100
AcDbArc
 50
192.9599695578
 51
193.1988213666
  0
ARC
  5
232
330
1EC
100
AcDbEntity
  8
F405
  6
Continuous
 62
     7
100
AcDbCircle
 10
322.5694191511
 20
246.939591774
 30
0.0
 40
43.455195472844
100
AcDbArc
 50
192.3504601449
 51
194.6404885715
  0
ARC
  5
233
330
1EC
100
AcDbEntity
  8
F405
  6
Continuous
 62
     7
100
AcDbCircle
 10
297.7997504317
 20
242.6542117494
 30
0.0
 40
18.28498037970644
100
AcDbArc
 50
89.3222137158
 51
176.763770945
  0
CIRCLE
  5
234
330
1EC
100
AcDbEntity
  8
K113
  6
Continuous
 62
     7
100
AcDbCircle
 10
298.0160494325
 20
242.4379127486
 30
0.0
 40
2.000000000000028
  0
LINE
  5
235
330
1EC
100
AcDbEntity
  8
K113
  6
Continuous
 62
     7
100
AcDbLine
 10
305.712826789
 20
237.1681270205
 30
0.0
 11
306.0437913055
 21
236.9095492009
 31
0.0
  0
LINE
  5
236
330
1EC
100
AcDbEntity
  8
K113
  6
Continuous
 62
     7
100
AcDbLine
 10
305.0479123957
 20
236.3170754066
 30
0.0
 11
305.712826789
 21
237.1681270205
 31
0.0
  0
ARC
  5
237
330
1EC
100
AcDbEntity
  8
K113
  6
Continuous
 62
     7
100
AcDbCircle
 10
305.2133946539
 20
236.1877864968
 30
0.0
 40
0.2100000000000003
100
AcDbArc
 50
142.0
 51
322.0
  0
LINE
  5
238
330
1EC
100
AcDbEntity
  8
K113
  6
Continuous
 62
     7
100
AcDbLine
 10
306.0437913055
 20
236.9095492009
 30
0.0
 11
305.3788769122
 21
236.058497587
 31
0.0
  0
ARC
  5
239
330
1EC
100
AcDbEntity
  8
K113
  6
Continuous
 62
     7
100
AcDbCircle
 10
305.2133946539
 20
236.1877864968
 30
0.0
 40
1.005961479604123
100
AcDbArc
 50
142.0
 51
322.0
  0
LINE
  5
23A
330
1EC
100
AcDbEntity
  8
K113
  6
Continuous
 62
     7
100
AcDbLine
 10
305.0856005836
 20
237.6581698394
 30
0.0
 11
304.4206861903
 21
236.8071182255
 31
0.0
  0
LINE
  5
23B
330
1EC
100
AcDbEntity
  8
K113
  6
Continuous
 62
     7
100
AcDbLine
 10
304.2868839936
 20
238.2821956308
 30
0.0
 11
305.0856005836
 21
237.6581698394
 31
0.0
  0
LINE
  5
23C
330
1EC
100
AcDbEntity
  8
K113
  6
Continuous
 62
     7
100
AcDbLine
 10
304.8496222976
 20
239.0024678141
 30
0.0
 11
304.2868839936
 21
238.2821956308
 31
0.0
  0
LINE
  5
23D
330
1EC
100
AcDbEntity
  8
K113
  6
Continuous
 62
     7
100
AcDbLine
 10
307.2337558149
 20
237.1397785653
 30
0.0
 11
304.8496222976
 21
239.0024678141
 31
0.0
  0
LINE
  5
23E
330
1EC
100
AcDbEntity
  8
K113
  6
Continuous
 62
     7
100
AcDbLine
 10
306.0061031176
 20
235.5684547681
 30
0.0
 11
307.2337558149
 21
237.1397785653
 31
0.0
  0
LINE
  5
23F
330
1EC
100
AcDbEntity
  8
K113
  6
Continuous
 62
     7
100
AcDbLine
 10
302.4533629129
 20
236.3668432426
 30
0.0
 11
303.2037782698
 21
236.8357548003
 31
0.0
  0
LINE
  5
240
330
1EC
100
AcDbEntity
  8
K113
  6
Continuous
 62
     7
100
AcDbLine
 10
302.9557245486
 20
235.5628965708
 30
0.0
 11
302.4533629129
 21
236.3668432426
 31
0.0
  0
LINE
  5
241
330
1EC
100
AcDbEntity
  8
K113
  6
Continuous
 62
     7
100
AcDbLine
 10
302.216382195
 20
235.1009041935
 30
0.0
 11
302.9557245486
 21
235.5628965708
 31
0.0
  0
ARC
  5
242
330
1EC
100
AcDbEntity
  8
K113
  6
Continuous
 62
     7
100
AcDbCircle
 10
302.0988229996
 20
235.2890382331
 30
0.0
 40
0.2218435964002341
100
AcDbArc
 50
211.9999999999
 51
302.0000000002
  0
LINE
  5
243
330
1EC
100
AcDbEntity
  8
K113
  6
Continuous
 62
     7
100
AcDbLine
 10
301.5258865197
 20
235.7872916699
 30
0.0
 11
301.9106889601
 21
235.1714790377
 31
0.0
  0
LINE
  5
244
330
1EC
100
AcDbEntity
  8
K113
  6
Continuous
 62
     7
100
AcDbLine
 10
300.7770850032
 20
235.3193885516
 30
0.0
 11
301.5258865197
 21
235.7872916699
 31
0.0
  0
LINE
  5
245
330
1EC
100
AcDbEntity
  8
K113
  6
Continuous
 62
     7
100
AcDbLine
 10
301.2498311843
 20
234.5628365146
 30
0.0
 11
300.7770850032
 21
235.3193885516
 31
0.0
  0
ARC
  5
246
330
1EC
100
AcDbEntity
  8
K113
  6
Continuous
 62
     7
100
AcDbCircle
 10
301.6568942705
 20
234.8171977614
 30
0.0
 40
0.4800000000154167
100
AcDbArc
 50
212.0
 51
299.5695730507
  0
ARC
  5
247
330
1EC
100
AcDbEntity
  8
K113
  6
Continuous
 62
     7
100
AcDbCircle
 10
302.1651591434
 20
234.0038039353
 30
0.0
 40
0.4799999999999994
100
AcDbArc
 50
124.4304269477
 51
212.0000000001
  0
LINE
  5
248
330
1EC
100
AcDbEntity
  8
K113
  6
Continuous
 62
     7
100
AcDbLine
 10
302.0283487233
 20
233.3169480154
 30
0.0
 11
301.7580960572
 21
233.7494426885
 31
0.0
  0
ARC
  5
249
330
1EC
100
AcDbEntity
  8
K113
  6
Continuous
 62
     7
100
AcDbCircle
 10
302.5954939185
 20
233.671339666
 30
0.0
 40
0.6687653657838658
100
AcDbArc
 50
212.0000000001
 51
302.0
  0
LINE
  5
24A
330
1EC
100
AcDbEntity
  8
K113
  6
Continuous
 62
     7
100
AcDbLine
 10
304.8094336404
 20
234.266169069
 30
0.0
 11
302.9498855691
 21
233.1041944708
 31
0.0
  0
LINE
  5
24B
330
1EC
100
AcDbEntity
  8
K113
  6
Continuous
 62
     7
100
AcDbLine
 10
303.2037782698
 20
236.8357548003
 30
0.0
 11
304.8094336404
 21
234.266169069
 31
0.0
  0
LINE
  5
24C
330
1EC
100
AcDbEntity
  8
K113
  6
Continuous
 62
     7
100
AcDbLine
 10
302.5097340567
 20
234.3518090416
 30
0.0
 11
303.3747431148
 21
234.8923266911
 31
0.0
  0
LINE
  5
24D
330
1EC
100
AcDbEntity
  8
K113
  6
Continuous
 62
     7
100
AcDbLine
 10
303.3747431148
 20
234.8923266911
 30
0.0
 11
303.5615902815
 21
234.5933087186
 31
0.0
  0
LINE
  5
24E
330
1EC
100
AcDbEntity
  8
K113
  6
Continuous
 62
     7
100
AcDbLine
 10
303.5615902815
 20
234.5933087186
 30
0.0
 11
302.6965812234
 21
234.0527910691
 31
0.0
  0
ARC
  5
24F
330
1EC
100
AcDbEntity
  8
K113
  6
Continuous
 62
     7
100
AcDbCircle
 10
302.60315764
 20
234.2023000553
 30
0.0
 40
0.1762977677186048
100
AcDbArc
 50
122.0000000002
 51
302.0000000001
  0
LINE
  5
250
330
1EC
100
AcDbEntity
  8
K113
  6
Continuous
 62
     7
100
AcDbLine
 10
298.3589355267
 20
232.6429220621
 30
0.0
 11
298.4935429303
 21
231.8385399367
 31
0.0
  0
LINE
  5
251
330
1EC
100
AcDbEntity
  8
K113
  6
Continuous
 62
     7
100
AcDbLine
 10
300.0111793103
 20
232.9194128477
 30
0.0
 11
298.3589355267
 21
232.6429220621
 31
0.0
  0
LINE
  5
252
330
1EC
100
AcDbEntity
  8
K113
  6
Continuous
 62
     7
100
AcDbLine
 10
299.9620658155
 20
233.2129035198
 30
0.0
 11
300.0111793103
 21
232.9194128477
 31
0.0
  0
LINE
  5
253
330
1EC
100
AcDbEntity
  8
K113
  6
Continuous
 62
     7
100
AcDbLine
 10
298.4402623306
 20
232.9582409542
 30
0.0
 11
299.9620658155
 21
233.2129035198
 31
0.0
  0
LINE
  5
254
330
1EC
100
AcDbEntity
  8
K113
  6
Continuous
 62
     7
100
AcDbLine
 10
298.3038359561
 20
233.7734928211
 30
0.0
 11
298.4402623306
 21
232.9582409542
 31
0.0
  0
LINE
  5
255
330
1EC
100
AcDbEntity
  8
K113
  6
Continuous
 62
     7
100
AcDbLine
 10
299.8256394411
 20
234.0281553868
 30
0.0
 11
298.3038359561
 21
233.7734928211
 31
0.0
  0
LINE
  5
256
330
1EC
100
AcDbEntity
  8
K113
  6
Continuous
 62
     7
100
AcDbLine
 10
299.7819830012
 20
234.2890359842
 30
0.0
 11
299.8256394411
 21
234.0281553868
 31
0.0
  0
LINE
  5
257
330
1EC
100
AcDbEntity
  8
K113
  6
Continuous
 62
     7
100
AcDbLine
 10
298.097129143
 20
234.0070881436
 30
0.0
 11
299.7819830012
 21
234.2890359842
 31
0.0
  0
LINE
  5
258
330
1EC
100
AcDbEntity
  8
K113
  6
Continuous
 62
     7
100
AcDbLine
 10
297.9603735143
 20
234.8243075563
 30
0.0
 11
298.097129143
 21
234.0070881436
 31
0.0
  0
LINE
  5
259
330
1EC
100
AcDbEntity
  8
K113
  6
Continuous
 62
     7
100
AcDbLine
 10
300.5474394387
 20
235.2572339179
 30
0.0
 11
297.9603735143
 21
234.8243075563
 31
0.0
  0
LINE
  5
25A
330
1EC
100
AcDbEntity
  8
K113
  6
Continuous
 62
     7
100
AcDbLine
 10
301.0479987801
 20
232.2660092434
 30
0.0
 11
300.5474394387
 21
235.2572339179
 31
0.0
  0
LINE
  5
25B
330
1EC
100
AcDbEntity
  8
K113
  6
Continuous
 62
     7
100
AcDbLine
 10
298.4935429303
 20
231.8385399367
 30
0.0
 11
301.0479987801
 21
232.2660092434
 31
0.0
  0
ARC
  5
25C
330
1EC
100
AcDbEntity
  8
K113
  6
Continuous
 62
     7
100
AcDbCircle
 10
296.8688568927
 20
232.6985584433
 30
0.0
 40
0.6128637220008395
100
AcDbArc
 50
314.1917338769
 51
347.5193747312
  0
ARC
  5
25D
330
1EC
100
AcDbEntity
  8
K113
  6
Continuous
 62
     7
100
AcDbCircle
 10
296.535840943
 20
233.0405762412
 30
0.0
 40
1.090227022296831
100
AcDbArc
 50
257.5
 51
314.211108608
  0
LINE
  5
25E
330
1EC
100
AcDbEntity
  8
K113
  6
Continuous
 62
     7
100
AcDbLine
 10
295.3129426188
 20
232.1949890677
 30
0.0
 11
296.2998726271
 21
231.9761919524
 31
0.0
  0
ARC
  5
25F
330
1EC
100
AcDbEntity
  8
K113
  6
Continuous
 62
     7
100
AcDbCircle
 10
295.5462663491
 20
233.247444402
 30
0.0
 40
1.078008438696024
100
AcDbArc
 50
169.8585971564
 51
257.5
  0
LINE
  5
260
330
1EC
100
AcDbEntity
  8
K113
  6
Continuous
 62
     7
100
AcDbLine
 10
295.313941736
 20
233.2535083989
 30
0.0
 11
294.4851004985
 21
233.4372580775
 31
0.0
  0
ARC
  5
261
330
1EC
100
AcDbEntity
  8
K113
  6
Continuous
 62
     7
100
AcDbCircle
 10
295.5617874464
 20
233.1985623278
 30
0.0
 40
0.253863283877582
100
AcDbArc
 50
167.5
 51
257.5
  0
LINE
  5
262
330
1EC
100
AcDbEntity
  8
K113
  6
Continuous
 62
     7
100
AcDbLine
 10
296.4532249664
 20
232.7409084264
 30
0.0
 11
295.5068413752
 21
232.9507166174
 31
0.0
  0
ARC
  5
263
330
1EC
100
AcDbEntity
  8
K113
  6
Continuous
 62
     7
100
AcDbCircle
 10
296.4892971651
 20
232.9036195994
 30
0.0
 40
0.1666617212937074
100
AcDbArc
 50
257.5
 51
77.5
  0
LINE
  5
264
330
1EC
100
AcDbEntity
  8
K113
  6
Continuous
 62
     7
100
AcDbLine
 10
295.1521909322
 20
233.3707571016
 30
0.0
 11
296.5253693637
 21
233.0663307725
 31
0.0
  0
ARC
  5
265
330
1EC
100
AcDbEntity
  8
K113
  6
Continuous
 62
     7
100
AcDbCircle
 10
295.3182789706
 20
234.1199318288
 30
0.0
 40
0.767364325732961
100
AcDbArc
 50
167.5
 51
257.5
  0
LINE
  5
266
330
1EC
100
AcDbEntity
  8
K113
  6
Continuous
 62
     7
100
AcDbLine
 10
294.6159305553
 20
234.4972397108
 30
0.0
 11
294.5691042434
 21
234.2860198672
 31
0.0
  0
ARC
  5
267
330
1EC
100
AcDbEntity
  8
K113
  6
Continuous
 62
     7
100
AcDbCircle
 10
295.5395003282
 20
234.2924892215
 30
0.0
 40
0.9459935983879402
100
AcDbArc
 50
93.7174058805
 51
167.5
  0
ARC
  5
268
330
1EC
100
AcDbEntity
  8
K113
  6
Continuous
 62
     7
100
AcDbCircle
 10
295.6092362554
 20
233.23764241
 30
0.0
 40
2.003142697530468
100
AcDbArc
 50
77.4657416722
 51
93.7516642082
  0
LINE
  5
269
330
1EC
100
AcDbEntity
  8
K113
  6
Continuous
 62
     7
100
AcDbLine
 10
296.9268867068
 20
234.9973040003
 30
0.0
 11
296.0439649395
 21
235.1930430436
 31
0.0
  0
ARC
  5
26A
330
1EC
100
AcDbEntity
  8
K113
  6
Continuous
 62
     7
100
AcDbCircle
 10
296.6988136774
 20
233.9685330473
 30
0.0
 40
1.053749012098603
100
AcDbArc
 50
347.5
 51
77.5
  0
LINE
  5
26B
330
1EC
100
AcDbEntity
  8
K113
  6
Continuous
 62
     7
100
AcDbLine
 10
296.8423754472
 20
233.9367061692
 30
0.0
 11
297.7275846304
 21
233.7404600179
 31
0.0
  0
ARC
  5
26C
330
1EC
100
AcDbEntity
  8
K113
  6
Continuous
 62
     7
100
AcDbCircle
 10
296.6170606026
 20
233.9866572676
 30
0.0
 40
0.230785379619748
100
AcDbArc
 50
347.5
 51
77.5
  0
LINE
  5
26D
330
1EC
100
AcDbEntity
  8
K113
  6
Continuous
 62
     7
100
AcDbLine
 10
295.7206281099
 20
234.4217803032
 30
0.0
 11
296.6670117011
 21
234.2119721123
 31
0.0
  0
ARC
  5
26E
330
1EC
100
AcDbEntity
  8
K113
  6
Continuous
 62
     7
100
AcDbCircle
 10
295.6844135683
 20
234.2584270627
 30
0.0
 40
0.1673193778682508
100
AcDbArc
 50
77.5
 51
257.5
  0
LINE
  5
26F
330
1EC
100
AcDbEntity
  8
K113
  6
Continuous
 62
     7
100
AcDbLine
 10
296.8914840261
 20
233.8194453349
 30
0.0
 11
295.6481990268
 21
234.0950738222
 31
0.0
  0
ARC
  5
270
330
1EC
100
AcDbEntity
  8
K113
  6
Continuous
 62
     7
100
AcDbCircle
 10
296.7108104192
 20
233.00447936
 30
0.0
 40
0.8347529529534325
100
AcDbArc
 50
344.2100953244
 51
77.5
  0
LINE
  5
271
330
1EC
100
AcDbEntity
  8
K113
  6
Continuous
 62
     7
100
AcDbLine
 10
297.4672381185
 20
232.5661127926
 30
0.0
 11
297.5140647654
 21
232.7773341469
 31
0.0
  0
LINE
  5
272
330
1EC
100
AcDbEntity
  8
K113
  6
Continuous
 62
     7
100
AcDbLine
 10
291.300238624
 20
234.2324138207
 30
0.0
 11
293.5852354823
 21
232.8045893147
 31
0.0
  0
LINE
  5
273
330
1EC
100
AcDbEntity
  8
K113
  6
Continuous
 62
     7
100
AcDbLine
 10
291.7405481626
 20
234.9370563787
 30
0.0
 11
291.300238624
 21
234.2324138207
 31
0.0
  0
LINE
  5
274
330
1EC
100
AcDbEntity
  8
K113
  6
Continuous
 62
     7
100
AcDbLine
 10
292.4866085398
 20
234.4708661143
 30
0.0
 11
291.7405481626
 21
234.9370563787
 31
0.0
  0
LINE
  5
275
330
1EC
100
AcDbEntity
  8
K113
  6
Continuous
 62
     7
100
AcDbLine
 10
293.6453401503
 20
236.3252243205
 30
0.0
 11
292.4866085398
 21
234.4708661143
 31
0.0
  0
LINE
  5
276
330
1EC
100
AcDbEntity
  8
K113
  6
Continuous
 62
     7
100
AcDbLine
 10
294.4379943067
 20
235.8299190315
 30
0.0
 11
293.6453401503
 21
236.3252243205
 31
0.0
  0
LINE
  5
277
330
1EC
100
AcDbEntity
  8
K113
  6
Continuous
 62
     7
100
AcDbLine
 10
293.2792626962
 20
233.9755608253
 30
0.0
 11
294.4379943067
 21
235.8299190315
 31
0.0
  0
LINE
  5
278
330
1EC
100
AcDbEntity
  8
K113
  6
Continuous
 62
     7
100
AcDbLine
 10
294.0255450208
 20
233.5092318727
 30
0.0
 11
293.2792626962
 21
233.9755608253
 31
0.0
  0
LINE
  5
279
330
1EC
100
AcDbEntity
  8
K113
  6
Continuous
 62
     7
100
AcDbLine
 10
293.5852354823
 20
232.8045893147
 30
0.0
 11
294.0255450208
 21
233.5092318727
 31
0.0
  0
LINE
  5
27A
330
1EC
100
AcDbEntity
  8
K113
  6
Continuous
 62
     7
100
AcDbLine
 10
291.5709672575
 20
238.5052640545
 30
0.0
 11
292.6410107146
 21
237.1356708855
 31
0.0
  0
ARC
  5
27B
330
1EC
100
AcDbEntity
  8
K113
  6
Continuous
 62
     7
100
AcDbCircle
 10
290.9799591923
 20
238.043517948
 30
0.0
 40
0.7499999999999916
100
AcDbArc
 50
38.0
 51
128.0
  0
LINE
  5
27C
330
1EC
100
AcDbEntity
  8
K113
  6
Continuous
 62
     7
100
AcDbLine
 10
289.3473139853
 20
237.7197193759
 30
0.0
 11
290.5182130858
 21
238.6345260132
 31
0.0
  0
ARC
  5
27D
330
1EC
100
AcDbEntity
  8
K113
  6
Continuous
 62
     7
100
AcDbCircle
 10
289.8090600918
 20
237.1287113107
 30
0.0
 40
0.7499999999999771
100
AcDbArc
 50
128.0
 51
218.0
  0
LINE
  5
27E
330
1EC
100
AcDbEntity
  8
K113
  6
Continuous
 62
     7
100
AcDbLine
 10
290.2880954837
 20
235.2973720352
 30
0.0
 11
289.2180520266
 21
236.6669652042
 31
0.0
  0
ARC
  5
27F
330
1EC
100
AcDbEntity
  8
K113
  6
Continuous
 62
     7
100
AcDbCircle
 10
290.8791035489
 20
235.7591181417
 30
0.0
 40
0.7499999999999808
100
AcDbArc
 50
218.0
 51
308.0
  0
LINE
  5
280
330
1EC
100
AcDbEntity
  8
K113
  6
Continuous
 62
     7
100
AcDbLine
 10
292.5117487559
 20
236.0829167138
 30
0.0
 11
291.3408496554
 21
235.1681100765
 31
0.0
  0
ARC
  5
281
330
1EC
100
AcDbEntity
  8
K113
  6
Continuous
 62
     7
100
AcDbCircle
 10
292.0500026494
 20
236.673924779
 30
0.0
 40
0.7499999999999686
100
AcDbArc
 50
308.0
 51
38.0
  0
LINE
  5
282
330
1EC
100
AcDbEntity
  8
K113
  6
Continuous
 62
     7
100
AcDbLine
 10
291.7352926458
 20
236.6565146025
 30
0.0
 11
290.9721279132
 21
236.0602649663
 31
0.0
  0
ARC
  5
283
330
1EC
100
AcDbEntity
  8
K113
  6
Continuous
 62
     7
100
AcDbCircle
 10
290.8489956182
 20
236.217867117
 30
0.0
 40
0.2000000000000023
100
AcDbArc
 50
218.0
 51
308.0
  0
LINE
  5
284
330
1EC
100
AcDbEntity
  8
K113
  6
Continuous
 62
     7
100
AcDbLine
 10
290.6913934675
 20
236.0947348219
 30
0.0
 11
290.0892963436
 21
236.8653839974
 31
0.0
  0
ARC
  5
285
330
1EC
100
AcDbEntity
  8
K113
  6
Continuous
 62
     7
100
AcDbCircle
 10
290.2468984943
 20
236.9885162925
 30
0.0
 40
0.1999999999999954
100
AcDbArc
 50
128.0
 51
218.0
  0
LINE
  5
286
330
1EC
100
AcDbEntity
  8
K113
  6
Continuous
 62
     7
100
AcDbLine
 10
290.1237661992
 20
237.1461184432
 30
0.0
 11
290.8869309318
 21
237.7423680794
 31
0.0
  0
ARC
  5
287
330
1EC
100
AcDbEntity
  8
K113
  6
Continuous
 62
     7
100
AcDbCircle
 10
291.0100632269
 20
237.5847659287
 30
0.0
 40
0.2000000000000006
100
AcDbArc
 50
38.0
 51
128.0
  0
LINE
  5
288
330
1EC
100
AcDbEntity
  8
K113
  6
Continuous
 62
     7
100
AcDbLine
 10
291.1676653776
 20
237.7078982238
 30
0.0
 11
291.7697625015
 21
236.9372490483
 31
0.0
  0
ARC
  5
289
330
1EC
100
AcDbEntity
  8
K113
  6
Continuous
 62
     7
100
AcDbCircle
 10
291.6121603508
 20
236.8141167532
 30
0.0
 40
0.2000000000000079
100
AcDbArc
 50
308.0
 51
38.0
  0
LINE
  5
28A
330
1EC
100
AcDbEntity
  8
K113
  6
Continuous
 62
     7
100
AcDbLine
 10
290.319272076
 20
247.7076984767
 30
0.0
 11
289.9883075595
 21
247.9662762963
 31
0.0
  0
LINE
  5
28B
330
1EC
100
AcDbEntity
  8
K113
  6
Continuous
 62
     7
100
AcDbLine
 10
290.9841864694
 20
248.5587500906
 30
0.0
 11
290.319272076
 21
247.7076984767
 31
0.0
  0
ARC
  5
28C
330
1EC
100
AcDbEntity
  8
K113
  6
Continuous
 62
     7
100
AcDbCircle
 10
290.8187042111
 20
248.6880390004
 30
0.0
 40
0.2100000000000019
100
AcDbArc
 50
322.0
 51
142.0
  0
LINE
  5
28D
330
1EC
100
AcDbEntity
  8
K113
  6
Continuous
 62
     7
100
AcDbLine
 10
289.9883075595
 20
247.9662762963
 30
0.0
 11
290.6532219529
 21
248.8173279102
 31
0.0
  0
LINE
  5
28E
330
1EC
100
AcDbEntity
  8
K113
  6
Continuous
 62
     7
100
AcDbLine
 10
291.1824765675
 20
245.8733576831
 30
0.0
 11
291.7452148715
 21
246.5936298664
 31
0.0
  0
LINE
  5
28F
330
1EC
100
AcDbEntity
  8
K113
  6
Continuous
 62
     7
100
AcDbLine
 10
288.7983430502
 20
247.7360469319
 30
0.0
 11
291.1824765675
 21
245.8733576831
 31
0.0
  0
LINE
  5
290
330
1EC
100
AcDbEntity
  8
K113
  6
Continuous
 62
     7
100
AcDbLine
 10
290.0259957475
 20
249.3073707291
 30
0.0
 11
288.7983430502
 21
247.7360469319
 31
0.0
  0
ARC
  5
291
330
1EC
100
AcDbEntity
  8
K113
  6
Continuous
 62
     7
100
AcDbCircle
 10
290.8187042111
 20
248.6880390004
 30
0.0
 40
1.005961479604123
100
AcDbArc
 50
322.0
 51
142.0
  0
LINE
  5
292
330
1EC
100
AcDbEntity
  8
K113
  6
Continuous
 62
     7
100
AcDbLine
 10
290.9464982814
 20
247.2176556579
 30
0.0
 11
291.6114126748
 21
248.0687072718
 31
0.0
  0
LINE
  5
293
330
1EC
100
AcDbEntity
  8
K113
  6
Continuous
 62
     7
100
AcDbLine
 10
291.7452148715
 20
246.5936298664
 30
0.0
 11
290.9464982814
 21
247.2176556579
 31
0.0
  0
ARC
  5
294
330
1EC
100
AcDbEntity
  8
K113
  6
Continuous
 62
     7
100
AcDbCircle
 10
293.4366049465
 20
251.2044858312
 30
0.0
 40
0.6687653657838682
100
AcDbArc
 50
32.0
 51
122.0
  0
LINE
  5
295
330
1EC
100
AcDbEntity
  8
K113
  6
Continuous
 62
     7
100
AcDbLine
 10
294.2740028078
 20
251.1263828087
 30
0.0
 11
294.0037501418
 21
251.5588774818
 31
0.0
  0
ARC
  5
296
330
1EC
100
AcDbEntity
  8
K113
  6
Continuous
 62
     7
100
AcDbCircle
 10
293.8669397217
 20
250.8720215619
 30
0.0
 40
0.4799999999999839
100
AcDbArc
 50
304.4304269477
 51
32.0000000001
  0
ARC
  5
297
330
1EC
100
AcDbEntity
  8
K113
  6
Continuous
 62
     7
100
AcDbCircle
 10
294.3752045946
 20
250.0586277358
 30
0.0
 40
0.4800000000154143
100
AcDbArc
 50
32.0000000001
 51
119.5695730507
  0
LINE
  5
298
330
1EC
100
AcDbEntity
  8
K113
  6
Continuous
 62
     7
100
AcDbLine
 10
295.2550138618
 20
249.5564369457
 30
0.0
 11
294.7822676808
 21
250.3129889827
 31
0.0
  0
LINE
  5
299
330
1EC
100
AcDbEntity
  8
K113
  6
Continuous
 62
     7
100
AcDbLine
 10
294.5062123454
 20
249.0885338274
 30
0.0
 11
295.2550138618
 21
249.5564369457
 31
0.0
  0
LINE
  5
29A
330
1EC
100
AcDbEntity
  8
K113
  6
Continuous
 62
     7
100
AcDbLine
 10
294.121409905
 20
249.7043464595
 30
0.0
 11
294.5062123454
 21
249.0885338274
 31
0.0
  0
ARC
  5
29B
330
1EC
100
AcDbEntity
  8
K113
  6
Continuous
 62
     7
100
AcDbCircle
 10
293.9332758654
 20
249.5867872642
 30
0.0
 40
0.2218435964002367
100
AcDbArc
 50
31.9999999999
 51
122.0000000002
  0
LINE
  5
29C
330
1EC
100
AcDbEntity
  8
K113
  6
Continuous
 62
     7
100
AcDbLine
 10
293.0763743164
 20
249.3129289264
 30
0.0
 11
293.81571667
 21
249.7749213037
 31
0.0
  0
LINE
  5
29D
330
1EC
100
AcDbEntity
  8
K113
  6
Continuous
 62
     7
100
AcDbLine
 10
293.5787359522
 20
248.5089822546
 30
0.0
 11
293.0763743164
 21
249.3129289264
 31
0.0
  0
LINE
  5
29E
330
1EC
100
AcDbEntity
  8
K113
  6
Continuous
 62
     7
100
AcDbLine
 10
292.8283205953
 20
248.0400706969
 30
0.0
 11
293.5787359522
 21
248.5089822546
 31
0.0
  0
LINE
  5
29F
330
1EC
100
AcDbEntity
  8
K113
  6
Continuous
 62
     7
100
AcDbLine
 10
291.2226652246
 20
250.6096564282
 30
0.0
 11
292.8283205953
 21
248.0400706969
 31
0.0
  0
LINE
  5
2A0
330
1EC
100
AcDbEntity
  8
K113
  6
Continuous
 62
     7
100
AcDbLine
 10
293.082213296
 20
251.7716310264
 30
0.0
 11
291.2226652246
 21
250.6096564282
 31
0.0
  0
ARC
  5
2A1
330
1EC
100
AcDbEntity
  8
K113
  6
Continuous
 62
     7
100
AcDbCircle
 10
293.428941225
 20
250.6735254419
 30
0.0
 40
0.1762977677186058
100
AcDbArc
 50
302.0000000002
 51
122.0000000001
  0
LINE
  5
2A2
330
1EC
100
AcDbEntity
  8
K113
  6
Continuous
 62
     7
100
AcDbLine
 10
292.4705085836
 20
250.2825167786
 30
0.0
 11
293.3355176416
 21
250.8230344282
 31
0.0
  0
LINE
  5
2A3
330
1EC
100
AcDbEntity
  8
K113
  6
Continuous
 62
     7
100
AcDbLine
 10
292.6573557503
 20
249.9834988061
 30
0.0
 11
292.4705085836
 21
250.2825167786
 31
0.0
  0
LINE
  5
2A4
330
1EC
100
AcDbEntity
  8
K113
  6
Continuous
 62
     7
100
AcDbLine
 10
293.5223648084
 20
250.5240164556
 30
0.0
 11
292.6573557503
 21
249.9834988061
 31
0.0
  0
LINE
  5
2A5
330
1EC
100
AcDbEntity
  8
K113
  6
Continuous
 62
     7
100
AcDbLine
 10
296.0209195547
 20
251.9564126495
 30
0.0
 11
297.6731633384
 21
252.2329034351
 31
0.0
  0
LINE
  5
2A6
330
1EC
100
AcDbEntity
  8
K113
  6
Continuous
 62
     7
100
AcDbLine
 10
296.0700330495
 20
251.6629219774
 30
0.0
 11
296.0209195547
 21
251.9564126495
 31
0.0
  0
LINE
  5
2A7
330
1EC
100
AcDbEntity
  8
K113
  6
Continuous
 62
     7
100
AcDbLine
 10
297.5918365345
 20
251.9175845431
 30
0.0
 11
296.0700330495
 21
251.6629219774
 31
0.0
  0
LINE
  5
2A8
330
1EC
100
AcDbEntity
  8
K113
  6
Continuous
 62
     7
100
AcDbLine
 10
297.7282629089
 20
251.1023326761
 30
0.0
 11
297.5918365345
 21
251.9175845431
 31
0.0
  0
LINE
  5
2A9
330
1EC
100
AcDbEntity
  8
K113
  6
Continuous
 62
     7
100
AcDbLine
 10
296.206459424
 20
250.8476701105
 30
0.0
 11
297.7282629089
 21
251.1023326761
 31
0.0
  0
LINE
  5
2AA
330
1EC
100
AcDbEntity
  8
K113
  6
Continuous
 62
     7
100
AcDbLine
 10
296.2501158638
 20
250.586789513
 30
0.0
 11
296.206459424
 21
250.8476701105
 31
0.0
  0
LINE
  5
2AB
330
1EC
100
AcDbEntity
  8
K113
  6
Continuous
 62
     7
100
AcDbLine
 10
297.9349697221
 20
250.8687373536
 30
0.0
 11
296.2501158638
 21
250.586789513
 31
0.0
  0
LINE
  5
2AC
330
1EC
100
AcDbEntity
  8
K113
  6
Continuous
 62
     7
100
AcDbLine
 10
298.0717253508
 20
250.051517941
 30
0.0
 11
297.9349697221
 21
250.8687373536
 31
0.0
  0
LINE
  5
2AD
330
1EC
100
AcDbEntity
  8
K113
  6
Continuous
 62
     7
100
AcDbLine
 10
295.4846594264
 20
249.6185915793
 30
0.0
 11
298.0717253508
 21
250.051517941
 31
0.0
  0
LINE
  5
2AE
330
1EC
100
AcDbEntity
  8
K113
  6
Continuous
 62
     7
100
AcDbLine
 10
294.984100085
 20
252.6098162538
 30
0.0
 11
295.4846594264
 21
249.6185915793
 31
0.0
  0
LINE
  5
2AF
330
1EC
100
AcDbEntity
  8
K113
  6
Continuous
 62
     7
100
AcDbLine
 10
297.5385559348
 20
253.0372855605
 30
0.0
 11
294.984100085
 21
252.6098162538
 31
0.0
  0
LINE
  5
2B0
330
1EC
100
AcDbEntity
  8
K113
  6
Continuous
 62
     7
100
AcDbLine
 10
297.6731633384
 20
252.2329034351
 30
0.0
 11
297.5385559348
 21
253.0372855605
 31
0.0
  0
ARC
  5
2B1
330
1EC
100
AcDbEntity
  8
K113
  6
Continuous
 62
     7
100
AcDbCircle
 10
299.163272061
 20
252.1772518454
 30
0.0
 40
0.6128963756474443
100
AcDbArc
 50
134.1926475924
 51
167.5184610157
  0
LINE
  5
2B2
330
1EC
100
AcDbEntity
  8
K113
  6
Continuous
 62
     7
100
AcDbLine
 10
298.5180344186
 20
252.0984927416
 30
0.0
 11
298.5648610655
 21
252.3097140959
 31
0.0
  0
ARC
  5
2B3
330
1EC
100
AcDbEntity
  8
K113
  6
Continuous
 62
     7
100
AcDbCircle
 10
299.3212883719
 20
251.8713461392
 30
0.0
 40
0.834752952953411
100
AcDbArc
 50
164.2099962216
 51
257.5
  0
LINE
  5
2B4
330
1EC
100
AcDbEntity
  8
K113
  6
Continuous
 62
     7
100
AcDbLine
 10
300.3838998453
 20
250.7807516592
 30
0.0
 11
299.1406147651
 21
251.0563801643
 31
0.0
  0
ARC
  5
2B5
330
1EC
100
AcDbEntity
  8
K113
  6
Continuous
 62
     7
100
AcDbCircle
 10
300.3476853038
 20
250.6173984186
 30
0.0
 40
0.16731937786825
100
AcDbArc
 50
257.5
 51
77.5
  0
LINE
  5
2B6
330
1EC
100
AcDbEntity
  8
K113
  6
Continuous
 62
     7
100
AcDbLine
 10
299.365087171
 20
250.6638533691
 30
0.0
 11
300.3114707622
 21
250.4540451781
 31
0.0
  0
ARC
  5
2B7
330
1EC
100
AcDbEntity
  8
K113
  6
Continuous
 62
     7
100
AcDbCircle
 10
299.4150382695
 20
250.8891682137
 30
0.0
 40
0.2307853796197516
100
AcDbArc
 50
167.5
 51
257.5
  0
LINE
  5
2B8
330
1EC
100
AcDbEntity
  8
K113
  6
Continuous
 62
     7
100
AcDbLine
 10
298.3045142416
 20
251.1353654634
 30
0.0
 11
299.1897234249
 21
250.9391193122
 31
0.0
  0
ARC
  5
2B9
330
1EC
100
AcDbEntity
  8
K113
  6
Continuous
 62
     7
100
AcDbCircle
 10
299.3332851947
 20
250.9072924341
 30
0.0
 40
1.05374901209847
100
AcDbArc
 50
167.5
 51
257.5
  0
LINE
  5
2BA
330
1EC
100
AcDbEntity
  8
K113
  6
Continuous
 62
     7
100
AcDbLine
 10
299.9881339325
 20
249.6827824377
 30
0.0
 11
299.1052121653
 21
249.8785214811
 31
0.0
  0
ARC
  5
2BB
330
1EC
100
AcDbEntity
  8
K113
  6
Continuous
 62
     7
100
AcDbCircle
 10
300.4228626167
 20
251.6381830713
 30
0.0
 40
2.003142697528944
100
AcDbArc
 50
257.4657416722
 51
273.7516642082
  0
ARC
  5
2BC
330
1EC
100
AcDbEntity
  8
K113
  6
Continuous
 62
     7
100
AcDbCircle
 10
300.4925985439
 20
250.5833362598
 30
0.0
 40
0.9459935983870299
100
AcDbArc
 50
273.7174058804
 51
347.5
  0
LINE
  5
2BD
330
1EC
100
AcDbEntity
  8
K113
  6
Continuous
 62
     7
100
AcDbLine
 10
301.4629949417
 20
250.5898070261
 30
0.0
 11
301.4161683167
 21
250.3785857706
 31
0.0
  0
ARC
  5
2BE
330
1EC
100
AcDbEntity
  8
K113
  6
Continuous
 62
     7
100
AcDbCircle
 10
300.7138202145
 20
250.7558950645
 30
0.0
 40
0.7673643257329561
100
AcDbArc
 50
347.5
 51
77.5000002017
  0
LINE
  5
2BF
330
1EC
100
AcDbEntity
  8
K113
  6
Continuous
 62
     7
100
AcDbLine
 10
299.5067298209
 20
251.8094961159
 30
0.0
 11
300.8799082503
 21
251.5050697924
 31
0.0
  0
ARC
  5
2C0
330
1EC
100
AcDbEntity
  8
K113
  6
Continuous
 62
     7
100
AcDbCircle
 10
299.542802019
 20
251.9722072891
 30
0.0
 40
0.1666617212937109
100
AcDbArc
 50
77.5
 51
257.5000002017
  0
LINE
  5
2C1
330
1EC
100
AcDbEntity
  8
K113
  6
Continuous
 62
     7
100
AcDbLine
 10
300.5252578088
 20
251.9251102711
 30
0.0
 11
299.5788742176
 21
252.1349184621
 31
0.0
  0
ARC
  5
2C2
330
1EC
100
AcDbEntity
  8
K113
  6
Continuous
 62
     7
100
AcDbCircle
 10
300.4703117376
 20
251.6772645607
 30
0.0
 40
0.2538632838775802
100
AcDbArc
 50
347.5
 51
77.5
  0
LINE
  5
2C3
330
1EC
100
AcDbEntity
  8
K113
  6
Continuous
 62
     7
100
AcDbLine
 10
301.5469986855
 20
251.4385688111
 30
0.0
 11
300.718157448
 21
251.6223184896
 31
0.0
  0
ARC
  5
2C4
330
1EC
100
AcDbEntity
  8
K113
  6
Continuous
 62
     7
100
AcDbCircle
 10
300.4858328349
 20
251.6283824865
 30
0.0
 40
1.078008438695977
100
AcDbArc
 50
349.8585971564
 51
77.5
  0
LINE
  5
2C5
330
1EC
100
AcDbEntity
  8
K113
  6
Continuous
 62
     7
100
AcDbLine
 10
299.7322265569
 20
252.8996349361
 30
0.0
 11
300.7191565652
 21
252.6808378208
 31
0.0
  0
ARC
  5
2C6
330
1EC
100
AcDbEntity
  8
K113
  6
Continuous
 62
     7
100
AcDbCircle
 10
299.4962582411
 20
251.8352506474
 30
0.0
 40
1.09022702229678
100
AcDbArc
 50
77.5
 51
134.211108608
  0
LINE
  5
2C7
330
1EC
100
AcDbEntity
  8
K113
  6
Continuous
 62
     7
100
AcDbLine
 10
304.8644334875
 20
247.1679272735
 30
0.0
 11
304.2623363636
 21
247.9385764489
 31
0.0
  0
ARC
  5
2C8
330
1EC
100
AcDbEntity
  8
K113
  6
Continuous
 62
     7
100
AcDbCircle
 10
305.0220356382
 20
247.2910595685
 30
0.0
 40
0.199999999999581
100
AcDbArc
 50
217.9999999999
 51
308.0000000001
  0
LINE
  5
2C9
330
1EC
100
AcDbEntity
  8
K113
  6
Continuous
 62
     7
100
AcDbLine
 10
305.9083326658
 20
247.729707054
 30
0.0
 11
305.1451679332
 21
247.1334574178
 31
0.0
  0
ARC
  5
2CA
330
1EC
100
AcDbEntity
  8
K113
  6
Continuous
 62
     7
100
AcDbCircle
 10
305.7852003708
 20
247.8873092048
 30
0.0
 40
0.2000000000000025
100
AcDbArc
 50
308.0
 51
38.0
  0
LINE
  5
2CB
330
1EC
100
AcDbEntity
  8
K113
  6
Continuous
 62
     7
100
AcDbLine
 10
305.3407053976
 20
248.7810906753
 30
0.0
 11
305.9428025215
 21
248.0104414998
 31
0.0
  0
ARC
  5
2CC
330
1EC
100
AcDbEntity
  8
K113
  6
Continuous
 62
     7
100
AcDbCircle
 10
305.1831032469
 20
248.6579583802
 30
0.0
 40
0.199999999999804
100
AcDbArc
 50
38.0
 51
128.0
  0
LINE
  5
2CD
330
1EC
100
AcDbEntity
  8
K113
  6
Continuous
 62
     7
100
AcDbLine
 10
304.2968062192
 20
248.2193108947
 30
0.0
 11
305.0599709518
 21
248.8155605309
 31
0.0
  0
ARC
  5
2CE
330
1EC
100
AcDbEntity
  8
K113
  6
Continuous
 62
     7
100
AcDbCircle
 10
304.4199385143
 20
248.061708744
 30
0.0
 40
0.200000000000005
100
AcDbArc
 50
128.0
 51
218.0
  0
ARC
  5
2CF
330
1EC
100
AcDbEntity
  8
K113
  6
Continuous
 62
     7
100
AcDbCircle
 10
306.2230387732
 20
247.7471141865
 30
0.0
 40
0.7499999999999845
100
AcDbArc
 50
308.0
 51
38.0
  0
LINE
  5
2D0
330
1EC
100
AcDbEntity
  8
K113
  6
Continuous
 62
     7
100
AcDbLine
 10
305.5138857792
 20
246.241299484
 30
0.0
 11
306.6847848797
 21
247.1561061213
 31
0.0
  0
ARC
  5
2D1
330
1EC
100
AcDbEntity
  8
K113
  6
Continuous
 62
     7
100
AcDbCircle
 10
305.0521396727
 20
246.8323075492
 30
0.0
 40
0.7499999999999677
100
AcDbArc
 50
218.0
 51
308.0
  0
LINE
  5
2D2
330
1EC
100
AcDbEntity
  8
K113
  6
Continuous
 62
     7
100
AcDbLine
 10
303.3910881504
 20
247.7401546117
 30
0.0
 11
304.4611316075
 21
246.3705614427
 31
0.0
  0
ARC
  5
2D3
330
1EC
100
AcDbEntity
  8
K113
  6
Continuous
 62
     7
100
AcDbCircle
 10
303.9820962156
 20
248.2019007182
 30
0.0
 40
0.7499999999999925
100
AcDbArc
 50
128.0
 51
218.0
  0
LINE
  5
2D4
330
1EC
100
AcDbEntity
  8
K113
  6
Continuous
 62
     7
100
AcDbLine
 10
304.6912492096
 20
249.7077154207
 30
0.0
 11
303.5203501091
 21
248.7929087834
 31
0.0
  0
ARC
  5
2D5
330
1EC
100
AcDbEntity
  8
K113
  6
Continuous
 62
     7
100
AcDbCircle
 10
305.1529953161
 20
249.1167073555
 30
0.0
 40
0.7499999999999768
100
AcDbArc
 50
38.0
 51
128.0
  0
LINE
  5
2D6
330
1EC
100
AcDbEntity
  8
K113
  6
Continuous
 62
     7
100
AcDbLine
 10
306.8140468384
 20
248.208860293
 30
0.0
 11
305.7440033813
 21
249.578453462
 31
0.0
  0
LINE
  5
2D7
330
1EC
100
AcDbEntity
  8
K113
  6
Continuous
 62
     7
100
AcDbLine
 10
303.5454903252
 20
250.404959383
 30
0.0
 11
304.2915507025
 21
249.9387691185
 31
0.0
  0
LINE
  5
2D8
330
1EC
100
AcDbEntity
  8
K113
  6
Continuous
 62
     7
100
AcDbLine
 10
302.3867587147
 20
248.5506011768
 30
0.0
 11
303.5454903252
 21
250.404959383
 31
0.0
  0
LINE
  5
2D9
330
1EC
100
AcDbEntity
  8
K113
  6
Continuous
 62
     7
100
AcDbLine
 10
301.5941045583
 20
249.0459064658
 30
0.0
 11
302.3867587147
 21
248.5506011768
 31
0.0
  0
LINE
  5
2DA
330
1EC
100
AcDbEntity
  8
K113
  6
Continuous
 62
     7
100
AcDbLine
 10
302.7528361688
 20
250.900264672
 30
0.0
 11
301.5941045583
 21
249.0459064658
 31
0.0
  0
LINE
  5
2DB
330
1EC
100
AcDbEntity
  8
K113
  6
Continuous
 62
     7
100
AcDbLine
 10
302.0065538442
 20
251.3665936245
 30
0.0
 11
302.7528361688
 21
250.900264672
 31
0.0
  0
LINE
  5
2DC
330
1EC
100
AcDbEntity
  8
K113
  6
Continuous
 62
     7
100
AcDbLine
 10
302.4468633828
 20
252.0712361825
 30
0.0
 11
302.0065538442
 21
251.3665936245
 31
0.0
  0
LINE
  5
2DD
330
1EC
100
AcDbEntity
  8
K113
  6
Continuous
 62
     7
100
AcDbLine
 10
304.7318602411
 20
250.6434116766
 30
0.0
 11
302.4468633828
 21
252.0712361825
 31
0.0
  0
LINE
  5
2DE
330
1EC
100
AcDbEntity
  8
K113
  6
Continuous
 62
     7
100
AcDbLine
 10
304.2915507025
 20
249.9387691185
 30
0.0
 11
304.7318602411
 21
250.6434116766
 31
0.0
  0
CIRCLE
  5
2DF
330
1EC
100
AcDbEntity
  8
K113
  6
Continuous
 62
     7
100
AcDbCircle
 10
298.0160494325
 20
242.4379127486
 30
0.0
 40
18.0
  0
LINE
  5
2E1
330
1EC
100
AcDbEntity
  8
F351
  6
Continuous
 62
     7
100
AcDbLine
 10
298.3331444152
 20
197.2913979495
 30
0.0
 11
298.3331443338
 21
196.1665336931
 31
0.0
  0
ARC
  5
2E2
330
1EC
100
AcDbEntity
  8
F351
  6
Continuous
 62
     7
100
AcDbCircle
 10
298.3957155154
 20
197.2876348925
 30
0.0
 40
0.0626841540963973
100
AcDbArc
 50
130.2346062892
 51
176.5583487344
  0
LINE
  5
2E3
330
1EC
100
AcDbEntity
  8
F351
  6
Continuous
 62
     7
100
AcDbLine
 10
298.7482841858
 20
197.4017366064
 30
0.0
 11
298.3552266356
 21
197.3354883542
 31
0.0
  0
ARC
  5
2E4
330
1EC
100
AcDbEntity
  8
F351
  6
Continuous
 62
     7
100
AcDbCircle
 10
298.6814199973
 20
196.9690114132
 30
0.0
 40
0.4378606085914564
100
AcDbArc
 50
68.676956277
 51
81.2161914435
  0
LINE
  5
2E5
330
1EC
100
AcDbEntity
  8
F351
  6
Continuous
 62
     7
100
AcDbLine
 10
300.3248611307
 20
196.7732102925
 30
0.0
 11
298.8406374626
 21
197.3768982986
 31
0.0
  0
SPLINE
  5
2E6
330
1EC
100
AcDbEntity
  8
F351
  6
Continuous
 62
     7
100
AcDbSpline
210
0.0
220
0.0
230
1.0
 70
     8
 71
     3
 72
     8
 73
     4
 74
     0
 42
0.0000000200654209
 43
0.0000000001
 40
0.0
 40
0.0
 40
0.0
 40
0.0
 40
1.0
 40
1.0
 40
1.0
 40
1.0
 10
300.2679096602616
 20
196.5338823721855
 30
0.0
 10
300.4592087356113
 20
196.5862529864204
 30
0.0
 10
300.4879159723563
 20
196.7068895545216
 30
0.0
 10
300.3248611306763
 20
196.7732102924767
 30
0.0
  0
ELLIPSE
  5
2E7
330
1EC
100
AcDbEntity
  8
F351
  6
Continuous
 62
     7
100
AcDbEllipse
 10
300.7160519874
 20
195.8298193445
 30
0.0
 11
1.082906608643669
 21
-1.387778780781446E-14
 31
0.0
210
0.0
220
0.0
230
1.0
 40
0.4067366431
 41
2.059601778416829
 42
3.141596247118433
  0
ARC
  5
2E8
330
1EC
100
AcDbEntity
  8
F351
  6
Continuous
 62
     7
100
AcDbCircle
 10
298.784457693
 20
202.9698247708
 30
0.0
 40
6.89948667812919
100
AcDbArc
 50
281.9033023395
 51
290.8275972641
  0
SPLINE
  5
2E9
330
1EC
100
AcDbEntity
  8
F351
  6
Continuous
 62
     7
100
AcDbSpline
210
0.0
220
0.0
230
1.0
 70
     8
 71
     3
 72
     8
 73
     4
 74
     0
 42
0.0000000220301577
 43
0.0000000001
 40
0.0
 40
0.0
 40
0.0
 40
0.0
 40
1.0
 40
1.0
 40
1.0
 40
1.0
 10
301.2446405609835
 20
196.7638961035835
 30
0.0
 10
301.3984001896142
 20
196.7013565895603
 30
0.0
 10
301.3949544575366
 20
196.582239127821
 30
0.0
 10
301.2376198042911
 20
196.5211883197273
 30
0.0
  0
LINE
  5
2EA
330
1EC
100
AcDbEntity
  8
F351
  6
Continuous
 62
     7
100
AcDbLine
 10
299.2890775848
 20
197.5592952707
 30
0.0
 11
301.244640561
 21
196.7638961036
 31
0.0
  0
ARC
  5
2EB
330
1EC
100
AcDbEntity
  8
F351
  6
Continuous
 62
     7
100
AcDbCircle
 10
299.3538590411
 20
197.7330787083
 30
0.0
 40
0.1854651457557279
100
AcDbArc
 50
227.27313408
 51
249.5559948726
  0
LINE
  5
2EC
330
1EC
100
AcDbEntity
  8
F351
  6
Continuous
 62
     7
100
AcDbLine
 10
299.3908532042
 20
197.7567261873
 30
0.0
 11
299.2280201615
 21
197.5968366565
 31
0.0
  0
ARC
  5
2ED
330
1EC
100
AcDbEntity
  8
F351
  6
Continuous
 62
     7
100
AcDbCircle
 10
299.4983064862
 20
197.11875349
 30
0.0
 40
0.6469585538514558
100
AcDbArc
 50
89.913073265
 51
99.5605548619
  0
LINE
  5
2EE
330
1EC
100
AcDbEntity
  8
F351
  6
Continuous
 62
     7
100
AcDbLine
 10
301.5982970143
 20
197.7657114026
 30
0.0
 11
299.499288024
 21
197.7657112992
 31
0.0
  0
SPLINE
  5
2EF
330
1EC
100
AcDbEntity
  8
F351
  6
Continuous
 62
     7
100
AcDbSpline
210
0.0
220
0.0
230
1.0
 70
     8
 71
     3
 72
     8
 73
     4
 74
     0
 42
0.0000000183827352
 43
0.0000000001
 40
0.0
 40
0.0
 40
0.0
 40
0.0
 40
1.0
 40
1.0
 40
1.0
 40
1.0
 10
301.9740949307021
 20
197.5801014262972
 30
0.0
 10
302.0183181142255
 20
197.6721518409669
 30
0.0
 10
301.8288919836995
 20
197.7657111487593
 30
0.0
 10
301.5982970142828
 20
197.7657114026198
 30
0.0
  0
ARC
  5
2F0
330
1EC
100
AcDbEntity
  8
F351
  6
Continuous
 62
     7
100
AcDbCircle
 10
300.8504769268
 20
198.164362414
 30
0.0
 40
1.26644317696484
100
AcDbArc
 50
307.4238827214
 51
332.5263861773
  0
SPLINE
  5
2F1
330
1EC
100
AcDbEntity
  8
F351
  6
Continuous
 62
     7
100
AcDbSpline
210
0.0
220
0.0
230
1.0
 70
     8
 71
     3
 72
     8
 73
     4
 74
     0
 42
0.0000000400790758
 43
0.0000000001
 40
0.6416195993503773
 40
0.6416195993503773
 40
0.6416195993503773
 40
0.6416195993503773
 40
1.0
 40
1.0
 40
1.0
 40
1.0
 10
301.5788402582945
 20
197.0856931891631
 30
0.0
 10
301.5790988888859
 20
197.1110709029891
 30
0.0
 10
301.59250624669
 20
197.1362482486447
 30
0.0
 10
301.6201032149091
 20
197.1586021557589
 30
0.0
  0
SPLINE
  5
2F2
330
1EC
100
AcDbEntity
  8
F351
  6
Continuous
 62
     7
100
AcDbSpline
210
0.0
220
0.0
230
1.0
 70
     8
 71
     3
 72
     8
 73
     4
 74
     0
 42
0.000000018950198
 43
0.0000000001
 40
0.0
 40
0.0
 40
0.0
 40
0.0
 40
1.0
 40
1.0
 40
1.0
 40
1.0
 10
302.2648718924535
 20
198.0236596075754
 30
0.0
 10
302.482320585113
 20
198.023659721537
 30
0.0
 10
302.6869683800922
 20
197.9384399361627
 30
0.0
 10
302.681852077848
 20
197.8500200595478
 30
0.0
  0
LINE
  5
2F3
330
1EC
100
AcDbEntity
  8
F351
  6
Continuous
 62
     7
100
AcDbLine
 10
299.499288128
 20
198.0236596407
 30
0.0
 11
302.2648718925
 21
198.0236596076
 31
0.0
  0
ARC
  5
2F4
330
1EC
100
AcDbEntity
  8
F351
  6
Continuous
 62
     7
100
AcDbCircle
 10
299.4983068565
 20
198.6706259489
 30
0.0
 40
0.6469670523935441
100
AcDbArc
 50
260.4405603387
 51
270.0869020094
  0
LINE
  5
2F5
330
1EC
100
AcDbEntity
  8
F351
  6
Continuous
 62
     7
100
AcDbLine
 10
299.228011706
 20
198.1925323502
 30
0.0
 11
299.3908645807
 21
198.0326427797
 31
0.0
  0
ARC
  5
2F6
330
1EC
100
AcDbEntity
  8
F351
  6
Continuous
 62
     7
100
AcDbCircle
 10
299.3538889538
 20
198.0562222137
 30
0.0
 40
0.1855411944896107
100
AcDbArc
 50
110.4451250813
 51
132.7213041836
  0
LINE
  5
2F7
330
1EC
100
AcDbEntity
  8
F351
  6
Continuous
 62
     7
100
AcDbLine
 10
300.7733008483
 20
198.833763797
 30
0.0
 11
299.289077536
 21
198.2300756432
 31
0.0
  0
ARC
  5
2F8
330
1EC
100
AcDbEntity
  8
F351
  6
Continuous
 62
     7
100
AcDbCircle
 10
301.0385131871
 20
198.0857200358
 30
0.0
 40
0.7936668403130125
100
AcDbArc
 50
65.9696274596
 51
109.5215141444
  0
ARC
  5
2F9
330
1EC
100
AcDbEntity
  8
F351
  6
Continuous
 62
     7
100
AcDbCircle
 10
300.4312426526
 20
197.1969300469
 30
0.0
 40
1.862713175609114
100
AcDbArc
 50
40.6602734887
 51
60.0315476571
  0
SPLINE
  5
2FA
330
1EC
100
AcDbEntity
  8
F351
  6
Continuous
 62
     7
100
AcDbSpline
210
0.0
220
0.0
230
1.0
 70
     8
 71
     3
 72
     8
 73
     4
 74
     0
 42
0.0000000229903885
 43
0.0000000001
 40
0.0
 40
0.0
 40
0.0
 40
0.0
 40
1.0
 40
1.0
 40
1.0
 40
1.0
 10
302.2399608293371
 20
198.2944690169938
 30
0.0
 10
302.0621748206911
 20
198.294548705078
 30
0.0
 10
301.9008593422511
 20
198.3418303137476
 30
0.0
 10
301.8442713332344
 20
198.4106228920397
 30
0.0
  0
LINE
  5
2FB
330
1EC
100
AcDbEntity
  8
F351
  6
Continuous
 62
     7
100
AcDbLine
 10
304.1654466367
 20
198.2944690221
 30
0.0
 11
302.2399608293
 21
198.294469017
 31
0.0
  0
LINE
  5
2FC
330
1EC
100
AcDbEntity
  8
F351
  6
Continuous
 62
     7
100
AcDbLine
 10
303.0927194405
 20
198.5524171556
 30
0.0
 11
303.8535330563
 21
198.5524171556
 31
0.0
  0
ELLIPSE
  5
2FD
330
1EC
100
AcDbEntity
  8
F351
  6
Continuous
 62
     7
100
AcDbEllipse
 10
303.0927155459
 20
198.9928754529
 30
0.0
 11
-1.082906608643685
 21
-2.081668171172169E-14
 31
0.0
210
0.0
220
0.0
230
1.0
 40
0.4067366431
 41
0.4888054516219779
 42
1.570799923216998
  0
ARC
  5
2FE
330
1EC
100
AcDbEntity
  8
F351
  6
Continuous
 62
     7
100
AcDbCircle
 10
300.0740397461
 20
195.9943370767
 30
0.0
 40
3.471009444142093
100
AcDbArc
 50
53.5421238091
 51
67.6681544292
  0
ARC
  5
2FF
330
1EC
100
AcDbEntity
  8
F351
  6
Continuous
 62
     7
100
AcDbCircle
 10
301.0903455867
 20
198.3256710034
 30
0.0
 40
0.9299459552691043
100
AcDbArc
 50
71.0121186731
 51
108.4395082422
  0
LINE
  5
300
330
1EC
100
AcDbEntity
  8
F351
  6
Continuous
 62
     7
100
AcDbLine
 10
298.8406375597
 20
198.4124726746
 30
0.0
 11
300.796200651
 21
199.2078717949
 31
0.0
  0
ARC
  5
301
330
1EC
100
AcDbEntity
  8
F351
  6
Continuous
 62
     7
100
AcDbCircle
 10
298.6812649077
 20
198.8207377132
 30
0.0
 40
0.4382693052899297
100
AcDbArc
 50
278.8002628346
 51
291.3239663203
  0
LINE
  5
302
330
1EC
100
AcDbEntity
  8
F351
  6
Continuous
 62
     7
100
AcDbLine
 10
298.3552254552
 20
198.4538838357
 30
0.0
 11
298.7483158907
 21
198.3876278546
 31
0.0
  0
ARC
  5
303
330
1EC
100
AcDbEntity
  8
F351
  6
Continuous
 62
     7
100
AcDbCircle
 10
298.3957145006
 20
198.501735762
 30
0.0
 40
0.0626830889648235
100
AcDbArc
 50
183.4414730292
 51
229.7643715618
  0
LINE
  5
304
330
1EC
100
AcDbEntity
  8
F351
  6
Continuous
 62
     7
100
AcDbLine
 10
298.3331441978
 20
199.3517168335
 30
0.0
 11
298.333144452
 21
198.4979729635
 31
0.0
  0
SPLINE
  5
305
330
1EC
100
AcDbEntity
  8
F351
  6
Continuous
 62
     7
100
AcDbSpline
210
0.0
220
0.0
230
1.0
 70
     8
 71
     3
 72
     8
 73
     4
 74
     0
 42
0.00000001774924
 43
0.0000000001
 40
0.0
 40
0.0
 40
0.0
 40
0.0
 40
1.0
 40
1.0
 40
1.0
 40
1.0
 10
298.7894836909445
 20
199.5045676306874
 30
0.0
 10
298.5631691320955
 20
199.5225548217127
 30
0.0
 10
298.3331448219337
 20
199.445508266726
 30
0.0
 10
298.3331441977942
 20
199.3517168335038
 30
0.0
  0
ARC
  5
306
330
1EC
100
AcDbEntity
  8
F351
  6
Continuous
 62
     7
100
AcDbCircle
 10
298.1239129267
 20
190.9128527752
 30
0.0
 40
8.617456039979974
100
AcDbArc
 50
78.6097489693
 51
85.5703386941
  0
ARC
  5
307
330
1EC
100
AcDbEntity
  8
F351
  6
Continuous
 62
     7
100
AcDbCircle
 10
300.0075404944
 20
200.2795205539
 30
0.0
 40
0.9367377105995495
100
AcDbArc
 50
258.8115440463
 51
288.7003584224
  0
LINE
  5
308
330
1EC
100
AcDbEntity
  8
F351
  6
Continuous
 62
     7
100
AcDbLine
 10
300.8017865923
 20
199.593126247
 30
0.0
 11
300.3078763237
 21
199.3922348457
 31
0.0
  0
ARC
  5
309
330
1EC
100
AcDbEntity
  8
F351
  6
Continuous
 62
     7
100
AcDbCircle
 10
299.6919365842
 20
202.0254023345
 30
0.0
 40
2.33622831830646
100
AcDbArc
 50
262.3296187351
 51
276.5425088379
  0
ARC
  5
30A
330
1EC
100
AcDbEntity
  8
F351
  6
Continuous
 62
     7
100
AcDbCircle
 10
298.0283472624
 20
188.7159018893
 30
0.0
 40
11.07696573036077
100
AcDbArc
 50
82.9905083842
 51
89.4955890537
  0
SPLINE
  5
30B
330
1EC
100
AcDbEntity
  8
F351
  6
Continuous
 62
     7
100
AcDbSpline
210
0.0
220
0.0
230
1.0
 70
     8
 71
     3
 72
     8
 73
     4
 74
     0
 42
0.0000000188220304
 43
0.0000000001
 40
0.0
 40
0.0
 40
0.0
 40
0.0
 40
1.0
 40
1.0
 40
1.0
 40
1.0
 10
297.6989545312328
 20
199.6228372618097
 30
0.0
 10
297.6989542510476
 20
199.7112816046884
 30
0.0
 10
297.908475031743
 20
199.7945193555992
 30
0.0
 10
298.1258635304367
 20
199.7924383681976
 30
0.0
  0
LINE
  5
30C
330
1EC
100
AcDbEntity
  8
F351
  6
Continuous
 62
     7
100
AcDbLine
 10
297.6989544498
 20
198.4979730053
 30
0.0
 11
297.6989545312
 21
199.6228372618
 31
0.0
  0
ARC
  5
30D
330
1EC
100
AcDbEntity
  8
F351
  6
Continuous
 62
     7
100
AcDbCircle
 10
297.636358531
 20
198.5017391272
 30
0.0
 40
0.0627091120265998
100
AcDbArc
 50
310.2312520992
 51
356.556914794
  0
LINE
  5
30E
330
1EC
100
AcDbEntity
  8
F351
  6
Continuous
 62
     7
100
AcDbLine
 10
297.2837543585
 20
198.3876414364
 30
0.0
 11
297.6768607289
 21
198.4538642414
 31
0.0
  0
ARC
  5
30F
330
1EC
100
AcDbEntity
  8
F351
  6
Continuous
 62
     7
100
AcDbCircle
 10
297.3507000219
 20
198.8203991845
 30
0.0
 40
0.4379052299087521
100
AcDbArc
 50
248.6762642782
 51
261.2063066953
  0
LINE
  5
310
330
1EC
100
AcDbEntity
  8
F351
  6
Continuous
 62
     7
100
AcDbLine
 10
295.7072377344
 20
199.0161606624
 30
0.0
 11
297.1914614044
 21
198.4124726555
 31
0.0
  0
SPLINE
  5
311
330
1EC
100
AcDbEntity
  8
F351
  6
Continuous
 62
     7
100
AcDbSpline
210
0.0
220
0.0
230
1.0
 70
     8
 71
     3
 72
     8
 73
     4
 74
     0
 42
0.0000000200654209
 43
0.0000000001
 40
0.0
 40
0.0
 40
0.0
 40
0.0
 40
1.0
 40
1.0
 40
1.0
 40
1.0
 10
295.7641892047923
 20
199.2554885826826
 30
0.0
 10
295.5728901294425
 20
199.2031179684484
 30
0.0
 10
295.5441828926976
 20
199.0824814003463
 30
0.0
 10
295.7072377343775
 20
199.0161606623914
 30
0.0
  0
ARC
  5
312
330
1EC
100
AcDbEntity
  8
F351
  6
Continuous
 62
     7
100
AcDbCircle
 10
297.7401605675
 20
191.917058013
 30
0.0
 40
7.599804343048791
100
AcDbArc
 50
97.5046986522
 51
105.0702357359
  0
SPLINE
  5
313
330
1EC
100
AcDbEntity
  8
F351
  6
Continuous
 62
     7
100
AcDbSpline
210
0.0
220
0.0
230
1.0
 70
     8
 71
     3
 72
     8
 73
     4
 74
     0
 42
0.0000000265611846
 43
0.0000000001
 40
0.0
 40
0.0
 40
0.0
 40
0.0
 40
1.0
 40
1.0
 40
1.0
 40
1.0
 10
297.0331442864841
 20
199.6127050177983
 30
0.0
 10
297.0329483854406
 20
199.5403929622478
 30
0.0
 10
296.916702130182
 20
199.4747800207831
 30
0.0
 10
296.7475691434053
 20
199.4517636022773
 30
0.0
  0
LINE
  5
314
330
1EC
100
AcDbEntity
  8
F351
  6
Continuous
 62
     7
100
AcDbLine
 10
297.0331442835
 20
199.800088982
 30
0.0
 11
297.0331442865
 21
199.6127050178
 31
0.0
  0
ELLIPSE
  5
315
330
1EC
100
AcDbEntity
  8
F351
  6
Continuous
 62
     7
100
AcDbEllipse
 10
295.3160468776
 20
199.9595516104
 30
0.0
 11
-1.082906608643695
 21
-1.387778780781446E-14
 31
0.0
210
0.0
220
0.0
230
1.0
 40
0.4067366431
 41
2.059601778416806
 42
2.609569182940016
  0
ARC
  5
316
330
1EC
100
AcDbEntity
  8
F351
  6
Continuous
 62
     7
100
AcDbCircle
 10
297.247641172
 20
192.8195461841
 30
0.0
 40
6.899486678143249
100
AcDbArc
 50
101.9033023395
 51
110.8275972641
  0
SPLINE
  5
317
330
1EC
100
AcDbEntity
  8
F351
  6
Continuous
 62
     7
100
AcDbSpline
210
0.0
220
0.0
230
1.0
 70
     8
 71
     3
 72
     8
 73
     4
 74
     0
 42
0.0000000220301577
 43
0.0000000001
 40
0.0
 40
0.0
 40
0.0
 40
0.0
 40
1.0
 40
1.0
 40
1.0
 40
1.0
 10
294.7874583040703
 20
199.0254748512846
 30
0.0
 10
294.6336986754396
 20
199.0880143653089
 30
0.0
 10
294.6371444075172
 20
199.2071318270467
 30
0.0
 10
294.7944790607627
 20
199.2681826351407
 30
0.0
  0
LINE
  5
318
330
1EC
100
AcDbEntity
  8
F351
  6
Continuous
 62
     7
100
AcDbLine
 10
296.7430212803
 20
198.2300756842
 30
0.0
 11
294.7874583041
 21
199.0254748513
 31
0.0
  0
ARC
  5
319
330
1EC
100
AcDbEntity
  8
F351
  6
Continuous
 62
     7
100
AcDbCircle
 10
296.6782072232
 20
198.0562311928
 30
0.0
 40
0.1855337413887247
100
AcDbArc
 50
47.2914949551
 51
69.5531470379
  0
LINE
  5
31A
330
1EC
100
AcDbEntity
  8
F351
  6
Continuous
 62
     7
100
AcDbLine
 10
296.6413225896
 20
198.0326546629
 30
0.0
 11
296.8040489628
 21
198.1925639686
 31
0.0
  0
ARC
  5
31B
330
1EC
100
AcDbEntity
  8
F351
  6
Continuous
 62
     7
100
AcDbCircle
 10
296.5337954941
 20
198.6707934236
 30
0.0
 40
0.6471345718550896
100
AcDbArc
 50
269.9128303751
 51
279.5645573783
  0
LINE
  5
31C
330
1EC
100
AcDbEntity
  8
F351
  6
Continuous
 62
     7
100
AcDbLine
 10
294.4338018348
 20
198.0236595378
 30
0.0
 11
296.5328109459
 21
198.0236596006
 31
0.0
  0
SPLINE
  5
31D
330
1EC
100
AcDbEntity
  8
F351
  6
Continuous
 62
     7
100
AcDbSpline
210
0.0
220
0.0
230
1.0
 70
     8
 71
     3
 72
     8
 73
     4
 74
     0
 42
0.000000018382734
 43
0.0000000001
 40
0.0
 40
0.0
 40
0.0
 40
0.0
 40
1.0
 40
1.0
 40
1.0
 40
1.0
 10
294.0580038994783
 20
198.2092695313426
 30
0.0
 10
294.0137807118236
 20
198.1172191080739
 30
0.0
 10
294.2032068553868
 20
198.0236597916563
 30
0.0
 10
294.4338018348221
 20
198.0236595377958
 30
0.0
  0
ARC
  5
31E
330
1EC
100
AcDbEntity
  8
F351
  6
Continuous
 62
     7
100
AcDbCircle
 10
295.1816219132
 20
197.6250085385
 30
0.0
 40
1.266443188063622
100
AcDbArc
 50
127.4238827208
 51
152.5263861779
  0
SPLINE
  5
31F
330
1EC
100
AcDbEntity
  8
F351
  6
Continuous
 62
     7
100
AcDbSpline
210
0.0
220
0.0
230
1.0
 70
     8
 71
     3
 72
     8
 73
     4
 74
     0
 42
0.0000000311673539
 43
0.0000000001
 40
0.0
 40
0.0
 40
0.0
 40
0.0
 40
1.0
 40
1.0
 40
1.0
 40
1.0
 10
294.3341845360597
 20
198.8268554536665
 30
0.0
 10
294.4555254058903
 20
198.7775015463409
 30
0.0
 10
294.4890002917168
 20
198.6931436034802
 30
0.0
 10
294.4119956183902
 20
198.6307688055946
 30
0.0
  0
LINE
  5
320
330
1EC
100
AcDbEntity
  8
F351
  6
Continuous
 62
     7
100
AcDbLine
 10
293.5128403995
 20
199.160926216
 30
0.0
 11
294.3341845361
 21
198.8268554537
 31
0.0
  0
LINE
  5
321
330
1EC
100
AcDbEntity
  8
F351
  6
Continuous
 62
     7
100
AcDbLine
 10
293.2828427821
 20
198.8896810018
 30
0.0
 11
293.0459039133
 21
198.9860527219
 31
0.0
  0
SPLINE
  5
322
330
1EC
100
AcDbEntity
  8
F351
  6
Continuous
 62
     7
100
AcDbSpline
210
0.0
220
0.0
230
1.0
 70
     8
 71
     3
 72
     8
 73
     4
 74
     0
 42
0.0000000143829402
 43
0.0000000001
 40
0.0
 40
0.0
 40
0.0
 40
0.0
 40
1.0
 40
1.0
 40
1.0
 40
1.0
 10
293.5527379310896
 20
198.4494993475223
 30
0.0
 10
293.6673538936019
 20
198.6020461602394
 30
0.0
 10
293.5601501627384
 20
198.7768907650414
 30
0.0
 10
293.2828427820503
 20
198.8896810018183
 30
0.0
  0
ARC
  5
323
330
1EC
100
AcDbEntity
  8
F351
  6
Continuous
 62
     7
100
AcDbCircle
 10
294.2907611311
 20
197.861254621
 30
0.0
 40
0.9437743915208493
100
AcDbArc
 50
141.4432443654
 51
175.1966621918
  0
SPLINE
  5
324
330
1EC
100
AcDbEntity
  8
F351
  6
Continuous
 62
     7
100
AcDbSpline
210
0.0
220
0.0
230
1.0
 70
     8
 71
     3
 72
    10
 73
     6
 74
     0
 42
0.0000000201039186
 43
0.0000000001
 40
0.0
 40
0.0
 40
0.0
 40
0.0
 40
0.5000071946459856
 40
0.5000071946459856
 40
1.0
 40
1.0
 40
1.0
 40
1.0
 10
293.7695273999072
 20
197.7657113617473
 30
0.0
 10
293.6509014808371
 20
197.7684770624025
 30
0.0
 10
293.5459265754699
 20
197.7847216695854
 30
0.0
 10
293.3917681207785
 20
197.8489166152927
 30
0.0
 10
293.3543109161711
 20
197.8919824169878
 30
0.0
 10
293.3503012914751
 20
197.9402824139998
 30
0.0
  0
LINE
  5
325
330
1EC
100
AcDbEntity
  8
F351
  6
Continuous
 62
     7
100
AcDbLine
 10
296.5362909551
 20
197.7657113642
 30
0.0
 11
293.7695273999
 21
197.7657113617
 31
0.0
  0
LINE
  5
326
330
1EC
100
AcDbEntity
  8
F351
  6
Continuous
 62
     7
100
AcDbLine
 10
296.6419024821
 20
197.7561137669
 30
0.0
 11
296.5362909551
 21
197.7657113642
 31
0.0
  0
LINE
  5
327
330
1EC
100
AcDbEntity
  8
F351
  6
Continuous
 62
     7
100
AcDbLine
 10
296.7271104351
 20
197.6724135735
 30
0.0
 11
296.6419024821
 21
197.7561137669
 31
0.0
  0
SPLINE
  5
328
330
1EC
100
AcDbEntity
  8
F351
  6
Continuous
 62
     7
100
AcDbSpline
210
0.0
220
0.0
230
1.0
 70
     8
 71
     3
 72
    35
 73
    31
 74
     0
 42
0.0000000144169488
 43
0.0000000001
 40
0.0
 40
0.0
 40
0.0
 40
0.0
 40
0.1580949340306148
 40
0.1580949340306148
 40
0.1580949340306148
 40
0.3256742243232247
 40
0.3256742243232247
 40
0.3256742243232247
 40
0.4545813707021554
 40
0.4545813707021554
 40
0.4545813707021554
 40
0.5537407140705637
 40
0.5537407140705637
 40
0.5537407140705637
 40
0.6300171320462623
 40
0.6300171320462623
 40
0.6300171320462623
 40
0.6886912997198766
 40
0.6886912997198766
 40
0.6886912997198766
 40
0.7338252748534261
 40
0.7338252748534261
 40
0.7338252748534261
 40
0.7685437172638487
 40
0.7685437172638487
 40
0.7685437172638487
 40
0.8251162966784337
 40
0.8842718586319303
 40
0.943427420585423
 40
1.0
 40
1.0
 40
1.0
 40
1.0
 10
296.1738860844514
 20
197.3373450735515
 30
0.0
 10
296.2088914003592
 20
197.3541989432313
 30
0.0
 10
296.2438967162671
 20
197.3710528129111
 30
0.0
 10
296.278902032175
 20
197.3879066825909
 30
0.0
 10
296.3160073703839
 20
197.4057716416229
 30
0.0
 10
296.3531127085927
 20
197.4236366006548
 30
0.0
 10
296.3902180468015
 20
197.4415015596869
 30
0.0
 10
296.4187606146545
 20
197.4552438358653
 30
0.0
 10
296.4473031825075
 20
197.4689861120438
 30
0.0
 10
296.4758457503605
 20
197.4827283882222
 30
0.0
 10
296.4978015717858
 20
197.493299369898
 30
0.0
 10
296.5197573932112
 20
197.5038703515737
 30
0.0
 10
296.5417132146365
 20
197.5144413332494
 30
0.0
 10
296.5586023080406
 20
197.5225728576154
 30
0.0
 10
296.5754914014447
 20
197.5307043819813
 30
0.0
 10
296.5923804948489
 20
197.5388359063473
 30
0.0
 10
296.6053721051597
 20
197.5450909250903
 30
0.0
 10
296.6183637154706
 20
197.5513459438333
 30
0.0
 10
296.6313553257814
 20
197.5576009625764
 30
0.0
 10
296.6413488721744
 20
197.5624125154556
 30
0.0
 10
296.6513424185674
 20
197.5672240683349
 30
0.0
 10
296.6613359649604
 20
197.5720356212142
 30
0.0
 10
296.6690233083395
 20
197.5757368157367
 30
0.0
 10
296.6767106517188
 20
197.5794380102592
 30
0.0
 10
296.684397995098
 20
197.5831392047817
 30
0.0
 10
296.6969242725924
 20
197.5891701815916
 30
0.0
 10
296.7225490388338
 20
197.6015073794001
 30
0.0
 10
296.7419761971355
 20
197.6249094150129
 30
0.0
 10
296.7455426936554
 20
197.6495668359744
 30
0.0
 10
296.7331624075108
 20
197.6649121671506
 30
0.0
 10
296.7271104350627
 20
197.6724135735242
 30
0.0
  0
LINE
  5
329
330
1EC
100
AcDbEntity
  8
F351
  6
Continuous
 62
     7
100
AcDbLine
 10
295.247073037
 20
196.9603761492
 30
0.0
 11
296.1738860845
 21
197.3373450736
 31
0.0
  0
ARC
  5
32A
330
1EC
100
AcDbEntity
  8
F351
  6
Continuous
 62
     7
100
AcDbCircle
 10
294.9934455208
 20
197.6785625675
 30
0.0
 40
0.76165520311763
100
AcDbArc
 50
246.0404679411
 51
289.4506722797
  0
ARC
  5
32B
330
1EC
100
AcDbEntity
  8
F351
  6
Continuous
 62
     7
100
AcDbCircle
 10
295.6107874022
 20
198.5895730324
 30
0.0
 40
1.855055782982356
100
AcDbArc
 50
220.6602591561
 51
240.0315385264
  0
SPLINE
  5
32C
330
1EC
100
AcDbEntity
  8
F351
  6
Continuous
 62
     7
100
AcDbSpline
210
0.0
220
0.0
230
1.0
 70
     8
 71
     3
 72
     8
 73
     4
 74
     0
 42
0.0000000221116133
 43
0.0000000001
 40
0.0
 40
0.0
 40
0.0
 40
0.0
 40
1.0
 40
1.0
 40
1.0
 40
1.0
 10
293.792156306948
 20
197.5016463033289
 30
0.0
 10
293.9770061816173
 20
197.5015634619036
 30
0.0
 10
294.1447679754714
 20
197.4523766092245
 30
0.0
 10
294.2035672123047
 20
197.3808698864592
 30
0.0
  0
LINE
  5
32D
330
1EC
100
AcDbEntity
  8
F351
  6
Continuous
 62
     7
100
AcDbLine
 10
291.5179384214
 20
197.5016463011
 30
0.0
 11
293.7921563069
 21
197.5016463033
 31
0.0
  0
LINE
  5
32E
330
1EC
100
AcDbEntity
  8
F351
  6
Continuous
 62
     7
100
AcDbLine
 10
298.3441418134
 20
197.3177707157
 30
0.0
 11
298.3331443338
 21
196.1665336931
 31
0.0
  0
LINE
  5
32F
330
1EC
100
AcDbEntity
  8
F351
  6
Continuous
 62
     7
100
AcDbLine
 10
300.2665110008
 20
196.7969434227
 30
0.0
 11
300.2679096603
 21
196.5338823722
 31
0.0
  0
LINE
  5
330
330
1EC
100
AcDbEntity
  8
F351
  6
Continuous
 62
     7
100
AcDbLine
 10
301.2513890886
 20
197.7657113855
 30
0.0
 11
301.244640561
 21
196.7638961036
 31
0.0
  0
LINE
  5
331
330
1EC
100
AcDbEntity
  8
F351
  6
Continuous
 62
     7
100
AcDbLine
 10
299.2897387146
 20
197.6574395314
 30
0.0
 11
299.2890775848
 21
197.5592952707
 31
0.0
  0
LINE
  5
332
330
1EC
100
AcDbEntity
  8
F351
  6
Continuous
 62
     7
100
AcDbLine
 10
301.9736322597
 20
197.6294875108
 30
0.0
 11
301.9740949307
 21
197.5801014263
 31
0.0
  0
LINE
  5
333
330
1EC
100
AcDbEntity
  8
F351
  6
Continuous
 62
     7
100
AcDbLine
 10
301.6149307801
 20
197.7655482306
 30
0.0
 11
301.6201032149
 21
197.1586021558
 31
0.0
  0
LINE
  5
334
330
1EC
100
AcDbEntity
  8
F351
  6
Continuous
 62
     7
100
AcDbLine
 10
302.2648718896
 20
198.2944690171
 30
0.0
 11
302.2648718925
 21
198.0236596076
 31
0.0
  0
LINE
  5
335
330
1EC
100
AcDbEntity
  8
F351
  6
Continuous
 62
     7
100
AcDbLine
 10
299.4992881281
 20
198.3155760145
 30
0.0
 11
299.499288128
 21
198.0236596407
 31
0.0
  0
SPLINE
  5
336
330
1EC
100
AcDbEntity
  8
F351
  6
Continuous
 62
     7
100
AcDbSpline
210
0.0
220
0.0
230
1.0
 70
     8
 71
     3
 72
     8
 73
     4
 74
     0
 42
0.0000000011455255
 43
0.0000000001
 40
0.9727055839029073
 40
0.9727055839029073
 40
0.9727055839029073
 40
0.9727055839029073
 40
1.0
 40
1.0
 40
1.0
 40
1.0
 10
299.3896216540716
 20
198.2709093722149
 30
0.0
 10
299.3900376974415
 20
198.1914855221302
 30
0.0
 10
299.390451969503
 20
198.1120633592787
 30
0.0
 10
299.3908645806628
 20
198.032642779666
 30
0.0
  0
LINE
  5
337
330
1EC
100
AcDbEntity
  8
F351
  6
Continuous
 62
     7
100
AcDbLine
 10
298.8333128474
 20
199.4998210735
 30
0.0
 11
298.8406375597
 21
198.4124726746
 31
0.0
  0
SPLINE
  5
338
330
1EC
100
AcDbEntity
  8
F351
  6
Continuous
 62
     7
100
AcDbSpline
210
0.0
220
0.0
230
1.0
 70
     8
 71
     3
 72
    11
 73
     7
 74
     0
 42
0.0000000011490307
 43
0.0000000001
 40
0.8716300863309171
 40
0.8716300863309171
 40
0.8716300863309171
 40
0.8716300863309171
 40
0.9620881418439235
 40
0.9620881418439235
 40
0.9620881418439235
 40
1.0
 40
1.0
 40
1.0
 40
1.0
 10
298.7339747442163
 20
199.5047375845061
 30
0.0
 10
298.7374182966554
 20
199.2423290725492
 30
0.0
 10
298.7408045803444
 20
198.9799294736488
 30
0.0
 10
298.7441431268651
 20
198.7175373381388
 30
0.0
 10
298.7455423445269
 20
198.6075662150591
 30
0.0
 10
298.7469330860059
 20
198.4975964146842
 30
0.0
 10
298.7483158906633
 20
198.3876278545903
 30
0.0
  0
ARC
  5
339
330
1EC
100
AcDbEntity
  8
F351
  6
Continuous
 62
     7
100
AcDbCircle
 10
493.4328631334
 20
198.6249954817
 30
0.0
 40
195.0777127231342
100
AcDbArc
 50
179.7684990803
 51
180.0502567734
  0
ARC
  5
33A
330
1EC
100
AcDbEntity
  8
F351
  6
Continuous
 62
     7
100
AcDbCircle
 10
115.2878632448
 20
198.8932056
 30
0.0
 40
182.3895266293697
100
AcDbArc
 50
359.861985332
 51
0.2918009088
  0
ARC
  5
33B
330
1EC
100
AcDbEntity
  8
F351
  6
Continuous
 62
     7
100
AcDbCircle
 10
490.7083053607
 20
198.6491498004
 30
0.0
 40
193.4247277807073
100
AcDbArc
 50
179.6565807592
 51
180.0774633642
  0
LINE
  5
33C
330
1EC
100
AcDbEntity
  8
F351
  6
Continuous
 62
     7
100
AcDbLine
 10
297.2008682611
 20
199.808924563
 30
0.0
 11
297.1914614044
 21
198.4124726555
 31
0.0
  0
ARC
  5
33D
330
1EC
100
AcDbEntity
  8
F351
  6
Continuous
 62
     7
100
AcDbCircle
 10
790.5350670039
 20
198.1058611271
 30
0.0
 40
493.8937498396986
100
AcDbArc
 50
179.9808605744
 51
180.0084925583
  0
LINE
  5
33E
330
1EC
100
AcDbEntity
  8
F351
  6
Continuous
 62
     7
100
AcDbLine
 10
296.5328109212
 20
198.315575945
 30
0.0
 11
296.5328109459
 21
198.0236596006
 31
0.0
  0
LINE
  5
33F
330
1EC
100
AcDbEntity
  8
F351
  6
Continuous
 62
     7
100
AcDbLine
 10
294.4338018344
 20
198.656301943
 30
0.0
 11
294.4338018348
 21
198.0236595378
 31
0.0
  0
LINE
  5
340
330
1EC
100
AcDbEntity
  8
F351
  6
Continuous
 62
     7
100
AcDbLine
 10
293.5505885142
 20
198.6850439192
 30
0.0
 11
293.5527379311
 21
198.4494993475
 31
0.0
  0
LINE
  5
341
330
1EC
100
AcDbEntity
  8
F351
  6
Continuous
 62
     7
100
AcDbLine
 10
293.3414862231
 20
198.8626951484
 30
0.0
 11
293.3503012915
 21
197.940282414
 31
0.0
  0
LINE
  5
342
330
1EC
100
AcDbEntity
  8
F351
  6
Continuous
 62
     7
100
AcDbLine
 10
296.1983901667
 20
197.7657113639
 30
0.0
 11
296.1738860845
 21
197.3373450736
 31
0.0
  0
LINE
  5
343
330
1EC
100
AcDbEntity
  8
F351
  6
Continuous
 62
     7
100
AcDbLine
 10
295.2427307084
 20
197.7657113631
 30
0.0
 11
295.247073037
 21
196.9603761492
 31
0.0
  0
LINE
  5
344
330
1EC
100
AcDbEntity
  8
F351
  6
Continuous
 62
     7
100
AcDbLine
 10
294.6891005555
 20
197.7657113626
 30
0.0
 11
294.684143965
 21
196.9825372835
 31
0.0
  0
LINE
  5
345
330
1EC
100
AcDbEntity
  8
F351
  6
Continuous
 62
     7
100
AcDbLine
 10
294.2063561555
 20
197.7657113621
 30
0.0
 11
294.2035672123
 21
197.3808698865
 31
0.0
  0
LINE
  5
346
330
1EC
100
AcDbEntity
  8
F351
  6
Continuous
 62
     7
100
AcDbLine
 10
293.7921585232
 20
197.7657113618
 30
0.0
 11
293.7921563069
 21
197.5016463033
 31
0.0
  0
LINE
  5
347
330
1EC
100
AcDbEntity
  8
F351
  6
Continuous
 62
     7
100
AcDbLine
 10
301.3578198611
 20
196.6435027005
 30
0.0
 11
301.3686596892
 21
197.7657238609
 31
0.0
  0
LINE
  5
348
330
1EC
100
AcDbEntity
  8
F351
  6
Continuous
 62
     7
100
AcDbLine
 10
301.5723121582
 20
197.7657114013
 30
0.0
 11
301.5788410586
 21
197.0857676795
 31
0.0
  0
LINE
  5
349
330
1EC
100
AcDbEntity
  8
F351
  6
Continuous
 62
     7
100
AcDbLine
 10
302.6819434581
 20
197.8527333295
 30
0.0
 11
302.6861633646
 21
198.2944690182
 31
0.0
  0
ENDBLK
  5
34B
330
1EC
100
AcDbEntity
  8
0
100
AcDbBlockEnd
  0
BLOCK
  5
436
330
34C
100
AcDbEntity
  8
0
100
AcDbBlockBegin
  2
SE2
 70
     0
 10
0.0
 20
0.0
 30
0.0
  3
SE2
  1

  0
LINE
  5
34E
330
34C
100
AcDbEntity
  8
F405
  6
Continuous
 62
     7
100
AcDbLine
 10
233.1056332999
 20
125.2321979908
 30
0.0
 11
233.1056332999
 21
109.7362746192
 31
0.0
  0
ARC
  5
34F
330
34C
100
AcDbEntity
  8
F405
  6
Continuous
 62
     7
100
AcDbCircle
 10
185.2957514886
 20
489.1963311261
 30
0.0
 40
382.4641331353238
100
AcDbArc
 50
270.0
 51
270.4262305263
  0
ARC
  5
350
330
34C
100
AcDbEntity
  8
F405
  6
Continuous
 62
     7
100
AcDbCircle
 10
185.2957514886
 20
489.1963311261
 30
0.0
 40
382.4641331353238
100
AcDbArc
 50
270.4262305263
 51
271.4240131617
  0
ARC
  5
351
330
34C
100
AcDbEntity
  8
F405
  6
Continuous
 62
     7
100
AcDbCircle
 10
185.2957514886
 20
489.1963311261
 30
0.0
 40
382.4641331353238
100
AcDbArc
 50
271.4240131617
 51
272.421789946
  0
LINE
  5
352
330
34C
100
AcDbEntity
  8
F405
  6
Continuous
 62
     7
100
AcDbLine
 10
201.4570037514
 20
107.0739943669
 30
0.0
 11
201.8109436691
 21
107.0891319716
 31
0.0
  0
LINE
  5
353
330
34C
100
AcDbEntity
  8
F405
  6
Continuous
 62
     7
100
AcDbLine
 10
168.1056332999
 20
108.2321979908
 30
0.0
 11
168.1056332999
 21
125.2321979908
 31
0.0
  0
LINE
  5
354
330
34C
100
AcDbEntity
  8
F405
  6
Continuous
 62
     7
100
AcDbLine
 10
169.6056332999
 20
106.7321979908
 30
0.0
 11
185.2957514886
 21
106.7321979908
 31
0.0
  0
ARC
  5
355
330
34C
100
AcDbEntity
  8
F405
  6
Continuous
 62
     7
100
AcDbCircle
 10
169.6056332999
 20
108.2321979908
 30
0.0
 40
1.500000000000026
100
AcDbArc
 50
180.0
 51
270.0
  0
ARC
  5
356
330
34C
100
AcDbEntity
  8
F405
  6
Continuous
 62
     7
100
AcDbCircle
 10
185.2957514886
 20
-238.7319351445
 30
0.0
 40
382.4641331353238
100
AcDbArc
 50
89.5737694737
 51
90.0
  0
LINE
  5
357
330
34C
100
AcDbEntity
  8
F405
  6
Continuous
 62
     7
100
AcDbLine
 10
169.6056332999
 20
143.7321979908
 30
0.0
 11
185.2957514886
 21
143.7321979908
 31
0.0
  0
ARC
  5
358
330
34C
100
AcDbEntity
  8
F405
  6
Continuous
 62
     7
100
AcDbCircle
 10
185.2957514886
 20
-238.7319351445
 30
0.0
 40
382.4641331353238
100
AcDbArc
 50
88.5759868383
 51
89.5737694737
  0
LINE
  5
359
330
34C
100
AcDbEntity
  8
F405
  6
Continuous
 62
     7
100
AcDbLine
 10
201.4570113887
 20
143.390582136
 30
0.0
 11
201.8109516599
 21
143.3754488682
 31
0.0
  0
ARC
  5
35A
330
34C
100
AcDbEntity
  8
F405
  6
Continuous
 62
     7
100
AcDbCircle
 10
185.2957514886
 20
-238.7319351445
 30
0.0
 40
382.4641331353238
100
AcDbArc
 50
87.578210054
 51
88.5759868383
  0
LINE
  5
35B
330
34C
100
AcDbEntity
  8
F405
  6
Continuous
 62
     7
100
AcDbLine
 10
233.1056332999
 20
125.2321979908
 30
0.0
 11
233.1056332999
 21
140.7281213624
 31
0.0
  0
ARC
  5
35C
330
34C
100
AcDbEntity
  8
F405
  6
Continuous
 62
     7
100
AcDbCircle
 10
169.6056332999
 20
142.2321979908
 30
0.0
 40
1.499999999999998
100
AcDbArc
 50
90.0
 51
180.0
  0
LINE
  5
35D
330
34C
100
AcDbEntity
  8
F405
  6
Continuous
 62
     7
100
AcDbLine
 10
168.1056332999
 20
142.2321979908
 30
0.0
 11
168.1056332999
 21
125.2321979908
 31
0.0
  0
LINE
  5
35E
330
34C
100
AcDbEntity
  8
F405
  6
Continuous
 62
     7
100
AcDbLine
 10
246.3556332999
 20
114.7321979908
 30
0.0
 11
246.3556332999
 21
135.7321979908
 31
0.0
  0
LINE
  5
35F
330
34C
100
AcDbEntity
  8
F405
  6
Continuous
 62
     7
100
AcDbLine
 10
248.1056332999
 20
116.4821979908
 30
0.0
 11
248.1056332999
 21
133.9821979908
 31
0.0
  0
LINE
  5
360
330
34C
100
AcDbEntity
  8
F405
  6
Continuous
 62
     7
100
AcDbLine
 10
211.4072933796
 20
140.7321979908
 30
0.0
 11
233.0742587378
 21
140.7321979908
 31
0.0
  0
ARC
  5
361
330
34C
100
AcDbEntity
  8
F405
  6
Continuous
 62
     7
100
AcDbCircle
 10
201.1856520715
 20
8132.0341139698
 30
0.0
 40
7991.369711396241
100
AcDbArc
 50
270.0735509009
 51
270.2287742899
  0
LINE
  5
362
330
34C
100
AcDbEntity
  8
F405
  6
Continuous
 62
     7
100
AcDbLine
 10
233.1056332999
 20
140.7281213624
 30
0.0
 11
233.0940245306
 21
140.7281055636
 31
0.0
  0
ARC
  5
363
330
34C
100
AcDbEntity
  8
F405
  6
Continuous
 62
     7
100
AcDbCircle
 10
212.1544121731
 20
150.7443661259
 30
0.0
 40
10.09838342560879
100
AcDbArc
 50
243.3502831076
 51
265.9671764396
  0
ARC
  5
364
330
34C
100
AcDbEntity
  8
F405
  6
Continuous
 62
     7
100
AcDbCircle
 10
199.7596229686
 20
125.1460550413
 30
0.0
 40
18.34443738427459
100
AcDbArc
 50
64.6112740799
 51
83.580044918
  0
ELLIPSE
  5
365
330
34C
100
AcDbEntity
  8
F405
  6
Continuous
 62
     7
100
AcDbEllipse
 10
211.4072933796
 20
140.2321979908
 30
0.0
 11
1.732690026503344E-14
 21
-0.4999999999999935
 31
0.0
210
0.0
220
0.0
230
1.0
 40
0.1540160174
 41
2.64158342612427
 42
3.141592653589937
  0
ARC
  5
366
330
34C
100
AcDbEntity
  8
F405
  6
Continuous
 62
     7
100
AcDbCircle
 10
233.0742587378
 20
140.2321981705
 30
0.0
 40
0.4999998202671833
100
AcDbArc
 50
86.4023919146
 51
90.0
  0
ELLIPSE
  5
367
330
34C
100
AcDbEntity
  8
F405
  6
Continuous
 62
     7
100
AcDbEllipse
 10
207.5934377018
 20
141.2573242566
 30
0.0
 11
-0.1933822005586623
 21
-0.461089280407917
 31
0.0
210
0.0
220
0.0
230
1.0
 40
0.6183666638
 41
3.136383413542845
 42
3.646012038265286
  0
ARC
  5
368
330
34C
100
AcDbEntity
  8
F405
  6
Continuous
 62
     7
100
AcDbCircle
 10
201.575984387
 20
112.390482632
 30
0.0
 40
5.306739753078356
100
AcDbArc
 50
272.4595397695
 51
272.5361586784
  0
LINE
  5
369
330
34C
100
AcDbEntity
  8
F405
  6
Continuous
 62
     7
100
AcDbLine
 10
233.0742587378
 20
109.7321979908
 30
0.0
 11
211.4072933796
 21
109.7321979908
 31
0.0
  0
LINE
  5
36A
330
34C
100
AcDbEntity
  8
F405
  6
Continuous
 62
     7
100
AcDbLine
 10
233.0940245306
 20
109.736290418
 30
0.0
 11
233.1056332999
 21
109.7362746192
 31
0.0
  0
ARC
  5
36B
330
34C
100
AcDbEntity
  8
F405
  6
Continuous
 62
     7
100
AcDbCircle
 10
201.186885677
 20
-7881.102140482
 30
0.0
 40
7990.902132691804
100
AcDbArc
 50
89.7712211688
 51
89.9264536405
  0
ARC
  5
36C
330
34C
100
AcDbEntity
  8
F405
  6
Continuous
 62
     7
100
AcDbCircle
 10
212.156461312
 20
99.7125606079
 30
0.0
 40
10.10597840483937
100
AcDbArc
 50
94.0414342069
 51
116.6411062459
  0
ARC
  5
36D
330
34C
100
AcDbEntity
  8
F405
  6
Continuous
 62
     7
100
AcDbCircle
 10
199.8893609556
 20
124.8630231155
 30
0.0
 40
17.87763839767125
100
AcDbArc
 50
276.1699314943
 51
295.6387495078
  0
ARC
  5
36E
330
34C
100
AcDbEntity
  8
F405
  6
Continuous
 62
     7
100
AcDbCircle
 10
233.0742587378
 20
110.2321978111
 30
0.0
 40
0.499999820268382
100
AcDbArc
 50
270.0
 51
273.5976080853
  0
ELLIPSE
  5
36F
330
34C
100
AcDbEntity
  8
F405
  6
Continuous
 62
     7
100
AcDbEllipse
 10
211.4072933796
 20
110.2321979908
 30
0.0
 11
-1.389812230254909E-14
 21
-0.5000000000000073
 31
0.0
210
0.0
220
0.0
230
1.0
 40
0.1540160174
 41
0.0
 42
0.5000092274653942
  0
ELLIPSE
  5
370
330
34C
100
AcDbEntity
  8
F405
  6
Continuous
 62
     7
100
AcDbEllipse
 10
207.5934377018
 20
109.2070717249
 30
0.0
 11
-0.1933822005586935
 21
0.4610892804079066
 31
0.0
210
0.0
220
0.0
230
0.9999999999999999
 40
0.6183666638
 41
2.63717326891435
 42
3.147196327296375
  0
ARC
  5
371
330
34C
100
AcDbEntity
  8
F405
  6
Continuous
 62
     7
100
AcDbCircle
 10
188.6123975084
 20
-160.7711397574
 30
0.0
 40
304.4323098093266
100
AcDbArc
 50
87.5294492504
 51
87.5793660193
  0
LINE
  5
372
330
34C
100
AcDbEntity
  8
F405
  6
Continuous
 62
     7
100
AcDbLine
 10
234.1056332999
 20
114.7321979908
 30
0.0
 11
246.3556332999
 21
114.7321979908
 31
0.0
  0
LINE
  5
373
330
34C
100
AcDbEntity
  8
F405
  6
Continuous
 62
     7
100
AcDbLine
 10
246.3556332999
 20
135.7321979908
 30
0.0
 11
234.1056332999
 21
135.7321979908
 31
0.0
  0
LINE
  5
374
330
34C
100
AcDbEntity
  8
F405
  6
Continuous
 62
     7
100
AcDbLine
 10
246.3556332999
 20
114.7321979908
 30
0.0
 11
248.1056332999
 21
116.4821979908
 31
0.0
  0
LINE
  5
375
330
34C
100
AcDbEntity
  8
F405
  6
Continuous
 62
     7
100
AcDbLine
 10
248.1056332999
 20
133.9821979908
 30
0.0
 11
246.3556332999
 21
135.7321979908
 31
0.0
  0
ARC
  5
376
330
34C
100
AcDbEntity
  8
F405
  6
Continuous
 62
     7
100
AcDbCircle
 10
212.1464421706
 20
150.583521772
 30
0.0
 40
9.878741274994267
100
AcDbArc
 50
243.8235888858
 51
265.7032046547
  0
ARC
  5
377
330
34C
100
AcDbEntity
  8
F405
  6
Continuous
 62
     7
100
AcDbCircle
 10
199.9445545548
 20
125.0004537027
 30
0.0
 40
18.46451635780467
100
AcDbArc
 50
64.8636104406
 51
84.159725614
  0
ARC
  5
378
330
34C
100
AcDbEntity
  8
F405
  6
Continuous
 62
     7
100
AcDbCircle
 10
212.142875653
 20
99.8868017465
 30
0.0
 40
9.871926164507794
100
AcDbArc
 50
94.2744278505
 51
116.174349925
  0
ARC
  5
379
330
34C
100
AcDbEntity
  8
F405
  6
Continuous
 62
     7
100
AcDbCircle
 10
199.9572093448
 20
125.4221892032
 30
0.0
 40
18.42167417564823
100
AcDbArc
 50
278.2849768728
 51
295.1545960047
  0
ARC
  5
37A
330
34C
100
AcDbEntity
  8
F405
  6
Continuous
 62
     7
100
AcDbCircle
 10
234.1056332999
 20
113.7321979908
 30
0.0
 40
1.0
100
AcDbArc
 50
90.0
 51
180.0
  0
ARC
  5
37B
330
34C
100
AcDbEntity
  8
F405
  6
Continuous
 62
     7
100
AcDbCircle
 10
234.1056332999
 20
136.7321979908
 30
0.0
 40
1.000000000000001
100
AcDbArc
 50
180.0
 51
270.0
  0
LINE
  5
37C
330
34C
100
AcDbEntity
  8
F405
  6
Continuous
 62
     7
100
AcDbLine
 10
247.5401332999
 20
115.9166979908
 30
0.0
 11
235.1056332999
 21
115.9166979908
 31
0.0
  0
LINE
  5
37D
330
34C
100
AcDbEntity
  8
F405
  6
Continuous
 62
     7
100
AcDbLine
 10
247.5401332999
 20
134.5476979908
 30
0.0
 11
235.1056332999
 21
134.5476979908
 31
0.0
  0
LINE
  5
37E
330
34C
100
AcDbEntity
  8
F405
  6
Continuous
 62
     7
100
AcDbLine
 10
235.1056332999
 20
135.7321979908
 30
0.0
 11
235.1056332999
 21
114.7321979908
 31
0.0
  0
LINE
  5
37F
330
34C
100
AcDbEntity
  8
K132
  6
Continuous
 62
     7
100
AcDbLine
 10
165.7056332999
 20
140.2321979908
 30
0.0
 11
165.7056332999
 21
110.2321979908
 31
0.0
  0
SPLINE
  5
380
330
34C
100
AcDbEntity
  8
K132
  6
Continuous
 62
     7
100
AcDbSpline
210
0.0
220
0.0
230
1.0
 70
     8
 71
     3
 72
    12
 73
     8
 74
     0
 42
0.0000000085128033
 43
0.0000000001
 40
0.0
 40
0.0
 40
0.0
 40
0.0
 40
0.2500000000000004
 40
0.2500000000000004
 40
0.5000000000000008
 40
0.5000000000000008
 40
1.0
 40
1.0
 40
1.0
 40
1.0
 10
164.7056332999263
 20
132.3813238114806
 30
0.0
 10
164.8107253401188
 20
132.3813238114806
 30
0.0
 10
164.9120379900287
 20
132.3513967836627
 30
0.0
 10
165.0884137420388
 20
132.2549374517419
 30
0.0
 10
165.1628229935833
 20
132.1905353500507
 30
0.0
 10
165.3550353738188
 20
131.9749287595375
 30
0.0
 10
165.4400818088197
 20
131.8076078344745
 30
0.0
 10
165.5056332999263
 20
131.6314166931051
 30
0.0
  0
ARC
  5
381
330
34C
100
AcDbEntity
  8
K132
  6
Continuous
 62
     7
100
AcDbCircle
 10
163.4416688044
 20
130.6961350269
 30
0.0
 40
2.26598791569999
100
AcDbArc
 50
2.4214984393
 51
24.3775684454
  0
LINE
  5
382
330
34C
100
AcDbEntity
  8
K132
  6
Continuous
 62
     7
100
AcDbLine
 10
154.2064668649
 20
132.3813238115
 30
0.0
 11
164.7056332999
 21
132.3813238115
 31
0.0
  0
LINE
  5
383
330
34C
100
AcDbEntity
  8
K132
  6
Continuous
 62
     7
100
AcDbLine
 10
165.5056332999
 20
118.8329792885
 30
0.0
 11
165.5056332999
 21
112.3321979908
 31
0.0
  0
SPLINE
  5
384
330
34C
100
AcDbEntity
  8
K132
  6
Continuous
 62
     7
100
AcDbSpline
210
0.0
220
0.0
230
1.0
 70
     8
 71
     3
 72
    12
 73
     8
 74
     0
 42
0.0000000085128033
 43
0.0000000001
 40
0.0
 40
0.0
 40
0.0
 40
0.0
 40
0.2500000000000004
 40
0.2500000000000004
 40
0.5000000000000008
 40
0.5000000000000008
 40
1.0
 40
1.0
 40
1.0
 40
1.0
 10
164.7056332999263
 20
118.0830721701085
 30
0.0
 10
164.8107253401188
 20
118.0830721701085
 30
0.0
 10
164.9120379900287
 20
118.1129991979264
 30
0.0
 10
165.0884137420388
 20
118.2094585298472
 30
0.0
 10
165.1628229935833
 20
118.2738606315385
 30
0.0
 10
165.3550353738188
 20
118.4894672220516
 30
0.0
 10
165.4400818088197
 20
118.6567881471146
 30
0.0
 10
165.5056332999263
 20
118.8329792884841
 30
0.0
  0
ARC
  5
385
330
34C
100
AcDbEntity
  8
K132
  6
Continuous
 62
     7
100
AcDbCircle
 10
163.4416688044
 20
119.7682609547
 30
0.0
 40
2.265987915699793
100
AcDbArc
 50
335.6224315546
 51
357.5785015607
  0
LINE
  5
386
330
34C
100
AcDbEntity
  8
K132
  6
Continuous
 62
     7
100
AcDbLine
 10
154.2064668649
 20
118.0830721701
 30
0.0
 11
164.7056332999
 21
118.0830721701
 31
0.0
  0
LINE
  5
387
330
34C
100
AcDbEntity
  8
K132
  6
Continuous
 62
     7
100
AcDbLine
 10
165.5056332999
 20
138.1321979908
 30
0.0
 11
165.5056332999
 21
131.6314166931
 31
0.0
  0
ARC
  5
388
330
34C
100
AcDbEntity
  8
K132
  6
Continuous
 62
     7
100
AcDbCircle
 10
164.7056332999
 20
138.7321979908
 30
0.0
 40
0.9999999999911655
100
AcDbArc
 50
269.9999999997
 51
323.1301023544
  0
ARC
  5
389
330
34C
100
AcDbEntity
  8
K132
  6
Continuous
 62
     7
100
AcDbCircle
 10
164.7056333
 20
138.7321979908
 30
0.0
 40
0.9999999999004113
100
AcDbArc
 50
323.1301023523
 51
0.0
  0
LINE
  5
38A
330
34C
100
AcDbEntity
  8
K132
  6
Continuous
 62
     7
100
AcDbLine
 10
154.2064668649
 20
137.7321979908
 30
0.0
 11
164.7056332999
 21
137.7321979908
 31
0.0
  0
LINE
  5
38B
330
34C
100
AcDbEntity
  8
K132
  6
Continuous
 62
     7
100
AcDbLine
 10
154.2064668649
 20
112.7321979908
 30
0.0
 11
164.7056332999
 21
112.7321979908
 31
0.0
  0
ARC
  5
38C
330
34C
100
AcDbEntity
  8
K132
  6
Continuous
 62
     7
100
AcDbCircle
 10
164.7056332999
 20
111.7321979908
 30
0.0
 40
0.9999999999911726
100
AcDbArc
 50
36.8698976456
 51
90.0000000003
  0
ARC
  5
38D
330
34C
100
AcDbEntity
  8
K132
  6
Continuous
 62
     7
100
AcDbCircle
 10
164.7056333
 20
111.7321979908
 30
0.0
 40
0.9999999999005724
100
AcDbArc
 50
0.0
 51
36.8698976477
  0
ARC
  5
38E
330
34C
100
AcDbEntity
  8
K132
  6
Continuous
 62
     7
100
AcDbCircle
 10
166.7056332999
 20
140.2321979908
 30
0.0
 40
1.000000000000003
100
AcDbArc
 50
90.0
 51
180.0
  0
ARC
  5
38F
330
34C
100
AcDbEntity
  8
K132
  6
Continuous
 62
     7
100
AcDbCircle
 10
166.7056332999
 20
110.2321979908
 30
0.0
 40
1.000000000000001
100
AcDbArc
 50
180.0
 51
270.0
  0
LINE
  5
390
330
34C
100
AcDbEntity
  8
K132
  6
Continuous
 62
     7
100
AcDbLine
 10
168.1056332999
 20
141.2321979908
 30
0.0
 11
166.7056332999
 21
141.2321979908
 31
0.0
  0
LINE
  5
391
330
34C
100
AcDbEntity
  8
K132
  6
Continuous
 62
     7
100
AcDbLine
 10
166.7056332999
 20
109.2321979908
 30
0.0
 11
168.1056332999
 21
109.2321979908
 31
0.0
  0
ARC
  5
392
330
34C
100
AcDbEntity
  8
K1007
  6
Continuous
 62
     7
100
AcDbCircle
 10
140.3297304637
 20
125.2321979908
 30
0.0
 40
3.624930728728343
100
AcDbArc
 50
148.1688977762
 51
211.8311022238
  0
LINE
  5
393
330
34C
100
AcDbEntity
  8
K113
  6
Continuous
 62
     7
100
AcDbLine
 10
154.2064668649
 20
140.7321979908
 30
0.0
 11
154.2064668649
 21
109.7321979908
 31
0.0
  0
LINE
  5
394
330
34C
100
AcDbEntity
  8
K113
  6
Continuous
 62
     7
100
AcDbLine
 10
137.2499656926
 20
127.2321979908
 30
0.0
 11
137.2499656926
 21
123.2321979908
 31
0.0
  0
LINE
  5
395
330
34C
100
AcDbEntity
  8
K113
  6
Continuous
 62
     7
100
AcDbLine
 10
140.615237257
 20
142.6099757686
 30
0.0
 11
140.615237257
 21
107.854420213
 31
0.0
  0
LINE
  5
396
330
34C
100
AcDbEntity
  8
K113
  6
Continuous
 62
     7
100
AcDbLine
 10
141.736246551
 20
143.2129787604
 30
0.0
 11
141.736246551
 21
107.2514172212
 31
0.0
  0
ELLIPSE
  5
397
330
34C
100
AcDbEntity
  8
K113
  6
Continuous
 62
     7
100
AcDbEllipse
 10
183.2065067389
 20
125.5929452483
 30
0.0
 11
-45.99630765775778
 21
1.716823180188570E-5
 31
0.0
210
0.0
220
0.0
230
1.0
 40
0.7880104344
 41
-0.2131387729283478
 42
-0.2038054856564724
  0
ELLIPSE
  5
398
330
34C
100
AcDbEntity
  8
K113
  6
Continuous
 62
     7
100
AcDbEllipse
 10
183.2064686745
 20
132.5682214376
 30
0.0
 11
45.04811306375662
 21
-1.084133748245963E-9
 31
0.0
210
0.0
220
0.0
230
1.0
 40
0.615661463
 41
3.128584827609072
 42
3.152559781870607
  0
SPLINE
  5
399
330
34C
100
AcDbEntity
  8
K113
  6
Continuous
 62
     7
100
AcDbSpline
210
0.0
220
0.0
230
1.0
 70
     8
 71
     3
 72
    35
 73
    31
 74
     0
 42
0.0000000227805434
 43
0.0000000001
 40
0.0
 40
0.0
 40
0.0
 40
0.0
 40
0.1038574848865046
 40
0.1038574848865046
 40
0.1038574848865046
 40
0.2081450996783859
 40
0.2081450996783859
 40
0.2081450996783859
 40
0.3132794528429909
 40
0.3132794528429909
 40
0.3132794528429909
 40
0.420532040560663
 40
0.420532040560663
 40
0.420532040560663
 40
0.5300109781533683
 40
0.5300109781533683
 40
0.5300109781533683
 40
0.6408664358179004
 40
0.6408664358179004
 40
0.6408664358179004
 40
0.7515856970590845
 40
0.7515856970590845
 40
0.7515856970590845
 40
0.8606725103930712
 40
0.8606725103930712
 40
0.8606725103930712
 40
0.9673908400913885
 40
0.9673908400913885
 40
0.9673908400913885
 40
1.0
 40
1.0
 40
1.0
 40
1.0
 10
138.249911906772
 20
132.5950254704455
 30
0.0
 10
138.2501644521827
 20
132.5808768638588
 30
0.0
 10
138.2495982298819
 20
132.5634691561685
 30
0.0
 10
138.2482638091664
 20
132.5442505871043
 30
0.0
 10
138.2469235550388
 20
132.5249480041829
 30
0.0
 10
138.2447728410321
 20
132.5032962459395
 30
0.0
 10
138.2419987053325
 20
132.4810813825861
 30
0.0
 10
138.2392016337242
 20
132.4586828519103
 30
0.0
 10
138.2356969450285
 20
132.4351118631634
 30
0.0
 10
138.2317755686966
 20
132.4122486775356
 30
0.0
 10
138.2277758737378
 20
132.388928863124
 30
0.0
 10
138.2232360108387
 20
132.3657193214869
 30
0.0
 10
138.2185232947294
 20
132.3444488431918
 30
0.0
 10
138.2137143991708
 20
132.3227442664185
 30
0.0
 10
138.2085950522097
 20
132.3024690167
 30
0.0
 10
138.2035798774382
 20
132.2852508634275
 30
0.0
 10
138.1985035919443
 20
132.2678229041495
 30
0.0
 10
138.1933935508997
 20
132.2530470802777
 30
0.0
 10
138.1886759058531
 20
132.2421806607733
 30
0.0
 10
138.1839652740869
 20
132.2313303953555
 30
0.0
 10
138.1795135899051
 20
132.2240784187723
 30
0.0
 10
138.1757092467098
 20
132.2211201685644
 30
0.0
 10
138.1719609776724
 20
132.2182055215175
 30
0.0
 10
138.1687355398939
 20
132.219383653814
 30
0.0
 10
138.166325574168
 20
132.2246384072349
 30
0.0
 10
138.1639672699604
 20
132.229780516506
 30
0.0
 10
138.162323913628
 20
132.2389759490341
 30
0.0
 10
138.1615467604039
 20
132.2514826598857
 30
0.0
 10
138.1613060726582
 20
132.2553560428271
 30
0.0
 10
138.161144900672
 20
132.2595605897
 30
0.0
 10
138.1610647299066
 20
132.2640609539307
 30
0.0
  0
ELLIPSE
  5
39A
330
34C
100
AcDbEntity
  8
K113
  6
Continuous
 62
     7
100
AcDbEllipse
 10
183.2064684852
 20
132.8991859531
 30
0.0
 11
44.95927105119925
 21
-2.778939498703952E-9
 31
0.0
210
0.0
220
0.0
230
1.0
 40
0.6156614642
 41
3.12855912201972
 42
3.152581454396128
  0
ELLIPSE
  5
39B
330
34C
100
AcDbEntity
  8
K113
  6
Continuous
 62
     7
100
AcDbEllipse
 10
183.206466979
 20
131.1422786407
 30
0.0
 11
-45.38446882317568
 21
3.497093351007265E-9
 31
0.0
210
0.0
220
0.0
230
1.0
 40
0.6156614746
 41
6.250128332748453
 42
6.270273891135352
  0
ELLIPSE
  5
39C
330
34C
100
AcDbEntity
  8
K113
  6
Continuous
 62
     7
100
AcDbEllipse
 10
183.2064668839
 20
126.1556902008
 30
0.0
 11
-45.97553699254083
 21
7.757246369307489E-9
 31
0.0
210
0.0
220
0.0
230
1.0
 40
0.7880107535
 41
6.05219960291253
 42
6.11932274893195
  0
ELLIPSE
  5
39D
330
34C
100
AcDbEntity
  8
K113
  6
Continuous
 62
     7
100
AcDbEllipse
 10
183.2064668396
 20
133.5264121604
 30
0.0
 11
44.77961211266453
 21
3.738571087835682E-10
 31
0.0
210
0.0
220
0.0
230
1.0
 40
0.6156614755
 41
3.108088998924235
 42
3.152625543774324
  0
SPLINE
  5
39E
330
34C
100
AcDbEntity
  8
K113
  6
Continuous
 62
     7
100
AcDbSpline
210
0.0
220
0.0
230
1.0
 70
     8
 71
     3
 72
    35
 73
    31
 74
     0
 42
0.0000000047600901
 43
0.0000000001
 40
0.0
 40
0.0
 40
0.0
 40
0.0
 40
0.1046230373314493
 40
0.1046230373314493
 40
0.1046230373314493
 40
0.2092531589315406
 40
0.2092531589315406
 40
0.2092531589315406
 40
0.3149943894629095
 40
0.3149943894629095
 40
0.3149943894629095
 40
0.4229767152587903
 40
0.4229767152587903
 40
0.4229767152587903
 40
0.5330101085774999
 40
0.5330101085774999
 40
0.5330101085774999
 40
0.6439992374802511
 40
0.6439992374802511
 40
0.6439992374802511
 40
0.7543526107856457
 40
0.7543526107856457
 40
0.7543526107856457
 40
0.8627271122790605
 40
0.8627271122790605
 40
0.8627271122790605
 40
0.9687093418799598
 40
0.9687093418799598
 40
0.9687093418799598
 40
1.0
 40
1.0
 40
1.0
 40
1.0
 10
138.0038698040897
 20
131.6368347485459
 30
0.0
 10
138.0050818246299
 20
131.5685608765373
 30
0.0
 10
138.0102855181533
 20
131.5142525422339
 30
0.0
 10
138.019017658866
 20
131.4782898712564
 30
0.0
 10
138.0277529904299
 20
131.4423140589955
 30
0.0
 10
138.040251085793
 20
131.4236861424361
 30
0.0
 10
138.0554471845725
 20
131.4235821826882
 30
0.0
 10
138.0708061218154
 20
131.4234771089276
 30
0.0
 10
138.0893284101637
 20
131.4422573827013
 30
0.0
 10
138.1095022680664
 20
131.4780650196628
 30
0.0
 10
138.1300988857016
 20
131.5146230350146
 30
0.0
 10
138.1529693623058
 20
131.5698948539702
 30
0.0
 10
138.1762753095301
 20
131.6392423430752
 30
0.0
 10
138.2000151899218
 20
131.7098810122945
 30
0.0
 10
138.22485516833
 20
131.7970536269127
 30
0.0
 10
138.2487712145278
 20
131.893643695368
 30
0.0
 10
138.272886237117
 20
131.9910373725431
 30
0.0
 10
138.2967327927497
 20
132.1007315522595
 30
0.0
 10
138.318288914581
 20
132.2136274671037
 30
0.0
 10
138.3397174799081
 20
132.3258553300441
 30
0.0
 10
138.3594853929865
 20
132.4444340229996
 30
0.0
 10
138.3758317847075
 20
132.5592067719457
 30
0.0
 10
138.3918865849755
 20
132.671932172878
 30
0.0
 10
138.4050917562961
 20
132.7841888757274
 30
0.0
 10
138.4142284024234
 20
132.8861583093743
 30
0.0
 10
138.4231664745288
 20
132.9859115599408
 30
0.0
 10
138.4284598288847
 20
133.0786238829721
 30
0.0
 10
138.4296169271707
 20
133.1562742437955
 30
0.0
 10
138.4299631933145
 20
133.1795114150265
 30
0.0
 10
138.4299508792352
 20
133.201561648165
 30
0.0
 10
138.4295800909451
 20
133.2222516758303
 30
0.0
  0
ELLIPSE
  5
39F
330
34C
100
AcDbEntity
  8
K113
  6
Continuous
 62
     7
100
AcDbEllipse
 10
183.2064646988
 20
131.940995235
 30
0.0
 11
45.20529459323765
 21
3.423700455438456E-9
 31
0.0
210
0.0
220
0.0
230
1.0
 40
0.6156614901
 41
3.128630059650154
 42
3.152521646441897
  0
ELLIPSE
  5
3A0
330
34C
100
AcDbEntity
  8
K113
  6
Continuous
 62
     7
100
AcDbEllipse
 10
183.2064663046
 20
125.5929519775
 30
0.0
 11
-45.99626721367512
 21
-2.019400916285393E-7
 31
0.0
210
0.0
220
0.0
230
1.0
 40
0.7880107582
 41
-0.1861664727462511
 42
-0.1637880412693047
  0
LINE
  5
3A1
330
34C
100
AcDbEntity
  8
K113
  6
Continuous
 62
     7
100
AcDbLine
 10
138.3800382701
 20
132.5950254704
 30
0.0
 11
138.2499119068
 21
132.5950254704
 31
0.0
  0
LINE
  5
3A2
330
34C
100
AcDbEntity
  8
K113
  6
Continuous
 62
     7
100
AcDbLine
 10
138.1604349417
 20
132.3017491419
 30
0.0
 11
138.004967949
 21
132.3017491419
 31
0.0
  0
ELLIPSE
  5
3A3
330
34C
100
AcDbEntity
  8
K113
  6
Continuous
 62
     7
100
AcDbEllipse
 10
183.2064676246
 20
131.9409952321
 30
0.0
 11
45.00176578177243
 21
-1.243535751845099E-9
 31
0.0
210
0.0
220
0.0
230
1.0
 40
0.6156614701
 41
3.131538724972037
 42
3.148516525968057
  0
LINE
  5
3A4
330
34C
100
AcDbEntity
  8
K113
  6
Continuous
 62
     7
100
AcDbLine
 10
138.1752778838
 20
131.6368347485
 30
0.0
 11
138.0038698041
 21
131.6368347485
 31
0.0
  0
ELLIPSE
  5
3A5
330
34C
100
AcDbEntity
  8
K113
  6
Continuous
 62
     7
100
AcDbEllipse
 10
183.2064668854
 20
126.1556902005
 30
0.0
 11
-45.77543011135768
 21
8.427902057945224E-9
 31
0.0
210
0.0
220
0.0
230
1.0
 40
0.7880107534
 41
-0.2090078626673142
 42
-0.1982449248424203
  0
ELLIPSE
  5
3A6
330
34C
100
AcDbEntity
  8
K113
  6
Continuous
 62
     7
100
AcDbEllipse
 10
183.2064668854
 20
126.1556902005
 30
0.0
 11
-45.77543011135768
 21
8.427902057945224E-9
 31
0.0
210
0.0
220
0.0
230
1.0
 40
0.7880107534
 41
-0.178500100128435
 42
-0.1712206812515635
  0
LINE
  5
3A7
330
34C
100
AcDbEntity
  8
K113
  6
Continuous
 62
     7
100
AcDbLine
 10
137.9495911769
 20
132.0657708558
 30
0.0
 11
137.8467931447
 21
132.0657708558
 31
0.0
  0
LINE
  5
3A8
330
34C
100
AcDbEntity
  8
K113
  6
Continuous
 62
     7
100
AcDbLine
 10
138.4289465261
 20
133.2599398638
 30
0.0
 11
138.2510160618
 21
133.2599398638
 31
0.0
  0
ARC
  5
3A9
330
34C
100
AcDbEntity
  8
K113
  6
Continuous
 62
     7
100
AcDbCircle
 10
135.748104163
 20
130.090869583
 30
0.0
 40
2.687336128781475
100
AcDbArc
 50
341.6422992591
 51
1.6027667091
  0
ELLIPSE
  5
3AA
330
34C
100
AcDbEntity
  8
K113
  6
Continuous
 62
     7
100
AcDbEllipse
 10
183.2064700206
 20
124.0188510031
 30
0.0
 11
-45.97774721050806
 21
4.821382413587348E-7
 31
0.0
210
0.0
220
0.0
230
1.0
 40
0.5299192472
 41
-0.2161572789775734
 42
-0.2048148152908684
  0
SPLINE
  5
3AB
330
34C
100
AcDbEntity
  8
K113
  6
Continuous
 62
     7
100
AcDbSpline
210
0.0
220
0.0
230
1.0
 70
     8
 71
     3
 72
    10
 73
     6
 74
     0
 42
0.0000000291371102
 43
0.0000000001
 40
0.0
 40
0.0
 40
0.0
 40
0.0
 40
0.5
 40
0.5
 40
1.0
 40
1.0
 40
1.0
 40
1.0
 10
138.0805243175247
 20
129.109913253355
 30
0.0
 10
138.0842490728996
 20
129.0069480571491
 30
0.0
 10
138.0982524448847
 20
128.9352900958818
 30
0.0
 10
138.1384045992097
 20
128.8866648960274
 30
0.0
 10
138.1643320232921
 20
128.9094813246056
 30
0.0
 10
138.1897191472324
 20
128.9742446154921
 30
0.0
  0
ARC
  5
3AC
330
34C
100
AcDbEntity
  8
K113
  6
Continuous
 62
     7
100
AcDbCircle
 10
135.8081435144
 20
129.0633532271
 30
0.0
 40
2.272857749680882
100
AcDbArc
 50
344.761994056
 51
1.1737996429
  0
ELLIPSE
  5
3AD
330
34C
100
AcDbEntity
  8
K113
  6
Continuous
 62
     7
100
AcDbEllipse
 10
183.2064654865
 20
124.0188514851
 30
0.0
 11
-45.97774267548911
 21
-1.747368329406666E-7
 31
0.0
210
0.0
220
0.0
230
1.0
 40
0.5299192718
 41
-0.1835539647068707
 42
-0.163854115013204
  0
ELLIPSE
  5
3AE
330
34C
100
AcDbEntity
  8
K113
  6
Continuous
 62
     7
100
AcDbEllipse
 10
183.2064670746
 20
129.2065801991
 30
0.0
 11
-45.38447274766722
 21
-1.547949431135967E-8
 31
0.0
210
0.0
220
0.0
230
1.0
 40
0.8480480942
 41
0.0120700941343362
 42
0.0315303702765906
  0
ELLIPSE
  5
3AF
330
34C
100
AcDbEntity
  8
K113
  6
Continuous
 62
     7
100
AcDbEllipse
 10
183.2064641992
 20
124.7676531185
 30
0.0
 11
-45.9967356461731
 21
-3.350703326719818E-7
 31
0.0
210
0.0
220
0.0
230
1.0
 40
0.5299192789
 41
-0.1798089413494246
 42
-0.1637858441862452
  0
ARC
  5
3B0
330
34C
100
AcDbEntity
  8
K113
  6
Continuous
 62
     7
100
AcDbCircle
 10
136.8588618822
 20
129.420594983
 30
0.0
 40
1.131238303567791
100
AcDbArc
 50
344.9490556871
 51
0.6045427846
  0
ARC
  5
3B1
330
34C
100
AcDbEntity
  8
K113
  6
Continuous
 62
     7
100
AcDbCircle
 10
170.5094139312
 20
129.7089449996
 30
0.0
 40
32.52055137511182
100
AcDbArc
 50
179.1843704521
 51
180.4870015945
  0
ELLIPSE
  5
3B2
330
34C
100
AcDbEntity
  8
K113
  6
Continuous
 62
     7
100
AcDbEllipse
 10
183.2064693069
 20
125.6951290394
 30
0.0
 11
-45.99676337817672
 21
3.118970574708176E-7
 31
0.0
210
0.0
220
0.0
230
1.0
 40
0.5299192508
 41
-0.1847130980132183
 42
-0.1637857464066546
  0
ELLIPSE
  5
3B3
330
34C
100
AcDbEntity
  8
K113
  6
Continuous
 62
     7
100
AcDbEllipse
 10
183.2064653427
 20
129.2065802236
 30
0.0
 11
-45.38447101577049
 21
-1.025928551071139E-7
 31
0.0
210
0.0
220
0.0
230
1.0
 40
0.8480481104
 41
6.251654934094935
 42
6.271157144422195
  0
ELLIPSE
  5
3B4
330
34C
100
AcDbEntity
  8
K113
  6
Continuous
 62
     7
100
AcDbEllipse
 10
183.2064668732
 20
126.4455446232
 30
0.0
 11
-45.97774406239211
 21
1.219582079259558E-9
 31
0.0
210
0.0
220
0.0
230
1.0
 40
0.5299192642
 41
-0.2310742438921691
 42
-0.1638541105292353
  0
ELLIPSE
  5
3B5
330
34C
100
AcDbEntity
  8
K113
  6
Continuous
 62
     7
100
AcDbEllipse
 10
183.2064669155
 20
130.8122355652
 30
0.0
 11
44.77856175086211
 21
-9.088564099091491E-10
 31
0.0
210
0.0
220
0.0
230
1.0
 40
0.8480480957
 41
3.109635492680404
 42
3.158610251543258
  0
SPLINE
  5
3B6
330
34C
100
AcDbEntity
  8
K113
  6
Continuous
 62
     7
100
AcDbSpline
210
0.0
220
0.0
230
1.0
 70
     8
 71
     3
 72
    35
 73
    31
 74
     0
 42
0.0000000269147379
 43
0.0000000001
 40
0.0
 40
0.0
 40
0.0
 40
0.0
 40
0.1039962731476448
 40
0.1039962731476448
 40
0.1039962731476448
 40
0.2083580280612735
 40
0.2083580280612735
 40
0.2083580280612735
 40
0.3135532361057516
 40
0.3135532361057516
 40
0.3135532361057516
 40
0.420823096754299
 40
0.420823096754299
 40
0.420823096754299
 40
0.5302670219467807
 40
0.5302670219467807
 40
0.5302670219467807
 40
0.6410482621497634
 40
0.6410482621497634
 40
0.6410482621497634
 40
0.7516865838949417
 40
0.7516865838949417
 40
0.7516865838949417
 40
0.8607231940351859
 40
0.8607231940351859
 40
0.8607231940351859
 40
0.9674443076475339
 40
0.9674443076475339
 40
0.9674443076475339
 40
1.0
 40
1.0
 40
1.0
 40
1.0
 10
138.2199982707039
 20
129.9127297816727
 30
0.0
 10
138.2202018240096
 20
129.8963506469869
 30
0.0
 10
138.219724442741
 20
129.8780098620278
 30
0.0
 10
138.2186087264383
 20
129.8592280097631
 30
0.0
 10
138.2174888369162
 20
129.8403759059581
 30
0.0
 10
138.2156961244367
 20
129.8205673796267
 30
0.0
 10
138.2133862627654
 20
129.8014175826255
 30
0.0
 10
138.2110576205959
 20
129.7821120868082
 30
0.0
 10
138.2081418439959
 20
129.7629564530078
 30
0.0
 10
138.2048808716382
 20
129.745457709142
 30
0.0
 10
138.2015561508935
 20
129.7276168842718
 30
0.0
 10
138.1977838624996
 20
129.7110176679896
 30
0.0
 10
138.1938693129741
 20
129.6969508189513
 30
0.0
 10
138.1898767673255
 20
129.6826036925321
 30
0.0
 10
138.1856278587558
 20
129.6705005533361
 30
0.0
 10
138.1814669049237
 20
129.6616070018673
 30
0.0
 10
138.1772566857078
 20
129.6526081514108
 30
0.0
 10
138.1730199982919
 20
129.6466489271328
 30
0.0
 10
138.1691102123486
 20
129.644253602624
 30
0.0
 10
138.1652064508064
 20
129.6418619689557
 30
0.0
 10
138.1615190012779
 20
129.6429617861392
 30
0.0
 10
138.1583693371554
 20
129.6475251265665
 30
0.0
 10
138.1552652513986
 20
129.6520224315085
 30
0.0
 10
138.1525961208129
 20
129.6600177135487
 30
0.0
 10
138.1506037142101
 20
129.670885326428
 30
0.0
 10
138.1486530802345
 20
129.6815250898612
 30
0.0
 10
138.1472965737912
 20
129.6952217051881
 30
0.0
 10
138.1466587936376
 20
129.7108309829902
 30
0.0
 10
138.1464616061872
 20
129.71565702481
 30
0.0
 10
138.1463301872915
 20
129.7206883626953
 30
0.0
 10
138.1462657408384
 20
129.7258826149611
 30
0.0
  0
ARC
  5
3B7
330
34C
100
AcDbEntity
  8
K113
  6
Continuous
 62
     7
100
AcDbCircle
 10
170.5737397392
 20
130.3148090828
 30
0.0
 40
32.35623977123996
100
AcDbArc
 50
179.1802253149
 51
180.7120122755
  0
SPLINE
  5
3B8
330
34C
100
AcDbEntity
  8
K113
  6
Continuous
 62
     7
100
AcDbSpline
210
0.0
220
0.0
230
1.0
 70
    12
 71
     2
 72
     6
 73
     3
 74
     0
 42
0.0000000497824637
 43
0.0000000001
 40
0.0
 40
0.0
 40
0.0
 40
1.0
 40
1.0
 40
1.0
 10
138.1470779090813
 20
130.5908916730434
 30
0.0
 41
1.0
 10
138.1832544983727
 20
130.6843917567953
 30
0.0
 41
1.0
 10
138.2208117701097
 20
130.7777388397561
 30
0.0
 41
1.0
  0
ARC
  5
3B9
330
34C
100
AcDbEntity
  8
K113
  6
Continuous
 62
     7
100
AcDbCircle
 10
170.5530343809
 20
130.1279619111
 30
0.0
 40
32.40926289584966
100
AcDbArc
 50
179.1815665875
 51
180.7108473213
  0
ELLIPSE
  5
3BA
330
34C
100
AcDbEntity
  8
K113
  6
Continuous
 62
     7
100
AcDbEllipse
 10
183.2064668427
 20
126.4455446265
 30
0.0
 11
-45.77764679694084
 21
-3.263429547056408E-9
 31
0.0
210
0.0
220
0.0
230
1.0
 40
0.5299192644
 41
-0.2100873710203182
 42
-0.1645768507408683
  0
LINE
  5
3BB
330
34C
100
AcDbEntity
  8
K113
  6
Continuous
 62
     7
100
AcDbLine
 10
138.0473781248
 20
130.4199268281
 30
0.0
 11
137.8445522687
 21
130.4199268281
 31
0.0
  0
ELLIPSE
  5
3BC
330
34C
100
AcDbEntity
  8
K113
  6
Continuous
 62
     7
100
AcDbEllipse
 10
183.2064684345
 20
129.2065801661
 30
0.0
 11
-45.18174951657507
 21
1.021355639980396E-7
 31
0.0
210
0.0
220
0.0
230
1.0
 40
0.8480480814
 41
6.251513419143377
 42
6.257989892188695
  0
LINE
  5
3BD
330
34C
100
AcDbEntity
  8
K113
  6
Continuous
 62
     7
100
AcDbLine
 10
138.1438012179
 20
130.1718731069
 30
0.0
 11
137.9921576
 21
130.1718731069
 31
0.0
  0
ARC
  5
3BE
330
34C
100
AcDbEntity
  8
K113
  6
Continuous
 62
     7
100
AcDbCircle
 10
170.5665561291
 20
129.7089450283
 30
0.0
 40
32.37421748381148
100
AcDbArc
 50
180.1166944459
 51
180.4892029825
  0
LINE
  5
3BF
330
34C
100
AcDbEntity
  8
K113
  6
Continuous
 62
     7
100
AcDbLine
 10
138.193518615
 20
129.4325307533
 30
0.0
 11
137.9900372165
 21
129.4325307533
 31
0.0
  0
ARC
  5
3C0
330
34C
100
AcDbEntity
  8
K113
  6
Continuous
 62
     7
100
AcDbCircle
 10
137.0671323512
 20
129.4206105712
 30
0.0
 40
1.126449335718913
100
AcDbArc
 50
344.882723354
 51
0.6063200982
  0
LINE
  5
3C1
330
34C
100
AcDbEntity
  8
K113
  6
Continuous
 62
     7
100
AcDbLine
 10
138.1545998217
 20
129.1268375183
 30
0.0
 11
137.9512934139
 21
129.1268375183
 31
0.0
  0
ELLIPSE
  5
3C2
330
34C
100
AcDbEntity
  8
K113
  6
Continuous
 62
     7
100
AcDbEllipse
 10
183.2064714948
 20
124.7676524436
 30
0.0
 11
-45.79672869833305
 21
5.894909542250963E-7
 31
0.0
210
0.0
220
0.0
230
1.0
 40
0.5299192387
 41
-0.1806028518858902
 42
-0.1798939939200439
  0
ELLIPSE
  5
3C3
330
34C
100
AcDbEntity
  8
K113
  6
Continuous
 62
     7
100
AcDbEllipse
 10
183.2064714948
 20
124.7676524436
 30
0.0
 11
-45.79672869833305
 21
5.894909542250963E-7
 31
0.0
210
0.0
220
0.0
230
1.0
 40
0.5299192387
 41
-0.1701148072315206
 42
-0.1645076535024268
  0
LINE
  5
3C4
330
34C
100
AcDbEntity
  8
K113
  6
Continuous
 62
     7
100
AcDbLine
 10
138.0280396801
 20
128.742035078
 30
0.0
 11
137.8253002548
 21
128.742035078
 31
0.0
  0
ELLIPSE
  5
3C5
330
34C
100
AcDbEntity
  8
K113
  6
Continuous
 62
     7
100
AcDbEllipse
 10
183.2064646877
 20
129.2065801561
 30
0.0
 11
-45.1817457697753
 21
1.375878396618004E-7
 31
0.0
210
0.0
220
0.0
230
1.0
 40
0.8480481166
 41
0.0121242569082413
 42
0.01622883914009
  0
LINE
  5
3C6
330
34C
100
AcDbEntity
  8
K113
  6
Continuous
 62
     7
100
AcDbLine
 10
138.2436613984
 20
129.1099132534
 30
0.0
 11
138.0805243175
 21
129.1099132534
 31
0.0
  0
LINE
  5
3C7
330
34C
100
AcDbEntity
  8
K113
  6
Continuous
 62
     7
100
AcDbLine
 10
138.4253417751
 20
130.7777388398
 30
0.0
 11
138.2208117701
 21
130.7777388398
 31
0.0
  0
ARC
  5
3C8
330
34C
100
AcDbEntity
  8
K113
  6
Continuous
 62
     7
100
AcDbCircle
 10
170.6311742303
 20
130.3148090967
 30
0.0
 40
32.20915938173673
100
AcDbArc
 50
179.176481651
 51
180.7152638123
  0
LINE
  5
3C9
330
34C
100
AcDbEntity
  8
K113
  6
Continuous
 62
     7
100
AcDbLine
 10
138.4245245603
 20
129.9127297817
 30
0.0
 11
138.2199982707
 21
129.9127297817
 31
0.0
  0
ARC
  5
3CA
330
34C
100
AcDbEntity
  8
K113
  6
Continuous
 62
     7
100
AcDbCircle
 10
181.9820611633
 20
126.8360039164
 30
0.0
 40
43.73752305862337
100
AcDbArc
 50
179.4873621443
 51
181.6520230479
  0
SPLINE
  5
3CB
330
34C
100
AcDbEntity
  8
K113
  6
Continuous
 62
     7
100
AcDbSpline
210
0.0
220
0.0
230
1.0
 70
    12
 71
     2
 72
     6
 73
     3
 74
     0
 42
0.0000001248292993
 43
0.0000000001
 40
0.0
 40
0.0
 40
0.0
 40
1.0
 40
1.0
 40
1.0
 10
138.1830038154102
 20
127.1782143738011
 30
0.0
 41
1.0
 10
138.2141542532875
 20
127.2027883918125
 30
0.0
 41
1.0
 10
138.246288746809
 20
127.2273278686105
 30
0.0
 41
1.0
  0
ARC
  5
3CC
330
34C
100
AcDbEntity
  8
K113
  6
Continuous
 62
     7
100
AcDbCircle
 10
181.9802555866
 20
126.7868911554
 30
0.0
 40
43.79899984385371
100
AcDbArc
 50
179.4880826691
 51
181.4790050501
  0
ELLIPSE
  5
3CD
330
34C
100
AcDbEntity
  8
K113
  6
Continuous
 62
     7
100
AcDbEllipse
 10
183.2064675747
 20
124.1017153785
 30
0.0
 11
-45.98571828442959
 21
2.364227490533313E-8
 31
0.0
210
0.0
220
0.0
230
1.0
 40
0.1650476047
 41
-0.2062994530543403
 42
-0.18796929470499
  0
ARC
  5
3CE
330
34C
100
AcDbEntity
  8
K113
  6
Continuous
 62
     7
100
AcDbCircle
 10
181.9757586618
 20
126.6504647979
 30
0.0
 40
43.9595428057785
100
AcDbArc
 50
179.4899522931
 51
181.4736024645
  0
SPLINE
  5
3CF
330
34C
100
AcDbEntity
  8
K113
  6
Continuous
 62
     7
100
AcDbSpline
210
0.0
220
0.0
230
1.0
 70
    12
 71
     2
 72
     6
 73
     3
 74
     0
 42
0.0000001515115754
 43
0.0000000001
 40
0.0
 40
0.0
 40
0.0
 40
1.0
 40
1.0
 40
1.0
 10
137.9684597678603
 20
126.9981315594998
 30
0.0
 41
1.0
 10
137.9928218499244
 20
127.019971727798
 30
0.0
 41
1.0
 10
138.0179576494079
 20
127.0417879993304
 30
0.0
 41
1.0
  0
ARC
  5
3D0
330
34C
100
AcDbEntity
  8
K113
  6
Continuous
 62
     7
100
AcDbCircle
 10
181.974512649
 20
126.6068074504
 30
0.0
 40
44.00779260038507
100
AcDbArc
 50
179.4905103405
 51
181.6843487702
  0
ELLIPSE
  5
3D1
330
34C
100
AcDbEntity
  8
K113
  6
Continuous
 62
     7
100
AcDbEllipse
 10
183.2064659209
 20
123.9386650558
 30
0.0
 11
-45.98129869144427
 21
-2.752719349687579E-8
 31
0.0
210
0.0
220
0.0
230
1.0
 40
0.1650476075
 41
-0.1821351190751734
 42
-0.1638418381447613
  0
ARC
  5
3D2
330
34C
100
AcDbEntity
  8
K113
  6
Continuous
 62
     7
100
AcDbCircle
 10
181.9706779375
 20
126.4700550347
 30
0.0
 40
44.14867967077
100
AcDbArc
 50
178.321023686
 51
181.678976314
  0
ELLIPSE
  5
3D3
330
34C
100
AcDbEntity
  8
K113
  6
Continuous
 62
     7
100
AcDbEllipse
 10
183.2064668822
 20
126.5257309524
 30
0.0
 11
-45.98129965282421
 21
5.802712095359233E-10
 31
0.0
210
0.0
220
0.0
230
1.0
 40
0.1650476058
 41
-0.2311195266138855
 42
-0.163841836341815
  0
ARC
  5
3D4
330
34C
100
AcDbEntity
  8
K113
  6
Continuous
 62
     7
100
AcDbCircle
 10
181.9871956126
 20
126.9706147583
 30
0.0
 40
43.55862214655606
100
AcDbArc
 50
178.2982736505
 51
181.6588145319
  0
ELLIPSE
  5
3D5
330
34C
100
AcDbEntity
  8
K113
  6
Continuous
 62
     7
100
AcDbEllipse
 10
183.206466771
 20
123.9712751065
 30
0.0
 11
-45.9822307120161
 21
-3.348667995653955E-9
 31
0.0
210
0.0
220
0.0
230
1.0
 40
0.165047606
 41
-0.2311147614311713
 42
-0.2129316206642482
  0
ELLIPSE
  5
3D6
330
34C
100
AcDbEntity
  8
K113
  6
Continuous
 62
     7
100
AcDbEllipse
 10
183.2064668644
 20
126.525730953
 30
0.0
 11
-45.78121794057759
 21
-1.046849534425670E-11
 31
0.0
210
0.0
220
0.0
230
1.0
 40
0.1650476059
 41
-0.2113026993408811
 42
-0.1645644088515041
  0
LINE
  5
3D7
330
34C
100
AcDbEntity
  8
K113
  6
Continuous
 62
     7
100
AcDbLine
 10
138.0437619396
 20
127.7635879969
 30
0.0
 11
137.8409522512
 21
127.7635879969
 31
0.0
  0
ARC
  5
3D8
330
34C
100
AcDbEntity
  8
K113
  6
Continuous
 62
     7
100
AcDbCircle
 10
181.9762026178
 20
126.4700550347
 30
0.0
 40
43.95147974151248
100
AcDbArc
 50
178.3134883435
 51
179.2546596851
  0
LINE
  5
3D9
330
34C
100
AcDbEntity
  8
K113
  6
Continuous
 62
     7
100
AcDbLine
 10
138.1819973554
 20
127.0417879993
 30
0.0
 11
138.0179576494
 21
127.0417879993
 31
0.0
  0
LINE
  5
3DA
330
34C
100
AcDbEntity
  8
K113
  6
Continuous
 62
     7
100
AcDbLine
 10
138.4293298554
 20
127.2273278686
 30
0.0
 11
138.2462887468
 21
127.2273278686
 31
0.0
  0
ARC
  5
3DB
330
34C
100
AcDbEntity
  8
K113
  6
Continuous
 62
     7
100
AcDbCircle
 10
137.9621457356
 20
124.4506320315
 30
0.0
 40
0.3952297297510179
100
AcDbArc
 50
8.9632135578
 51
36.0796223554
  0
SPLINE
  5
3DC
330
34C
100
AcDbEntity
  8
K113
  6
Continuous
 62
     7
100
AcDbSpline
210
0.0
220
0.0
230
1.0
 70
    12
 71
     2
 72
     6
 73
     3
 74
     0
 42
0.0000001516258675
 43
0.0000000001
 40
0.0
 40
0.0
 40
0.0
 40
1.0
 40
1.0
 40
1.0
 10
138.235129267759
 20
124.7302130046746
 30
0.0
 41
1.0
 10
138.2580893737004
 20
124.7067875857778
 30
0.0
 41
1.0
 10
138.2815701599102
 20
124.6833863577857
 30
0.0
 41
1.0
  0
SPLINE
  5
3DD
330
34C
100
AcDbEntity
  8
K113
  6
Continuous
 62
     7
100
AcDbSpline
210
0.0
220
0.0
230
1.0
 70
     8
 71
     3
 72
    14
 73
    10
 74
     0
 42
0.00000001305123
 43
0.0000000001
 40
0.0
 40
0.0
 40
0.0
 40
0.0
 40
0.25
 40
0.25
 40
0.5
 40
0.5
 40
0.75
 40
0.75
 40
1.0
 40
1.0
 40
1.0
 40
1.0
 10
138.0350447905285
 20
124.1076326582555
 30
0.0
 10
138.0370110466355
 20
124.2206186111542
 30
0.0
 10
138.0440014131547
 20
124.3263626241206
 30
0.0
 10
138.0667228180016
 20
124.5106308980071
 30
0.0
 10
138.0825131295613
 20
124.5886462578565
 30
0.0
 10
138.1197671522358
 20
124.7031042506888
 30
0.0
 10
138.1415432200513
 20
124.7404865544173
 30
0.0
 10
138.187240422783
 20
124.7691823930904
 30
0.0
 10
138.2113829391516
 20
124.7610198583766
 30
0.0
 10
138.235129267759
 20
124.7302130046746
 30
0.0
  0
ARC
  5
3DE
330
34C
100
AcDbEntity
  8
K113
  6
Continuous
 62
     7
100
AcDbCircle
 10
181.090310019
 20
123.3583641957
 30
0.0
 40
43.06178433621567
100
AcDbArc
 50
179.0030118857
 51
180.6573273394
  0
SPLINE
  5
3DF
330
34C
100
AcDbEntity
  8
K113
  6
Continuous
 62
     7
100
AcDbSpline
210
0.0
220
0.0
230
1.0
 70
     8
 71
     3
 72
    35
 73
    31
 74
     0
 42
0.000000028478818
 43
0.0000000001
 40
0.0
 40
0.0
 40
0.0
 40
0.0
 40
0.1048903526261743
 40
0.1048903526261743
 40
0.1048903526261743
 40
0.2101047535322983
 40
0.2101047535322983
 40
0.2101047535322983
 40
0.3162305490488653
 40
0.3162305490488653
 40
0.3162305490488653
 40
0.4241570546332952
 40
0.4241570546332952
 40
0.4241570546332952
 40
0.5336935140251547
 40
0.5336935140251547
 40
0.5336935140251547
 40
0.6439369875344311
 40
0.6439369875344311
 40
0.6439369875344311
 40
0.7536302035551613
 40
0.7536302035551613
 40
0.7536302035551613
 40
0.8617456950839538
 40
0.8617456950839538
 40
0.8617456950839538
 40
0.967987790552706
 40
0.967987790552706
 40
0.967987790552706
 40
1.0
 40
1.0
 40
1.0
 40
1.0
 10
137.9685108788638
 20
122.9367766611033
 30
0.0
 10
137.9687172331626
 20
122.918765334006
 30
0.0
 10
137.9695156584192
 20
122.899834649254
 30
0.0
 10
137.9708361298266
 20
122.8815513448941
 30
0.0
 10
137.9721610015818
 20
122.8632071131282
 30
0.0
 10
137.9740468394378
 20
122.8450140809858
 30
0.0
 10
137.9763332484266
 20
122.8284387615846
 30
0.0
 10
137.9786396304595
 20
122.8117186476222
 30
0.0
 10
137.9814152164177
 20
122.7961912943151
 30
0.0
 10
137.9844321647897
 20
122.7830711135266
 30
0.0
 10
137.9874997075839
 20
122.7697309064449
 30
0.0
 10
137.9908995133232
 20
122.7585167905314
 30
0.0
 10
137.9943561179267
 20
122.7503038427261
 30
0.0
 10
137.9978632362921
 20
122.7419708734148
 30
0.0
 10
138.0015248381822
 20
122.7364996289285
 30
0.0
 10
138.005041274138
 20
122.7343370339058
 30
0.0
 10
138.0085793998194
 20
122.7321610997827
 30
0.0
 10
138.0120688721926
 20
122.7332774535708
 30
0.0
 10
138.0152153897799
 20
122.7376268103805
 30
0.0
 10
138.0183457645081
 20
122.7419538532982
 30
0.0
 10
138.0212244190025
 20
122.7496074813139
 30
0.0
 10
138.0235994091262
 20
122.759985466686
 30
0.0
 10
138.0259404355006
 20
122.7702150407908
 30
0.0
 10
138.0278576332118
 20
122.7833842503344
 30
0.0
 10
138.029178725744
 20
122.7984007298833
 30
0.0
 10
138.0304772819633
 20
122.8131610456341
 30
0.0
 10
138.031236014433
 20
122.830120898635
 30
0.0
 10
138.0313864835104
 20
122.847851999858
 30
0.0
 10
138.0314324237858
 20
122.8532655485316
 30
0.0
 10
138.0314234109581
 20
122.8587789739429
 30
0.0
 10
138.031359523159
 20
122.8643475780029
 30
0.0
  0
ARC
  5
3E0
330
34C
100
AcDbEntity
  8
K113
  6
Continuous
 62
     7
100
AcDbCircle
 10
181.0872345312
 20
123.4307843449
 30
0.0
 40
43.12155346487556
100
AcDbArc
 50
179.3989153078
 51
180.6564043321
  0
SPLINE
  5
3E1
330
34C
100
AcDbEntity
  8
K113
  6
Continuous
 62
     7
100
AcDbSpline
210
0.0
220
0.0
230
1.0
 70
     8
 71
     3
 72
    10
 73
     6
 74
     0
 42
0.0000000469056905
 43
0.0000000001
 40
0.0
 40
0.0
 40
0.0
 40
0.0
 40
0.5
 40
0.5
 40
1.0
 40
1.0
 40
1.0
 40
1.0
 10
138.0140783871288
 20
124.0585239984594
 30
0.0
 10
138.0026373173367
 20
124.0716071830649
 30
0.0
 10
137.9911892226447
 20
124.0605504312087
 30
0.0
 10
137.9741374532458
 20
123.9963235376913
 30
0.0
 10
137.9686844519703
 20
123.9432526671199
 30
0.0
 10
137.9680540049083
 20
123.8831602523024
 30
0.0
  0
ELLIPSE
  5
3E2
330
34C
100
AcDbEntity
  8
K113
  6
Continuous
 62
     7
100
AcDbEllipse
 10
183.206466605
 20
123.3808333702
 30
0.0
 11
-45.19771885387976
 21
-1.400518395966812E-7
 31
0.0
210
0.0
220
0.0
230
1.0
 40
0.9762960099
 41
6.24775915437424
 42
6.267826743139038
  0
SPLINE
  5
3E3
330
34C
100
AcDbEntity
  8
K113
  6
Continuous
 62
     7
100
AcDbSpline
210
0.0
220
0.0
230
1.0
 70
     8
 71
     3
 72
    14
 73
    10
 74
     0
 42
0.0000000107135392
 43
0.0000000001
 40
0.0
 40
0.0
 40
0.0
 40
0.0
 40
0.25
 40
0.25
 40
0.5
 40
0.5
 40
0.75
 40
0.75
 40
1.0
 40
1.0
 40
1.0
 40
1.0
 10
137.8252916241126
 20
124.1430352580314
 30
0.0
 10
137.8269853587237
 20
124.2801986065464
 30
0.0
 10
137.8339229419955
 20
124.4087244429626
 30
0.0
 10
137.857200183714
 20
124.6355965023682
 30
0.0
 10
137.8735374258299
 20
124.7326677337823
 30
0.0
 10
137.9126656365738
 20
124.8792485070761
 30
0.0
 10
137.9357713413659
 20
124.9296897822842
 30
0.0
 10
137.9846972598281
 20
124.9764792953294
 30
0.0
 10
138.0109765074944
 20
124.9735984808579
 30
0.0
 10
138.0371066266805
 20
124.9437331816836
 30
0.0
  0
ARC
  5
3E4
330
34C
100
AcDbEntity
  8
K113
  6
Continuous
 62
     7
100
AcDbCircle
 10
181.0805004937
 20
123.6089068253
 30
0.0
 40
43.25850654305543
100
AcDbArc
 50
179.2925303013
 51
180.461980871
  0
ARC
  5
3E5
330
34C
100
AcDbEntity
  8
K113
  6
Continuous
 62
     7
100
AcDbCircle
 10
147.5685759889
 20
123.3420095776
 30
0.0
 40
9.745519966352044
100
AcDbArc
 50
180.4814884563
 51
183.8107297264
  0
SPLINE
  5
3E6
330
34C
100
AcDbEntity
  8
K113
  6
Continuous
 62
     7
100
AcDbSpline
210
0.0
220
0.0
230
1.0
 70
     8
 71
     3
 72
    10
 73
     6
 74
     0
 42
0.0000000112117932
 43
0.0000000001
 40
0.0
 40
0.0
 40
0.0
 40
0.0
 40
0.5
 40
0.5
 40
1.0
 40
1.0
 40
1.0
 40
1.0
 10
138.0247791636417
 20
121.832079106594
 30
0.0
 10
137.9865261779836
 20
121.8761488324819
 30
0.0
 10
137.9483321738357
 20
121.983466595333
 30
0.0
 10
137.8837157087131
 20
122.2911399732598
 30
0.0
 10
137.8582776786444
 20
122.4879422670595
 30
0.0
 10
137.844602979834
 20
122.6943149474804
 30
0.0
  0
SPLINE
  5
3E7
330
34C
100
AcDbEntity
  8
K113
  6
Continuous
 62
     7
100
AcDbSpline
210
0.0
220
0.0
230
1.0
 70
    12
 71
     2
 72
     6
 73
     3
 74
     0
 42
0.0000001603562039
 43
0.0000000001
 40
0.0
 40
0.0
 40
0.0
 40
1.0
 40
1.0
 40
1.0
 10
138.0659619236891
 20
121.7852524816033
 30
0.0
 41
1.0
 10
138.0451114315345
 20
121.8086551187065
 30
0.0
 41
1.0
 10
138.0247791636417
 20
121.832079106594
 30
0.0
 41
1.0
  0
SPLINE
  5
3E8
330
34C
100
AcDbEntity
  8
K113
  6
Continuous
 62
     7
100
AcDbSpline
210
0.0
220
0.0
230
1.0
 70
     8
 71
     3
 72
    12
 73
     8
 74
     0
 42
0.0000000141816075
 43
0.0000000001
 40
0.0
 40
0.0
 40
0.0
 40
0.0
 40
0.2499999999999997
 40
0.2499999999999997
 40
0.4999999999999994
 40
0.4999999999999994
 40
1.0
 40
1.0
 40
1.0
 40
1.0
 10
138.1999676029165
 20
122.3683391730479
 30
0.0
 10
138.2018593981994
 20
122.2686071418427
 30
0.0
 10
138.1997842774257
 20
122.1749982217745
 30
0.0
 10
138.1881637759736
 20
122.0097157712341
 30
0.0
 10
138.1785875768943
 20
121.9389248306741
 30
0.0
 10
138.1413064857236
 20
121.7787047003442
 30
0.0
 10
138.1046353650082
 20
121.7418453281409
 30
0.0
 10
138.0659619236891
 20
121.7852524816033
 30
0.0
  0
ARC
  5
3E9
330
34C
100
AcDbEntity
  8
K113
  6
Continuous
 62
     7
100
AcDbCircle
 10
181.0980100102
 20
123.1820628413
 30
0.0
 40
42.90575943591998
100
AcDbArc
 50
179.2528903941
 51
181.0867008982
  0
SPLINE
  5
3EA
330
34C
100
AcDbEntity
  8
K113
  6
Continuous
 62
     7
100
AcDbSpline
210
0.0
220
0.0
230
1.0
 70
     8
 71
     3
 72
    35
 73
    31
 74
     0
 42
0.0000000282706378
 43
0.0000000001
 40
0.0
 40
0.0
 40
0.0
 40
0.0
 40
0.1038569263879373
 40
0.1038569263879373
 40
0.1038569263879373
 40
0.2080445261506469
 40
0.2080445261506469
 40
0.2080445261506469
 40
0.3130784097678387
 40
0.3130784097678387
 40
0.3130784097678387
 40
0.4202704357862202
 40
0.4202704357862202
 40
0.4202704357862202
 40
0.5297560987338495
 40
0.5297560987338495
 40
0.5297560987338495
 40
0.6406865720051508
 40
0.6406865720051508
 40
0.6406865720051508
 40
0.7515178461440513
 40
0.7515178461440513
 40
0.7515178461440513
 40
0.860701496181385
 40
0.860701496181385
 40
0.860701496181385
 40
0.9674562836498684
 40
0.9674562836498684
 40
0.9674562836498684
 40
1.0
 40
1.0
 40
1.0
 40
1.0
 10
138.2673340418692
 20
123.6693732057204
 30
0.0
 10
138.267566673235
 20
123.687184362582
 30
0.0
 10
138.2671411258485
 20
123.7059152247029
 30
0.0
 10
138.2660955409419
 20
123.724016883321
 30
0.0
 10
138.2650463863298
 20
123.7421803423643
 30
0.0
 10
138.2633451894231
 20
123.7602047097065
 30
0.0
 10
138.261140150593
 20
123.7766372609837
 30
0.0
 10
138.2589168572523
 20
123.7932058498575
 30
0.0
 10
138.2561227218566
 20
123.8086036746386
 30
0.0
 10
138.2529898347422
 20
123.8216442313998
 30
0.0
 10
138.2497931231939
 20
123.8349504556175
 30
0.0
 10
138.246158561681
 20
123.8461619606949
 30
0.0
 10
138.2423800879745
 20
123.8544317705922
 30
0.0
 10
138.2385221074371
 20
123.8628755942388
 30
0.0
 10
138.2344095173394
 20
123.8684825667328
 30
0.0
 10
138.2303750609004
 20
123.8708173537661
 30
0.0
 10
138.2262889759567
 20
123.8731820188177
 30
0.0
 10
138.2221700000325
 20
123.8722527972345
 30
0.0
 10
138.2183613870739
 20
123.8680781597639
 30
0.0
 10
138.2145572097752
 20
123.8639083842396
 30
0.0
 10
138.2109558186631
 20
123.8563773562696
 30
0.0
 10
138.2078715761577
 20
123.846067597718
 30
0.0
 10
138.204833192449
 20
123.8359111322752
 30
0.0
 10
138.2022110668371
 20
123.8227634626009
 30
0.0
 10
138.2002435889279
 20
123.8077101370916
 30
0.0
 10
138.1983193323964
 20
123.7929875016832
 30
0.0
 10
138.1969674487446
 20
123.7760229516664
 30
0.0
 10
138.1963127571453
 20
123.7582552717458
 30
0.0
 10
138.1961104908223
 20
123.7527659645819
 30
0.0
 10
138.1959718585235
 20
123.7471709484517
 30
0.0
 10
138.1958981374119
 20
123.7415176023778
 30
0.0
  0
ARC
  5
3EB
330
34C
100
AcDbEntity
  8
K113
  6
Continuous
 62
     7
100
AcDbCircle
 10
181.1012069616
 20
123.1099203619
 30
0.0
 40
42.83752627919298
100
AcDbArc
 50
179.2517028678
 51
180.5175322242
  0
SPLINE
  5
3EC
330
34C
100
AcDbEntity
  8
K113
  6
Continuous
 62
     7
100
AcDbSpline
210
0.0
220
0.0
230
1.0
 70
     8
 71
     3
 72
    10
 73
     6
 74
     0
 42
0.0000000423231343
 43
0.0000000001
 40
0.0
 40
0.0
 40
0.0
 40
0.0
 40
0.5
 40
0.5
 40
1.0
 40
1.0
 40
1.0
 40
1.0
 10
138.213741858957
 20
122.5300899752727
 30
0.0
 10
138.2278095493442
 20
122.5157473594538
 30
0.0
 10
138.2413876103367
 20
122.5277417365422
 30
0.0
 10
138.2606017387883
 20
122.5983194607006
 30
0.0
 10
138.2660259996841
 20
122.6568089918928
 30
0.0
 10
138.265428197601
 20
122.7229896145212
 30
0.0
  0
ARC
  5
3ED
330
34C
100
AcDbEntity
  8
K113
  6
Continuous
 62
     7
100
AcDbCircle
 10
181.100410139
 20
123.1648907828
 30
0.0
 40
42.89136603812651
100
AcDbArc
 50
180.8480199712
 51
181.9555636425
  0
SPLINE
  5
3EE
330
34C
100
AcDbEntity
  8
K113
  6
Continuous
 62
     7
100
AcDbSpline
210
0.0
220
0.0
230
1.0
 70
     8
 71
     3
 72
    12
 73
     8
 74
     0
 42
0.0000000101775152
 43
0.0000000001
 40
0.0
 40
0.0
 40
0.0
 40
0.0
 40
0.2500000000000001
 40
0.2500000000000001
 40
0.5000000000000002
 40
0.5000000000000002
 40
1.0
 40
1.0
 40
1.0
 40
1.0
 10
138.4429136346578
 20
122.5290908581161
 30
0.0
 10
138.4442339443448
 20
122.3923778661705
 30
0.0
 10
138.4397648370133
 20
122.2640863390076
 30
0.0
 10
138.4200287688082
 20
122.0359740654374
 30
0.0
 10
138.4047774845652
 20
121.9378293740273
 30
0.0
 10
138.3469029261919
 20
121.7116473027659
 30
0.0
 10
138.2917711979713
 20
121.6530215912846
 30
0.0
 10
138.2340243270406
 20
121.701248737793
 30
0.0
  0
ARC
  5
3EF
330
34C
100
AcDbEntity
  8
K113
  6
Continuous
 62
     7
100
AcDbCircle
 10
181.1095200719
 20
122.9411448479
 30
0.0
 40
42.66859609075699
100
AcDbArc
 50
179.2280278893
 51
180.5533184515
  0
ARC
  5
3F0
330
34C
100
AcDbEntity
  8
K113
  6
Continuous
 62
     7
100
AcDbCircle
 10
134.0690112101
 20
123.6131853528
 30
0.0
 40
4.376864250345491
100
AcDbArc
 50
358.72795407
 51
11.8531252547
  0
LINE
  5
3F1
330
34C
100
AcDbEntity
  8
K113
  6
Continuous
 62
     7
100
AcDbLine
 10
138.295803936
 20
121.7012487378
 30
0.0
 11
138.234024327
 21
121.7012487378
 31
0.0
  0
LINE
  5
3F2
330
34C
100
AcDbEntity
  8
K113
  6
Continuous
 62
     7
100
AcDbLine
 10
138.4414816625
 20
122.7229896145
 30
0.0
 11
138.2654281976
 21
122.7229896145
 31
0.0
  0
LINE
  5
3F3
330
34C
100
AcDbEntity
  8
K113
  6
Continuous
 62
     7
100
AcDbLine
 10
138.4416468428
 20
123.6693732057
 30
0.0
 11
138.2673340419
 21
123.6693732057
 31
0.0
  0
LINE
  5
3F4
330
34C
100
AcDbEntity
  8
K113
  6
Continuous
 62
     7
100
AcDbLine
 10
138.1170916897
 20
121.7852524816
 30
0.0
 11
138.0659619237
 21
121.7852524816
 31
0.0
  0
LINE
  5
3F5
330
34C
100
AcDbEntity
  8
K113
  6
Continuous
 62
     7
100
AcDbLine
 10
138.1486409544
 20
121.8320791066
 30
0.0
 11
138.0247791636
 21
121.8320791066
 31
0.0
  0
LINE
  5
3F6
330
34C
100
AcDbEntity
  8
K113
  6
Continuous
 62
     7
100
AcDbLine
 10
138.0474290637
 20
122.6943149475
 30
0.0
 11
137.8446029798
 21
122.6943149475
 31
0.0
  0
LINE
  5
3F7
330
34C
100
AcDbEntity
  8
K113
  6
Continuous
 62
     7
100
AcDbLine
 10
137.9660188158
 20
123.2601134908
 30
0.0
 11
137.8234001338
 21
123.2601134908
 31
0.0
  0
LINE
  5
3F8
330
34C
100
AcDbEntity
  8
K113
  6
Continuous
 62
     7
100
AcDbLine
 10
138.0154909023
 20
124.143035258
 30
0.0
 11
137.8252916241
 21
124.143035258
 31
0.0
  0
LINE
  5
3F9
330
34C
100
AcDbEntity
  8
K113
  6
Continuous
 62
     7
100
AcDbLine
 10
138.1934269444
 20
122.864347578
 30
0.0
 11
138.0313595232
 21
122.864347578
 31
0.0
  0
LINE
  5
3FA
330
34C
100
AcDbEntity
  8
K113
  6
Continuous
 62
     7
100
AcDbLine
 10
138.2387298502
 20
124.1076326583
 30
0.0
 11
138.0350447905
 21
124.1076326583
 31
0.0
  0
ARC
  5
3FB
330
34C
100
AcDbEntity
  8
K113
  6
Continuous
 62
     7
100
AcDbCircle
 10
181.1099977173
 20
123.16489101
 30
0.0
 40
42.69647734478608
100
AcDbArc
 50
180.8518913602
 51
181.3631010476
  0
SPLINE
  5
3FC
330
34C
100
AcDbEntity
  8
K113
  6
Continuous
 62
     7
100
AcDbSpline
210
0.0
220
0.0
230
1.0
 70
     8
 71
     3
 72
    10
 73
     6
 74
     0
 42
0.0000000099116349
 43
0.0000000001
 40
0.2310076749562029
 40
0.2310076749562029
 40
0.2310076749562029
 40
0.2310076749562029
 40
0.5
 40
0.5
 40
1.0
 40
1.0
 40
1.0
 40
1.0
 10
138.1757745634245
 20
121.9320093110075
 30
0.0
 10
138.1558045507054
 20
121.9852351282528
 30
0.0
 10
138.1366345607999
 20
122.0545279647224
 30
0.0
 10
138.0867230938067
 20
122.2911069543695
 30
0.0
 10
138.0611666640069
 20
122.4879199819677
 30
0.0
 10
138.0474290637329
 20
122.6943149474804
 30
0.0
  0
ARC
  5
3FD
330
34C
100
AcDbEntity
  8
K113
  6
Continuous
 62
     7
100
AcDbCircle
 10
147.7279287677
 20
123.3420125898
 30
0.0
 40
9.70214341028318
100
AcDbArc
 50
183.5982564963
 51
183.827809984
  0
ARC
  5
3FE
330
34C
100
AcDbEntity
  8
K113
  6
Continuous
 62
     7
100
AcDbCircle
 10
181.0998514838
 20
123.3583642066
 30
0.0
 40
42.86767026588511
100
AcDbArc
 50
178.9984968639
 51
179.3133285408
  0
SPLINE
  5
3FF
330
34C
100
AcDbEntity
  8
K113
  6
Continuous
 62
     7
100
AcDbSpline
210
0.0
220
0.0
230
1.0
 70
     8
 71
     3
 72
    12
 73
     8
 74
     0
 42
0.0000000091959731
 43
0.0000000001
 40
0.0
 40
0.0
 40
0.0
 40
0.0
 40
0.25
 40
0.25
 40
0.5
 40
0.5
 40
0.5021378669486476
 40
0.5021378669486476
 40
0.5021378669486476
 40
0.5021378669486476
 10
138.2387298502246
 20
124.1076326582555
 30
0.0
 10
138.2407053073906
 20
124.2206354712938
 30
0.0
 10
138.247728568555
 20
124.326384202389
 30
0.0
 10
138.2705563672455
 20
124.5106613404721
 30
0.0
 10
138.2864196804052
 20
124.5886724611965
 30
0.0
 10
138.3052918311914
 20
124.6463853604042
 30
0.0
 10
138.3054520786598
 20
124.6468732542661
 30
0.0
 10
138.3056125560764
 20
124.6473596946225
 30
0.0
  0
ARC
  5
400
330
34C
100
AcDbEntity
  8
K113
  6
Continuous
 62
     7
100
AcDbCircle
 10
155.1137200567
 20
118.6848624978
 30
0.0
 40
17.15065815059512
100
AcDbArc
 50
178.9942253081
 51
181.0057746919
  0
ARC
  5
401
330
34C
100
AcDbEntity
  8
K113
  6
Continuous
 62
     7
100
AcDbCircle
 10
139.5641618742
 20
118.4672089447
 30
0.0
 40
1.600631556175353
100
AcDbArc
 50
182.9865376779
 51
193.1494079578
  0
ELLIPSE
  5
402
330
34C
100
AcDbEntity
  8
K113
  6
Continuous
 62
     7
100
AcDbEllipse
 10
183.206467976
 20
124.8080173091
 30
0.0
 11
-45.99484105188267
 21
-4.534703593799043E-7
 31
0.0
210
0.0
220
0.0
230
1.0
 40
0.7880107446
 41
0.1860639456773208
 42
0.2075348502673537
  0
SPLINE
  5
403
330
34C
100
AcDbEntity
  8
K113
  6
Continuous
 62
     7
100
AcDbSpline
210
0.0
220
0.0
230
1.0
 70
     8
 71
     3
 72
    10
 73
     6
 74
     0
 42
0.0000000714827741
 43
0.0000000001
 40
0.0
 40
0.0
 40
0.0
 40
0.0
 40
0.5
 40
0.5
 40
1.0
 40
1.0
 40
1.0
 40
1.0
 10
138.2385504267708
 20
117.3054449018464
 30
0.0
 10
138.2391306563569
 20
117.2725937928238
 30
0.0
 10
138.2350087842437
 20
117.2580474636114
 30
0.0
 10
138.2201914650426
 20
117.2712805633976
 30
0.0
 10
138.2095817784575
 20
117.2987882293928
 30
0.0
 10
138.1985922383709
 20
117.3399147575026
 30
0.0
  0
ARC
  5
404
330
34C
100
AcDbEntity
  8
K113
  6
Continuous
 62
     7
100
AcDbCircle
 10
155.2831468529
 20
117.6064934638
 30
0.0
 40
17.0472548395862
100
AcDbArc
 50
178.9881239613
 51
181.0118760387
  0
ARC
  5
405
330
34C
100
AcDbEntity
  8
K113
  6
Continuous
 62
     7
100
AcDbCircle
 10
136.9933819933
 20
117.873522574
 30
0.0
 40
1.245633072334438
100
AcDbArc
 50
1.5649981039
 51
14.6365062339
  0
ELLIPSE
  5
406
330
34C
100
AcDbEntity
  8
K113
  6
Continuous
 62
     7
100
AcDbEllipse
 10
183.2064680134
 20
125.6563790275
 30
0.0
 11
-45.99484108934276
 21
-4.649581635773952E-7
 31
0.0
210
0.0
220
0.0
230
1.0
 40
0.7880107443
 41
0.1860639454045191
 42
0.2075348499857082
  0
SPLINE
  5
407
330
34C
100
AcDbEntity
  8
K113
  6
Continuous
 62
     7
100
AcDbSpline
210
0.0
220
0.0
230
1.0
 70
     8
 71
     3
 72
    10
 73
     6
 74
     0
 42
0.0000000717116613
 43
0.0000000001
 40
0.0
 40
0.0
 40
0.0
 40
0.0
 40
0.5
 40
0.5
 40
1.0
 40
1.0
 40
1.0
 40
1.0
 10
137.9657042891694
 20
118.9859110597424
 30
0.0
 10
137.966280533903
 20
119.0187345142504
 30
0.0
 10
137.9710079164703
 20
119.0332759798032
 30
0.0
 10
137.9857203584382
 20
119.0201628429582
 30
0.0
 10
137.9956393983451
 20
118.9927136504002
 30
0.0
 10
138.0054986267629
 20
118.9514412040862
 30
0.0
  0
SPLINE
  5
408
330
34C
100
AcDbEntity
  8
K113
  6
Continuous
 62
     7
100
AcDbSpline
210
0.0
220
0.0
230
1.0
 70
     8
 71
     3
 72
    12
 73
     8
 74
     0
 42
0.000000019131039
 43
0.0000000001
 40
0.0
 40
0.0
 40
0.0
 40
0.0
 40
0.2499999999999997
 40
0.2499999999999997
 40
0.4999999999999993
 40
0.4999999999999993
 40
1.0
 40
1.0
 40
1.0
 40
1.0
 10
138.2777268753632
 20
116.5634625436117
 30
0.0
 10
138.298916738488
 20
116.4864059302131
 30
0.0
 10
138.3193631507112
 20
116.4224250243656
 30
0.0
 10
138.3571271384749
 20
116.3255964319331
 30
0.0
 10
138.3740885735795
 20
116.2939016836358
 30
0.0
 10
138.415501454472
 20
116.256307076332
 30
0.0
 10
138.4298720701362
 20
116.3109365048609
 30
0.0
 10
138.4259866744361
 20
116.4342005849009
 30
0.0
  0
ELLIPSE
  5
409
330
34C
100
AcDbEntity
  8
K113
  6
Continuous
 62
     7
100
AcDbEllipse
 10
183.2064669495
 20
124.2354301686
 30
0.0
 11
-45.9714996944984
 21
-3.332519381497981E-8
 31
0.0
210
0.0
220
0.0
230
1.0
 40
0.7880107529
 41
0.1804359425037307
 42
0.2133964127451756
  0
ARC
  5
40A
330
34C
100
AcDbEntity
  8
K113
  6
Continuous
 62
     7
100
AcDbCircle
 10
144.2512621105
 20
119.1707353017
 30
0.0
 40
6.432396926984881
100
AcDbArc
 50
183.4190719454
 51
192.9031096596
  0
ARC
  5
40B
330
34C
100
AcDbEntity
  8
K113
  6
Continuous
 62
     7
100
AcDbCircle
 10
155.0296483768
 20
119.3221375444
 30
0.0
 40
17.20765320907515
100
AcDbArc
 50
178.2182678946
 51
181.7817321054
  0
SPLINE
  5
40C
330
34C
100
AcDbEntity
  8
K113
  6
Continuous
 62
     7
100
AcDbSpline
210
0.0
220
0.0
230
1.0
 70
     8
 71
     3
 72
    12
 73
     8
 74
     0
 42
0.0000000191910974
 43
0.0000000001
 40
0.0
 40
0.0
 40
0.0
 40
0.0
 40
0.2500000000000001
 40
0.2500000000000001
 40
0.5000000000000001
 40
0.5000000000000001
 40
1.0
 40
1.0
 40
1.0
 40
1.0
 10
137.9812891486971
 20
119.7278973141921
 30
0.0
 10
137.9633495431287
 20
119.8053921420095
 30
0.0
 10
137.9454128764905
 20
119.8695453267595
 30
0.0
 10
137.9110290934438
 20
119.9663015815572
 30
0.0
 10
137.8948718583003
 20
119.9978058257607
 30
0.0
 10
137.8529759881434
 20
120.0348466671093
 30
0.0
 10
137.8341447272126
 20
119.9802847586256
 30
0.0
 10
137.8303146480225
 20
119.857159272903
 30
0.0
  0
ELLIPSE
  5
40D
330
34C
100
AcDbEntity
  8
K113
  6
Continuous
 62
     7
100
AcDbEllipse
 10
183.2064669494
 20
126.2289658396
 30
0.0
 11
-45.97149969442534
 21
-3.549821404227995E-8
 31
0.0
210
0.0
220
0.0
230
1.0
 40
0.7880107529
 41
0.1804359424671461
 42
0.2133964127085831
  0
ARC
  5
40E
330
34C
100
AcDbEntity
  8
K113
  6
Continuous
 62
     7
100
AcDbCircle
 10
134.2199877519
 20
117.4487283293
 30
0.0
 40
4.206365287395659
100
AcDbArc
 50
0.7562130646
 51
15.2763255236
  0
ARC
  5
40F
330
34C
100
AcDbEntity
  8
K113
  6
Continuous
 62
     7
100
AcDbCircle
 10
155.3995374429
 20
116.9692223134
 30
0.0
 40
16.98198086028717
100
AcDbArc
 50
178.1945827939
 51
181.8054172061
  0
LINE
  5
410
330
34C
100
AcDbEntity
  8
K113
  6
Continuous
 62
     7
100
AcDbLine
 10
138.1721710286
 20
118.9514412041
 30
0.0
 11
138.0054986268
 21
118.9514412041
 31
0.0
  0
LINE
  5
411
330
34C
100
AcDbEntity
  8
K113
  6
Continuous
 62
     7
100
AcDbLine
 10
138.3584373245
 20
118.1882764715
 30
0.0
 11
138.1985922384
 21
118.1882764715
 31
0.0
  0
LINE
  5
412
330
34C
100
AcDbEntity
  8
K113
  6
Continuous
 62
     7
100
AcDbLine
 10
138.401047899
 20
117.9075420257
 30
0.0
 11
138.2385504268
 21
117.9075420257
 31
0.0
  0
LINE
  5
413
330
34C
100
AcDbEntity
  8
K113
  6
Continuous
 62
     7
100
AcDbLine
 10
138.4208848322
 20
117.3054449018
 30
0.0
 11
138.2385504268
 21
117.3054449018
 31
0.0
  0
LINE
  5
414
330
34C
100
AcDbEntity
  8
K113
  6
Continuous
 62
     7
100
AcDbLine
 10
137.9460878862
 20
119.8571592729
 30
0.0
 11
137.830314648
 21
119.8571592729
 31
0.0
  0
ARC
  5
415
330
34C
100
AcDbEntity
  8
K113
  6
Continuous
 62
     7
100
AcDbCircle
 10
155.155555617
 20
119.3221375444
 30
0.0
 40
17.13083584331551
100
AcDbArc
 50
179.2802138672
 51
180.9827871694
  0
LINE
  5
416
330
34C
100
AcDbEntity
  8
K113
  6
Continuous
 62
     7
100
AcDbLine
 10
137.9633666302
 20
118.7871158158
 30
0.0
 11
137.830314648
 21
118.7871158158
 31
0.0
  0
LINE
  5
417
330
34C
100
AcDbEntity
  8
K113
  6
Continuous
 62
     7
100
AcDbLine
 10
138.0960911677
 20
117.7343616441
 30
0.0
 11
137.9812891487
 21
117.7343616441
 31
0.0
  0
ELLIPSE
  5
418
330
34C
100
AcDbEntity
  8
K113
  6
Continuous
 62
     7
100
AcDbEllipse
 10
183.2064665498
 20
124.2354301057
 30
0.0
 11
-45.77137476120933
 21
1.294170197623436E-7
 31
0.0
210
0.0
220
0.0
230
1.0
 40
0.7880107562
 41
0.1945350403772669
 42
0.2076560640447329
  0
LINE
  5
419
330
34C
100
AcDbEntity
  8
K113
  6
Continuous
 62
     7
100
AcDbLine
 10
138.4224045602
 20
116.5634625436
 30
0.0
 11
138.2777268754
 21
116.5634625436
 31
0.0
  0
ELLIPSE
  5
41A
330
34C
100
AcDbEntity
  8
K113
  6
Continuous
 62
     7
100
AcDbEllipse
 10
183.2064680834
 20
120.0990841966
 30
0.0
 11
-44.96854420498918
 21
-7.222222636909043E-8
 31
0.0
210
0.0
220
0.0
230
1.0
 40
0.8480480847
 41
0.0103927911754361
 42
0.0299605012298455
  0
ELLIPSE
  5
41B
330
34C
100
AcDbEntity
  8
K113
  6
Continuous
 62
     7
100
AcDbEllipse
 10
183.2064667988
 20
124.8358709059
 30
0.0
 11
-45.9976258837076
 21
9.091999804286976E-9
 31
0.0
210
0.0
220
0.0
230
1.0
 40
0.5299192646
 41
0.1637826466091503
 42
0.212177475352983
  0
ARC
  5
41C
330
34C
100
AcDbEntity
  8
K113
  6
Continuous
 62
     7
100
AcDbCircle
 10
170.4625279421
 20
121.2578157868
 30
0.0
 40
32.640533590133
100
AcDbArc
 50
179.3042875098
 51
180.6957124902
  0
ELLIPSE
  5
41D
330
34C
100
AcDbEntity
  8
K113
  6
Continuous
 62
     7
100
AcDbEllipse
 10
183.2064668006
 20
125.6285250625
 30
0.0
 11
-45.99762588547463
 21
8.853330151669269E-9
 31
0.0
210
0.0
220
0.0
230
1.0
 40
0.5299192646
 41
0.1637826466032884
 42
0.21217747534618
  0
ELLIPSE
  5
41E
330
34C
100
AcDbEntity
  8
K113
  6
Continuous
 62
     7
100
AcDbEllipse
 10
183.2064652304
 20
120.0990842057
 30
0.0
 11
-44.96854135208135
 21
-1.046270525872814E-7
 31
0.0
210
0.0
220
0.0
230
1.0
 40
0.8480481116
 41
6.25321897908128
 42
6.27279251233925
  0
ELLIPSE
  5
41F
330
34C
100
AcDbEntity
  8
K113
  6
Continuous
 62
     7
100
AcDbEllipse
 10
183.2064719389
 20
126.3748080007
 30
0.0
 11
-45.98026903781327
 21
-8.235061537583463E-7
 31
0.0
210
0.0
220
0.0
230
1.0
 40
0.5299192372
 41
0.2122587965249413
 42
0.2307824708110791
  0
ARC
  5
420
330
34C
100
AcDbEntity
  8
K113
  6
Continuous
 62
     7
100
AcDbCircle
 10
170.6368689554
 20
119.658774677
 30
0.0
 40
32.21189528869876
100
AcDbArc
 50
177.9671972062
 51
182.0324079037
  0
ELLIPSE
  5
421
330
34C
100
AcDbEntity
  8
K113
  6
Continuous
 62
     7
100
AcDbEllipse
 10
183.2064670644
 20
124.0898105591
 30
0.0
 11
-45.98027182997717
 21
-3.222221087526532E-8
 31
0.0
210
0.0
220
0.0
230
1.0
 40
0.5299192632
 41
0.2122587808467344
 42
0.2307824528934199
  0
LINE
  5
422
330
34C
100
AcDbEntity
  8
K113
  6
Continuous
 62
     7
100
AcDbLine
 10
138.4358400589
 20
120.4954112545
 30
0.0
 11
138.2403523858
 21
120.4954112545
 31
0.0
  0
ARC
  5
423
330
34C
100
AcDbEntity
  8
K113
  6
Continuous
 62
     7
100
AcDbCircle
 10
170.5194589639
 20
121.2578157868
 30
0.0
 40
32.49474002062912
100
AcDbArc
 50
180.3554683956
 51
180.6988340854
  0
LINE
  5
424
330
34C
100
AcDbEntity
  8
K113
  6
Continuous
 62
     7
100
AcDbLine
 10
138.0271359651
 20
120.8614887086
 30
0.0
 11
137.8244005771
 21
120.8614887086
 31
0.0
  0
ELLIPSE
  5
425
330
34C
100
AcDbEntity
  8
K113
  6
Continuous
 62
     7
100
AcDbEllipse
 10
183.2064667967
 20
124.8358709057
 30
0.0
 11
-45.79761551397987
 21
9.376982066140028E-9
 31
0.0
210
0.0
220
0.0
230
1.0
 40
0.5299192646
 41
0.1645044372437974
 42
0.2110576899452684
  0
LINE
  5
426
330
34C
100
AcDbEntity
  8
K113
  6
Continuous
 62
     7
100
AcDbLine
 10
138.4250019096
 20
119.7027570981
 30
0.0
 11
138.2403523858
 21
119.7027570981
 31
0.0
  0
LINE
  5
427
330
34C
100
AcDbEntity
  8
K113
  6
Continuous
 62
     7
100
AcDbLine
 10
138.4326249913
 20
118.9566967208
 30
0.0
 11
138.2581049645
 21
118.9566967208
 31
0.0
  0
ARC
  5
428
330
34C
100
AcDbEntity
  8
K113
  6
Continuous
 62
     7
100
AcDbCircle
 10
141.5411335529
 20
142.2321979908
 30
0.0
 40
0.9999999999999996
100
AcDbArc
 50
78.7486752997
 51
157.8038991432
  0
ARC
  5
429
330
34C
100
AcDbEntity
  8
K113
  6
Continuous
 62
     7
100
AcDbCircle
 10
141.5411335529
 20
108.2321979908
 30
0.0
 40
0.9999999999999911
100
AcDbArc
 50
202.1961008568
 51
281.2513247003
  0
LINE
  5
42A
330
34C
100
AcDbEntity
  8
K113
  6
Continuous
 62
     7
100
AcDbLine
 10
141.736246551
 20
107.2514172212
 30
0.0
 11
154.2064668649
 21
109.7321979908
 31
0.0
  0
LINE
  5
42B
330
34C
100
AcDbEntity
  8
K113
  6
Continuous
 62
     7
100
AcDbLine
 10
154.2064668649
 20
140.7321979908
 30
0.0
 11
141.736246551
 21
143.2129787604
 31
0.0
  0
LINE
  5
42C
330
34C
100
AcDbEntity
  8
K113
  6
Continuous
 62
     7
100
AcDbLine
 10
138.1723640424
 20
132.2195432122
 30
0.0
 11
138.319345035
 21
132.2195432122
 31
0.0
  0
LINE
  5
42D
330
34C
100
AcDbEntity
  8
K113
  6
Continuous
 62
     7
100
AcDbLine
 10
138.1654236166
 20
129.6430084306
 30
0.0
 11
138.3697002002
 21
129.6430084306
 31
0.0
  0
LINE
  5
42E
330
34C
100
AcDbEntity
  8
K113
  6
Continuous
 62
     7
100
AcDbLine
 10
138.2252021173
 20
122.5240724018
 30
0.0
 11
138.4297508246
 21
122.5240724018
 31
0.0
  0
LINE
  5
42F
330
34C
100
AcDbEntity
  8
K113
  6
Continuous
 62
     7
100
AcDbLine
 10
138.430599534
 20
123.8721071256
 30
0.0
 11
138.2260454318
 21
123.8721071256
 31
0.0
  0
LINE
  5
430
330
34C
100
AcDbEntity
  8
K113
  6
Continuous
 62
     7
100
AcDbLine
 10
138.0141648009
 20
124.0639945335
 30
0.0
 11
138.0046377726
 21
124.0639945335
 31
0.0
  0
LINE
  5
431
330
34C
100
AcDbEntity
  8
K113
  6
Continuous
 62
     7
100
AcDbLine
 10
138.0084196728
 20
122.7332427417
 30
0.0
 11
138.1945981331
 21
122.7332427417
 31
0.0
  0
ARC
  5
432
330
34C
100
AcDbEntity
  8
K113
  6
Continuous
 62
     7
100
AcDbCircle
 10
183.2064668649
 20
125.2321979908
 30
0.0
 40
46.00000000000001
100
AcDbArc
 50
182.491906369
 51
202.1961008568
  0
ARC
  5
433
330
34C
100
AcDbEntity
  8
K113
  6
Continuous
 62
     7
100
AcDbCircle
 10
183.2064668649
 20
125.2321979908
 30
0.0
 40
46.00000000000001
100
AcDbArc
 50
157.8038991432
 51
177.508093631
  0
LINE
  5
434
330
34C
100
AcDbEntity
  8
K113
  6
Continuous
 62
     7
100
AcDbLine
 10
138.1522769259
 20
119.028308909
 30
0.0
 11
137.9750127169
 21
119.028308909
 31
0.0
  0
LINE
  5
435
330
34C
100
AcDbEntity
  8
K113
  6
Continuous
 62
     7
100
AcDbLine
 10
138.2309387852
 20
117.2630470526
 30
0.0
 11
138.4200980383
 21
117.2630470526
 31
0.0
  0
ENDBLK
  5
437
330
34C
100
AcDbEntity
  8
0
100
AcDbBlockEnd
  0
BLOCK
  5
440
330
439
100
AcDbEntity
  8
0
100
AcDbBlockBegin
  2
DMBLK6
 70
     0
 10
0.0
 20
0.0
 30
0.0
  3
DMBLK6
  1

  0
HATCH
  5
43A
330
439
100
AcDbEntity
  8
Défaut
  6
Continuous
 62
     7
100
AcDbHatch
 10
0.0
 20
0.0
 30
0.0
210
0.0
220
0.0
230
1.0
  2
SOLID
 70
     1
 71
     0
 91
        1
 92
        1
 93
        3
 72
     1
 10
287.0160487229141
 20
265.7832853451987
 11
279.5160488905522
 21
264.5332853731384
 72
     1
 10
279.5160488905522
 20
264.5332853731384
 11
287.0160487229141
 21
263.2832854010781
 72
     1
 10
287.0160487229141
 20
263.2832854010781
 11
287.0160487229141
 21
265.7832853451987
 97
        0
 75
     0
 76
     1
 98
        0
  0
HATCH
  5
43B
330
439
100
AcDbEntity
  8
Défaut
  6
Continuous
 62
     7
100
AcDbHatch
 10
0.0
 20
0.0
 30
0.0
210
0.0
220
0.0
230
1.0
  2
SOLID
 70
     1
 71
     0
 91
        1
 92
        1
 93
        3
 72
     1
 10
309.0160495350274
 20
265.7832853451987
 11
309.0160495350274
 21
263.2832854010781
 72
     1
 10
309.0160495350274
 20
263.2832854010781
 11
316.5160493673893
 21
264.5332853731384
 72
     1
 10
316.5160493673893
 20
264.5332853731384
 11
309.0160495350274
 21
265.7832853451987
 97
        0
 75
     0
 76
     1
 98
        0
  0
LINE
  5
43C
330
439
100
AcDbEntity
  8
Défaut
  6
Continuous
 62
     7
100
AcDbLine
 10
279.5160488906
 20
242.4423902717
 30
0.0
 11
279.5160488906
 21
266.0332853862
 31
0.0
  0
LINE
  5
43D
330
439
100
AcDbEntity
  8
Défaut
  6
Continuous
 62
     7
100
AcDbLine
 10
316.5160494325
 20
242.4379127486
 30
0.0
 11
316.5160494325
 21
266.0332853862
 31
0.0
  0
LINE
  5
43E
330
439
100
AcDbEntity
  8
Défaut
  6
Continuous
 62
     7
100
AcDbLine
 10
279.5160488906
 20
264.5332853731
 30
0.0
 11
316.5160493674
 21
264.5332853731
 31
0.0
  0
TEXT
  5
43F
330
439
100
AcDbEntity
  8
Défaut
  6
Continuous
 62
     7
100
AcDbText
 10
294.2382713512
 20
267.0332853731
 30
0.0
 40
5.0
  1
37
  7
SEACAD_arial_ttfB
 11
294.2382713512
 21
272.0332853731
 31
0.0
100
AcDbText
 73
     3
  0
ENDBLK
  5
441
330
439
100
AcDbEntity
  8
0
100
AcDbBlockEnd
  0
BLOCK
  5
44A
330
443
100
AcDbEntity
  8
0
100
AcDbBlockBegin
  2
DMBLK7
 70
     0
 10
0.0
 20
0.0
 30
0.0
  3
DMBLK7
  1

  0
HATCH
  5
444
330
443
100
AcDbEntity
  8
Défaut
  6
Continuous
 62
     7
100
AcDbHatch
 10
0.0
 20
0.0
 30
0.0
210
0.0
220
0.0
230
1.0
  2
SOLID
 70
     1
 71
     0
 91
        1
 92
        1
 93
        3
 72
     1
 10
262.771570591661
 20
133.2321981584326
 11
261.5215706196007
 21
140.7321979907946
 72
     1
 10
261.5215706196007
 20
140.7321979907946
 11
260.2715706475404
 21
133.2321981584326
 72
     1
 10
260.2715706475404
 20
133.2321981584326
 11
262.771570591661
 21
133.2321981584326
 97
        0
 75
     0
 76
     1
 98
        0
  0
HATCH
  5
445
330
443
100
AcDbEntity
  8
Défaut
  6
Continuous
 62
     7
100
AcDbHatch
 10
0.0
 20
0.0
 30
0.0
210
0.0
220
0.0
230
1.0
  2
SOLID
 70
     1
 71
     0
 91
        1
 92
        1
 93
        3
 72
     1
 10
262.771570591661
 20
117.232198329796
 11
260.2715706475404
 21
117.232198329796
 72
     1
 10
260.2715706475404
 20
117.232198329796
 11
261.5215706196007
 21
109.732198497434
 72
     1
 10
261.5215706196007
 20
109.732198497434
 11
262.771570591661
 21
117.232198329796
 97
        0
 75
     0
 76
     1
 98
        0
  0
LINE
  5
446
330
443
100
AcDbEntity
  8
Défaut
  6
Continuous
 62
     7
100
AcDbLine
 10
222.2407760587
 20
140.7321979908
 30
0.0
 11
263.0215706326
 21
140.7321979908
 31
0.0
  0
LINE
  5
447
330
443
100
AcDbEntity
  8
Défaut
  6
Continuous
 62
     7
100
AcDbLine
 10
233.0742578956
 20
109.7321979908
 30
0.0
 11
263.0215706326
 21
109.7321979908
 31
0.0
  0
LINE
  5
448
330
443
100
AcDbEntity
  8
Défaut
  6
Continuous
 62
     7
100
AcDbLine
 10
261.5215706196
 20
140.7321979908
 30
0.0
 11
261.5215706196
 21
109.7321984974
 31
0.0
  0
TEXT
  5
449
330
443
100
AcDbEntity
  8
Défaut
  6
Continuous
 62
     7
100
AcDbText
 10
259.0215706196
 20
121.4544204663
 30
0.0
 40
5.0
  1
31
 50
90.0
  7
SEACAD_arial_ttfB
 11
254.0215706196
 21
121.4544204663
 31
0.0
100
AcDbText
 73
     3
  0
ENDBLK
  5
44B
330
443
100
AcDbEntity
  8
0
100
AcDbBlockEnd
  0
ENDSEC
  0
SECTION
  2
ENTITIES
  0
INSERT
  5
5F
330
1F
100
AcDbEntity
  8
Default
100
AcDbBlockReference
  2
SEANNOT_GROUP
 10
0.0
 20
0.0
 30
0.0
  0
INSERT
  5
67
330
1F
100
AcDbEntity
  8
Défaut
100
AcDbBlockReference
  2
SEANNOT_GROUP1
 10
0.0
 20
0.0
 30
0.0
  0
INSERT
  5
70
330
1F
100
AcDbEntity
  8
0
100
AcDbBlockReference
  2
SE
 10
0.0
 20
0.0
 30
0.0
  0
DIMENSION
  5
1B9
330
1F
100
AcDbEntity
  8
Défaut
  6
Continuous
 62
     7
100
AcDbDimension
  2
DMBLK1
 10
269.026493093
 20
196.9811400191
 30
0.0
 11
269.026493093
 21
219.7095254822
 31
0.0
 70
   160
  1
\A1;<>
 71
     5
 42
-1.0
  3
presto
100
AcDbAlignedDimension
 13
221.3197773304
 23
242.4379127486
 33
0.0
 14
167.9022649783
 24
196.9811400191
 34
0.0
 50
90.0
100
AcDbRotatedDimension
  0
DIMENSION
  5
1C3
330
1F
100
AcDbEntity
  8
Défaut
  6
Continuous
 62
     7
100
AcDbDimension
  2
DMBLK2
 10
136.704799735
 20
156.3611630066
 30
0.0
 11
184.9052159899
 21
156.3611630066
 31
0.0
 70
   160
  1
\A1;<>
 71
     5
 42
-1.0
  3
presto
100
AcDbAlignedDimension
 13
233.1056332999
 23
226.9379127486
 33
0.0
 14
136.704799735
 24
242.4379127486
 34
0.0
100
AcDbRotatedDimension
  0
DIMENSION
  5
1CD
330
1F
100
AcDbEntity
  8
Défaut
  6
Continuous
 62
     7
100
AcDbDimension
  2
DMBLK3
 10
233.1056332999
 20
169.2278018013
 30
0.0
 11
200.5039493102
 21
169.2278018013
 31
0.0
 70
   160
  1
\A1;<>
 71
     5
 42
-1.0
  3
presto
100
AcDbAlignedDimension
 13
167.9022649783
 23
196.9811400191
 33
0.0
 14
233.1056332999
 24
226.9379127486
 34
0.0
100
AcDbRotatedDimension
  0
DIMENSION
  5
1D7
330
1F
100
AcDbEntity
  8
Défaut
  6
Continuous
 62
     7
100
AcDbDimension
  2
DMBLK4
 10
248.1056332999
 20
169.2278016074
 30
0.0
 11
259.9309849405
 21
169.2278016074
 31
0.0
 70
   160
  1
\A1;<>
 71
     5
 42
-1.0
  3
presto
100
AcDbAlignedDimension
 13
233.1056332999
 23
226.9379127486
 33
0.0
 14
248.1056332999
 24
233.6879127486
 34
0.0
100
AcDbRotatedDimension
1001
ACAD
1000
DSTYLE
1002
{
1070
   271
1070
     2
1070
   272
1070
     2
1070
     0
1002
}
  0
DIMENSION
  5
1E1
330
1F
100
AcDbEntity
  8
Défaut
  6
Continuous
 62
     7
100
AcDbDimension
  2
DMBLK5
 10
163.420704192
 20
186.915389689
 30
0.0
 11
179.283182042
 21
180.3759529364
 31
0.0
 70
   162
  1
\A1;<>
 71
     5
 42
-1.0
  3
presto
100
AcDb2LineAngularDimension
 13
167.9022649781
 23
196.9811400192
 33
0.0
 14
171.7848331698
 24
195.2525092839
 34
0.0
 15
167.9022649781
 25
196.9811400192
 35
0.0
 16
163.7167929215
 26
177.2900421593
 36
0.0
1001
ACAD
1000
DSTYLE
1002
{
1070
   172
1070
     0
1070
   271
1070
     2
1070
   272
1070
     2
1070
     0
1002
}
  0
INSERT
  5
1ED
330
1F
100
AcDbEntity
  8
Défaut
100
AcDbBlockReference
  2
SE1
 10
0.0
 20
0.0
 30
0.0
  0
INSERT
  5
34D
330
1F
100
AcDbEntity
  8
Défaut
100
AcDbBlockReference
  2
SE2
 10
0.0
 20
0.0
 30
0.0
  0
DIMENSION
  5
438
330
1F
100
AcDbEntity
  8
Défaut
  6
Continuous
 62
     7
100
AcDbDimension
  2
DMBLK6
 10
279.5160488906
 20
264.5332853731
 30
0.0
 11
298.016049129
 21
264.5332853731
 31
0.0
 70
   161
  1
\A1;<>
 71
     5
 42
-1.0
  3
presto
100
AcDbAlignedDimension
 13
279.5160488906
 23
242.4423902717
 33
0.0
 14
316.5160494325
 24
242.4379127486
 34
0.0
1001
ACAD
1000
DSTYLE
1002
{
1070
   271
1070
     2
1070
   272
1070
     2
1070
     0
1002
}
  0
DIMENSION
  5
442
330
1F
100
AcDbEntity
  8
Défaut
  6
Continuous
 62
     7
100
AcDbDimension
  2
DMBLK7
 10
261.5215706196
 20
109.7321979908
 30
0.0
 11
261.5215706196
 21
125.2321982441
 31
0.0
 70
   160
  1
\A1;<>
 71
     5
 42
-1.0
  3
presto
100
AcDbAlignedDimension
 13
222.2407760587
 23
140.7321979908
 33
0.0
 14
211.4072933796
 24
109.7321979908
 34
0.0
 50
90.0
100
AcDbRotatedDimension
1001
ACAD
1000
DSTYLE
1002
{
1070
   271
1070
     2
1070
   272
1070
     2
1070
     0
1002
}
  0
ENDSEC
  0
SECTION
  2
OBJECTS
  0
DICTIONARY
  5
C
330
0
100
AcDbDictionary
281
     1
  3
ACAD_GROUP
350
D
  3
ACAD_LAYOUT
350
1A
  3
ACAD_MLEADERSTYLE
350
44F
  3
ACAD_MLINESTYLE
350
17
  3
ACAD_PLOTSETTINGS
350
19
  3
ACAD_PLOTSTYLENAME
350
E
  3
ACAD_SCALELIST
350
3B
  3
ACAD_TABLESTYLE
350
44E
  3
ACAD_VISUALSTYLE
350
2A
  3
AcDbVariableDictionary
350
44C
  0
DICTIONARY
  5
D
102
{ACAD_REACTORS
330
C
102
}
330
C
100
AcDbDictionary
281
     1
  0
DICTIONARY
  5
1A
102
{ACAD_REACTORS
330
C
102
}
330
C
100
AcDbDictionary
281
     1
  3
Layout1
350
1E
  3
Model
350
22
  0
DICTIONARY
  5
44F
102
{ACAD_REACTORS
330
C
102
}
330
C
100
AcDbDictionary
281
     1
  0
DICTIONARY
  5
17
102
{ACAD_REACTORS
330
C
102
}
330
C
100
AcDbDictionary
281
     1
  3
Standard
350
18
  0
DICTIONARY
  5
19
102
{ACAD_REACTORS
330
C
102
}
330
C
100
AcDbDictionary
281
     1
  0
ACDBDICTIONARYWDFLT
  5
E
102
{ACAD_REACTORS
330
C
102
}
330
C
100
AcDbDictionary
281
     1
  3
Normal
350
F
100
AcDbDictionaryWithDefault
340
F
  0
DICTIONARY
  5
3B
102
{ACAD_REACTORS
330
C
102
}
330
C
100
AcDbDictionary
281
     1
  3
A0
350
3C
  3
A1
350
3D
  3
A2
350
3E
  3
A3
350
3F
  3
A4
350
40
  3
A5
350
41
  3
A6
350
42
  3
A7
350
43
  3
A8
350
44
  3
A9
350
45
  3
B0
350
46
  3
B1
350
47
  3
B2
350
48
  3
B3
350
49
  3
B4
350
4A
  3
B5
350
4B
  3
B6
350
4C
  3
B7
350
4D
  3
B8
350
4E
  3
B9
350
4F
  3
C0
350
50
  3
C1
350
51
  3
C2
350
52
  3
C3
350
53
  3
C4
350
54
  3
C5
350
55
  3
C6
350
56
  3
C7
350
57
  3
C8
350
58
  3
C9
350
59
  3
D0
350
5A
  3
D1
350
5B
  3
D2
350
5C
  0
DICTIONARY
  5
44E
102
{ACAD_REACTORS
330
C
102
}
330
C
100
AcDbDictionary
281
     1
  0
DICTIONARY
  5
2A
102
{ACAD_REACTORS
330
C
102
}
330
C
100
AcDbDictionary
281
     1
  3
2dWireframe
350
2F
  3
3D Hidden
350
31
  3
3dWireframe
350
30
  3
Basic
350
32
  3
Brighten
350
36
  3
ColorChange
350
3A
  3
Conceptual
350
34
  3
Dim
350
35
  3
Facepattern
350
39
  3
Flat
350
2B
  3
FlatWithEdges
350
2C
  3
Gouraud
350
2D
  3
GouraudWithEdges
350
2E
  3
Linepattern
350
38
  3
Realistic
350
33
  3
Thicken
350
37
  0
DICTIONARY
  5
44C
102
{ACAD_REACTORS
330
C
102
}
330
C
100
AcDbDictionary
281
     1
  3
CANNOSCALE
350
44D
  3
PSOLHEIGHT
350
451
  3
PSOLWIDTH
350
450
  0
LAYOUT
  5
1E
102
{ACAD_REACTORS
330
1A
102
}
330
1A
100
AcDbPlotSettings
  1

  2
none_device
  4

  6

 40
0.0
 41
0.0
 42
0.0
 43
0.0
 44
0.0
 45
0.0
 46
0.0
 47
0.0
 48
0.0
 49
0.0
140
0.0
141
0.0
142
1.0
143
1.0
 70
   688
 72
     0
 73
     0
 74
     5
  7

 75
    16
147
1.0
148
0.0
149
0.0
100
AcDbLayout
  1
Layout1
 70
     1
 71
     1
 10
0.0
 20
0.0
 11
420.0
 21
297.0
 12
0.0
 22
0.0
 32
0.0
 14
0.0
 24
0.0
 34
0.0
 15
420.0
 25
297.0
 35
0.0
146
0.0
 13
0.0
 23
0.0
 33
0.0
 16
1.0
 26
0.0
 36
0.0
 17
0.0
 27
1.0
 37
0.0
 76
     0
330
1B
  0
LAYOUT
  5
22
102
{ACAD_REACTORS
330
1A
102
}
330
1A
100
AcDbPlotSettings
  1

  2
none_device
  4

  6

 40
0.0
 41
0.0
 42
0.0
 43
0.0
 44
0.0
 45
0.0
 46
0.0
 47
0.0
 48
0.0
 49
0.0
140
0.0
141
0.0
142
1.0
143
1.0
 70
  1712
 72
     0
 73
     0
 74
     0
  7

 75
     0
147
1.0
148
0.0
149
0.0
100
AcDbLayout
  1
Model
 70
     1
 71
     0
 10
0.0
 20
0.0
 11
420.0
 21
297.0
 12
0.0
 22
0.0
 32
0.0
 14
0.0
 24
0.0
 34
0.0
 15
420.0
 25
297.0
 35
0.0
146
0.0
 13
0.0
 23
0.0
 33
0.0
 16
1.0
 26
0.0
 36
0.0
 17
0.0
 27
1.0
 37
0.0
 76
     0
330
1F
331
29
  0
MLINESTYLE
  5
18
102
{ACAD_REACTORS
330
17
102
}
330
17
100
AcDbMlineStyle
  2
Standard
 70
     0
  3

 62
   256
 51
90.0
 52
90.0
 71
     2
 49
0.5
 62
   256
  6
BYLAYER
 49
-0.5
 62
   256
  6
BYLAYER
  0
ACDBPLACEHOLDER
  5
F
102
{ACAD_REACTORS
330
E
102
}
330
E
  0
SCALE
  5
3C
102
{ACAD_REACTORS
330
3B
102
}
330
3B
100
AcDbScale
 70
     0
300
1:1
140
1.0
141
1.0
290
     1
  0
SCALE
  5
3D
102
{ACAD_REACTORS
330
3B
102
}
330
3B
100
AcDbScale
 70
     0
300
1:2
140
1.0
141
2.0
290
     0
  0
SCALE
  5
3E
102
{ACAD_REACTORS
330
3B
102
}
330
3B
100
AcDbScale
 70
     0
300
1:4
140
1.0
141
4.0
290
     0
  0
SCALE
  5
3F
102
{ACAD_REACTORS
330
3B
102
}
330
3B
100
AcDbScale
 70
     0
300
1:5
140
1.0
141
5.0
290
     0
  0
SCALE
  5
40
102
{ACAD_REACTORS
330
3B
102
}
330
3B
100
AcDbScale
 70
     0
300
1:8
140
1.0
141
8.0
290
     0
  0
SCALE
  5
41
102
{ACAD_REACTORS
330
3B
102
}
330
3B
100
AcDbScale
 70
     0
300
1:10
140
1.0
141
10.0
290
     0
  0
SCALE
  5
42
102
{ACAD_REACTORS
330
3B
102
}
330
3B
100
AcDbScale
 70
     0
300
1:16
140
1.0
141
16.0
290
     0
  0
SCALE
  5
43
102
{ACAD_REACTORS
330
3B
102
}
330
3B
100
AcDbScale
 70
     0
300
1:20
140
1.0
141
20.0
290
     0
  0
SCALE
  5
44
102
{ACAD_REACTORS
330
3B
102
}
330
3B
100
AcDbScale
 70
     0
300
1:30
140
1.0
141
30.0
290
     0
  0
SCALE
  5
45
102
{ACAD_REACTORS
330
3B
102
}
330
3B
100
AcDbScale
 70
     0
300
1:40
140
1.0
141
40.0
290
     0
  0
SCALE
  5
46
102
{ACAD_REACTORS
330
3B
102
}
330
3B
100
AcDbScale
 70
     0
300
1:50
140
1.0
141
50.0
290
     0
  0
SCALE
  5
47
102
{ACAD_REACTORS
330
3B
102
}
330
3B
100
AcDbScale
 70
     0
300
1:100
140
1.0
141
100.0
290
     0
  0
SCALE
  5
48
102
{ACAD_REACTORS
330
3B
102
}
330
3B
100
AcDbScale
 70
     0
300
2:1
140
2.0
141
1.0
290
     0
  0
SCALE
  5
49
102
{ACAD_REACTORS
330
3B
102
}
330
3B
100
AcDbScale
 70
     0
300
4:1
140
4.0
141
1.0
290
     0
  0
SCALE
  5
4A
102
{ACAD_REACTORS
330
3B
102
}
330
3B
100
AcDbScale
 70
     0
300
8:1
140
8.0
141
1.0
290
     0
  0
SCALE
  5
4B
102
{ACAD_REACTORS
330
3B
102
}
330
3B
100
AcDbScale
 70
     0
300
10:1
140
10.0
141
1.0
290
     0
  0
SCALE
  5
4C
102
{ACAD_REACTORS
330
3B
102
}
330
3B
100
AcDbScale
 70
     0
300
100:1
140
100.0
141
1.0
290
     0
  0
SCALE
  5
4D
102
{ACAD_REACTORS
330
3B
102
}
330
3B
100
AcDbScale
 70
     0
300
1/128" = 1'-0"
140
0.0078125
141
12.0
290
     0
  0
SCALE
  5
4E
102
{ACAD_REACTORS
330
3B
102
}
330
3B
100
AcDbScale
 70
     0
300
1/64" = 1'-0"
140
0.015625
141
12.0
290
     0
  0
SCALE
  5
4F
102
{ACAD_REACTORS
330
3B
102
}
330
3B
100
AcDbScale
 70
     0
300
1/32" = 1'-0"
140
0.03125
141
12.0
290
     0
  0
SCALE
  5
50
102
{ACAD_REACTORS
330
3B
102
}
330
3B
100
AcDbScale
 70
     0
300
1/16" = 1'-0"
140
0.0625
141
12.0
290
     0
  0
SCALE
  5
51
102
{ACAD_REACTORS
330
3B
102
}
330
3B
100
AcDbScale
 70
     0
300
3/32" = 1'-0"
140
0.09375
141
12.0
290
     0
  0
SCALE
  5
52
102
{ACAD_REACTORS
330
3B
102
}
330
3B
100
AcDbScale
 70
     0
300
1/8" = 1'-0"
140
0.125
141
12.0
290
     0
  0
SCALE
  5
53
102
{ACAD_REACTORS
330
3B
102
}
330
3B
100
AcDbScale
 70
     0
300
3/16" = 1'-0"
140
0.1875
141
12.0
290
     0
  0
SCALE
  5
54
102
{ACAD_REACTORS
330
3B
102
}
330
3B
100
AcDbScale
 70
     0
300
1/4" = 1'-0"
140
0.25
141
12.0
290
     0
  0
SCALE
  5
55
102
{ACAD_REACTORS
330
3B
102
}
330
3B
100
AcDbScale
 70
     0
300
3/8" = 1'-0"
140
0.375
141
12.0
290
     0
  0
SCALE
  5
56
102
{ACAD_REACTORS
330
3B
102
}
330
3B
100
AcDbScale
 70
     0
300
1/2" = 1'-0"
140
0.5
141
12.0
290
     0
  0
SCALE
  5
57
102
{ACAD_REACTORS
330
3B
102
}
330
3B
100
AcDbScale
 70
     0
300
3/4" = 1'-0"
140
0.75
141
12.0
290
     0
  0
SCALE
  5
58
102
{ACAD_REACTORS
330
3B
102
}
330
3B
100
AcDbScale
 70
     0
300
1" = 1'-0"
140
1.0
141
12.0
290
     0
  0
SCALE
  5
59
102
{ACAD_REACTORS
330
3B
102
}
330
3B
100
AcDbScale
 70
     0
300
1-1/2" = 1'-0"
140
1.5
141
12.0
290
     0
  0
SCALE
  5
5A
102
{ACAD_REACTORS
330
3B
102
}
330
3B
100
AcDbScale
 70
     0
300
3" = 1'-0"
140
3.0
141
12.0
290
     0
  0
SCALE
  5
5B
102
{ACAD_REACTORS
330
3B
102
}
330
3B
100
AcDbScale
 70
     0
300
6" = 1'-0"
140
6.0
141
12.0
290
     0
  0
SCALE
  5
5C
102
{ACAD_REACTORS
330
3B
102
}
330
3B
100
AcDbScale
 70
     0
300
1'-0" = 1'-0"
140
12.0
141
12.0
290
     0
  0
VISUALSTYLE
  5
2F
102
{ACAD_REACTORS
330
2A
102
}
330
2A
100
AcDbVisualStyle
  2
2dWireframe
 70
     4
 71
     0
 72
     2
 73
     0
 90
        0
 40
-0.6
 41
-30.0
 62
     5
 63
     7
 74
     1
 91
        4
 64
     7
 65
   257
 75
     1
175
     1
 42
1.0
 92
        0
 66
   257
 43
1.0
 76
     1
 77
     6
 78
     2
 67
     7
 79
     5
170
     0
171
     0
290
     0
174
     0
 93
        1
 44
0.0
173
     0
291
     0
 45
0.0
1001
ACAD
1000
AcDbSavedByObjectVersion
1070
     0
  0
VISUALSTYLE
  5
31
102
{ACAD_REACTORS
330
2A
102
}
330
2A
100
AcDbVisualStyle
  2
3D Hidden
 70
     6
 71
     1
 72
     2
 73
     2
 90
        0
 40
-0.6
 41
-30.0
 62
     5
 63
     7
 74
     2
 91
        2
 64
     7
 65
   257
 75
     2
175
     1
 42
40.0
 92
        0
 66
   257
 43
1.0
 76
     1
 77
     6
 78
     2
 67
     7
 79
     3
170
     0
171
     0
290
     0
174
     0
 93
        1
 44
0.0
173
     0
291
     0
 45
0.0
1001
ACAD
1000
AcDbSavedByObjectVersion
1070
     0
  0
VISUALSTYLE
  5
30
102
{ACAD_REACTORS
330
2A
102
}
330
2A
100
AcDbVisualStyle
  2
3dWireframe
 70
     5
 71
     0
 72
     2
 73
     0
 90
        0
 40
-0.6
 41
-30.0
 62
     5
 63
     7
 74
     1
 91
        4
 64
     7
 65
   257
 75
     1
175
     1
 42
1.0
 92
        0
 66
   257
 43
1.0
 76
     1
 77
     6
 78
     2
 67
     7
 79
     5
170
     0
171
     0
290
     0
174
     0
 93
        1
 44
0.0
173
     0
291
     0
 45
0.0
1001
ACAD
1000
AcDbSavedByObjectVersion
1070
     0
  0
VISUALSTYLE
  5
32
102
{ACAD_REACTORS
330
2A
102
}
330
2A
100
AcDbVisualStyle
  2
Basic
 70
     7
 71
     1
 72
     0
 73
     1
 90
        0
 40
-0.6
 41
-30.0
 62
     5
 63
     7
 74
     0
 91
        4
 64
     7
 65
   257
 75
     1
175
     1
 42
1.0
 92
        8
 66
     7
 43
1.0
 76
     1
 77
     6
 78
     2
 67
     7
 79
     5
170
     0
171
     0
290
     0
174
     0
 93
        1
 44
0.0
173
     0
291
     1
 45
0.0
1001
ACAD
1000
AcDbSavedByObjectVersion
1070
     0
  0
VISUALSTYLE
  5
36
102
{ACAD_REACTORS
330
2A
102
}
330
2A
100
AcDbVisualStyle
  2
Brighten
 70
    12
 71
     2
 72
     2
 73
     0
 90
        0
 40
-0.6
 41
-30.0
 62
     5
 63
     7
 74
     1
 91
        4
 64
     7
 65
   257
 75
     1
175
     1
 42
1.0
 92
        8
 66
     7
 43
1.0
 76
     1
 77
     6
 78
     2
 67
     7
 79
     5
170
     0
171
     0
290
     0
174
     0
 93
        1
 44
50.0
173
     0
291
     1
 45
0.0
1001
ACAD
1000
AcDbSavedByObjectVersion
1070
     0
  0
VISUALSTYLE
  5
3A
102
{ACAD_REACTORS
330
2A
102
}
330
2A
100
AcDbVisualStyle
  2
ColorChange
 70
    16
 71
     2
 72
     2
 73
     3
 90
        0
 40
-0.6
 41
-30.0
 62
     5
 63
     8
 74
     1
 91
        4
 64
     7
 65
   257
 75
     1
175
     1
 42
1.0
 92
        8
 66
     8
 43
1.0
 76
     1
 77
     6
 78
     2
 67
     7
 79
     5
170
     0
171
     0
290
     0
174
     0
 93
        1
 44
0.0
173
     0
291
     1
 45
0.0
1001
ACAD
1000
AcDbSavedByObjectVersion
1070
     0
  0
VISUALSTYLE
  5
34
102
{ACAD_REACTORS
330
2A
102
}
330
2A
100
AcDbVisualStyle
  2
Conceptual
 70
     9
 71
     3
 72
     2
 73
     0
 90
        0
 40
-0.6
 41
-30.0
 62
     5
 63
     7
 74
     2
 91
        2
 64
     7
 65
   257
 75
     1
175
     1
 42
40.0
 92
        8
 66
     7
 43
1.0
 76
     1
 77
     6
 78
     2
 67
     7
 79
     3
170
     0
171
     0
290
     0
174
     0
 93
        1
 44
0.0
173
     0
291
     0
 45
0.0
1001
ACAD
1000
AcDbSavedByObjectVersion
1070
     0
  0
VISUALSTYLE
  5
35
102
{ACAD_REACTORS
330
2A
102
}
330
2A
100
AcDbVisualStyle
  2
Dim
 70
    11
 71
     2
 72
     2
 73
     0
 90
        0
 40
-0.6
 41
-30.0
 62
     5
 63
     7
 74
     1
 91
        4
 64
     7
 65
   257
 75
     1
175
     1
 42
1.0
 92
        8
 66
     7
 43
1.0
 76
     1
 77
     6
 78
     2
 67
     7
 79
     5
170
     0
171
     0
290
     0
174
     0
 93
        1
 44
-50.0
173
     0
291
     1
 45
0.0
1001
ACAD
1000
AcDbSavedByObjectVersion
1070
     0
  0
VISUALSTYLE
  5
39
102
{ACAD_REACTORS
330
2A
102
}
330
2A
100
AcDbVisualStyle
  2
Facepattern
 70
    15
 71
     2
 72
     2
 73
     0
 90
        0
 40
-0.6
 41
-30.0
 62
     5
 63
     7
 74
     1
 91
        4
 64
     7
 65
   257
 75
     1
175
     1
 42
1.0
 92
        8
 66
     7
 43
1.0
 76
     1
 77
     6
 78
     2
 67
     7
 79
     5
170
     0
171
     0
290
     0
174
     0
 93
        1
 44
0.0
173
     0
291
     1
 45
0.0
1001
ACAD
1000
AcDbSavedByObjectVersion
1070
     0
  0
VISUALSTYLE
  5
2B
102
{ACAD_REACTORS
330
2A
102
}
330
2A
100
AcDbVisualStyle
  2
Flat
 70
     0
 71
     2
 72
     1
 73
     1
 90
        2
 40
-0.6
 41
30.0
 62
     5
 63
     7
 74
     0
 91
        4
 64
     7
 65
   257
 75
     1
175
     1
 42
1.0
 92
        8
 66
     7
 43
1.0
 76
     1
 77
     6
 78
     2
 67
     7
 79
     5
170
     0
171
     0
290
     0
174
     0
 93
       13
 44
0.0
173
     0
291
     1
 45
0.0
1001
ACAD
1000
AcDbSavedByObjectVersion
1070
     0
  0
VISUALSTYLE
  5
2C
102
{ACAD_REACTORS
330
2A
102
}
330
2A
100
AcDbVisualStyle
  2
FlatWithEdges
 70
     1
 71
     2
 72
     1
 73
     1
 90
        2
 40
-0.6
 41
30.0
 62
     5
 63
     7
 74
     1
 91
        4
 64
     7
 65
   257
 75
     1
175
     1
 42
1.0
 92
        0
 66
   257
 43
1.0
 76
     1
 77
     6
 78
     2
 67
     7
 79
     5
170
     0
171
     0
290
     0
174
     0
 93
       13
 44
0.0
173
     0
291
     1
 45
0.0
1001
ACAD
1000
AcDbSavedByObjectVersion
1070
     0
  0
VISUALSTYLE
  5
2D
102
{ACAD_REACTORS
330
2A
102
}
330
2A
100
AcDbVisualStyle
  2
Gouraud
 70
     2
 71
     2
 72
     2
 73
     1
 90
        2
 40
-0.6
 41
30.0
 62
     5
 63
     7
 74
     0
 91
        4
 64
     7
 65
   257
 75
     1
175
     1
 42
1.0
 92
        0
 66
     7
 43
1.0
 76
     1
 77
     6
 78
     2
 67
     7
 79
     5
170
     0
171
     0
290
     0
174
     0
 93
       13
 44
0.0
173
     0
291
     1
 45
0.0
1001
ACAD
1000
AcDbSavedByObjectVersion
1070
     0
  0
VISUALSTYLE
  5
2E
102
{ACAD_REACTORS
330
2A
102
}
330
2A
100
AcDbVisualStyle
  2
GouraudWithEdges
 70
     3
 71
     2
 72
     2
 73
     1
 90
        2
 40
-0.6
 41
30.0
 62
     5
 63
     7
 74
     1
 91
        4
 64
     7
 65
   257
 75
     1
175
     1
 42
1.0
 92
        0
 66
   257
 43
1.0
 76
     1
 77
     6
 78
     2
 67
     7
 79
     5
170
     0
171
     0
290
     0
174
     0
 93
       13
 44
0.0
173
     0
291
     1
 45
0.0
1001
ACAD
1000
AcDbSavedByObjectVersion
1070
     0
  0
VISUALSTYLE
  5
38
102
{ACAD_REACTORS
330
2A
102
}
330
2A
100
AcDbVisualStyle
  2
Linepattern
 70
    14
 71
     2
 72
     2
 73
     0
 90
        0
 40
-0.6
 41
-30.0
 62
     5
 63
     7
 74
     1
 91
        4
 64
     7
 65
   257
 75
     7
175
     7
 42
1.0
 92
        8
 66
     7
 43
1.0
 76
     1
 77
     6
 78
     2
 67
     7
 79
     5
170
     0
171
     0
290
     0
174
     0
 93
        1
 44
0.0
173
     0
291
     1
 45
0.0
1001
ACAD
1000
AcDbSavedByObjectVersion
1070
     0
  0
VISUALSTYLE
  5
33
102
{ACAD_REACTORS
330
2A
102
}
330
2A
100
AcDbVisualStyle
  2
Realistic
 70
     8
 71
     2
 72
     2
 73
     0
 90
        0
 40
-0.6
 41
-30.0
 62
     5
 63
     7
 74
     1
 91
        0
 64
     7
 65
   257
 75
     1
175
     1
 42
1.0
 92
        8
 66
     8
 43
1.0
 76
     1
 77
     6
 78
     2
 67
     7
 79
     5
170
     0
171
     0
290
     0
174
     0
 93
       13
 44
0.0
173
     0
291
     0
 45
0.0
1001
ACAD
1000
AcDbSavedByObjectVersion
1070
     0
  0
VISUALSTYLE
  5
37
102
{ACAD_REACTORS
330
2A
102
}
330
2A
100
AcDbVisualStyle
  2
Thicken
 70
    13
 71
     2
 72
     2
 73
     0
 90
        0
 40
-0.6
 41
-30.0
 62
     5
 63
     7
 74
     1
 91
        4
 64
     7
 65
   257
 75
     1
175
     1
 42
1.0
 92
       12
 66
     7
 43
1.0
 76
     1
 77
     6
 78
     2
 67
     7
 79
     5
170
     0
171
     0
290
     0
174
     0
 93
        1
 44
0.0
173
     0
291
     1
 45
0.0
1001
ACAD
1000
AcDbSavedByObjectVersion
1070
     0
  0
DICTIONARYVAR
  5
44D
102
{ACAD_REACTORS
330
44C
102
}
330
44C
100
DictionaryVariables
280
     0
  1
1:1
  0
DICTIONARYVAR
  5
451
102
{ACAD_REACTORS
330
44C
102
}
330
44C
100
DictionaryVariables
280
     0
  1
80.000000
  0
DICTIONARYVAR
  5
450
102
{ACAD_REACTORS
330
44C
102
}
330
44C
100
DictionaryVariables
280
     0
  1
5.000000
  0
ENDSEC
  0
EOF
